  0
SECTION
  2
HEADER
  9
$ACADVER
  1
AC1009
  9
$INSBASE
 10
0.0
 20
0.0
 30
0.0
  9
$EXTMIN
 10
0.0
 20
0.0
 30
0.0
  9
$EXTMAX
 10
3150.0
 20
4425.0
 30
0.0
  9
$LIMMIN
 10
0.0
 20
0.0
  9
$LIMMAX
 10
297.0
 20
210.0
  9
$ORTHOMODE
 70
     0
  9
$REGENMODE
 70
     1
  9
$FILLMODE
 70
     0
  9
$QTEXTMODE
 70
     0
  9
$MIRRTEXT
 70
     1
  9
$DRAGMODE
 70
     2
  9
$LTSCALE
 40
100.0
  9
$OSMODE
 70
    37
  9
$ATTMODE
 70
     1
  9
$TEXTSIZE
 40
180.0
  9
$TRACEWID
 40
0.05
  9
$TEXTSTYLE
  7
STANDARD
  9
$CLAYER
  8
3
  9
$CELTYPE
  6
BYLAYER
  9
$CECOLOR
 62
   256
  9
$DIMSCALE
 40
15.0
  9
$DIMASZ
 40
2.0
  9
$DIMEXO
 40
0.5
  9
$DIMDLI
 40
10.0
  9
$DIMRND
 40
0.0
  9
$DIMDLE
 40
0.0
  9
$DIMEXE
 40
1.0
  9
$DIMTP
 40
1.0
  9
$DIMTM
 40
1.0
  9
$DIMTXT
 40
3.0
  9
$DIMCEN
 40
0.0
  9
$DIMTSZ
 40
0.0
  9
$DIMTOL
 70
     0
  9
$DIMLIM
 70
     0
  9
$DIMTIH
 70
     0
  9
$DIMTOH
 70
     0
  9
$DIMSE1
 70
     0
  9
$DIMSE2
 70
     0
  9
$DIMTAD
 70
     1
  9
$DIMZIN
 70
     8
  9
$DIMBLK
  1

  9
$DIMASO
 70
     1
  9
$DIMSHO
 70
     1
  9
$DIMPOST
  1

  9
$DIMAPOST
  1

  9
$DIMALT
 70
     0
  9
$DIMALTD
 70
     2
  9
$DIMALTF
 40
0.039
  9
$DIMLFAC
 40
1.0
  9
$DIMTOFL
 70
     1
  9
$DIMTVP
 40
0.0
  9
$DIMTIX
 70
     0
  9
$DIMSOXD
 70
     0
  9
$DIMSAH
 70
     1
  9
$DIMBLK1
  1
OPEN
  9
$DIMBLK2
  1
OPEN
  9
$DIMSTYLE
  2
IGA
  9
$DIMCLRD
 70
     0
  9
$DIMCLRE
 70
     0
  9
$DIMCLRT
 70
     0
  9
$DIMTFAC
 40
10.0
  9
$DIMGAP
 40
1.0
  9
$LUNITS
 70
     2
  9
$LUPREC
 70
     3
  9
$SKETCHINC
 40
0.1
  9
$FILLETRAD
 40
50.0
  9
$AUNITS
 70
     0
  9
$AUPREC
 70
     0
  9
$MENU
  1
acad
  9
$ELEVATION
 40
0.0
  9
$PELEVATION
 40
0.0
  9
$THICKNESS
 40
0.0
  9
$LIMCHECK
 70
     0
  9
$BLIPMODE
 70
     0
  9
$CHAMFERA
 40
0.5
  9
$CHAMFERB
 40
0.5
  9
$SKPOLY
 70
     0
  9
$TDCREATE
 40
2452654.479350694
  9
$TDUPDATE
 40
2454953.6251511802
  9
$TDINDWG
 40
0.0236377778
  9
$TDUSRTIMER
 40
0.0236377778
  9
$USRTIMER
 70
     1
  9
$ANGBASE
 50
0.0
  9
$ANGDIR
 70
     0
  9
$PDMODE
 70
     0
  9
$PDSIZE
 40
0.0
  9
$PLINEWID
 40
0.0
  9
$COORDS
 70
     1
  9
$SPLFRAME
 70
     0
  9
$SPLINETYPE
 70
     6
  9
$SPLINESEGS
 70
     8
  9
$ATTDIA
 70
     0
  9
$ATTREQ
 70
     1
  9
$HANDLING
 70
 10241
  9
$HANDSEED
  5
8EC2
  9
$SURFTAB1
 70
     6
  9
$SURFTAB2
 70
     6
  9
$SURFTYPE
 70
     6
  9
$SURFU
 70
     6
  9
$SURFV
 70
     6
  9
$UCSNAME
  2

  9
$UCSORG
 10
0.0
 20
0.0
 30
0.0
  9
$UCSXDIR
 10
1.0
 20
0.0
 30
0.0
  9
$UCSYDIR
 10
0.0
 20
1.0
 30
0.0
  9
$PUCSNAME
  2

  9
$PUCSORG
 10
0.0
 20
0.0
 30
0.0
  9
$PUCSXDIR
 10
1.0
 20
0.0
 30
0.0
  9
$PUCSYDIR
 10
0.0
 20
1.0
 30
0.0
  9
$USERI1
 70
     0
  9
$USERI2
 70
     0
  9
$USERI3
 70
     0
  9
$USERI4
 70
     0
  9
$USERI5
 70
     0
  9
$USERR1
 40
0.0
  9
$USERR2
 40
0.0
  9
$USERR3
 40
0.0
  9
$USERR4
 40
0.0
  9
$USERR5
 40
0.0
  9
$WORLDVIEW
 70
     1
  9
$SHADEDGE
 70
     3
  9
$SHADEDIF
 70
    70
  9
$TILEMODE
 70
     1
  9
$MAXACTVP
 70
    16
  9
$PLIMCHECK
 70
     0
  9
$PEXTMIN
 10
1.0000000000000000E+020
 20
1.0000000000000000E+020
 30
1.0000000000000000E+020
  9
$PEXTMAX
 10
-1.0000000000000000E+020
 20
-1.0000000000000000E+020
 30
-1.0000000000000000E+020
  9
$PLIMMIN
 10
0.0
 20
0.0
  9
$PLIMMAX
 10
12.0
 20
9.0
  9
$UNITMODE
 70
     0
  9
$VISRETAIN
 70
     0
  9
$PLINEGEN
 70
     0
  9
$PSLTSCALE
 70
     1
  0
ENDSEC
  0
SECTION
  2
TABLES
  0
TABLE
  2
VPORT
 70
     2
  0
VPORT
  2
*ACTIVE
 70
     0
 10
0.0
 20
0.0
 11
1.0
 21
1.0
 12
2945.1315508319708
 22
516.81164722312315
 13
0.0
 23
0.0
 14
10.0
 24
10.0
 15
10.0
 25
10.0
 16
0.0
 26
0.0
 36
1.0
 17
0.0
 27
0.0
 37
0.0
 40
1288.3787532680831
 41
3.1666666666666661
 42
50.0
 43
0.0
 44
0.0
 50
0.0
 51
0.0
 71
     0
 72
   100
 73
     1
 74
     0
 75
     0
 76
     0
 77
     0
 78
     0
  0
ENDTAB
  0
TABLE
  2
LTYPE
 70
     2
  0
LTYPE
  2
CONTINUOUS
 70
     0
  3
Solid line
 72
    65
 73
     0
 40
0.0
  0
LTYPE
  2
CENTER
 70
     0
  3
____ _ ____ _ ____ _ ____ _ ____ _ ____ _ ____ 
 72
    65
 73
     4
 40
2.0
 49
1.25
 49
-0.25
 49
0.25
 49
-0.25
  0
ENDTAB
  0
TABLE
  2
LAYER
 70
     6
  0
LAYER
  2
0
 70
     0
 62
     7
  6
CONTINUOUS
  0
LAYER
  2
3
 70
     0
 62
     2
  6
CONTINUOUS
  0
LAYER
  2
2
 70
     0
 62
     3
  6
CENTER
  0
LAYER
  2
1
 70
     0
 62
     4
  6
CONTINUOUS
  0
LAYER
  2
4
 70
     0
 62
     7
  6
CONTINUOUS
  0
LAYER
  2
DEFPOINTS
 70
     0
 62
     7
  6
CONTINUOUS
  0
ENDTAB
  0
TABLE
  2
STYLE
 70
     1
  0
STYLE
  2
STANDARD
 70
     0
 40
0.0
 41
1.0
 50
0.0
 71
     0
 42
180.0
  3
simplex.shx
  4
extfont.shx
  0
ENDTAB
  0
TABLE
  2
VIEW
 70
     0
  0
ENDTAB
  0
TABLE
  2
UCS
 70
     0
  0
ENDTAB
  0
TABLE
  2
APPID
 70
     1
  0
APPID
  2
ACAD
 70
     0
  0
ENDTAB
  0
TABLE
  2
DIMSTYLE
 70
     2
  0
DIMSTYLE
  2
IGA
 70
     0
  3

  4

  5

  6
OPEN
  7
OPEN
 40
2.0
 41
2.0
 42
0.5
 43
10.0
 44
1.0
 45
0.0
 46
0.0
 47
1.0
 48
1.0
140
3.0
141
0.0
142
0.0
143
0.03937
144
1.0
145
0.0
146
10.0
147
1.0
 71
     0
 72
     0
 73
     0
 74
     0
 75
     0
 76
     0
 77
     1
 78
     8
170
     0
171
     2
172
     0
173
     1
174
     0
175
     0
176
     0
177
     0
178
     0
  0
DIMSTYLE
  2
STANDARD
 70
     0
  3

  4

  5

  6

  7

 40
1.0
 41
0.18
 42
0.0625
 43
0.38
 44
0.18
 45
0.0
 46
0.0
 47
0.0
 48
0.0
140
0.18
141
0.09
142
0.0
143
25.399999999999999
144
1.0
145
0.0
146
1.0
147
0.09
 71
     0
 72
     0
 73
     1
 74
     1
 75
     0
 76
     0
 77
     0
 78
     0
170
     0
171
     2
172
     0
173
     0
174
     0
175
     0
176
     0
177
     0
178
     0
  0
ENDTAB
  0
ENDSEC
  0
SECTION
  2
BLOCKS
  0
BLOCK
  8
0
  2
$MODEL_SPACE
 70
     0
 10
0.0
 20
0.0
 30
0.0
  3
$MODEL_SPACE
  1

  0
ENDBLK
  5
1B
  8
0
  0
BLOCK
 67
     1
  8
0
  2
$PAPER_SPACE
 70
     0
 10
0.0
 20
0.0
 30
0.0
  3
$PAPER_SPACE
  1

  0
ENDBLK
  5
18
 67
     1
  8
0
  0
BLOCK
  8
0
  2
_OPEN
 70
     0
 10
0.0
 20
0.0
 30
0.0
  3
_OPEN
  1

  0
LINE
  5
7E5C
  8
0
  6
BYBLOCK
 62
     0
 10
-1.0
 20
0.1666666666666666
 30
0.0
 11
0.0
 21
0.0
 31
0.0
  0
LINE
  5
7E5D
  8
0
  6
BYBLOCK
 62
     0
 10
0.0
 20
0.0
 30
0.0
 11
-1.0
 21
-0.1666666666666666
 31
0.0
  0
LINE
  5
7E5E
  8
0
  6
BYBLOCK
 62
     0
 10
0.0
 20
0.0
 30
0.0
 11
-1.0
 21
0.0
 31
0.0
  0
ENDBLK
  5
7E5F
  8
0
  0
BLOCK
  8
0
  2
*D1
 70
     1
 10
0.0
 20
0.0
 30
0.0
  3
*D1
  1

  0
LINE
  5
8E82
  8
3
 62
     0
 10
1759.01869471328
 20
2908.9210296380779
 30
0.0
 11
1759.01869471328
 21
2970.188063320129
 31
0.0
  0
LINE
  5
8E83
  8
3
 62
     0
 10
2489.0186947132802
 20
2908.9210296380779
 30
0.0
 11
2489.0186947132802
 21
2970.188063320129
 31
0.0
  0
LINE
  5
8E84
  8
3
 62
     0
 10
1789.01869471328
 20
2955.188063320129
 30
0.0
 11
2459.0186947132811
 21
2955.188063320129
 31
0.0
  0
INSERT
  5
8E85
  8
3
 62
     0
  2
_OPEN
 10
1759.01869471328
 20
2955.188063320129
 30
0.0
 41
30.0
 42
30.0
 43
30.0
 50
180.0
  0
INSERT
  5
8E86
  8
3
 62
     0
  2
_OPEN
 10
2489.0186947132802
 20
2955.188063320129
 30
0.0
 41
30.0
 42
30.0
 43
30.0
  0
TEXT
  8
3
  40
45
  5
8EBC
  62
0
  72
0
  71
0
 10
2060.20
 20
2913.04
 30
0.000000
  1
730
  0
POINT
  5
8E88
  8
DEFPOINTS
 62
     0
 10
1759.01869471328
 20
2901.4210296380788
 30
0.0
  0
POINT
  5
8E89
  8
DEFPOINTS
 62
     0
 10
2489.0186947132802
 20
2901.4210296380788
 30
0.0
  0
POINT
  5
8E8A
  8
DEFPOINTS
 62
     0
 10
2489.0186947132802
 20
2955.188063320129
 30
0.0
  0
ENDBLK
  5
8C70
  8
0
  0
BLOCK
  8
0
  2
*D2
 70
     1
 10
0.0
 20
0.0
 30
0.0
  3
*D2
  1

  0
LINE
  5
8E8B
  8
3
 62
     0
 10
369.19680669518129
 20
2494.4241286463571
 30
0.0
 11
209.7411155916528
 21
2494.4241286463571
 31
0.0
  0
LINE
  5
8E8C
  8
3
 62
     0
 10
369.19680669518129
 20
1864.4241286463559
 30
0.0
 11
209.74111559165269
 21
1864.4241286463559
 31
0.0
  0
LINE
  5
8E8D
  8
3
 62
     0
 10
224.74111559165291
 20
2464.4241286463571
 30
0.0
 11
224.74111559165269
 21
1894.4241286463559
 31
0.0
  0
INSERT
  5
8E8E
  8
3
 62
     0
  2
_OPEN
 10
224.74111559165291
 20
2494.4241286463571
 30
0.0
 41
30.0
 42
30.0
 43
30.0
 50
90.0
  0
INSERT
  5
8E8F
  8
3
 62
     0
  2
_OPEN
 10
224.74111559165269
 20
1864.4241286463559
 30
0.0
 41
30.0
 42
30.0
 43
30.0
 50
270.0
  0
TEXT
  8
3
  40
45
  5
8EBD
  62
0
  72
0
  71
0
 10
97.2411
 20
2123.76
 30
0.000000
  1
%%c630
  0
POINT
  5
8E91
  8
DEFPOINTS
 62
     0
 10
376.69680669518118
 20
2494.4241286463571
 30
0.0
  0
POINT
  5
8E92
  8
DEFPOINTS
 62
     0
 10
376.69680669518118
 20
1864.4241286463559
 30
0.0
  0
POINT
  5
8E93
  8
DEFPOINTS
 62
     0
 10
224.74111559165269
 20
1864.4241286463559
 30
0.0
  0
ENDBLK
  5
8C7D
  8
0
  0
BLOCK
  8
0
  2
*D3
 70
     1
 10
0.0
 20
0.0
 30
0.0
  3
*D3
  1

  0
LINE
  5
8E94
  8
3
 62
     0
 10
416.69680669518118
 20
2541.9241286463571
 30
0.0
 11
416.69680669518129
 21
3100.5657174933472
 31
0.0
  0
LINE
  5
8E95
  8
3
 62
     0
 10
1086.6968066951811
 20
2541.9241286463571
 30
0.0
 11
1086.6968066951811
 21
3100.5657174933472
 31
0.0
  0
LINE
  5
8E96
  8
3
 62
     0
 10
446.69680669518129
 20
3085.5657174933472
 30
0.0
 11
1056.6968066951811
 21
3085.5657174933472
 31
0.0
  0
INSERT
  5
8E97
  8
3
 62
     0
  2
_OPEN
 10
416.69680669518129
 20
3085.5657174933472
 30
0.0
 41
30.0
 42
30.0
 43
30.0
 50
180.0
  0
INSERT
  5
8E98
  8
3
 62
     0
  2
_OPEN
 10
1086.6968066951811
 20
3085.5657174933472
 30
0.0
 41
30.0
 42
30.0
 43
30.0
  0
TEXT
  8
3
  40
45
  5
8EBE
  62
0
  72
0
  71
0
 10
660.271
 20
3043.42
 30
0.000000
  1
670
  0
POINT
  5
8E9A
  8
DEFPOINTS
 62
     0
 10
416.69680669518118
 20
2534.4241286463571
 30
0.0
  0
POINT
  5
8E9B
  8
DEFPOINTS
 62
     0
 10
1086.6968066951811
 20
2534.4241286463571
 30
0.0
  0
POINT
  5
8E9C
  8
DEFPOINTS
 62
     0
 10
1086.6968066951811
 20
3085.5657174933472
 30
0.0
  0
ENDBLK
  5
8C93
  8
0
  0
BLOCK
  8
0
  2
*D4
 70
     1
 10
0.0
 20
0.0
 30
0.0
  3
*D4
  1

  0
LINE
  5
8E9D
  8
3
 62
     0
 10
439.69680669518129
 20
2908.9210296380779
 30
0.0
 11
439.69680669518129
 21
2967.6674117410471
 31
0.0
  0
LINE
  5
8E9E
  8
3
 62
     0
 10
1063.6968066951811
 20
2908.9210296380779
 30
0.0
 11
1063.6968066951811
 21
2967.6674117410471
 31
0.0
  0
LINE
  5
8E9F
  8
3
 62
     0
 10
469.69680669518129
 20
2952.6674117410471
 30
0.0
 11
1033.6968066951811
 21
2952.6674117410471
 31
0.0
  0
INSERT
  5
8EA0
  8
3
 62
     0
  2
_OPEN
 10
439.69680669518129
 20
2952.6674117410471
 30
0.0
 41
30.0
 42
30.0
 43
30.0
 50
180.0
  0
INSERT
  5
8EA1
  8
3
 62
     0
  2
_OPEN
 10
1063.6968066951811
 20
2952.6674117410471
 30
0.0
 41
30.0
 42
30.0
 43
30.0
  0
TEXT
  8
3
  40
45
  5
8EBF
  62
0
  72
0
  71
0
 10
660.195
 20
2910.52
 30
0.000000
  1
624
  0
POINT
  5
8EA3
  8
DEFPOINTS
 62
     0
 10
439.69680669518129
 20
2901.4210296380788
 30
0.0
  0
POINT
  5
8EA4
  8
DEFPOINTS
 62
     0
 10
1063.6968066951811
 20
2901.4210296380788
 30
0.0
  0
POINT
  5
8EA5
  8
DEFPOINTS
 62
     0
 10
1063.6968066951811
 20
2952.6674117410471
 30
0.0
  0
ENDBLK
  5
8CA0
  8
0
  0
BLOCK
  8
0
  2
*D5
 70
     1
 10
0.0
 20
0.0
 30
0.0
  3
*D5
  1

  0
LINE
  5
8EA6
  8
3
 62
     0
 10
1063.6968066951811
 20
2908.9210296380779
 30
0.0
 11
1063.6968066951811
 21
2967.6674117410471
 31
0.0
  0
LINE
  5
8EA7
  8
3
 62
     0
 10
1086.6968066951811
 20
2541.9241286463571
 30
0.0
 11
1086.6968066951811
 21
2967.6674117410471
 31
0.0
  0
LINE
  5
8EA8
  8
3
 62
     0
 10
1033.6968066951811
 20
2952.6674117410471
 30
0.0
 11
1003.696806695181
 21
2952.6674117410471
 31
0.0
  0
LINE
  5
8EA9
  8
3
 62
     0
 10
1116.6968066951811
 20
2952.6674117410471
 30
0.0
 11
1146.6968066951811
 21
2952.6674117410471
 31
0.0
  0
TEXT
  8
3
  40
45
  5
8EC0
  62
0
  72
0
  71
0
 10
1090.41
 20
2910.52
 30
0.000000
  1
23
  0
LINE
  5
8EAB
  8
3
 62
     0
 10
1063.6968066951811
 20
2952.6674117410471
 30
0.0
 11
1086.6968066951811
 21
2952.6674117410471
 31
0.0
  0
INSERT
  5
8EAC
  8
3
 62
     0
  2
_OPEN
 10
1063.6968066951811
 20
2952.6674117410471
 30
0.0
 41
30.0
 42
30.0
 43
30.0
  0
INSERT
  5
8EAD
  8
3
 62
     0
  2
_OPEN
 10
1086.6968066951811
 20
2952.6674117410471
 30
0.0
 41
30.0
 42
30.0
 43
30.0
 50
180.0
  0
POINT
  5
8EAE
  8
DEFPOINTS
 62
     0
 10
1063.6968066951811
 20
2901.4210296380788
 30
0.0
  0
POINT
  5
8EAF
  8
DEFPOINTS
 62
     0
 10
1086.6968066951811
 20
2534.4241286463571
 30
0.0
  0
POINT
  5
8EB0
  8
DEFPOINTS
 62
     0
 10
1086.6968066951811
 20
2952.6674117410471
 30
0.0
  0
ENDBLK
  5
8CB2
  8
0
  0
BLOCK
  8
0
  2
*D6
 70
     1
 10
0.0
 20
0.0
 30
0.0
  3
*D6
  1

  0
LINE
  5
8EB1
  8
3
 62
     0
 10
439.69680669518129
 20
2908.9210296380779
 30
0.0
 11
439.69680669518129
 21
2967.6674117410471
 31
0.0
  0
LINE
  5
8EB2
  8
3
 62
     0
 10
416.69680669518118
 20
2541.9241286463571
 30
0.0
 11
416.69680669518118
 21
2967.6674117410471
 31
0.0
  0
LINE
  5
8EB3
  8
3
 62
     0
 10
469.69680669518129
 20
2952.6674117410471
 30
0.0
 11
499.69680669518118
 21
2952.6674117410471
 31
0.0
  0
LINE
  5
8EB4
  8
3
 62
     0
 10
386.69680669518118
 20
2952.6674117410471
 30
0.0
 11
356.69680669518129
 21
2952.6674117410471
 31
0.0
  0
TEXT
  8
3
  40
45
  5
8EC1
  62
0
  72
0
  71
0
 10
236.307
 20
2904.20
 30
0.000000
  1
23
  0
LINE
  5
8EB6
  8
3
 62
     0
 10
439.69680669518129
 20
2952.6674117410471
 30
0.0
 11
416.69680669518118
 21
2952.6674117410471
 31
0.0
  0
INSERT
  5
8EB7
  8
3
 62
     0
  2
_OPEN
 10
439.69680669518129
 20
2952.6674117410471
 30
0.0
 41
30.0
 42
30.0
 43
30.0
 50
180.0
  0
INSERT
  5
8EB8
  8
3
 62
     0
  2
_OPEN
 10
416.69680669518118
 20
2952.6674117410471
 30
0.0
 41
30.0
 42
30.0
 43
30.0
  0
POINT
  5
8EB9
  8
DEFPOINTS
 62
     0
 10
439.69680669518129
 20
2901.4210296380788
 30
0.0
  0
POINT
  5
8EBA
  8
DEFPOINTS
 62
     0
 10
416.69680669518118
 20
2534.4241286463571
 30
0.0
  0
POINT
  5
8EBB
  8
DEFPOINTS
 62
     0
 10
416.69680669518118
 20
2952.6674117410471
 30
0.0
  0
ENDBLK
  5
8CC4
  8
0
  0
ENDSEC
  0
SECTION
  2
ENTITIES
  0
LINE
  5
7D06
  8
2
 10
1633.4466031652371
 20
2179.4241286463562
 30
0.0
 11
2600.0745978015252
 21
2179.4241286463562
 31
0.0
  0
LINE
  5
7D08
  8
1
 10
376.69680669518118
 20
2494.4241286463571
 30
0.0
 11
413.69680669518129
 21
2494.4241286463571
 31
0.0
  0
LINE
  5
7D09
  8
1
 10
409.19680669518118
 20
2497.4241286463571
 30
0.0
 11
378.69680669518118
 21
2497.4241286463571
 31
0.0
  0
LINE
  5
7D0A
  8
1
 10
376.69680669518118
 20
1864.4241286463559
 30
0.0
 11
413.69680669518129
 21
1864.4241286463559
 31
0.0
  0
LINE
  5
7D0B
  8
1
 10
409.19680669518118
 20
1861.4241286463559
 30
0.0
 11
378.69680669518118
 21
1861.4241286463559
 31
0.0
  0
LINE
  5
7D0C
  8
2
 10
290.0727863049342
 20
2179.4241286463562
 30
0.0
 11
1165.155136004905
 21
2179.4241286463562
 31
0.0
  0
LINE
  5
7D0D
  8
1
 10
376.69680669518118
 20
2494.4241286463571
 30
0.0
 11
376.69680669518118
 21
1864.4241286463559
 31
0.0
  0
LINE
  5
7D0E
  8
1
 10
376.69680669518118
 20
1863.4241286463559
 30
0.0
 11
376.69680669518118
 21
1864.4241286463559
 31
0.0
  0
ARC
  5
7D0F
  8
1
 10
378.69680669518118
 20
1863.4241286463559
 30
0.0
 40
2.0
 50
180.0
 51
270.0
  0
ARC
  5
7D10
  8
1
 10
378.69680669518118
 20
2495.4241286463571
 30
0.0
 40
2.0
 50
90.0
 51
180.0
  0
LINE
  5
7D11
  8
1
 10
376.69680669518118
 20
2495.4241286463571
 30
0.0
 11
376.69680669518118
 21
2494.4241286463571
 31
0.0
  0
LINE
  5
7D14
  8
1
 10
1126.6968066951811
 20
2494.4241286463571
 30
0.0
 11
1126.6968066951811
 21
1864.4241286463559
 31
0.0
  0
LINE
  5
7D15
  8
1
 10
1086.6968066951811
 20
2534.4241286463571
 30
0.0
 11
1086.6968066951811
 21
1824.4241286463559
 31
0.0
  0
LINE
  5
7D16
  8
1
 10
1083.4968066951801
 20
2534.4241286463571
 30
0.0
 11
1083.4968066951801
 21
1824.4241286463559
 31
0.0
  0
LINE
  5
7D17
  8
1
 10
419.89680669518191
 20
2534.4241286463571
 30
0.0
 11
419.89680669518191
 21
1824.4241286463559
 31
0.0
  0
LINE
  5
7D18
  8
1
 10
416.69680669518118
 20
2534.4241286463571
 30
0.0
 11
416.69680669518118
 21
1824.4241286463559
 31
0.0
  0
LINE
  5
7D19
  8
1
 10
416.69680669518118
 20
2534.4241286463571
 30
0.0
 11
416.69680669518118
 21
1824.4241286463559
 31
0.0
  0
LINE
  5
7D1A
  8
1
 10
413.69680669518129
 20
2532.4241286463571
 30
0.0
 11
413.69680669518129
 21
1826.4241286463559
 31
0.0
  0
LINE
  5
7D1B
  8
1
 10
1089.6968066951811
 20
2532.4241286463571
 30
0.0
 11
1089.6968066951811
 21
1826.4241286463559
 31
0.0
  0
LINE
  5
7D1C
  8
1
 10
1086.6968066951811
 20
2534.4241286463571
 30
0.0
 11
1086.6968066951811
 21
1824.4241286463559
 31
0.0
  0
LINE
  5
7D1E
  8
1
 10
416.69680669518118
 20
1864.4241286463559
 30
0.0
 11
1086.6968066951811
 21
1864.4241286463559
 31
0.0
  0
LINE
  5
7D23
  8
2
 10
402.12606350459089
 20
1841.9241286463559
 30
0.0
 11
436.0835256945283
 21
1841.9241286463559
 31
0.0
  0
LINE
  5
7D24
  8
1
 10
419.89680669518191
 20
1824.4241286463559
 30
0.0
 11
416.69680669518118
 21
1824.4241286463559
 31
0.0
  0
ARC
  5
7D25
  8
1
 10
415.69680669518118
 20
1826.4241286463559
 30
0.0
 40
2.0
 50
180.0
 51
270.0
  0
LINE
  5
7D26
  8
1
 10
416.69680669518118
 20
1824.4241286463559
 30
0.0
 11
415.69680669518118
 21
1824.4241286463559
 31
0.0
  0
ARC
  5
7D29
  8
1
 10
409.19680669518118
 20
1856.9241286463559
 30
0.0
 40
4.5
 50
0.0
 51
90.0
  0
LINE
  5
7D2B
  8
1
 10
1126.6968066951811
 20
1864.4241286463559
 30
0.0
 11
1089.6968066951811
 21
1864.4241286463559
 31
0.0
  0
LINE
  5
7D2C
  8
1
 10
1094.1968066951811
 20
1861.4241286463559
 30
0.0
 11
1124.6968066951811
 21
1861.4241286463559
 31
0.0
  0
LINE
  5
7D2D
  8
2
 10
1066.977526342554
 20
1841.9241286463559
 30
0.0
 11
1104.5094640269961
 21
1841.9241286463559
 31
0.0
  0
LINE
  5
7D33
  8
1
 10
1086.6968066951811
 20
1824.4241286463559
 30
0.0
 11
1087.6968066951811
 21
1824.4241286463559
 31
0.0
  0
ARC
  5
7D34
  8
1
 10
1087.6968066951811
 20
1826.4241286463559
 30
0.0
 40
2.0
 50
270.0
 51
0.0
  0
LINE
  5
7D35
  8
1
 10
1083.4968066951801
 20
1824.4241286463559
 30
0.0
 11
1086.6968066951811
 21
1824.4241286463559
 31
0.0
  0
ARC
  5
7D37
  8
1
 10
1094.1968066951811
 20
1856.9241286463559
 30
0.0
 40
4.5
 50
90.0
 51
180.0
  0
ARC
  5
7D3A
  8
1
 10
1124.6968066951811
 20
1863.4241286463559
 30
0.0
 40
2.0
 50
270.0
 51
0.0
  0
LINE
  5
7D3B
  8
1
 10
1126.6968066951811
 20
1863.4241286463559
 30
0.0
 11
1126.6968066951811
 21
1864.4241286463559
 31
0.0
  0
LINE
  5
7D44
  8
1
 10
416.69680669518118
 20
2494.4241286463562
 30
0.0
 11
1086.6968066951811
 21
2494.4241286463571
 31
0.0
  0
LINE
  5
7D4E
  8
1
 10
402.12606350459089
 20
2516.9241286463571
 30
0.0
 11
436.0835256945283
 21
2516.9241286463571
 31
0.0
  0
ARC
  5
7D4F
  8
1
 10
409.19680669518118
 20
2501.9241286463571
 30
0.0
 40
4.5
 50
270.0
 51
0.0
  0
LINE
  5
7D50
  8
1
 10
419.89680669518191
 20
2534.4241286463571
 30
0.0
 11
416.69680669518118
 21
2534.4241286463571
 31
0.0
  0
LINE
  5
7D51
  8
1
 10
416.69680669518118
 20
2534.4241286463571
 30
0.0
 11
415.69680669518118
 21
2534.4241286463571
 31
0.0
  0
ARC
  5
7D52
  8
1
 10
415.69680669518118
 20
2532.4241286463571
 30
0.0
 40
2.0
 50
90.0
 51
180.0
  0
LINE
  5
7DA5
  8
1
 10
1066.977526342554
 20
2516.9241286463571
 30
0.0
 11
1104.5094640269961
 21
2516.9241286463571
 31
0.0
  0
LINE
  5
7DA6
  8
1
 10
1126.6968066951811
 20
2494.4241286463571
 30
0.0
 11
1089.6968066951811
 21
2494.4241286463571
 31
0.0
  0
LINE
  5
7DA7
  8
1
 10
1094.1968066951811
 20
2497.4241286463571
 30
0.0
 11
1124.6968066951811
 21
2497.4241286463571
 31
0.0
  0
ARC
  5
7DB2
  8
1
 10
1094.1968066951811
 20
2501.9241286463571
 30
0.0
 40
4.5
 50
180.0
 51
270.0
  0
ARC
  5
7DB3
  8
1
 10
1087.6968066951811
 20
2532.4241286463571
 30
0.0
 40
2.0
 50
0.0
 51
90.0
  0
LINE
  5
7DB4
  8
1
 10
1086.6968066951811
 20
2534.4241286463571
 30
0.0
 11
1087.6968066951811
 21
2534.4241286463571
 31
0.0
  0
LINE
  5
7DB5
  8
1
 10
1083.4968066951801
 20
2534.4241286463571
 30
0.0
 11
1086.6968066951811
 21
2534.4241286463571
 31
0.0
  0
ARC
  5
7DBA
  8
1
 10
1124.6968066951811
 20
2495.4241286463571
 30
0.0
 40
2.0
 50
0.0
 51
90.0
  0
LINE
  5
7DBB
  8
1
 10
1126.6968066951811
 20
2495.4241286463571
 30
0.0
 11
1126.6968066951811
 21
2494.4241286463571
 31
0.0
  0
POINT
  5
7DBD
  8
1
 10
1754.01869471328
 20
2179.4241286463562
 30
0.0
  0
CIRCLE
  5
7DBF
  8
1
 10
2124.0186947132802
 20
2179.4241286463562
 30
0.0
 40
315.0
  0
CIRCLE
  5
7DC0
  8
1
 10
2124.0186947132802
 20
2179.4241286463562
 30
0.0
 40
355.0
  0
LINE
  5
7DC1
  8
2
 10
2124.0186947132802
 20
2700.6551965523272
 30
0.0
 11
2124.0186947132802
 21
1743.695748844164
 31
0.0
  0
POINT
  5
7DDB
  8
1
 10
1832.807316497255
 20
2307.6706615333042
 30
0.0
  0
POINT
  5
7DDC
  8
1
 10
2124.0186947132802
 20
2179.4241286463562
 30
0.0
  0
POINT
  5
7DDD
  8
1
 10
2124.0186947132802
 20
2179.4241286463562
 30
0.0
  0
POINT
  5
7DDE
  8
1
 10
2124.0186947132802
 20
2179.4241286463562
 30
0.0
  0
POINT
  5
7DF7
  8
1
 10
2494.0186947132811
 20
2179.4241286463562
 30
0.0
  0
LINE
  5
7E0F
  8
1
 10
431.69680669518129
 20
2335.4241286463562
 30
0.0
 11
431.696806695183
 21
2023.4241286463571
 31
0.0
  0
LINE
  5
7E10
  8
1
 10
561.69680669518118
 20
2335.4241286463562
 30
0.0
 11
561.69680669518118
 21
2023.4241286463571
 31
0.0
  0
LINE
  5
7E11
  8
1
 10
471.69680669518129
 20
2491.4241286463562
 30
0.0
 11
521.69680669518129
 21
2491.4241286463562
 31
0.0
  0
LINE
  5
7E12
  8
1
 10
431.69680669518129
 20
2335.4241286463562
 30
0.0
 11
561.69680669518118
 21
2335.4241286463562
 31
0.0
  0
LINE
  5
7E13
  8
1
 10
431.696806695183
 20
2023.4241286463571
 30
0.0
 11
561.69680669518118
 21
2023.4241286463571
 31
0.0
  0
LINE
  5
7E14
  8
1
 10
431.69680669518129
 20
2325.4241286463571
 30
0.0
 11
561.69680669518118
 21
2325.4241286463571
 31
0.0
  0
LINE
  5
7E15
  8
1
 10
431.696806695183
 20
2033.4241286463559
 30
0.0
 11
561.69680669518118
 21
2033.4241286463559
 31
0.0
  0
LINE
  5
7E16
  8
1
 10
471.69680669518129
 20
2491.4241286463562
 30
0.0
 11
431.69680669518129
 21
2335.4241286463562
 31
0.0
  0
LINE
  5
7E17
  8
1
 10
521.69680669518129
 20
2491.4241286463562
 30
0.0
 11
561.69680669518118
 21
2335.4241286463562
 31
0.0
  0
LINE
  5
7E18
  8
1
 10
521.69680669518129
 20
1867.4241286463559
 30
0.0
 11
561.69680669518118
 21
2023.4241286463571
 31
0.0
  0
LINE
  5
7E19
  8
1
 10
471.69680669518129
 20
1867.4241286463559
 30
0.0
 11
431.69680669518129
 21
2023.4241286463571
 31
0.0
  0
LINE
  5
7E1A
  8
1
 10
471.69680669518129
 20
1867.4241286463559
 30
0.0
 11
521.69680669518129
 21
1867.4241286463559
 31
0.0
  0
LINE
  5
7E60
  8
4
 10
2775.0
 20
750.0
 30
0.0
 11
2775.0
 21
450.0
 31
0.0
  0
LINE
  5
7E61
  8
4
 10
1725.0
 20
750.0
 30
0.0
 11
1725.0
 21
450.0
 31
0.0
  0
LINE
  5
7E62
  8
4
 10
975.0
 20
750.0
 30
0.0
 11
975.0
 21
450.0
 31
0.0
  0
LINE
  5
7E65
  8
4
 10
975.0
 20
450.0
 30
0.0
 11
2775.0
 21
450.0
 31
0.0
  0
LINE
  5
7E66
  8
4
 10
975.0
 20
600.0
 30
0.0
 11
2775.0
 21
600.0
 31
0.0
  0
TEXT
  5
7E67
  8
4
 10
1032.753121270352
 20
647.31453879991932
 30
0.0
 40
75.0
  1
機器名称
  0
TEXT
  5
7E68
  8
4
 10
1029.3871590371959
 20
482.46773509801642
 30
0.0
 40
75.0
  1
機器型番
  0
TEXT
  5
7E69
  8
4
 10
1766.5181182314971
 20
633.85765343635285
 30
0.0
 40
75.0
  1
ミツヤ軸流ファン
  0
TEXT
  5
7E6A
  8
4
 10
1779.9817433782209
 20
475.739376419915
 30
0.0
 40
75.0
  1
AP＃630-1
  0
TEXT
  5
7E6C
  8
4
 10
1226.1533655760829
 20
3566.4154574076128
 30
0.0
 40
80.999999999999986
  1
天井吊本体形
  0
TEXT
  5
7E6D
  8
4
 10
474.25138999416959
 20
3800.8214642989469
 30
0.0
 40
108.0
  1
電動機直動式横形軸流ファン
  0
LINE
  5
7E6E
  8
4
 10
375.0
 20
3704.1131313972069
 30
0.0
 11
2775.0
 21
3704.1131313972069
 31
0.0
  0
LINE
  5
7E6F
  8
4
 10
375.0
 20
4004.1131313972069
 30
0.0
 11
2775.0
 21
4004.1131313972069
 31
0.0
  0
LINE
  5
7E70
  8
4
 10
975.0
 20
750.0
 30
0.0
 11
2775.0
 21
750.0
 31
0.0
  0
LINE
  5
7E71
  8
4
 10
375.0
 20
4004.1131313972069
 30
0.0
 11
375.0
 21
3704.1131313972069
 31
0.0
  0
TEXT
  5
7E72
  8
4
 10
432.60480866188658
 20
3573.4792163195152
 30
0.0
 40
80.999999999999986
  1
左回転後方吐出
  0
TEXT
  5
7E73
  8
4
 10
2203.4543388739339
 20
4059.0916222429628
 30
0.0
 40
84.000000000000014
  1
No.
  0
TEXT
  5
7E74
  8
4
 10
2053.5016920962112
 20
3575.1432619987731
 30
0.0
 40
80.999999999999986
  1
縮尺：1/15
  0
LINE
  5
7E75
  8
4
 10
2775.0
 20
4004.1131313972069
 30
0.0
 11
2775.0
 21
3704.1131313972069
 31
0.0
  0
LINE
  5
7E76
  8
4
 10
3150.0
 20
4425.0
 30
0.0
 11
3150.0
 21
4425.0
 31
0.0
  0
LINE
  5
7E77
  8
4
 10
2160.9261335397969
 20
4021.895374688102
 30
0.0
 11
2160.9261335397969
 21
4179.9783923246277
 31
0.0
  0
LINE
  5
7E78
  8
4
 10
2160.9261335397969
 20
4179.9783923246277
 30
0.0
 11
2775.0
 21
4179.9783923246277
 31
0.0
  0
LINE
  5
7E79
  8
4
 10
2775.0
 20
4179.9783923246277
 30
0.0
 11
2775.0
 21
4021.895374688102
 31
0.0
  0
LINE
  5
7E7A
  8
4
 10
2775.0
 20
4021.895374688102
 30
0.0
 11
2160.9261335397969
 21
4021.895374688102
 31
0.0
  0
LINE
  5
7E7B
  8
4
 10
0.0
 20
0.0
 30
0.0
 11
0.0
 21
4425.0
 31
0.0
  0
LINE
  5
7E7C
  8
4
 10
0.0
 20
4425.0
 30
0.0
 11
3150.0
 21
4425.0
 31
0.0
  0
LINE
  5
7E7D
  8
4
 10
3150.0
 20
4425.0
 30
0.0
 11
3150.0
 21
0.0
 31
0.0
  0
LINE
  5
7E7E
  8
4
 10
3150.0
 20
0.0
 30
0.0
 11
0.0
 21
0.0
 31
0.0
  0
LINE
  5
8BF4
  8
1
 10
1735.8186947132799
 20
2160.4241286463562
 30
0.0
 11
1805.8186947132799
 21
2160.4241286463562
 31
0.0
  0
LINE
  5
8BF5
  8
1
 10
1735.8186947132799
 20
2204.4241286463562
 30
0.0
 11
1805.8186947132799
 21
2204.4241286463562
 31
0.0
  0
LINE
  5
8BF6
  8
1
 10
1735.8186947132799
 20
2154.4241286463562
 30
0.0
 11
1805.8186947132799
 21
2154.4241286463562
 31
0.0
  0
LINE
  5
8BF7
  8
1
 10
1735.8186947132799
 20
2204.4241286463562
 30
0.0
 11
1735.8186947132799
 21
2154.4241286463562
 31
0.0
  0
LINE
  5
8BF8
  8
1
 10
1805.8186947132799
 20
2204.4241286463562
 30
0.0
 11
1805.8186947132799
 21
2154.4241286463562
 31
0.0
  0
POINT
  5
8BF9
  8
1
 10
2124.0186947132802
 20
2179.4241286463562
 30
0.0
  0
POINT
  5
8BFA
  8
1
 10
2124.0186947132802
 20
2179.4241286463562
 30
0.0
  0
POINT
  5
8BFB
  8
1
 10
2124.0186947132802
 20
2179.4241286463562
 30
0.0
  0
LINE
  5
8BFC
  8
1
 10
2512.21869471328
 20
2204.4241286463562
 30
0.0
 11
2442.2186947132809
 21
2204.4241286463562
 31
0.0
  0
LINE
  5
8BFD
  8
1
 10
2512.21869471328
 20
2154.4241286463562
 30
0.0
 11
2442.2186947132809
 21
2154.4241286463562
 31
0.0
  0
LINE
  5
8BFE
  8
1
 10
2512.21869471328
 20
2160.4241286463562
 30
0.0
 11
2442.2186947132809
 21
2160.4241286463562
 31
0.0
  0
LINE
  5
8BFF
  8
1
 10
2442.2186947132809
 20
2204.4241286463562
 30
0.0
 11
2442.21869471328
 21
2154.4241286463562
 31
0.0
  0
POINT
  5
8C00
  8
1
 10
2494.0186947132811
 20
2179.4241286463562
 30
0.0
  0
LINE
  5
8C01
  8
1
 10
2512.21869471328
 20
2204.4241286463562
 30
0.0
 11
2512.21869471328
 21
2154.4241286463562
 31
0.0
  0
LINE
  5
8C02
  8
2
 10
2489.0186947132802
 20
2901.4210296380788
 30
0.0
 11
2489.0186947132802
 21
2107.5756611108441
 31
0.0
  0
LINE
  5
8C03
  8
2
 10
1759.01869471328
 20
2901.4210296380788
 30
0.0
 11
1759.01869471328
 21
2107.5756611108441
 31
0.0
  0
LINE
  5
8C04
  8
1
 10
457.39680669518191
 20
2160.4241286463562
 30
0.0
 11
424.39680669518202
 21
2160.4241286463562
 31
0.0
  0
LINE
  5
8C05
  8
1
 10
469.89680669518191
 20
2154.4241286463562
 30
0.0
 11
419.89680669518191
 21
2154.4241286463562
 31
0.0
  0
LINE
  5
8C06
  8
1
 10
419.89680669518191
 20
2154.4241286463562
 30
0.0
 11
419.89680669518191
 21
2155.9241286463562
 31
0.0
  0
ARC
  5
8C07
  8
1
 10
424.39680669518202
 20
2155.9241286463562
 30
0.0
 40
4.5
 50
90.0
 51
180.0
  0
LINE
  5
8C08
  8
1
 10
469.89680669518191
 20
2154.4241286463562
 30
0.0
 11
469.89680669518191
 21
2204.4241286463562
 31
0.0
  0
LINE
  5
8C09
  8
1
 10
469.89680669518191
 20
2204.4241286463562
 30
0.0
 11
468.39680669518202
 21
2204.4241286463562
 31
0.0
  0
LINE
  5
8C0A
  8
1
 10
463.89680669518202
 20
2166.9241286463562
 30
0.0
 11
463.89680669518202
 21
2199.9241286463562
 31
0.0
  0
ARC
  5
8C0B
  8
1
 10
468.39680669518202
 20
2199.9241286463562
 30
0.0
 40
4.5
 50
90.0
 51
180.0
  0
ARC
  5
8C0C
  8
1
 10
457.39680669518191
 20
2166.9241286463562
 30
0.0
 40
6.5
 50
270.0
 51
0.0
  0
LINE
  5
8C0D
  8
1
 10
1045.9968066951801
 20
2160.4241286463562
 30
0.0
 11
1078.9968066951801
 21
2160.4241286463562
 31
0.0
  0
LINE
  5
8C0E
  8
1
 10
1033.4968066951801
 20
2154.4241286463562
 30
0.0
 11
1083.4968066951801
 21
2154.4241286463562
 31
0.0
  0
ARC
  5
8C0F
  8
1
 10
1045.9968066951801
 20
2166.9241286463562
 30
0.0
 40
6.5
 50
180.0
 51
270.0
  0
ARC
  5
8C10
  8
1
 10
1034.9968066951801
 20
2199.9241286463562
 30
0.0
 40
4.5
 50
0.0
 51
90.0
  0
LINE
  5
8C11
  8
1
 10
1039.4968066951801
 20
2166.9241286463562
 30
0.0
 11
1039.4968066951801
 21
2199.9241286463562
 31
0.0
  0
LINE
  5
8C12
  8
1
 10
1033.4968066951801
 20
2204.4241286463562
 30
0.0
 11
1034.9968066951801
 21
2204.4241286463562
 31
0.0
  0
LINE
  5
8C13
  8
1
 10
1033.4968066951801
 20
2154.4241286463562
 30
0.0
 11
1033.4968066951801
 21
2204.4241286463562
 31
0.0
  0
ARC
  5
8C14
  8
1
 10
1078.9968066951801
 20
2155.9241286463562
 30
0.0
 40
4.5
 50
0.0
 51
90.0
  0
LINE
  5
8C15
  8
1
 10
1083.4968066951801
 20
2154.4241286463562
 30
0.0
 11
1083.4968066951801
 21
2155.9241286463562
 31
0.0
  0
LINE
  5
8C16
  8
2
 10
1063.6968066951811
 20
2901.4210296380788
 30
0.0
 11
1063.6968066951811
 21
2132.5492234078488
 31
0.0
  0
LINE
  5
8C17
  8
2
 10
439.69680669518129
 20
2901.4210296380788
 30
0.0
 11
439.69680669518129
 21
2132.5492234078488
 31
0.0
  0
DIMENSION
  5
8C64
  8
3
  2
*D1
 10
2489.0186947132802
 20
2955.188063320129
 30
0.0
 11
2150.2016898258989
 21
2955.188063320129
 31
0.0
 70
   128
 13
1759.01869471328
 23
2901.4210296380788
 33
0.0
 14
2489.0186947132802
 24
2901.4210296380788
 34
0.0
1001
ACAD
1000
DSTYLE
1002
{
1070
   287
1070
     3
1070
   287
1070
     3
1070
    40
1040
15.0
1070
   143
1040
0.039
1070
   172
1070
     1
1070
   271
1070
     0
1070
   279
1070
     0
1070
   288
1070
     1
1002
}
  0
DIMENSION
  5
8C71
  8
3
  2
*D2
 10
224.74111559165269
 20
1864.4241286463559
 30
0.0
 11
224.74111559165249
 21
2203.4144417002699
 31
0.0
 70
   128
  1
%%c<>
 13
376.69680669518118
 23
2494.4241286463571
 33
0.0
 14
376.69680669518118
 24
1864.4241286463559
 34
0.0
 50
90.0
1001
ACAD
1000
DSTYLE
1002
{
1070
   287
1070
     3
1070
   287
1070
     3
1070
    40
1040
15.0
1070
   143
1040
0.039
1070
   172
1070
     1
1070
   271
1070
     0
1070
   279
1070
     0
1070
   288
1070
     1
1002
}
  0
DIMENSION
  5
8C87
  8
3
  2
*D3
 10
1086.6968066951811
 20
3085.5657174933472
 30
0.0
 11
750.27071470518786
 21
3085.5657174933472
 31
0.0
 70
   128
 13
416.69680669518118
 23
2534.4241286463571
 33
0.0
 14
1086.6968066951811
 24
2534.4241286463571
 34
0.0
1001
ACAD
1000
DSTYLE
1002
{
1070
   287
1070
     3
1070
   287
1070
     3
1070
    40
1040
15.0
1070
   143
1040
0.039
1070
   172
1070
     1
1070
   271
1070
     0
1070
   279
1070
     0
1070
   288
1070
     1
1002
}
  0
DIMENSION
  5
8C94
  8
3
  2
*D4
 10
1063.6968066951811
 20
2952.6674117410471
 30
0.0
 11
750.19538089628975
 21
2952.6674117410471
 31
0.0
 70
   128
 13
439.69680669518129
 23
2901.4210296380788
 33
0.0
 14
1063.6968066951811
 24
2901.4210296380788
 34
0.0
1001
ACAD
1000
DSTYLE
1002
{
1070
   287
1070
     3
1070
   287
1070
     3
1070
    40
1040
15.0
1070
   143
1040
0.039
1070
   172
1070
     1
1070
   271
1070
     0
1070
   279
1070
     0
1070
   288
1070
     1
1002
}
  0
DIMENSION
  5
8CA1
  8
3
  2
*D5
 10
1086.6968066951811
 20
2952.6674117410471
 30
0.0
 11
1180.410361169095
 21
2952.6674117410471
 31
0.0
 70
   128
 13
1063.6968066951811
 23
2901.4210296380788
 33
0.0
 14
1086.6968066951811
 24
2534.4241286463571
 34
0.0
1001
ACAD
1000
DSTYLE
1002
{
1070
   287
1070
     4
1070
   287
1070
     4
1070
    40
1040
15.0
1070
   143
1040
0.039
1070
   172
1070
     1
1070
   271
1070
     0
1070
   279
1070
     1
1070
   288
1070
     1
1002
}
  0
DIMENSION
  5
8CB3
  8
3
  2
*D6
 10
416.69680669518118
 20
2952.6674117410471
 30
0.0
 11
326.30710901470951
 21
2946.3469875281662
 31
0.0
 70
   128
 13
439.69680669518129
 23
2901.4210296380788
 33
0.0
 14
416.69680669518118
 24
2534.4241286463571
 34
0.0
1001
ACAD
1000
DSTYLE
1002
{
1070
   287
1070
     4
1070
   287
1070
     4
1070
    40
1040
15.0
1070
   143
1040
0.039
1070
   172
1070
     1
1070
   271
1070
     0
1070
   279
1070
     1
1070
   288
1070
     1
1002
}
  0
ENDSEC
  0
EOF
