  0
SECTION
  2
HEADER
  9
$ACADVER
  1
AC1009
  9
$INSBASE
 10
0.0
 20
0.0
 30
0.0
  9
$EXTMIN
 10
-183.51201018731439
 20
2061.03179316569
 30
0.0
  9
$EXTMAX
 10
2966.4879898126851
 20
6486.0317931656909
 30
0.0
  9
$LIMMIN
 10
0.0
 20
0.0
  9
$LIMMAX
 10
297.0
 20
210.0
  9
$ORTHOMODE
 70
     0
  9
$REGENMODE
 70
     1
  9
$FILLMODE
 70
     1
  9
$QTEXTMODE
 70
     0
  9
$MIRRTEXT
 70
     0
  9
$DRAGMODE
 70
     2
  9
$LTSCALE
 40
60.0
  9
$OSMODE
 70
    37
  9
$ATTMODE
 70
     1
  9
$TEXTSIZE
 40
45.0
  9
$TRACEWID
 40
0.05
  9
$TEXTSTYLE
  7
STANDARD
  9
$CLAYER
  8
3
  9
$CELTYPE
  6
BYLAYER
  9
$CECOLOR
 62
   256
  9
$DIMSCALE
 40
15.0
  9
$DIMASZ
 40
2.0
  9
$DIMEXO
 40
1.0
  9
$DIMDLI
 40
10.0
  9
$DIMRND
 40
0.0
  9
$DIMDLE
 40
0.0
  9
$DIMEXE
 40
1.0
  9
$DIMTP
 40
0.0
  9
$DIMTM
 40
0.0
  9
$DIMTXT
 40
3.0
  9
$DIMCEN
 40
0.0
  9
$DIMTSZ
 40
0.0
  9
$DIMTOL
 70
     0
  9
$DIMLIM
 70
     0
  9
$DIMTIH
 70
     0
  9
$DIMTOH
 70
     0
  9
$DIMSE1
 70
     0
  9
$DIMSE2
 70
     0
  9
$DIMTAD
 70
     1
  9
$DIMZIN
 70
     8
  9
$DIMBLK
  1

  9
$DIMASO
 70
     1
  9
$DIMSHO
 70
     1
  9
$DIMPOST
  1

  9
$DIMAPOST
  1

  9
$DIMALT
 70
     0
  9
$DIMALTD
 70
     2
  9
$DIMALTF
 40
0.03937
  9
$DIMLFAC
 40
1.0
  9
$DIMTOFL
 70
     1
  9
$DIMTVP
 40
0.0
  9
$DIMTIX
 70
     0
  9
$DIMSOXD
 70
     0
  9
$DIMSAH
 70
     1
  9
$DIMBLK1
  1
OPEN
  9
$DIMBLK2
  1
OPEN
  9
$DIMSTYLE
  2
MATSU
  9
$DIMCLRD
 70
   256
  9
$DIMCLRE
 70
   256
  9
$DIMCLRT
 70
   256
  9
$DIMTFAC
 40
1.0
  9
$DIMGAP
 40
0.5
  9
$LUNITS
 70
     2
  9
$LUPREC
 70
     3
  9
$SKETCHINC
 40
0.1
  9
$FILLETRAD
 40
10.0
  9
$AUNITS
 70
     0
  9
$AUPREC
 70
     2
  9
$MENU
  1
acad
  9
$ELEVATION
 40
0.0
  9
$PELEVATION
 40
0.0
  9
$THICKNESS
 40
0.0
  9
$LIMCHECK
 70
     0
  9
$BLIPMODE
 70
     0
  9
$CHAMFERA
 40
10.0
  9
$CHAMFERB
 40
10.0
  9
$SKPOLY
 70
     0
  9
$TDCREATE
 40
2451939.3787035882
  9
$TDUPDATE
 40
2454953.631264999
  9
$TDINDWG
 40
0.0810965046
  9
$TDUSRTIMER
 40
0.0810965046
  9
$USRTIMER
 70
     1
  9
$ANGBASE
 50
0.0
  9
$ANGDIR
 70
     0
  9
$PDMODE
 70
     0
  9
$PDSIZE
 40
1.0
  9
$PLINEWID
 40
0.0
  9
$COORDS
 70
     1
  9
$SPLFRAME
 70
     0
  9
$SPLINETYPE
 70
     6
  9
$SPLINESEGS
 70
     8
  9
$ATTDIA
 70
     0
  9
$ATTREQ
 70
     1
  9
$HANDLING
 70
 10241
  9
$HANDSEED
  5
34A
  9
$SURFTAB1
 70
     6
  9
$SURFTAB2
 70
     6
  9
$SURFTYPE
 70
     6
  9
$SURFU
 70
     6
  9
$SURFV
 70
     6
  9
$UCSNAME
  2

  9
$UCSORG
 10
0.0
 20
0.0
 30
0.0
  9
$UCSXDIR
 10
1.0
 20
0.0
 30
0.0
  9
$UCSYDIR
 10
0.0
 20
1.0
 30
0.0
  9
$PUCSNAME
  2

  9
$PUCSORG
 10
0.0
 20
0.0
 30
0.0
  9
$PUCSXDIR
 10
1.0
 20
0.0
 30
0.0
  9
$PUCSYDIR
 10
0.0
 20
1.0
 30
0.0
  9
$USERI1
 70
     0
  9
$USERI2
 70
     0
  9
$USERI3
 70
     0
  9
$USERI4
 70
     0
  9
$USERI5
 70
     0
  9
$USERR1
 40
0.0
  9
$USERR2
 40
0.0
  9
$USERR3
 40
0.0
  9
$USERR4
 40
0.0
  9
$USERR5
 40
0.0
  9
$WORLDVIEW
 70
     1
  9
$SHADEDGE
 70
     3
  9
$SHADEDIF
 70
    70
  9
$TILEMODE
 70
     1
  9
$MAXACTVP
 70
    16
  9
$PLIMCHECK
 70
     0
  9
$PEXTMIN
 10
1.0000000000000000E+020
 20
1.0000000000000000E+020
 30
1.0000000000000000E+020
  9
$PEXTMAX
 10
-1.0000000000000000E+020
 20
-1.0000000000000000E+020
 30
-1.0000000000000000E+020
  9
$PLIMMIN
 10
0.0
 20
0.0
  9
$PLIMMAX
 10
12.0
 20
9.0
  9
$UNITMODE
 70
     0
  9
$VISRETAIN
 70
     0
  9
$PLINEGEN
 70
     0
  9
$PSLTSCALE
 70
     0
  0
ENDSEC
  0
SECTION
  2
TABLES
  0
TABLE
  2
VPORT
 70
     2
  0
VPORT
  2
*ACTIVE
 70
     0
 10
0.0
 20
0.0
 11
1.0
 21
1.0
 12
2728.108678134688
 22
2569.9222309328129
 13
0.0
 23
0.0
 14
5.0
 24
5.0
 15
0.0
 25
0.0
 16
0.0
 26
0.0
 36
1.0
 17
0.0
 27
0.0
 37
0.0
 40
1262.180336373561
 41
3.1666666666666661
 42
50.0
 43
0.0
 44
0.0
 50
0.0
 51
0.0
 71
     0
 72
   100
 73
     1
 74
     0
 75
     0
 76
     0
 77
     0
 78
     0
  0
ENDTAB
  0
TABLE
  2
LTYPE
 70
     2
  0
LTYPE
  2
CONTINUOUS
 70
     0
  3
Solid line
 72
    65
 73
     0
 40
0.0
  0
LTYPE
  2
CENTER
 70
     0
  3
____ _ ____ _ ____ _ ____ _ ____ _ ____ _ ____ 
 72
    65
 73
     4
 40
2.0
 49
1.25
 49
-0.25
 49
0.25
 49
-0.25
  0
ENDTAB
  0
TABLE
  2
LAYER
 70
     6
  0
LAYER
  2
0
 70
     0
 62
     7
  6
CONTINUOUS
  0
LAYER
  2
DEFPOINTS
 70
     0
 62
     7
  6
CONTINUOUS
  0
LAYER
  2
3
 70
     0
 62
     2
  6
CONTINUOUS
  0
LAYER
  2
2
 70
     0
 62
     3
  6
CENTER
  0
LAYER
  2
1
 70
     0
 62
     4
  6
CONTINUOUS
  0
LAYER
  2
4
 70
     0
 62
     7
  6
CONTINUOUS
  0
ENDTAB
  0
TABLE
  2
STYLE
 70
     1
  0
STYLE
  2
STANDARD
 70
     0
 40
0.0
 41
1.0
 50
15.0
 71
     0
 42
45.0
  3
TXT
  4
extfont.shx
  0
ENDTAB
  0
TABLE
  2
VIEW
 70
     0
  0
ENDTAB
  0
TABLE
  2
UCS
 70
     0
  0
ENDTAB
  0
TABLE
  2
APPID
 70
     1
  0
APPID
  2
ACAD
 70
     0
  0
ENDTAB
  0
TABLE
  2
DIMSTYLE
 70
     1
  0
DIMSTYLE
  2
MATSU
 70
     0
  3

  4

  5

  6
OPEN
  7
OPEN
 40
1.0
 41
2.0
 42
1.0
 43
10.0
 44
1.0
 45
0.0
 46
0.0
 47
0.0
 48
0.0
140
3.0
141
0.0
142
0.0
143
0.03937
144
1.0
145
0.0
146
1.0
147
0.5
 71
     0
 72
     0
 73
     0
 74
     0
 75
     0
 76
     0
 77
     1
 78
     8
170
     0
171
     2
172
     1
173
     1
174
     0
175
     0
176
   256
177
   256
178
   256
  0
ENDTAB
  0
ENDSEC
  0
SECTION
  2
BLOCKS
  0
BLOCK
  8
0
  2
$MODEL_SPACE
 70
     0
 10
0.0
 20
0.0
 30
0.0
  3
$MODEL_SPACE
  1

  0
ENDBLK
  5
A
  8
0
  0
BLOCK
 67
     1
  8
0
  2
$PAPER_SPACE
 70
     0
 10
0.0
 20
0.0
 30
0.0
  3
$PAPER_SPACE
  1

  0
ENDBLK
  5
F
 67
     1
  8
0
  0
BLOCK
  8
0
  2
_OPEN
 70
     0
 10
0.0
 20
0.0
 30
0.0
  3
_OPEN
  1

  0
LINE
  5
3D
  8
0
  6
BYBLOCK
 62
     0
 10
-1.0
 20
0.1666666666666666
 30
0.0
 11
0.0
 21
0.0
 31
0.0
  0
LINE
  5
3E
  8
0
  6
BYBLOCK
 62
     0
 10
0.0
 20
0.0
 30
0.0
 11
-1.0
 21
-0.1666666666666666
 31
0.0
  0
LINE
  5
3F
  8
0
  6
BYBLOCK
 62
     0
 10
0.0
 20
0.0
 30
0.0
 11
-1.0
 21
0.0
 31
0.0
  0
ENDBLK
  5
41
  8
0
  0
BLOCK
  8
0
  2
*D1
 70
     1
 10
0.0
 20
0.0
 30
0.0
  3
*D1
  1

  0
LINE
  5
1CD
  8
3
 10
1826.478409697474
 20
4162.4843491009651
 30
0.0
 11
1826.478409697474
 21
5055.3627128204107
 31
0.0
  0
LINE
  5
1CE
  8
3
 10
2446.478409697474
 20
4162.4843491009651
 30
0.0
 11
2446.478409697474
 21
5055.3627128204107
 31
0.0
  0
LINE
  5
1CF
  8
3
 10
1856.478409697474
 20
5040.3627128204098
 30
0.0
 11
2416.478409697474
 21
5040.3627128204098
 31
0.0
  0
INSERT
  5
1D0
  8
3
  2
_OPEN
 10
1826.478409697474
 20
5040.3627128204098
 30
0.0
 41
30.0
 42
30.0
 43
30.0
 50
180.0
  0
INSERT
  5
1D1
  8
3
  2
_OPEN
 10
2446.478409697474
 20
5040.3627128204098
 30
0.0
 41
30.0
 42
30.0
 43
30.0
  0
TEXT
  5
1D2
  8
3
 10
2074.1995528677739
 20
5047.8627128204098
 30
0.0
 40
45.0
  1
620
 51
15.0
  0
POINT
  5
1D3
  8
DEFPOINTS
 62
     0
 10
1826.478409697474
 20
4147.4843491009651
 30
0.0
  0
POINT
  5
1D4
  8
DEFPOINTS
 62
     0
 10
2446.478409697474
 20
4147.4843491009651
 30
0.0
  0
POINT
  5
1D5
  8
DEFPOINTS
 62
     0
 10
2446.478409697474
 20
5040.3627128204098
 30
0.0
  0
ENDBLK
  5
1D7
  8
0
  0
BLOCK
  8
0
  2
*D2
 70
     1
 10
0.0
 20
0.0
 30
0.0
  3
*D2
  1

  0
LINE
  5
72
  8
3
 10
249.731686522914
 20
4427.4843491009651
 30
0.0
 11
77.94015718089581
 21
4427.4843491009651
 31
0.0
  0
LINE
  5
73
  8
3
 10
249.731686522914
 20
3867.4843491009642
 30
0.0
 11
77.940157180895682
 21
3867.4843491009642
 31
0.0
  0
LINE
  5
74
  8
3
 10
92.940157180895795
 20
4397.4843491009651
 30
0.0
 11
92.940157180895696
 21
3897.4843491009642
 31
0.0
  0
INSERT
  5
75
  8
3
  2
_OPEN
 10
92.940157180895795
 20
4427.4843491009651
 30
0.0
 41
30.0
 42
30.0
 43
30.0
 50
90.0
  0
INSERT
  5
76
  8
3
  2
_OPEN
 10
92.940157180895682
 20
3867.4843491009642
 30
0.0
 41
30.0
 42
30.0
 43
30.0
 50
270.0
  0
INSERT
  5
77
  8
3
  2
*U16
 10
0.0
 20
0.0
 30
0.0
  0
POINT
  5
78
  8
DEFPOINTS
 62
     0
 10
264.731686522914
 20
4427.4843491009651
 30
0.0
  0
POINT
  5
79
  8
DEFPOINTS
 62
     0
 10
264.731686522914
 20
3867.4843491009642
 30
0.0
  0
POINT
  5
7A
  8
DEFPOINTS
 62
     0
 10
92.940157180895682
 20
3867.4843491009642
 30
0.0
  0
ENDBLK
  5
7C
  8
0
  0
BLOCK
  8
0
  2
*D3
 70
     1
 10
0.0
 20
0.0
 30
0.0
  3
*D3
  1

  0
LINE
  5
177
  8
3
 10
1009.7316865229139
 20
4427.4843491009651
 30
0.0
 11
1190.2762982682541
 21
4427.4843491009651
 31
0.0
  0
LINE
  5
178
  8
3
 10
1009.7316865229139
 20
3867.4843491009642
 30
0.0
 11
1190.2762982682541
 21
3867.4843491009642
 31
0.0
  0
LINE
  5
179
  8
3
 10
1175.2762982682541
 20
4397.4843491009651
 30
0.0
 11
1175.2762982682541
 21
3897.4843491009628
 31
0.0
  0
INSERT
  5
17A
  8
3
  2
_OPEN
 10
1175.2762982682541
 20
4427.4843491009651
 30
0.0
 41
30.0
 42
30.0
 43
30.0
 50
90.0
  0
INSERT
  5
17B
  8
3
  2
_OPEN
 10
1175.2762982682541
 20
3867.4843491009642
 30
0.0
 41
30.0
 42
30.0
 43
30.0
 50
270.0
  0
INSERT
  5
17C
  8
3
  2
*U20
 10
0.0
 20
0.0
 30
0.0
  0
POINT
  5
17D
  8
DEFPOINTS
 62
     0
 10
994.73168652291395
 20
4427.4843491009651
 30
0.0
  0
POINT
  5
17E
  8
DEFPOINTS
 62
     0
 10
994.73168652291395
 20
3867.4843491009642
 30
0.0
  0
POINT
  5
17F
  8
DEFPOINTS
 62
     0
 10
1175.2762982682541
 20
3867.4843491009642
 30
0.0
  0
ENDBLK
  5
181
  8
0
  0
BLOCK
  8
0
  2
*D4
 70
     1
 10
0.0
 20
0.0
 30
0.0
  3
*D4
  1

  0
LINE
  5
1EE
  8
3
 10
1796.478409697474
 20
4147.4843491009651
 30
0.0
 11
1573.1272165379301
 21
4147.4843491009651
 31
0.0
  0
LINE
  5
1EF
  8
3
 10
1871.478409697474
 20
3787.4843491009651
 30
0.0
 11
1573.1272165379301
 21
3787.4843491009651
 31
0.0
  0
LINE
  5
1F0
  8
3
 10
1588.1272165379301
 20
4117.4843491009651
 30
0.0
 11
1588.1272165379301
 21
3817.4843491009642
 31
0.0
  0
INSERT
  5
1F1
  8
3
  2
_OPEN
 10
1588.1272165379301
 20
4147.4843491009651
 30
0.0
 41
30.0
 42
30.0
 43
30.0
 50
90.0
  0
INSERT
  5
1F2
  8
3
  2
_OPEN
 10
1588.1272165379301
 20
3787.4843491009651
 30
0.0
 41
30.0
 42
30.0
 43
30.0
 50
270.0
  0
TEXT
  5
1F3
  8
3
 10
1580.6272165379301
 20
3905.205492271265
 30
0.0
 40
45.0
  1
360
 50
90.0
 51
15.0
  0
POINT
  5
1F4
  8
DEFPOINTS
 62
     0
 10
1811.478409697474
 20
4147.4843491009651
 30
0.0
  0
POINT
  5
1F5
  8
DEFPOINTS
 62
     0
 10
1886.478409697474
 20
3787.4843491009651
 30
0.0
  0
POINT
  5
1F6
  8
DEFPOINTS
 62
     0
 10
1588.1272165379301
 20
3787.4843491009651
 30
0.0
  0
ENDBLK
  5
1F8
  8
0
  0
BLOCK
  8
0
  2
*D5
 70
     1
 10
0.0
 20
0.0
 30
0.0
  3
*D5
  1

  0
LINE
  5
1FF
  8
3
 10
1911.478409697474
 20
3744.8370465094349
 30
0.0
 11
1911.478409697474
 21
3582.4772272042592
 31
0.0
  0
LINE
  5
200
  8
3
 10
2361.478409697474
 20
3744.8370465094349
 30
0.0
 11
2361.478409697474
 21
3582.4772272042592
 31
0.0
  0
LINE
  5
201
  8
3
 10
1941.478409697474
 20
3597.4772272042592
 30
0.0
 11
2331.478409697474
 21
3597.4772272042592
 31
0.0
  0
INSERT
  5
202
  8
3
  2
_OPEN
 10
1911.478409697474
 20
3597.4772272042592
 30
0.0
 41
30.0
 42
30.0
 43
30.0
 50
180.0
  0
INSERT
  5
203
  8
3
  2
_OPEN
 10
2361.478409697474
 20
3597.4772272042592
 30
0.0
 41
30.0
 42
30.0
 43
30.0
  0
TEXT
  5
204
  8
3
 10
2073.1947433961568
 20
3604.9772272042592
 30
0.0
 40
45.0
  1
450
 51
15.0
  0
POINT
  5
205
  8
DEFPOINTS
 62
     0
 10
1911.478409697474
 20
3759.8370465094358
 30
0.0
  0
POINT
  5
206
  8
DEFPOINTS
 62
     0
 10
2361.478409697474
 20
3759.8370465094358
 30
0.0
  0
POINT
  5
207
  8
DEFPOINTS
 62
     0
 10
2361.478409697474
 20
3597.4772272042592
 30
0.0
  0
ENDBLK
  5
209
  8
0
  0
BLOCK
  8
0
  2
*D6
 70
     1
 10
0.0
 20
0.0
 30
0.0
  3
*D6
  1

  0
LINE
  5
1BD
  8
3
 10
1886.478409697474
 20
3772.4843491009651
 30
0.0
 11
1886.478409697474
 21
3439.572923692363
 31
0.0
  0
LINE
  5
1BE
  8
3
 10
2386.478409697474
 20
3772.4843491009678
 30
0.0
 11
2386.478409697474
 21
3439.572923692363
 31
0.0
  0
LINE
  5
1BF
  8
3
 10
1916.478409697474
 20
3454.572923692363
 30
0.0
 11
2356.4784096974749
 21
3454.572923692363
 31
0.0
  0
INSERT
  5
1C0
  8
3
  2
_OPEN
 10
1886.478409697474
 20
3454.572923692363
 30
0.0
 41
30.0
 42
30.0
 43
30.0
 50
180.0
  0
INSERT
  5
1C1
  8
3
  2
_OPEN
 10
2386.478409697474
 20
3454.572923692363
 30
0.0
 41
30.0
 42
30.0
 43
30.0
  0
TEXT
  5
1C2
  8
3
 10
2077.9495528677739
 20
3462.072923692363
 30
0.0
 40
45.0
  1
500
 51
15.0
  0
POINT
  5
1C3
  8
DEFPOINTS
 62
     0
 10
1886.478409697474
 20
3787.4843491009651
 30
0.0
  0
POINT
  5
1C4
  8
DEFPOINTS
 62
     0
 10
2386.478409697474
 20
3787.4843491009692
 30
0.0
  0
POINT
  5
1C5
  8
DEFPOINTS
 62
     0
 10
2386.478409697474
 20
3454.572923692363
 30
0.0
  0
ENDBLK
  5
1C7
  8
0
  0
BLOCK
  8
0
  2
*D7
 70
     1
 10
0.0
 20
0.0
 30
0.0
  3
*D7
  1

  0
LINE
  5
1AE
  8
3
 10
2361.478409697474
 20
3744.8370465094349
 30
0.0
 11
2361.478409697474
 21
3582.4772272042592
 31
0.0
  0
LINE
  5
1AF
  8
3
 10
2386.478409697474
 20
3772.4843491009678
 30
0.0
 11
2386.478409697474
 21
3582.4772272042592
 31
0.0
  0
LINE
  5
1B0
  8
3
 10
2331.478409697474
 20
3597.4772272042592
 30
0.0
 11
2301.478409697474
 21
3597.4772272042592
 31
0.0
  0
LINE
  5
1B1
  8
3
 10
2416.4784096974749
 20
3597.4772272042592
 30
0.0
 11
2446.478409697474
 21
3597.4772272042592
 31
0.0
  0
TEXT
  5
1B2
  8
3
 10
2409.7743321615999
 20
3613.219226269317
 30
0.0
 40
45.0
  1
25
 51
15.0
  0
LINE
  5
1B3
  8
3
 10
2361.478409697474
 20
3597.4772272042592
 30
0.0
 11
2386.478409697474
 21
3597.4772272042592
 31
0.0
  0
INSERT
  5
1B4
  8
3
  2
_OPEN
 10
2361.478409697474
 20
3597.4772272042592
 30
0.0
 41
30.0
 42
30.0
 43
30.0
  0
INSERT
  5
1B5
  8
3
  2
_OPEN
 10
2386.478409697474
 20
3597.4772272042592
 30
0.0
 41
30.0
 42
30.0
 43
30.0
 50
180.0
  0
POINT
  5
1B6
  8
DEFPOINTS
 62
     0
 10
2361.478409697474
 20
3759.8370465094358
 30
0.0
  0
POINT
  5
1B7
  8
DEFPOINTS
 62
     0
 10
2386.478409697474
 20
3787.4843491009692
 30
0.0
  0
POINT
  5
1B8
  8
DEFPOINTS
 62
     0
 10
2386.478409697474
 20
3597.4772272042592
 30
0.0
  0
ENDBLK
  5
1BA
  8
0
  0
BLOCK
  8
0
  2
*D8
 70
     1
 10
0.0
 20
0.0
 30
0.0
  3
*D8
  1

  0
LINE
  5
1DF
  8
3
 10
1911.478409697474
 20
3744.8370465094349
 30
0.0
 11
1911.478409697474
 21
3582.4772272042592
 31
0.0
  0
LINE
  5
1E0
  8
3
 10
1886.478409697474
 20
3772.4843491009651
 30
0.0
 11
1886.478409697474
 21
3582.4772272042592
 31
0.0
  0
LINE
  5
1E1
  8
3
 10
1941.478409697474
 20
3597.4772272042592
 30
0.0
 11
1971.478409697474
 21
3597.4772272042592
 31
0.0
  0
LINE
  5
1E2
  8
3
 10
1856.4784096974749
 20
3597.4772272042592
 30
0.0
 11
1826.4784096974749
 21
3597.4772272042592
 31
0.0
  0
TEXT
  5
1E3
  8
3
 10
1773.119383174504
 20
3613.219226269317
 30
0.0
 40
45.0
  1
25
 51
15.0
  0
LINE
  5
1E4
  8
3
 10
1911.478409697474
 20
3597.4772272042592
 30
0.0
 11
1886.478409697474
 21
3597.4772272042592
 31
0.0
  0
INSERT
  5
1E5
  8
3
  2
_OPEN
 10
1911.478409697474
 20
3597.4772272042592
 30
0.0
 41
30.0
 42
30.0
 43
30.0
 50
180.0
  0
INSERT
  5
1E6
  8
3
  2
_OPEN
 10
1886.478409697474
 20
3597.4772272042592
 30
0.0
 41
30.0
 42
30.0
 43
30.0
  0
POINT
  5
1E7
  8
DEFPOINTS
 62
     0
 10
1911.478409697474
 20
3759.8370465094358
 30
0.0
  0
POINT
  5
1E8
  8
DEFPOINTS
 62
     0
 10
1886.478409697474
 20
3787.4843491009651
 30
0.0
  0
POINT
  5
1E9
  8
DEFPOINTS
 62
     0
 10
1886.478409697474
 20
3597.4772272042592
 30
0.0
  0
ENDBLK
  5
1EB
  8
0
  0
BLOCK
  8
0
  2
*D9
 70
     1
 10
0.0
 20
0.0
 30
0.0
  3
*D9
  1

  0
LINE
  5
4E
  8
3
 10
334.731686522914
 20
3744.8370465094349
 30
0.0
 11
334.731686522914
 21
3598.6694518627519
 31
0.0
  0
LINE
  5
4F
  8
3
 10
924.73168652291395
 20
3744.8370465094349
 30
0.0
 11
924.73168652291395
 21
3598.6694518627519
 31
0.0
  0
LINE
  5
50
  8
3
 10
364.73168652291389
 20
3613.6694518627519
 30
0.0
 11
894.73168652291383
 21
3613.6694518627519
 31
0.0
  0
INSERT
  5
51
  8
3
  2
_OPEN
 10
334.731686522914
 20
3613.6694518627519
 30
0.0
 41
30.0
 42
30.0
 43
30.0
 50
180.0
  0
INSERT
  5
52
  8
3
  2
_OPEN
 10
924.73168652291395
 20
3613.6694518627519
 30
0.0
 41
30.0
 42
30.0
 43
30.0
  0
TEXT
  5
53
  8
3
 10
567.45282969321363
 20
3621.169451862751
 30
0.0
 40
45.0
  1
590
 51
15.0
  0
POINT
  5
54
  8
DEFPOINTS
 62
     0
 10
334.731686522914
 20
3759.8370465094358
 30
0.0
  0
POINT
  5
55
  8
DEFPOINTS
 62
     0
 10
924.73168652291395
 20
3759.8370465094358
 30
0.0
  0
POINT
  5
56
  8
DEFPOINTS
 62
     0
 10
924.73168652291395
 20
3613.6694518627519
 30
0.0
  0
ENDBLK
  5
58
  8
0
  0
BLOCK
  8
0
  2
*D10
 70
     1
 10
0.0
 20
0.0
 30
0.0
  3
*D10
  1

  0
LINE
  5
38
  8
3
 10
294.731686522914
 20
3822.4843491009642
 30
0.0
 11
294.731686522914
 21
3470.892595338702
 31
0.0
  0
LINE
  5
39
  8
3
 10
964.73168652291383
 20
3822.4843491009642
 30
0.0
 11
964.73168652291383
 21
3470.892595338702
 31
0.0
  0
LINE
  5
3A
  8
3
 10
324.731686522914
 20
3485.892595338702
 30
0.0
 11
934.73168652291395
 21
3485.892595338702
 31
0.0
  0
INSERT
  5
3B
  8
3
  2
_OPEN
 10
294.731686522914
 20
3485.892595338702
 30
0.0
 41
30.0
 42
30.0
 43
30.0
 50
180.0
  0
INSERT
  5
42
  8
3
  2
_OPEN
 10
964.73168652291383
 20
3485.892595338702
 30
0.0
 41
30.0
 42
30.0
 43
30.0
  0
TEXT
  5
43
  8
3
 10
567.45282969321363
 20
3493.392595338702
 30
0.0
 40
45.0
  1
670
 51
15.0
  0
POINT
  5
44
  8
DEFPOINTS
 62
     0
 10
294.731686522914
 20
3837.4843491009642
 30
0.0
  0
POINT
  5
48
  8
DEFPOINTS
 62
     0
 10
964.73168652291383
 20
3837.4843491009642
 30
0.0
  0
POINT
  5
49
  8
DEFPOINTS
 62
     0
 10
964.73168652291383
 20
3485.892595338702
 30
0.0
  0
ENDBLK
  5
4B
  8
0
  0
BLOCK
  8
0
  2
*D11
 70
     1
 10
0.0
 20
0.0
 30
0.0
  3
*D11
  1

  0
LINE
  5
DD
  8
3
 10
924.73168652291395
 20
3744.8370465094349
 30
0.0
 11
924.73168652291395
 21
3598.6694518627519
 31
0.0
  0
LINE
  5
DE
  8
3
 10
964.73168652291383
 20
3822.4843491009642
 30
0.0
 11
964.73168652291383
 21
3598.6694518627519
 31
0.0
  0
LINE
  5
DF
  8
3
 10
894.73168652291383
 20
3613.6694518627519
 30
0.0
 11
864.73168652291395
 21
3613.6694518627519
 31
0.0
  0
LINE
  5
E0
  8
3
 10
994.73168652291383
 20
3613.6694518627519
 30
0.0
 11
1024.7316865229129
 21
3613.6694518627519
 31
0.0
  0
TEXT
  5
E1
  8
3
 10
987.74706208421935
 20
3623.376952821538
 30
0.0
 40
45.0
  1
40
 51
15.0
  0
LINE
  5
E2
  8
3
 10
924.73168652291395
 20
3613.6694518627519
 30
0.0
 11
964.73168652291383
 21
3613.6694518627519
 31
0.0
  0
INSERT
  5
E3
  8
3
  2
_OPEN
 10
924.73168652291395
 20
3613.6694518627519
 30
0.0
 41
30.0
 42
30.0
 43
30.0
  0
INSERT
  5
E4
  8
3
  2
_OPEN
 10
964.73168652291383
 20
3613.6694518627519
 30
0.0
 41
30.0
 42
30.0
 43
30.0
 50
180.0
  0
POINT
  5
E5
  8
DEFPOINTS
 62
     0
 10
924.73168652291395
 20
3759.8370465094358
 30
0.0
  0
POINT
  5
E6
  8
DEFPOINTS
 62
     0
 10
964.73168652291383
 20
3837.4843491009642
 30
0.0
  0
POINT
  5
E7
  8
DEFPOINTS
 62
     0
 10
964.73168652291383
 20
3613.6694518627519
 30
0.0
  0
ENDBLK
  5
E9
  8
0
  0
BLOCK
  8
0
  2
*D12
 70
     1
 10
0.0
 20
0.0
 30
0.0
  3
*D12
  1

  0
LINE
  5
87
  8
3
 10
334.731686522914
 20
3744.8370465094349
 30
0.0
 11
334.731686522914
 21
3598.6694518627519
 31
0.0
  0
LINE
  5
88
  8
3
 10
294.731686522914
 20
3822.4843491009642
 30
0.0
 11
294.731686522914
 21
3598.6694518627519
 31
0.0
  0
LINE
  5
89
  8
3
 10
364.73168652291389
 20
3613.6694518627519
 30
0.0
 11
394.731686522914
 21
3613.6694518627519
 31
0.0
  0
LINE
  5
8A
  8
3
 10
264.731686522914
 20
3613.6694518627519
 30
0.0
 11
234.731686522914
 21
3613.6694518627519
 31
0.0
  0
TEXT
  5
8B
  8
3
 10
173.30623681666631
 20
3624.9006133689941
 30
0.0
 40
45.0
  1
40
 51
15.0
  0
LINE
  5
8C
  8
3
 10
334.731686522914
 20
3613.6694518627519
 30
0.0
 11
294.731686522914
 21
3613.6694518627519
 31
0.0
  0
INSERT
  5
8D
  8
3
  2
_OPEN
 10
334.731686522914
 20
3613.6694518627519
 30
0.0
 41
30.0
 42
30.0
 43
30.0
 50
180.0
  0
INSERT
  5
8E
  8
3
  2
_OPEN
 10
294.731686522914
 20
3613.6694518627519
 30
0.0
 41
30.0
 42
30.0
 43
30.0
  0
POINT
  5
8F
  8
DEFPOINTS
 62
     0
 10
334.731686522914
 20
3759.8370465094358
 30
0.0
  0
POINT
  5
90
  8
DEFPOINTS
 62
     0
 10
294.731686522914
 20
3837.4843491009642
 30
0.0
  0
POINT
  5
91
  8
DEFPOINTS
 62
     0
 10
294.731686522914
 20
3613.6694518627519
 30
0.0
  0
ENDBLK
  5
93
  8
0
  0
BLOCK
  8
0
  2
*D13
 70
     1
 10
0.0
 20
0.0
 30
0.0
  3
*D13
  1

  0
LINE
  5
29D
  8
3
 10
294.731686522914
 20
3822.4843491009642
 30
0.0
 11
294.731686522914
 21
3470.892595338702
 31
0.0
  0
LINE
  5
29E
  8
3
 10
964.73168652291383
 20
3822.4843491009642
 30
0.0
 11
964.73168652291383
 21
3470.892595338702
 31
0.0
  0
LINE
  5
29F
  8
3
 10
324.731686522914
 20
3485.892595338702
 30
0.0
 11
934.73168652291395
 21
3485.892595338702
 31
0.0
  0
INSERT
  5
2A0
  8
3
  2
_OPEN
 10
294.731686522914
 20
3485.892595338702
 30
0.0
 41
30.0
 42
30.0
 43
30.0
 50
180.0
  0
INSERT
  5
2A1
  8
3
  2
_OPEN
 10
964.73168652291383
 20
3485.892595338702
 30
0.0
 41
30.0
 42
30.0
 43
30.0
  0
TEXT
  8
3
  40
45
  5
33E
  72
0
  71
0
 10
539.732
 20
3436.24
 30
0.000000
  1
670
  0
POINT
  5
2A3
  8
DEFPOINTS
 62
     0
 10
294.731686522914
 20
3837.4843491009642
 30
0.0
  0
POINT
  5
2A4
  8
DEFPOINTS
 62
     0
 10
964.73168652291383
 20
3837.4843491009642
 30
0.0
  0
POINT
  5
2A5
  8
DEFPOINTS
 62
     0
 10
964.73168652291383
 20
3485.892595338702
 30
0.0
  0
ENDBLK
  5
2A7
  8
0
  0
BLOCK
  8
0
  2
*D14
 70
     1
 10
0.0
 20
0.0
 30
0.0
  3
*D14
  1

  0
LINE
  5
2A9
  8
3
 10
334.731686522914
 20
3744.8370465094349
 30
0.0
 11
334.731686522914
 21
3598.6694518627519
 31
0.0
  0
LINE
  5
2AA
  8
3
 10
924.73168652291395
 20
3744.8370465094349
 30
0.0
 11
924.73168652291395
 21
3598.6694518627519
 31
0.0
  0
LINE
  5
2AB
  8
3
 10
364.73168652291389
 20
3613.6694518627519
 30
0.0
 11
894.73168652291383
 21
3613.6694518627519
 31
0.0
  0
INSERT
  5
2AC
  8
3
  2
_OPEN
 10
334.731686522914
 20
3613.6694518627519
 30
0.0
 41
30.0
 42
30.0
 43
30.0
 50
180.0
  0
INSERT
  5
2AD
  8
3
  2
_OPEN
 10
924.73168652291395
 20
3613.6694518627519
 30
0.0
 41
30.0
 42
30.0
 43
30.0
  0
TEXT
  8
3
  40
45
  5
33F
  72
0
  71
0
 10
539.732
 20
3564.02
 30
0.000000
  1
590
  0
POINT
  5
2AF
  8
DEFPOINTS
 62
     0
 10
334.731686522914
 20
3759.8370465094358
 30
0.0
  0
POINT
  5
2B0
  8
DEFPOINTS
 62
     0
 10
924.73168652291395
 20
3759.8370465094358
 30
0.0
  0
POINT
  5
2B1
  8
DEFPOINTS
 62
     0
 10
924.73168652291395
 20
3613.6694518627519
 30
0.0
  0
ENDBLK
  5
2B3
  8
0
  0
BLOCK
  8
0
  2
*D15
 70
     1
 10
0.0
 20
0.0
 30
0.0
  3
*D15
  1

  0
LINE
  5
2B5
  8
3
 10
249.731686522914
 20
4427.4843491009651
 30
0.0
 11
77.94015718089581
 21
4427.4843491009651
 31
0.0
  0
LINE
  5
2B6
  8
3
 10
249.731686522914
 20
3867.4843491009642
 30
0.0
 11
77.940157180895682
 21
3867.4843491009642
 31
0.0
  0
LINE
  5
2B7
  8
3
 10
92.940157180895795
 20
4397.4843491009651
 30
0.0
 11
92.940157180895696
 21
3897.4843491009642
 31
0.0
  0
INSERT
  5
2B8
  8
3
  2
_OPEN
 10
92.940157180895795
 20
4427.4843491009651
 30
0.0
 41
30.0
 42
30.0
 43
30.0
 50
90.0
  0
INSERT
  5
2B9
  8
3
  2
_OPEN
 10
92.940157180895682
 20
3867.4843491009642
 30
0.0
 41
30.0
 42
30.0
 43
30.0
 50
270.0
  0
TEXT
  8
3
  40
45
  5
340
  72
0
  71
0
 10
-27.0598
 20
4067.83
 30
0.000000
  1
%%c560
  0
POINT
  5
2BB
  8
DEFPOINTS
 62
     0
 10
264.731686522914
 20
4427.4843491009651
 30
0.0
  0
POINT
  5
2BC
  8
DEFPOINTS
 62
     0
 10
264.731686522914
 20
3867.4843491009642
 30
0.0
  0
POINT
  5
2BD
  8
DEFPOINTS
 62
     0
 10
92.940157180895682
 20
3867.4843491009642
 30
0.0
  0
ENDBLK
  5
2BF
  8
0
  0
BLOCK
  8
0
  2
*U16
 70
     1
 10
0.0
 20
0.0
 30
0.0
  3
*U16
  1

  0
TEXT
  5
2C1
  8
3
 10
85.440157180895085
 20
4050.513159668631
 30
0.0
 40
45.0
  1
\U+2205
 50
90.0
 51
15.0
  0
TEXT
  5
2C2
  8
3
 10
85.440157180895085
 20
4101.5420164983307
 30
0.0
 40
45.0
  1
560
 50
90.0
 51
15.0
  0
ENDBLK
  5
2C4
  8
0
  0
BLOCK
  8
0
  2
*D17
 70
     1
 10
0.0
 20
0.0
 30
0.0
  3
*D17
  1

  0
LINE
  5
2C6
  8
3
 10
334.731686522914
 20
3744.8370465094349
 30
0.0
 11
334.731686522914
 21
3598.6694518627519
 31
0.0
  0
LINE
  5
2C7
  8
3
 10
294.731686522914
 20
3822.4843491009642
 30
0.0
 11
294.731686522914
 21
3598.6694518627519
 31
0.0
  0
LINE
  5
2C8
  8
3
 10
364.73168652291389
 20
3613.6694518627519
 30
0.0
 11
394.731686522914
 21
3613.6694518627519
 31
0.0
  0
LINE
  5
2C9
  8
3
 10
264.731686522914
 20
3613.6694518627519
 30
0.0
 11
234.731686522914
 21
3613.6694518627519
 31
0.0
  0
TEXT
  8
3
  40
45
  5
341
  72
0
  71
0
 10
124.090
 20
3567.75
 30
0.000000
  1
40
  0
LINE
  5
2CB
  8
3
 10
334.731686522914
 20
3613.6694518627519
 30
0.0
 11
294.731686522914
 21
3613.6694518627519
 31
0.0
  0
INSERT
  5
2CC
  8
3
  2
_OPEN
 10
334.731686522914
 20
3613.6694518627519
 30
0.0
 41
30.0
 42
30.0
 43
30.0
 50
180.0
  0
INSERT
  5
2CD
  8
3
  2
_OPEN
 10
294.731686522914
 20
3613.6694518627519
 30
0.0
 41
30.0
 42
30.0
 43
30.0
  0
POINT
  5
2CE
  8
DEFPOINTS
 62
     0
 10
334.731686522914
 20
3759.8370465094358
 30
0.0
  0
POINT
  5
2CF
  8
DEFPOINTS
 62
     0
 10
294.731686522914
 20
3837.4843491009642
 30
0.0
  0
POINT
  5
2D0
  8
DEFPOINTS
 62
     0
 10
294.731686522914
 20
3613.6694518627519
 30
0.0
  0
ENDBLK
  5
2D2
  8
0
  0
BLOCK
  8
0
  2
*D18
 70
     1
 10
0.0
 20
0.0
 30
0.0
  3
*D18
  1

  0
LINE
  5
2D4
  8
3
 10
924.73168652291395
 20
3744.8370465094349
 30
0.0
 11
924.73168652291395
 21
3598.6694518627519
 31
0.0
  0
LINE
  5
2D5
  8
3
 10
964.73168652291383
 20
3822.4843491009642
 30
0.0
 11
964.73168652291383
 21
3598.6694518627519
 31
0.0
  0
LINE
  5
2D6
  8
3
 10
894.73168652291383
 20
3613.6694518627519
 30
0.0
 11
864.73168652291395
 21
3613.6694518627519
 31
0.0
  0
LINE
  5
2D7
  8
3
 10
994.73168652291383
 20
3613.6694518627519
 30
0.0
 11
1024.7316865229129
 21
3613.6694518627519
 31
0.0
  0
TEXT
  8
3
  40
45
  5
342
  72
0
  71
0
 10
938.531
 20
3566.23
 30
0.000000
  1
40
  0
LINE
  5
2D9
  8
3
 10
924.73168652291395
 20
3613.6694518627519
 30
0.0
 11
964.73168652291383
 21
3613.6694518627519
 31
0.0
  0
INSERT
  5
2DA
  8
3
  2
_OPEN
 10
924.73168652291395
 20
3613.6694518627519
 30
0.0
 41
30.0
 42
30.0
 43
30.0
  0
INSERT
  5
2DB
  8
3
  2
_OPEN
 10
964.73168652291383
 20
3613.6694518627519
 30
0.0
 41
30.0
 42
30.0
 43
30.0
 50
180.0
  0
POINT
  5
2DC
  8
DEFPOINTS
 62
     0
 10
924.73168652291395
 20
3759.8370465094358
 30
0.0
  0
POINT
  5
2DD
  8
DEFPOINTS
 62
     0
 10
964.73168652291383
 20
3837.4843491009642
 30
0.0
  0
POINT
  5
2DE
  8
DEFPOINTS
 62
     0
 10
964.73168652291383
 20
3613.6694518627519
 30
0.0
  0
ENDBLK
  5
2E0
  8
0
  0
BLOCK
  8
0
  2
*D19
 70
     1
 10
0.0
 20
0.0
 30
0.0
  3
*D19
  1

  0
LINE
  5
2E2
  8
3
 10
1009.7316865229139
 20
4427.4843491009651
 30
0.0
 11
1190.2762982682541
 21
4427.4843491009651
 31
0.0
  0
LINE
  5
2E3
  8
3
 10
1009.7316865229139
 20
3867.4843491009642
 30
0.0
 11
1190.2762982682541
 21
3867.4843491009642
 31
0.0
  0
LINE
  5
2E4
  8
3
 10
1175.2762982682541
 20
4397.4843491009651
 30
0.0
 11
1175.2762982682541
 21
3897.4843491009628
 31
0.0
  0
INSERT
  5
2E5
  8
3
  2
_OPEN
 10
1175.2762982682541
 20
4427.4843491009651
 30
0.0
 41
30.0
 42
30.0
 43
30.0
 50
90.0
  0
INSERT
  5
2E6
  8
3
  2
_OPEN
 10
1175.2762982682541
 20
3867.4843491009642
 30
0.0
 41
30.0
 42
30.0
 43
30.0
 50
270.0
  0
TEXT
  8
3
  40
45
  5
343
  72
0
  71
0
 10
1055.28
 20
4067.83
 30
0.000000
  1
%%c560
  0
POINT
  5
2E8
  8
DEFPOINTS
 62
     0
 10
994.73168652291395
 20
4427.4843491009651
 30
0.0
  0
POINT
  5
2E9
  8
DEFPOINTS
 62
     0
 10
994.73168652291395
 20
3867.4843491009642
 30
0.0
  0
POINT
  5
2EA
  8
DEFPOINTS
 62
     0
 10
1175.2762982682541
 20
3867.4843491009642
 30
0.0
  0
ENDBLK
  5
2EC
  8
0
  0
BLOCK
  8
0
  2
*U20
 70
     1
 10
0.0
 20
0.0
 30
0.0
  3
*U20
  1

  0
TEXT
  5
2EE
  8
3
 10
1167.776298268253
 20
4050.513159668631
 30
0.0
 40
45.0
  1
\U+2205
 50
90.0
 51
15.0
  0
TEXT
  5
2EF
  8
3
 10
1167.776298268253
 20
4101.5420164983307
 30
0.0
 40
45.0
  1
560
 50
90.0
 51
15.0
  0
ENDBLK
  5
2F1
  8
0
  0
BLOCK
  8
0
  2
*D21
 70
     1
 10
0.0
 20
0.0
 30
0.0
  3
*D21
  1

  0
LINE
  5
2F3
  8
3
 10
2361.478409697474
 20
3744.8370465094349
 30
0.0
 11
2361.478409697474
 21
3582.4772272042592
 31
0.0
  0
LINE
  5
2F4
  8
3
 10
2386.478409697474
 20
3772.4843491009678
 30
0.0
 11
2386.478409697474
 21
3582.4772272042592
 31
0.0
  0
LINE
  5
2F5
  8
3
 10
2331.478409697474
 20
3597.4772272042592
 30
0.0
 11
2301.478409697474
 21
3597.4772272042592
 31
0.0
  0
LINE
  5
2F6
  8
3
 10
2416.4784096974749
 20
3597.4772272042592
 30
0.0
 11
2446.478409697474
 21
3597.4772272042592
 31
0.0
  0
TEXT
  8
3
  40
45
  5
344
  72
0
  71
0
 10
2363.30
 20
3556.07
 30
0.000000
  1
25
  0
LINE
  5
2F8
  8
3
 10
2361.478409697474
 20
3597.4772272042592
 30
0.0
 11
2386.478409697474
 21
3597.4772272042592
 31
0.0
  0
INSERT
  5
2F9
  8
3
  2
_OPEN
 10
2361.478409697474
 20
3597.4772272042592
 30
0.0
 41
30.0
 42
30.0
 43
30.0
  0
INSERT
  5
2FA
  8
3
  2
_OPEN
 10
2386.478409697474
 20
3597.4772272042592
 30
0.0
 41
30.0
 42
30.0
 43
30.0
 50
180.0
  0
POINT
  5
2FB
  8
DEFPOINTS
 62
     0
 10
2361.478409697474
 20
3759.8370465094358
 30
0.0
  0
POINT
  5
2FC
  8
DEFPOINTS
 62
     0
 10
2386.478409697474
 20
3787.4843491009692
 30
0.0
  0
POINT
  5
2FD
  8
DEFPOINTS
 62
     0
 10
2386.478409697474
 20
3597.4772272042592
 30
0.0
  0
ENDBLK
  5
2FF
  8
0
  0
BLOCK
  8
0
  2
*D22
 70
     1
 10
0.0
 20
0.0
 30
0.0
  3
*D22
  1

  0
LINE
  5
301
  8
3
 10
1886.478409697474
 20
3772.4843491009651
 30
0.0
 11
1886.478409697474
 21
3439.572923692363
 31
0.0
  0
LINE
  5
302
  8
3
 10
2386.478409697474
 20
3772.4843491009678
 30
0.0
 11
2386.478409697474
 21
3439.572923692363
 31
0.0
  0
LINE
  5
303
  8
3
 10
1916.478409697474
 20
3454.572923692363
 30
0.0
 11
2356.4784096974749
 21
3454.572923692363
 31
0.0
  0
INSERT
  5
304
  8
3
  2
_OPEN
 10
1886.478409697474
 20
3454.572923692363
 30
0.0
 41
30.0
 42
30.0
 43
30.0
 50
180.0
  0
INSERT
  5
305
  8
3
  2
_OPEN
 10
2386.478409697474
 20
3454.572923692363
 30
0.0
 41
30.0
 42
30.0
 43
30.0
  0
TEXT
  8
3
  40
45
  5
345
  72
0
  71
0
 10
2046.48
 20
3404.92
 30
0.000000
  1
500
  0
POINT
  5
307
  8
DEFPOINTS
 62
     0
 10
1886.478409697474
 20
3787.4843491009651
 30
0.0
  0
POINT
  5
308
  8
DEFPOINTS
 62
     0
 10
2386.478409697474
 20
3787.4843491009692
 30
0.0
  0
POINT
  5
309
  8
DEFPOINTS
 62
     0
 10
2386.478409697474
 20
3454.572923692363
 30
0.0
  0
ENDBLK
  5
30B
  8
0
  0
BLOCK
  8
0
  2
*D23
 70
     1
 10
0.0
 20
0.0
 30
0.0
  3
*D23
  1

  0
LINE
  5
30D
  8
3
 10
1826.478409697474
 20
4162.4843491009651
 30
0.0
 11
1826.478409697474
 21
5055.3627128204107
 31
0.0
  0
LINE
  5
30E
  8
3
 10
2446.478409697474
 20
4162.4843491009651
 30
0.0
 11
2446.478409697474
 21
5055.3627128204107
 31
0.0
  0
LINE
  5
30F
  8
3
 10
1856.478409697474
 20
5040.3627128204098
 30
0.0
 11
2416.478409697474
 21
5040.3627128204098
 31
0.0
  0
INSERT
  5
310
  8
3
  2
_OPEN
 10
1826.478409697474
 20
5040.3627128204098
 30
0.0
 41
30.0
 42
30.0
 43
30.0
 50
180.0
  0
INSERT
  5
311
  8
3
  2
_OPEN
 10
2446.478409697474
 20
5040.3627128204098
 30
0.0
 41
30.0
 42
30.0
 43
30.0
  0
TEXT
  8
3
  40
45
  5
346
  72
0
  71
0
 10
2046.48
 20
4990.71
 30
0.000000
  1
620
  0
POINT
  5
313
  8
DEFPOINTS
 62
     0
 10
1826.478409697474
 20
4147.4843491009651
 30
0.0
  0
POINT
  5
314
  8
DEFPOINTS
 62
     0
 10
2446.478409697474
 20
4147.4843491009651
 30
0.0
  0
POINT
  5
315
  8
DEFPOINTS
 62
     0
 10
2446.478409697474
 20
5040.3627128204098
 30
0.0
  0
ENDBLK
  5
317
  8
0
  0
BLOCK
  8
0
  2
*D24
 70
     1
 10
0.0
 20
0.0
 30
0.0
  3
*D24
  1

  0
LINE
  5
319
  8
3
 10
1911.478409697474
 20
3744.8370465094349
 30
0.0
 11
1911.478409697474
 21
3582.4772272042592
 31
0.0
  0
LINE
  5
31A
  8
3
 10
1886.478409697474
 20
3772.4843491009651
 30
0.0
 11
1886.478409697474
 21
3582.4772272042592
 31
0.0
  0
LINE
  5
31B
  8
3
 10
1941.478409697474
 20
3597.4772272042592
 30
0.0
 11
1971.478409697474
 21
3597.4772272042592
 31
0.0
  0
LINE
  5
31C
  8
3
 10
1856.4784096974749
 20
3597.4772272042592
 30
0.0
 11
1826.4784096974749
 21
3597.4772272042592
 31
0.0
  0
TEXT
  8
3
  40
45
  5
347
  72
0
  71
0
 10
1726.65
 20
3556.07
 30
0.000000
  1
25
  0
LINE
  5
31E
  8
3
 10
1911.478409697474
 20
3597.4772272042592
 30
0.0
 11
1886.478409697474
 21
3597.4772272042592
 31
0.0
  0
INSERT
  5
31F
  8
3
  2
_OPEN
 10
1911.478409697474
 20
3597.4772272042592
 30
0.0
 41
30.0
 42
30.0
 43
30.0
 50
180.0
  0
INSERT
  5
320
  8
3
  2
_OPEN
 10
1886.478409697474
 20
3597.4772272042592
 30
0.0
 41
30.0
 42
30.0
 43
30.0
  0
POINT
  5
321
  8
DEFPOINTS
 62
     0
 10
1911.478409697474
 20
3759.8370465094358
 30
0.0
  0
POINT
  5
322
  8
DEFPOINTS
 62
     0
 10
1886.478409697474
 20
3787.4843491009651
 30
0.0
  0
POINT
  5
323
  8
DEFPOINTS
 62
     0
 10
1886.478409697474
 20
3597.4772272042592
 30
0.0
  0
ENDBLK
  5
325
  8
0
  0
BLOCK
  8
0
  2
*D25
 70
     1
 10
0.0
 20
0.0
 30
0.0
  3
*D25
  1

  0
LINE
  5
327
  8
3
 10
1796.478409697474
 20
4147.4843491009651
 30
0.0
 11
1573.1272165379301
 21
4147.4843491009651
 31
0.0
  0
LINE
  5
328
  8
3
 10
1871.478409697474
 20
3787.4843491009651
 30
0.0
 11
1573.1272165379301
 21
3787.4843491009651
 31
0.0
  0
LINE
  5
329
  8
3
 10
1588.1272165379301
 20
4117.4843491009651
 30
0.0
 11
1588.1272165379301
 21
3817.4843491009642
 31
0.0
  0
INSERT
  5
32A
  8
3
  2
_OPEN
 10
1588.1272165379301
 20
4147.4843491009651
 30
0.0
 41
30.0
 42
30.0
 43
30.0
 50
90.0
  0
INSERT
  5
32B
  8
3
  2
_OPEN
 10
1588.1272165379301
 20
3787.4843491009651
 30
0.0
 41
30.0
 42
30.0
 43
30.0
 50
270.0
  0
TEXT
  8
3
  40
45
  5
348
  72
0
  71
0
 10
1468.13
 20
3887.83
 30
0.000000
  1
360
  0
POINT
  5
32D
  8
DEFPOINTS
 62
     0
 10
1811.478409697474
 20
4147.4843491009651
 30
0.0
  0
POINT
  5
32E
  8
DEFPOINTS
 62
     0
 10
1886.478409697474
 20
3787.4843491009651
 30
0.0
  0
POINT
  5
32F
  8
DEFPOINTS
 62
     0
 10
1588.1272165379301
 20
3787.4843491009651
 30
0.0
  0
ENDBLK
  5
331
  8
0
  0
BLOCK
  8
0
  2
*D26
 70
     1
 10
0.0
 20
0.0
 30
0.0
  3
*D26
  1

  0
LINE
  5
333
  8
3
 10
1911.478409697474
 20
3744.8370465094349
 30
0.0
 11
1911.478409697474
 21
3582.4772272042592
 31
0.0
  0
LINE
  5
334
  8
3
 10
2361.478409697474
 20
3744.8370465094349
 30
0.0
 11
2361.478409697474
 21
3582.4772272042592
 31
0.0
  0
LINE
  5
335
  8
3
 10
1941.478409697474
 20
3597.4772272042592
 30
0.0
 11
2331.478409697474
 21
3597.4772272042592
 31
0.0
  0
INSERT
  5
336
  8
3
  2
_OPEN
 10
1911.478409697474
 20
3597.4772272042592
 30
0.0
 41
30.0
 42
30.0
 43
30.0
 50
180.0
  0
INSERT
  5
337
  8
3
  2
_OPEN
 10
2361.478409697474
 20
3597.4772272042592
 30
0.0
 41
30.0
 42
30.0
 43
30.0
  0
TEXT
  8
3
  40
45
  5
349
  72
0
  71
0
 10
2046.48
 20
3547.83
 30
0.000000
  1
450
  0
POINT
  5
339
  8
DEFPOINTS
 62
     0
 10
1911.478409697474
 20
3759.8370465094358
 30
0.0
  0
POINT
  5
33A
  8
DEFPOINTS
 62
     0
 10
2361.478409697474
 20
3759.8370465094358
 30
0.0
  0
POINT
  5
33B
  8
DEFPOINTS
 62
     0
 10
2361.478409697474
 20
3597.4772272042592
 30
0.0
  0
ENDBLK
  5
33D
  8
0
  0
ENDSEC
  0
SECTION
  2
ENTITIES
  0
LINE
  5
26
  8
4
 10
2966.4879898126851
 20
2061.03179316569
 30
0.0
 11
-183.51201018731439
 21
2061.03179316569
 31
0.0
  0
LINE
  5
28
  8
4
 10
-183.51201018731439
 20
6486.0317931656909
 30
0.0
 11
2966.4879898126851
 21
6486.0317931656909
 31
0.0
  0
LINE
  5
29
  8
4
 10
791.48798981268556
 20
2811.0317931656909
 30
0.0
 11
2591.4879898126851
 21
2811.0317931656909
 31
0.0
  0
LINE
  5
2A
  8
4
 10
191.4879898126855
 20
6065.1449245628983
 30
0.0
 11
2591.4879898126851
 21
6065.1449245628983
 31
0.0
  0
LINE
  5
2B
  8
4
 10
191.4879898126855
 20
5765.1449245628983
 30
0.0
 11
2591.4879898126851
 21
5765.1449245628983
 31
0.0
  0
TEXT
  5
2C
  8
4
 10
290.73937980685508
 20
5861.8532574646379
 30
0.0
 40
108.0
  1
ベルト駆動式横型軸流ファン
  0
TEXT
  5
2D
  8
4
 10
1009.635049149361
 20
5636.1750551644636
 30
0.0
 40
80.999999999999986
  1
床置ベット
  0
LINE
  5
2E
  8
4
 10
791.48798981268556
 20
2661.03179316569
 30
0.0
 11
2591.4879898126851
 21
2661.03179316569
 31
0.0
  0
LINE
  5
2F
  8
4
 10
791.48798981268556
 20
2511.03179316569
 30
0.0
 11
2591.4879898126851
 21
2511.03179316569
 31
0.0
  0
LINE
  5
31
  8
4
 10
-183.51201018731439
 20
2061.03179316569
 30
0.0
 11
-183.51201018731439
 21
6486.0317931656909
 31
0.0
  0
TEXT
  5
32
  8
4
 10
845.87514884988195
 20
2543.4995282637069
 30
0.0
 40
75.0
  1
機器型番
  0
TEXT
  5
33
  8
4
 10
849.24111108303805
 20
2708.3463319656098
 30
0.0
 40
75.0
  1
機器名称
  0
LINE
  5
35
  8
4
 10
791.48798981268556
 20
2811.0317931656909
 30
0.0
 11
791.48798981268556
 21
2511.03179316569
 31
0.0
  0
DIMENSION
  5
36
  8
3
  2
*D13
 10
964.73168652291383
 20
3485.892595338702
 30
0.0
 11
629.73168652291395
 21
3515.892595338702
 31
0.0
 70
     0
 13
294.731686522914
 23
3837.4843491009642
 33
0.0
 14
964.73168652291383
 24
3837.4843491009642
 34
0.0
1001
ACAD
1000
DSTYLE
1002
{
1070
   287
1070
     5
1070
   287
1070
     5
1070
    40
1040
15.0
1070
   279
1070
     2
1070
   289
1070
     3
1002
}
  0
DIMENSION
  5
4C
  8
3
  2
*D14
 10
924.73168652291395
 20
3613.6694518627519
 30
0.0
 11
629.73168652291395
 21
3643.6694518627519
 31
0.0
 70
     0
 13
334.731686522914
 23
3759.8370465094358
 33
0.0
 14
924.73168652291395
 24
3759.8370465094358
 34
0.0
1001
ACAD
1000
DSTYLE
1002
{
1070
   287
1070
     5
1070
   287
1070
     5
1070
    40
1040
15.0
1070
   279
1070
     2
1070
   289
1070
     3
1002
}
  0
TEXT
  5
59
  8
4
 10
209.2653401884817
 20
5634.5110094852062
 30
0.0
 40
80.999999999999986
  1
左回転後方吐出
  0
LINE
  5
5A
  8
1
 10
402.731686522914
 20
4430.684349100964
 30
0.0
 11
676.73168652291395
 21
4430.684349100964
 31
0.0
  0
LINE
  5
5C
  8
2
 10
351.731686522914
 20
4631.4843491009651
 30
0.0
 11
849.42187111750263
 21
4631.4843491009651
 31
0.0
  0
LINE
  5
5F
  8
1
 10
350.731686522914
 20
4468.4843491009651
 30
0.0
 11
728.73168652291395
 21
4468.4843491009651
 31
0.0
  0
LINE
  5
60
  8
1
 10
351.731686522914
 20
4493.4843491009651
 30
0.0
 11
727.73168652291395
 21
4493.4843491009651
 31
0.0
  0
LINE
  5
61
  8
1
 10
351.731686522914
 20
4499.4843491009651
 30
0.0
 11
727.73168652291395
 21
4499.4843491009651
 31
0.0
  0
LINE
  5
62
  8
1
 10
924.73168652291406
 20
4384.9843491009651
 30
0.0
 11
334.731686522914
 21
4384.9843491009651
 31
0.0
  0
LINE
  5
63
  8
1
 10
924.73168652291406
 20
4337.4843491009642
 30
0.0
 11
334.731686522914
 21
4337.4843491009642
 31
0.0
  0
LINE
  5
64
  8
1
 10
924.73168652291406
 20
4389.4843491009651
 30
0.0
 11
334.731686522914
 21
4389.4843491009651
 31
0.0
  0
LINE
  5
65
  8
1
 10
309.731686522914
 20
4007.4843491009642
 30
0.0
 11
419.731686522914
 21
4007.4843491009642
 31
0.0
  0
LINE
  5
66
  8
1
 10
394.731686522914
 20
3870.4843491009642
 30
0.0
 11
414.731686522914
 21
4007.4843491009642
 31
0.0
  0
LINE
  5
67
  8
1
 10
394.731686522914
 20
4424.4843491009651
 30
0.0
 11
414.731686522914
 21
4287.4843491009651
 31
0.0
  0
LINE
  5
68
  8
1
 10
309.731686522914
 20
4287.4843491009651
 30
0.0
 11
419.731686522914
 21
4287.4843491009651
 31
0.0
  0
LINE
  5
69
  8
1
 10
294.731686522914
 20
3867.4843491009642
 30
0.0
 11
964.73168652291406
 21
3867.4843491009642
 31
0.0
  0
LINE
  5
6A
  8
1
 10
297.93168652291382
 20
3864.2843491009639
 30
0.0
 11
961.53168652291379
 21
3864.2843491009639
 31
0.0
  0
LINE
  5
6B
  8
1
 10
294.731686522914
 20
4427.4843491009651
 30
0.0
 11
964.73168652291406
 21
4427.4843491009651
 31
0.0
  0
LINE
  5
6C
  8
2
 10
244.79852409842979
 20
4147.4843491009651
 30
0.0
 11
1016.966625178821
 21
4147.4843491009651
 31
0.0
  0
LINE
  5
6D
  8
1
 10
425.7319865229137
 20
4768.9843491009651
 30
0.0
 11
362.3542865229137
 21
4756.796349100965
 31
0.0
  0
ARC
  5
6E
  8
1
 10
405.12399136832749
 20
4505.5561458706889
 30
0.0
 40
6.9282032302754892
 50
59.999999999999623
 51
119.9999999999998
  0
ARC
  5
6F
  8
1
 10
405.12399136832749
 20
4487.4125523312387
 30
0.0
 40
6.9282032302754892
 50
240.00000000000011
 51
300.00000000000028
  0
DIMENSION
  5
70
  8
3
  2
*D15
 10
92.940157180895682
 20
3867.4843491009642
 30
0.0
 11
62.940157180895078
 21
4147.4843491009651
 31
0.0
 70
     0
  1
%%c<>
 13
264.731686522914
 23
4427.4843491009651
 33
0.0
 14
264.731686522914
 24
3867.4843491009642
 34
0.0
 50
90.0
1001
ACAD
1000
DSTYLE
1002
{
1070
   287
1070
     5
1070
   287
1070
     5
1070
   287
1070
     5
1070
   287
1070
     5
1070
   287
1070
     5
1070
    40
1040
15.0
1070
   279
1070
     2
1070
   289
1070
     3
1002
}
  0
LINE
  5
7D
  8
1
 10
354.731686522914
 20
4287.4843491009651
 30
0.0
 11
354.731686522914
 21
4007.4843491009642
 31
0.0
  0
LINE
  5
7E
  8
1
 10
364.731686522914
 20
4287.4843491009651
 30
0.0
 11
364.731686522914
 21
4007.4843491009642
 31
0.0
  0
LINE
  5
7F
  8
1
 10
264.731686522914
 20
4427.4843491009651
 30
0.0
 11
264.731686522914
 21
3867.4843491009642
 31
0.0
  0
LINE
  5
80
  8
1
 10
291.731686522914
 20
4434.4843491009651
 30
0.0
 11
291.731686522914
 21
3860.4843491009642
 31
0.0
  0
LINE
  5
81
  8
1
 10
294.731686522914
 20
4457.4843491009651
 30
0.0
 11
294.731686522914
 21
3837.4843491009642
 31
0.0
  0
LINE
  5
82
  8
1
 10
309.731686522914
 20
4287.4843491009651
 30
0.0
 11
309.731686522914
 21
4007.4843491009642
 31
0.0
  0
LINE
  5
83
  8
1
 10
294.731686522914
 20
4457.4843491009651
 30
0.0
 11
294.731686522914
 21
3837.4843491009642
 31
0.0
  0
LINE
  5
84
  8
1
 10
297.93168652291382
 20
4457.4843491009651
 30
0.0
 11
297.93168652291382
 21
3837.4843491009642
 31
0.0
  0
DIMENSION
  5
85
  8
3
  2
*D17
 10
294.731686522914
 20
3613.6694518627519
 30
0.0
 11
214.08990311798331
 21
3647.4006133689941
 31
0.0
 70
   128
 13
334.731686522914
 23
3759.8370465094358
 33
0.0
 14
294.731686522914
 24
3837.4843491009642
 34
0.0
1001
ACAD
1000
DSTYLE
1002
{
1070
   287
1070
     5
1070
   287
1070
     5
1070
    40
1040
15.0
1070
   279
1070
     2
1070
   289
1070
     3
1002
}
  0
LINE
  5
94
  8
2
 10
314.73168652291452
 20
3849.9843491009642
 30
0.0
 11
274.73168652291452
 21
3849.9843491009642
 31
0.0
  0
LINE
  5
95
  8
1
 10
287.731686522914
 20
3864.4843491009642
 30
0.0
 11
266.731686522914
 21
3864.4843491009642
 31
0.0
  0
LINE
  5
96
  8
1
 10
264.731686522914
 20
3867.4843491009642
 30
0.0
 11
294.731686522914
 21
3867.4843491009642
 31
0.0
  0
ARC
  5
97
  8
1
 10
266.731686522914
 20
3866.4843491009642
 30
0.0
 40
2.0
 50
180.0
 51
270.0
  0
LINE
  5
98
  8
1
 10
264.731686522914
 20
3866.4843491009642
 30
0.0
 11
264.731686522914
 21
3867.4843491009642
 31
0.0
  0
LINE
  5
99
  8
1
 10
314.731686522914
 20
4007.4843491009642
 30
0.0
 11
334.731686522914
 21
3870.4843491009642
 31
0.0
  0
LINE
  5
9A
  8
1
 10
302.43168652291382
 20
3791.9843491009651
 30
0.0
 11
357.93168652291382
 21
3791.9843491009651
 31
0.0
  0
LINE
  5
9B
  8
1
 10
297.93168652291382
 20
3787.4843491009651
 30
0.0
 11
357.93168652291382
 21
3787.4843491009651
 31
0.0
  0
LINE
  5
9C
  8
1
 10
334.731686522914
 20
3870.4843491009642
 30
0.0
 11
394.731686522914
 21
3870.4843491009642
 31
0.0
  0
LINE
  5
9D
  8
1
 10
302.43168652291382
 20
3947.4843491009651
 30
0.0
 11
302.43168652291382
 21
3791.9843491009651
 31
0.0
  0
LINE
  5
9E
  8
1
 10
297.93168652291382
 20
3906.0684720527029
 30
0.0
 11
297.93168652291382
 21
3787.4843491009642
 31
0.0
  0
LINE
  5
9F
  8
1
 10
294.731686522914
 20
3837.4843491009642
 30
0.0
 11
293.731686522914
 21
3837.4843491009642
 31
0.0
  0
ARC
  5
A0
  8
1
 10
293.731686522914
 20
3839.4843491009642
 30
0.0
 40
2.0
 50
180.0
 51
270.0
  0
LINE
  5
A1
  8
1
 10
291.731686522914
 20
3839.4843491009642
 30
0.0
 11
291.731686522914
 21
3860.4843491009642
 31
0.0
  0
ARC
  5
A2
  8
1
 10
287.731686522914
 20
3860.4843491009642
 30
0.0
 40
4.0
 50
0.0
 51
90.0
  0
LINE
  5
A3
  8
1
 10
297.93168652291382
 20
3837.4843491009642
 30
0.0
 11
294.731686522914
 21
3837.4843491009642
 31
0.0
  0
LINE
  5
A4
  8
2
 10
334.731686522914
 20
3759.8370465094358
 30
0.0
 11
334.731686522914
 21
3815.0667942502769
 31
0.0
  0
LINE
  5
A5
  8
1
 10
297.93168652291382
 20
3947.4843491009651
 30
0.0
 11
302.43168652291382
 21
3947.4843491009651
 31
0.0
  0
LINE
  5
A6
  8
1
 10
357.93168652291382
 20
3791.9843491009651
 30
0.0
 11
357.93168652291382
 21
3787.4843491009642
 31
0.0
  0
LINE
  5
A7
  8
1
 10
329.731686522914
 20
4112.4843491009651
 30
0.0
 11
399.731686522914
 21
4112.4843491009651
 31
0.0
  0
LINE
  5
A8
  8
1
 10
329.731686522914
 20
4182.4843491009651
 30
0.0
 11
399.731686522914
 21
4182.4843491009651
 31
0.0
  0
LINE
  5
A9
  8
1
 10
329.731686522914
 20
4182.4843491009651
 30
0.0
 11
329.731686522914
 21
4112.4843491009651
 31
0.0
  0
LINE
  5
AA
  8
1
 10
399.731686522914
 20
4182.4843491009651
 30
0.0
 11
399.731686522914
 21
4112.4843491009651
 31
0.0
  0
LINE
  5
AB
  8
2
 10
314.73168652291452
 20
4444.9843491009651
 30
0.0
 11
274.73168652291452
 21
4444.9843491009651
 31
0.0
  0
LINE
  5
AC
  8
1
 10
264.731686522914
 20
4427.4843491009651
 30
0.0
 11
294.731686522914
 21
4427.4843491009651
 31
0.0
  0
LINE
  5
AD
  8
1
 10
287.731686522914
 20
4430.4843491009642
 30
0.0
 11
266.731686522914
 21
4430.4843491009642
 31
0.0
  0
LINE
  5
AE
  8
1
 10
264.731686522914
 20
4428.4843491009651
 30
0.0
 11
264.731686522914
 21
4427.4843491009651
 31
0.0
  0
ARC
  5
AF
  8
1
 10
266.731686522914
 20
4428.4843491009651
 30
0.0
 40
2.0
 50
90.0
 51
180.0
  0
LINE
  5
B0
  8
2
 10
394.731686522914
 20
4556.7355625274031
 30
0.0
 11
394.731686522914
 21
4378.3811745020339
 31
0.0
  0
LINE
  5
B1
  8
1
 10
360.7319865229137
 20
4754.8323491009651
 30
0.0
 11
360.7319865229137
 21
4508.4237491009644
 31
0.0
  0
LINE
  5
B2
  8
1
 10
401.65988975318982
 20
4511.5561458706889
 30
0.0
 11
401.65988975318982
 21
4499.4843491009651
 31
0.0
  0
LINE
  5
B3
  8
1
 10
387.80348329263859
 20
4511.5561458706889
 30
0.0
 11
387.80348329263859
 21
4499.4843491009651
 31
0.0
  0
LINE
  5
B4
  8
1
 10
380.87528006236329
 20
4499.4843491009651
 30
0.0
 11
380.87528006236329
 21
4511.5561458706889
 31
0.0
  0
LINE
  5
B5
  8
1
 10
334.731686522914
 20
4427.4843491009651
 30
0.0
 11
372.731686522914
 21
4427.4843491009651
 31
0.0
  0
LINE
  5
B6
  8
1
 10
340.73168652291361
 20
4408.4843491009651
 30
0.0
 11
366.73168652291349
 21
4408.4843491009651
 31
0.0
  0
CIRCLE
  5
B7
  8
1
 10
353.73168652291361
 20
4408.4843491009651
 30
0.0
 40
10.0
  0
ARC
  5
B8
  8
1
 10
351.731686522914
 20
4492.4843491009651
 30
0.0
 40
7.0
 50
90.0
 51
180.0
  0
LINE
  5
B9
  8
1
 10
344.731686522914
 20
4464.4843491009651
 30
0.0
 11
350.731686522914
 21
4464.4843491009651
 31
0.0
  0
LINE
  5
BA
  8
1
 10
334.731686522914
 20
4424.4843491009651
 30
0.0
 11
394.731686522914
 21
4424.4843491009651
 31
0.0
  0
LINE
  5
BB
  8
1
 10
297.93168652291382
 20
4430.684349100964
 30
0.0
 11
386.731686522914
 21
4430.684349100964
 31
0.0
  0
LINE
  5
BC
  8
1
 10
334.731686522914
 20
4389.4843491009651
 30
0.0
 11
334.731686522914
 21
4337.4843491009642
 31
0.0
  0
LINE
  5
BD
  8
1
 10
314.731686522914
 20
4287.4843491009651
 30
0.0
 11
334.731686522914
 21
4424.4843491009651
 31
0.0
  0
ARC
  5
BE
  8
1
 10
287.731686522914
 20
4434.4843491009651
 30
0.0
 40
4.0
 50
270.0
 51
0.0
  0
LINE
  5
BF
  8
1
 10
291.731686522914
 20
4455.4843491009651
 30
0.0
 11
291.731686522914
 21
4434.4843491009651
 31
0.0
  0
ARC
  5
C0
  8
1
 10
293.731686522914
 20
4455.4843491009651
 30
0.0
 40
2.0
 50
90.0
 51
180.0
  0
LINE
  5
C1
  8
1
 10
294.731686522914
 20
4457.4843491009651
 30
0.0
 11
293.731686522914
 21
4457.4843491009651
 31
0.0
  0
LINE
  5
C2
  8
1
 10
297.93168652291382
 20
4457.4843491009651
 30
0.0
 11
294.731686522914
 21
4457.4843491009651
 31
0.0
  0
LINE
  5
C3
  8
1
 10
334.731686522914
 20
4427.4843491009651
 30
0.0
 11
334.731686522914
 21
4389.4843491009651
 31
0.0
  0
LINE
  5
C4
  8
1
 10
344.731686522914
 20
4492.4843491009651
 30
0.0
 11
344.731686522914
 21
4464.4843491009651
 31
0.0
  0
LINE
  5
C5
  8
1
 10
380.87528006236329
 20
4505.8645882836036
 30
0.0
 11
362.6704865229139
 21
4506.4247491009637
 31
0.0
  0
LINE
  5
C6
  8
1
 10
353.73168652291361
 20
4395.4843491009651
 30
0.0
 11
353.73168652291361
 21
4421.4843491009651
 31
0.0
  0
LINE
  5
C7
  8
1
 10
372.731686522914
 20
4427.4843491009651
 30
0.0
 11
372.731686522914
 21
4389.4843491009651
 31
0.0
  0
ARC
  5
C8
  8
1
 10
351.731686522914
 20
4492.4843491009651
 30
0.0
 40
1.0
 50
90.0
 51
180.0
  0
LINE
  5
C9
  8
1
 10
350.731686522914
 20
4492.4843491009651
 30
0.0
 11
350.731686522914
 21
4464.4843491009651
 31
0.0
  0
ARC
  5
CA
  8
1
 10
362.7319865229137
 20
4508.4237491009644
 30
0.0
 40
2.0
 50
180.0
 51
268.23719999999992
  0
LINE
  5
CB
  8
1
 10
386.731686522914
 20
4389.4843491009651
 30
0.0
 11
386.731686522914
 21
4480.4843491009642
 31
0.0
  0
LINE
  5
CC
  8
1
 10
402.731686522914
 20
4389.4843491009651
 30
0.0
 11
402.731686522914
 21
4480.4843491009642
 31
0.0
  0
ARC
  5
CD
  8
1
 10
394.731686522914
 20
4506.8048571766531
 30
0.0
 40
26.32050807568676
 50
254.73851957513861
 51
285.26148042486119
  0
LINE
  5
CE
  8
1
 10
380.87528006236329
 20
4493.4843491009651
 30
0.0
 11
380.87528006236329
 21
4481.4125523312396
 31
0.0
  0
ARC
  5
CF
  8
1
 10
384.33938167750102
 20
4487.4125523312387
 30
0.0
 40
6.9282032302754892
 50
239.9999999999996
 51
299.99999999999989
  0
LINE
  5
D0
  8
1
 10
387.80348329263859
 20
4481.4125523312396
 30
0.0
 11
387.80348329263859
 21
4493.4843491009651
 31
0.0
  0
LINE
  5
D1
  8
1
 10
405.12399136832749
 20
4480.4843491009642
 30
0.0
 11
384.33938167750102
 21
4480.4843491009642
 31
0.0
  0
LINE
  5
D2
  8
1
 10
401.65988975318982
 20
4481.4125523312396
 30
0.0
 11
401.65988975318982
 21
4493.4843491009651
 31
0.0
  0
LINE
  5
D3
  8
1
 10
402.731686522914
 20
4512.4843491009642
 30
0.0
 11
402.731686522914
 21
4557.5691818145133
 31
0.0
  0
LINE
  5
D4
  8
1
 10
386.731686522914
 20
4512.4843491009642
 30
0.0
 11
386.731686522914
 21
4557.5691818145133
 31
0.0
  0
LINE
  5
D5
  8
1
 10
402.731686522914
 20
4557.5691818145133
 30
0.0
 11
386.731686522914
 21
4557.5691818145133
 31
0.0
  0
ARC
  5
D6
  8
1
 10
394.731686522914
 20
4486.1638410252781
 30
0.0
 40
26.32050807568676
 50
74.738519575138611
 51
105.2614804248612
  0
ARC
  5
D7
  8
1
 10
384.33938167750102
 20
4505.5561458706889
 30
0.0
 40
6.9282032302754892
 50
60.000000000000142
 51
120.0000000000003
  0
LINE
  5
D8
  8
1
 10
384.33938167750102
 20
4512.4843491009642
 30
0.0
 11
405.12399136832749
 21
4512.4843491009642
 31
0.0
  0
ARC
  5
D9
  8
1
 10
362.7319865229137
 20
4754.8323491009651
 30
0.0
 40
2.0
 50
100.8854
 51
180.0
  0
LINE
  5
DA
  8
4
 10
191.4879898126855
 20
6065.1449245628983
 30
0.0
 11
191.4879898126855
 21
5765.1449245628983
 31
0.0
  0
DIMENSION
  5
DB
  8
3
  2
*D18
 10
964.73168652291383
 20
3613.6694518627519
 30
0.0
 11
1028.5307283855359
 21
3645.876952821538
 31
0.0
 70
   128
 13
924.73168652291395
 23
3759.8370465094358
 33
0.0
 14
964.73168652291383
 24
3837.4843491009642
 34
0.0
1001
ACAD
1000
DSTYLE
1002
{
1070
   287
1070
     5
1070
   287
1070
     5
1070
    40
1040
15.0
1070
   279
1070
     2
1070
   289
1070
     3
1002
}
  0
LINE
  5
EA
  8
1
 10
871.77168652291368
 20
4430.684349100964
 30
0.0
 11
961.53168652291379
 21
4430.684349100964
 31
0.0
  0
LINE
  5
EB
  8
1
 10
924.73168652291406
 20
4427.4843491009651
 30
0.0
 11
886.73168652291395
 21
4427.4843491009651
 31
0.0
  0
CIRCLE
  5
EC
  8
1
 10
905.73168652291429
 20
4408.4843491009651
 30
0.0
 40
10.0
  0
LINE
  5
ED
  8
1
 10
918.73168652291417
 20
4408.4843491009651
 30
0.0
 11
892.73168652291417
 21
4408.4843491009651
 31
0.0
  0
LINE
  5
EE
  8
1
 10
786.73168652291395
 20
4699.5055711202804
 30
0.0
 11
786.73168652291395
 21
4090.334349100965
 31
0.0
  0
LINE
  5
EF
  8
1
 10
836.73168652291383
 20
4699.5055711202804
 30
0.0
 11
836.73168652291395
 21
4090.334349100965
 31
0.0
  0
LINE
  5
F0
  8
1
 10
419.731686522914
 20
4287.4843491009651
 30
0.0
 11
419.731686522914
 21
4007.4843491009642
 31
0.0
  0
LINE
  5
F1
  8
1
 10
836.73168652291395
 20
4090.334349100965
 30
0.0
 11
786.73168652291395
 21
4090.334349100965
 31
0.0
  0
LINE
  5
F2
  8
1
 10
836.73168652291395
 20
4204.6343491009648
 30
0.0
 11
786.73168652291395
 21
4204.6343491009648
 31
0.0
  0
LINE
  5
F3
  8
1
 10
650.31868652291382
 20
4773.4843491009642
 30
0.0
 11
662.73168652291383
 21
4751.9843491009651
 31
0.0
  0
LINE
  5
F4
  8
1
 10
658.23168652291383
 20
4499.4843491009651
 30
0.0
 11
570.73168652291383
 21
4499.4843491009651
 31
0.0
  0
LINE
  5
F5
  8
1
 10
656.25268652291379
 20
4514.5044491009639
 30
0.0
 11
586.28868652291385
 21
4515.4076491009646
 31
0.0
  0
LINE
  5
F6
  8
1
 10
570.73168652291383
 20
4824.0343491009653
 30
0.0
 11
570.73168652291383
 21
4492.8388491009646
 31
0.0
  0
LINE
  5
F7
  8
1
 10
485.731686522914
 20
4561.4843491009651
 30
0.0
 11
485.731686522914
 21
4773.9843491009651
 31
0.0
  0
LINE
  5
F8
  8
1
 10
425.7319865229137
 20
4771.9843491009651
 30
0.0
 11
425.7319865229137
 21
4504.4843491009651
 31
0.0
  0
LINE
  5
F9
  8
1
 10
560.05068652291379
 20
4607.1163491009647
 30
0.0
 11
522.73168652291395
 21
4607.1163491009647
 31
0.0
  0
LINE
  5
FA
  8
1
 10
485.21168652291351
 20
4514.5044491009639
 30
0.0
 11
555.17468652291382
 21
4515.4076491009646
 31
0.0
  0
LINE
  5
FB
  8
1
 10
503.74768652291368
 20
4676.4843491009651
 30
0.0
 11
640.31268652291374
 21
4676.4843491009651
 31
0.0
  0
LINE
  5
FC
  8
1
 10
483.231686522914
 20
4499.4843491009651
 30
0.0
 11
570.73168652291383
 21
4499.4843491009651
 31
0.0
  0
LINE
  5
FD
  8
1
 10
523.23168652291395
 20
4743.309349100964
 30
0.0
 11
618.23168652291383
 21
4743.309349100964
 31
0.0
  0
LINE
  5
FE
  8
1
 10
523.23168652291395
 20
4600.9873491009648
 30
0.0
 11
618.23168652291383
 21
4600.9873491009648
 31
0.0
  0
LINE
  5
FF
  8
1
 10
614.73168652291383
 20
4736.4993491009654
 30
0.0
 11
526.73168652291395
 21
4736.4993491009654
 31
0.0
  0
LINE
  5
100
  8
1
 10
465.28768652291359
 20
4510.9843491009642
 30
0.0
 11
465.28768652291359
 21
4502.4843491009651
 31
0.0
  0
LINE
  5
101
  8
1
 10
500.73168652291412
 20
4517.8318491009641
 30
0.0
 11
500.73168652291412
 21
4493.2384491009652
 31
0.0
  0
LINE
  5
102
  8
1
 10
483.231686522914
 20
4499.4843491009651
 30
0.0
 11
483.231686522914
 21
4512.5045491009641
 31
0.0
  0
LINE
  5
103
  8
1
 10
408.58809298346517
 20
4499.4843491009651
 30
0.0
 11
408.58809298346517
 21
4511.5561458706889
 31
0.0
  0
LINE
  5
104
  8
1
 10
465.28768652291399
 20
4502.4843491009651
 30
0.0
 11
427.7319865229137
 21
4502.4843491009651
 31
0.0
  0
ARC
  5
105
  8
1
 10
427.7320865229139
 20
4504.4844491009653
 30
0.0
 40
2.0001000000000002
 50
180.00349999999989
 51
269.99650000000003
  0
LINE
  5
106
  8
1
 10
425.7319865229137
 20
4504.4843491009651
 30
0.0
 11
408.58809298346517
 21
4505.0118660649423
 31
0.0
  0
LINE
  5
107
  8
1
 10
408.58809298346517
 20
4493.4843491009651
 30
0.0
 11
408.58809298346517
 21
4481.4125523312396
 31
0.0
  0
LINE
  5
108
  8
1
 10
465.28768652291359
 20
4510.9843491009642
 30
0.0
 11
483.231686522914
 21
4510.9843491009642
 31
0.0
  0
LINE
  5
109
  8
1
 10
465.28768652291359
 20
4541.0403491009629
 30
0.0
 11
485.731686522914
 21
4561.4843491009651
 31
0.0
  0
LINE
  5
10A
  8
1
 10
465.28768652291359
 20
4510.9843491009642
 30
0.0
 11
465.28768652291359
 21
4541.0403491009629
 31
0.0
  0
LINE
  5
10B
  8
1
 10
509.23168652291412
 20
4729.309349100964
 30
0.0
 11
509.23168652291412
 21
4614.9873491009657
 31
0.0
  0
LINE
  5
10C
  8
1
 10
514.73168652291395
 20
4615.1163491009638
 30
0.0
 11
514.73168652291395
 21
4724.4993491009636
 31
0.0
  0
ARC
  5
10D
  8
1
 10
485.231686522914
 20
4512.5045491009641
 30
0.0
 40
2.0
 50
90.580499999999986
 51
180.0
  0
ARC
  5
10E
  8
1
 10
522.73168652291395
 20
4615.1163491009638
 30
0.0
 40
8.0
 50
180.0
 51
270.0
  0
ARC
  5
10F
  8
1
 10
523.23168652291395
 20
4614.9873491009657
 30
0.0
 40
14.0
 50
180.0
 51
270.0
  0
ARC
  5
110
  8
1
 10
526.73168652291395
 20
4724.4993491009636
 30
0.0
 40
12.0
 50
90.0
 51
180.0
  0
ARC
  5
111
  8
1
 10
523.23168652291395
 20
4729.309349100964
 30
0.0
 40
14.0
 50
90.0
 51
180.0
  0
LINE
  5
112
  8
1
 10
640.73168652291383
 20
4517.8318491009641
 30
0.0
 11
640.73168652291383
 21
4493.2384491009652
 31
0.0
  0
LINE
  5
113
  8
1
 10
581.41368652291385
 20
4607.1163491009647
 30
0.0
 11
618.73168652291383
 21
4607.1163491009647
 31
0.0
  0
ARC
  5
114
  8
1
 10
555.09368652291391
 20
4523.4072491009647
 30
0.0
 40
8.0
 50
270.58139999999997
 51
357.32159999999988
  0
ARC
  5
115
  8
1
 10
570.73168652291383
 20
4607.4873491009657
 30
0.0
 40
11.9999
 50
13.108000000000001
 51
166.89199999999991
  0
ARC
  5
116
  8
1
 10
560.05068652291379
 20
4610.1163491009647
 30
0.0
 40
3.0
 50
270.0
 51
346.1740999999999
  0
ARC
  5
117
  8
1
 10
555.14868652291375
 20
4611.1163491009647
 30
0.0
 40
4.0
 50
270.0
 51
346.89120000000003
  0
ARC
  5
118
  8
1
 10
586.31468652291392
 20
4611.1163491009647
 30
0.0
 40
4.0000999999999989
 50
193.1088
 51
270.0
  0
ARC
  5
119
  8
1
 10
581.41368652291385
 20
4610.1163491009647
 30
0.0
 40
3.0
 50
193.82589999999999
 51
270.0
  0
CIRCLE
  5
11A
  8
1
 10
570.73168652291383
 20
4607.4873491009657
 30
0.0
 40
3.5
  0
ARC
  5
11B
  8
1
 10
570.73168652291383
 20
4607.4873491009657
 30
0.0
 40
8.0
 50
13.825699999999999
 51
166.1742999999999
  0
ARC
  5
11C
  8
1
 10
586.36968652291375
 20
4523.4072491009647
 30
0.0
 40
8.0
 50
182.6783999999999
 51
269.41860000000003
  0
LINE
  5
11D
  8
1
 10
563.0846865229139
 20
4523.0333491009642
 30
0.0
 11
564.48668652291371
 21
4553.0016491009646
 31
0.0
  0
LINE
  5
11E
  8
1
 10
578.37868652291377
 20
4523.0333491009642
 30
0.0
 11
576.97668652291361
 21
4553.0016491009646
 31
0.0
  0
LINE
  5
11F
  8
1
 10
632.23168652291383
 20
4614.9873491009657
 30
0.0
 11
632.23168652291383
 21
4729.309349100964
 31
0.0
  0
LINE
  5
120
  8
1
 10
626.73168652291383
 20
4615.1163491009638
 30
0.0
 11
626.73168652291383
 21
4724.4993491009636
 31
0.0
  0
ARC
  5
121
  8
1
 10
618.23168652291383
 20
4614.9873491009657
 30
0.0
 40
14.0
 50
270.0
 51
0.0
  0
ARC
  5
122
  8
1
 10
618.73168652291383
 20
4615.1163491009638
 30
0.0
 40
8.0
 50
270.0
 51
0.0
  0
ARC
  5
123
  8
1
 10
614.73168652291383
 20
4724.4993491009636
 30
0.0
 40
12.0
 50
0.0
 51
90.0
  0
ARC
  5
124
  8
1
 10
618.23168652291383
 20
4729.309349100964
 30
0.0
 40
14.0
 50
0.0
 51
90.0
  0
LINE
  5
125
  8
1
 10
491.14468652291362
 20
4773.4843491009642
 30
0.0
 11
570.73168652291383
 21
4773.4843491009642
 31
0.0
  0
LINE
  5
126
  8
1
 10
485.731686522914
 20
4773.9843491009651
 30
0.0
 11
427.7319865229137
 21
4773.9843491009651
 31
0.0
  0
ARC
  5
127
  8
1
 10
427.7320865229139
 20
4771.9843491009651
 30
0.0
 40
2.0001000000000002
 50
90.003500000000003
 51
179.9965
  0
LINE
  5
128
  8
1
 10
485.83868652291397
 20
4764.2933491009644
 30
0.0
 11
491.14468652291362
 21
4773.4843491009642
 31
0.0
  0
LINE
  5
129
  8
1
 10
650.31868652291382
 20
4773.4843491009642
 30
0.0
 11
570.73168652291383
 21
4773.4843491009642
 31
0.0
  0
ARC
  5
12A
  8
1
 10
570.73168652291383
 20
4798.9843491009642
 30
0.0
 40
20.500099999999989
 50
292.51819999999992
 51
0.0
  0
LINE
  5
12B
  8
1
 10
545.11268652291392
 20
4798.9843491009642
 30
0.0
 11
597.03268652291376
 21
4798.9843491009642
 31
0.0
  0
CIRCLE
  5
12C
  8
1
 10
570.73168652291383
 20
4798.9843491009642
 30
0.0
 40
11.5
  0
ARC
  5
12D
  8
1
 10
570.73168652291383
 20
4798.9843491009642
 30
0.0
 40
20.5
 50
295.75760000000002
 51
246.82189999999991
  0
ARC
  5
12E
  8
1
 10
570.73168652291383
 20
4798.9843491009642
 30
0.0
 40
20.500099999999989
 50
293.3698
 51
247.48159999999999
  0
LINE
  5
12F
  8
1
 10
576.73168652291383
 20
4778.532349100964
 30
0.0
 11
576.73168652291383
 21
4773.4843491009642
 31
0.0
  0
ARC
  5
130
  8
1
 10
579.73168652291383
 20
4777.2763491009637
 30
0.0
 40
3.0
 50
112.5183999999999
 51
165.63069999999991
  0
ARC
  5
131
  8
1
 10
561.73168652291383
 20
4777.2763491009637
 30
0.0
 40
3.0
 50
18.553599999999999
 51
67.4816
  0
LINE
  5
132
  8
1
 10
564.73168652291383
 20
4777.903349100965
 30
0.0
 11
564.73168652291383
 21
4773.4843491009642
 31
0.0
  0
LINE
  5
133
  8
1
 10
742.73168652291417
 20
4401.6373541982884
 30
0.0
 11
742.73168652291633
 21
4765.6373541982894
 31
0.0
  0
LINE
  5
134
  8
1
 10
882.73168652291429
 20
4401.6373541982884
 30
0.0
 11
882.73168652291599
 21
4765.6373541982894
 31
0.0
  0
LINE
  5
135
  8
1
 10
764.73168652291395
 20
4672.15557112028
 30
0.0
 11
786.73168652291395
 21
4672.15557112028
 31
0.0
  0
LINE
  5
136
  8
1
 10
764.73168652291395
 20
4590.8131270816502
 30
0.0
 11
786.73168652291395
 21
4590.8131270816502
 31
0.0
  0
LINE
  5
137
  8
1
 10
734.73168652291395
 20
4539.4843491009651
 30
0.0
 11
784.73168652291395
 21
4539.4843491009651
 31
0.0
  0
LINE
  5
138
  8
2
 10
684.73168652291395
 20
4556.7355625274031
 30
0.0
 11
684.73168652291395
 21
4378.3811745020339
 31
0.0
  0
LINE
  5
139
  8
1
 10
739.23168652291395
 20
4539.4843491009651
 30
0.0
 11
739.23168652291395
 21
4389.4843491009651
 31
0.0
  0
LINE
  5
13A
  8
1
 10
734.73168652291395
 20
4539.4843491009651
 30
0.0
 11
734.73168652291395
 21
4389.4843491009651
 31
0.0
  0
LINE
  5
13B
  8
1
 10
658.23168652291383
 20
4499.4843491009651
 30
0.0
 11
658.23168652291383
 21
4512.5045491009641
 31
0.0
  0
LINE
  5
13C
  8
1
 10
691.65988975318987
 20
4511.5561458706889
 30
0.0
 11
691.65988975318987
 21
4499.4843491009651
 31
0.0
  0
LINE
  5
13D
  8
1
 10
698.58809298346523
 20
4499.4843491009651
 30
0.0
 11
698.58809298346523
 21
4511.5561458706889
 31
0.0
  0
LINE
  5
13E
  8
1
 10
670.87528006236334
 20
4499.4843491009651
 30
0.0
 11
670.87528006236334
 21
4511.5561458706889
 31
0.0
  0
LINE
  5
13F
  8
1
 10
677.8034832926387
 20
4511.5561458706889
 30
0.0
 11
677.8034832926387
 21
4499.4843491009651
 31
0.0
  0
LINE
  5
140
  8
1
 10
692.73168652291406
 20
4430.684349100964
 30
0.0
 11
744.73168652291395
 21
4430.684349100964
 31
0.0
  0
LINE
  5
141
  8
1
 10
695.12399136832755
 20
4480.4843491009642
 30
0.0
 11
674.33938167750102
 21
4480.4843491009642
 31
0.0
  0
ARC
  5
142
  8
1
 10
684.73168652291417
 20
4506.8048571766531
 30
0.0
 40
26.32050807568676
 50
254.73851957513861
 51
285.26148042486119
  0
LINE
  5
143
  8
1
 10
677.8034832926387
 20
4481.4125523312396
 30
0.0
 11
677.8034832926387
 21
4493.4843491009651
 31
0.0
  0
ARC
  5
144
  8
1
 10
674.33938167750102
 20
4487.4125523312387
 30
0.0
 40
6.9282032302754892
 50
239.9999999999996
 51
299.99999999999989
  0
LINE
  5
145
  8
1
 10
670.87528006236334
 20
4493.4843491009651
 30
0.0
 11
670.87528006236334
 21
4481.4125523312396
 31
0.0
  0
LINE
  5
146
  8
1
 10
676.73168652291395
 20
4389.4843491009651
 30
0.0
 11
676.73168652291395
 21
4480.4843491009642
 31
0.0
  0
LINE
  5
147
  8
1
 10
698.58809298346523
 20
4493.4843491009651
 30
0.0
 11
698.58809298346523
 21
4481.4125523312396
 31
0.0
  0
LINE
  5
148
  8
1
 10
691.65988975318987
 20
4481.4125523312396
 30
0.0
 11
691.65988975318987
 21
4493.4843491009651
 31
0.0
  0
ARC
  5
149
  8
1
 10
695.12399136832755
 20
4487.4125523312387
 30
0.0
 40
6.9282032302754892
 50
240.00000000000011
 51
300.00000000000028
  0
LINE
  5
14A
  8
1
 10
692.73168652291406
 20
4389.4843491009651
 30
0.0
 11
692.73168652291406
 21
4480.4843491009642
 31
0.0
  0
LINE
  5
14B
  8
1
 10
717.83624612738129
 20
4479.4843491009651
 30
0.0
 11
748.57530490782585
 21
4479.4843491009651
 31
0.0
  0
ARC
  5
14C
  8
1
 10
727.73168652291395
 20
4492.4843491009651
 30
0.0
 40
7.0
 50
359.99999999999989
 51
89.999999999999986
  0
ARC
  5
14D
  8
1
 10
727.73168652291395
 20
4492.4843491009651
 30
0.0
 40
1.0
 50
0.0
 51
90.0
  0
LINE
  5
14E
  8
1
 10
728.73168652291395
 20
4464.4843491009651
 30
0.0
 11
734.73168652291395
 21
4464.4843491009651
 31
0.0
  0
LINE
  5
14F
  8
1
 10
728.73168652291395
 20
4492.4843491009651
 30
0.0
 11
728.73168652291395
 21
4464.4843491009651
 31
0.0
  0
LINE
  5
150
  8
1
 10
712.73168652291383
 20
4690.4843491009651
 30
0.0
 11
721.73168652291383
 21
4690.4843491009651
 31
0.0
  0
LINE
  5
151
  8
1
 10
712.73168652291383
 20
4572.4843491009651
 30
0.0
 11
721.73168652291383
 21
4572.4843491009651
 31
0.0
  0
LINE
  5
152
  8
1
 10
665.73168652291383
 20
4751.9843491009651
 30
0.0
 11
665.73168652291395
 21
4510.9843491009642
 31
0.0
  0
LINE
  5
153
  8
1
 10
712.73168652291383
 20
4748.4843491009651
 30
0.0
 11
712.73168652291383
 21
4514.4843491009651
 31
0.0
  0
LINE
  5
154
  8
1
 10
692.73168652291406
 20
4557.5691818145133
 30
0.0
 11
676.73168652291417
 21
4557.5691818145133
 31
0.0
  0
LINE
  5
155
  8
1
 10
674.33938167750102
 20
4512.4843491009642
 30
0.0
 11
695.12399136832755
 21
4512.4843491009642
 31
0.0
  0
ARC
  5
156
  8
1
 10
684.73168652291417
 20
4486.1638410252781
 30
0.0
 40
26.32050807568676
 50
74.738519575138611
 51
105.2614804248612
  0
ARC
  5
157
  8
1
 10
656.23168652291383
 20
4512.5045491009641
 30
0.0
 40
2.0
 50
0.0
 51
89.419499999999999
  0
LINE
  5
158
  8
1
 10
665.73168652291383
 20
4510.9843491009642
 30
0.0
 11
658.23168652291383
 21
4510.9843491009642
 31
0.0
  0
LINE
  5
159
  8
1
 10
665.73168652291383
 20
4512.4843491009642
 30
0.0
 11
679.73168652291406
 21
4512.4843491009642
 31
0.0
  0
ARC
  5
15A
  8
1
 10
674.33938167750102
 20
4505.5561458706889
 30
0.0
 40
6.9282032302754892
 50
60.000000000000142
 51
120.0000000000003
  0
LINE
  5
15B
  8
1
 10
676.73168652291395
 20
4512.4843491009642
 30
0.0
 11
676.73168652291395
 21
4557.5691818145133
 31
0.0
  0
LINE
  5
15C
  8
1
 10
695.73168652291395
 20
4512.4843491009642
 30
0.0
 11
710.73168652291383
 21
4512.4843491009642
 31
0.0
  0
ARC
  5
15D
  8
1
 10
710.73168652291383
 20
4514.4844491009644
 30
0.0
 40
2.0001000000000002
 50
270.0
 51
359.99650000000003
  0
ARC
  5
15E
  8
1
 10
695.12399136832755
 20
4505.5561458706889
 30
0.0
 40
6.9282032302754892
 50
59.999999999999623
 51
119.9999999999998
  0
LINE
  5
15F
  8
1
 10
692.73168652291406
 20
4512.4843491009642
 30
0.0
 11
692.73168652291406
 21
4557.5691818145133
 31
0.0
  0
LINE
  5
160
  8
1
 10
665.73168652291383
 20
4750.4843491009651
 30
0.0
 11
710.73168652291383
 21
4750.4843491009651
 31
0.0
  0
LINE
  5
161
  8
1
 10
665.73168652291383
 20
4751.9843491009651
 30
0.0
 11
662.73168652291383
 21
4751.9843491009651
 31
0.0
  0
LINE
  5
162
  8
1
 10
662.73168652291383
 20
4751.9843491009651
 30
0.0
 11
665.73168652291383
 21
4751.9843491009651
 31
0.0
  0
LINE
  5
163
  8
1
 10
665.73168652291383
 20
4751.9843491009651
 30
0.0
 11
662.73168652291383
 21
4751.9843491009651
 31
0.0
  0
ARC
  5
164
  8
1
 10
710.73168652291383
 20
4748.4843491009651
 30
0.0
 40
2.0001000000000002
 50
0.0
 51
89.996499999999997
  0
LINE
  5
165
  8
1
 10
764.73168652291383
 20
4590.8131270816502
 30
0.0
 11
764.73168652291395
 21
4672.15557112028
 31
0.0
  0
LINE
  5
166
  8
1
 10
729.73168652291383
 20
4611.4843491009642
 30
0.0
 11
729.73168652291383
 21
4651.4843491009642
 31
0.0
  0
LINE
  5
167
  8
1
 10
722.73168652291383
 20
4573.4843491009642
 30
0.0
 11
722.73168652291383
 21
4689.4843491009651
 31
0.0
  0
LINE
  5
168
  8
1
 10
729.73168652291383
 20
4612.4843491009651
 30
0.0
 11
764.73168652291395
 21
4612.4843491009651
 31
0.0
  0
LINE
  5
169
  8
1
 10
722.73168652291383
 20
4611.4843491009642
 30
0.0
 11
729.73168652291383
 21
4611.4843491009642
 31
0.0
  0
ARC
  5
16A
  8
1
 10
721.73168652291383
 20
4573.4843491009642
 30
0.0
 40
0.9999
 50
269.99299999999999
 51
0.0035
  0
LINE
  5
16B
  8
1
 10
729.73168652291383
 20
4650.4843491009651
 30
0.0
 11
764.73168652291395
 21
4650.4843491009651
 31
0.0
  0
ARC
  5
16C
  8
1
 10
721.73268652291381
 20
4689.4843491009651
 30
0.0
 40
0.9998000000000001
 50
359.99299999999999
 51
90.013999999999982
  0
LINE
  5
16D
  8
1
 10
722.73168652291383
 20
4651.4843491009642
 30
0.0
 11
729.73168652291383
 21
4651.4843491009642
 31
0.0
  0
LINE
  5
16E
  8
1
 10
746.73168652291383
 20
4650.4843491009651
 30
0.0
 11
746.73168652291383
 21
4653.4843491009651
 31
0.0
  0
LINE
  5
16F
  8
1
 10
746.73168652291383
 20
4653.4843491009651
 30
0.0
 11
764.73168652291395
 21
4653.4843491009651
 31
0.0
  0
LINE
  5
170
  8
1
 10
886.73168652291383
 20
4411.9843491009651
 30
0.0
 11
784.73168652291395
 21
4539.4843491009651
 31
0.0
  0
LINE
  5
171
  8
1
 10
886.73168652291395
 20
4427.4843491009651
 30
0.0
 11
886.73168652291395
 21
4389.4843491009651
 31
0.0
  0
LINE
  5
172
  8
1
 10
786.73168652291395
 20
4555.8055711202824
 30
0.0
 11
836.73168652291395
 21
4555.8055711202796
 31
0.0
  0
LINE
  5
173
  8
1
 10
786.73168652291395
 20
4699.5055711202804
 30
0.0
 11
836.73168652291395
 21
4699.5055711202804
 31
0.0
  0
LINE
  5
174
  8
1
 10
882.73168652291599
 20
4765.6373541982894
 30
0.0
 11
742.73168652291633
 21
4765.6373541982894
 31
0.0
  0
DIMENSION
  5
175
  8
3
  2
*D19
 10
1175.2762982682541
 20
3867.4843491009642
 30
0.0
 11
1145.276298268253
 21
4147.4843491009651
 31
0.0
 70
     0
  1
%%c<>
 13
994.73168652291395
 23
4427.4843491009651
 33
0.0
 14
994.73168652291395
 24
3867.4843491009642
 34
0.0
 50
90.0
1001
ACAD
1000
DSTYLE
1002
{
1070
   287
1070
     5
1070
   287
1070
     5
1070
   287
1070
     5
1070
   287
1070
     5
1070
   287
1070
     5
1070
    40
1040
15.0
1070
   279
1070
     2
1070
   289
1070
     3
1002
}
  0
LINE
  5
182
  8
1
 10
964.73168652291406
 20
4457.4843491009651
 30
0.0
 11
964.73168652291383
 21
3837.4843491009642
 31
0.0
  0
LINE
  5
183
  8
1
 10
967.73168652291406
 20
4434.4843491009651
 30
0.0
 11
967.73168652291395
 21
3860.4843491009642
 31
0.0
  0
LINE
  5
184
  8
1
 10
994.73168652291395
 20
4427.4843491009651
 30
0.0
 11
994.73168652291395
 21
3867.4843491009642
 31
0.0
  0
LINE
  5
185
  8
1
 10
961.53168652291379
 20
4457.4843491009651
 30
0.0
 11
961.53168652291379
 21
3837.4843491009642
 31
0.0
  0
LINE
  5
186
  8
1
 10
964.73168652291406
 20
4457.4843491009651
 30
0.0
 11
964.73168652291383
 21
3837.4843491009642
 31
0.0
  0
LINE
  5
187
  8
1
 10
961.53168652291436
 20
3787.4843491009651
 30
0.0
 11
901.53168652291413
 21
3787.4843491009651
 31
0.0
  0
LINE
  5
188
  8
1
 10
961.53168652291436
 20
3947.4843491009651
 30
0.0
 11
957.03168652291436
 21
3947.4843491009651
 31
0.0
  0
LINE
  5
189
  8
2
 10
944.73168652291383
 20
3849.9843491009642
 30
0.0
 11
984.73168652291395
 21
3849.9843491009642
 31
0.0
  0
LINE
  5
18A
  8
1
 10
957.03168652291436
 20
3947.4843491009651
 30
0.0
 11
957.03168652291436
 21
3791.9843491009651
 31
0.0
  0
LINE
  5
18B
  8
1
 10
957.03168652291436
 20
3791.9843491009651
 30
0.0
 11
901.53168652291413
 21
3791.9843491009651
 31
0.0
  0
LINE
  5
18C
  8
2
 10
924.73168652291395
 20
3759.8370465094358
 30
0.0
 11
924.73168652291406
 21
3815.0667942502769
 31
0.0
  0
LINE
  5
18D
  8
1
 10
901.53168652291413
 20
3791.9843491009651
 30
0.0
 11
901.53168652291413
 21
3787.4843491009642
 31
0.0
  0
LINE
  5
18E
  8
1
 10
961.53168652291436
 20
3906.0684720527029
 30
0.0
 11
961.53168652291436
 21
3787.4843491009642
 31
0.0
  0
LINE
  5
18F
  8
1
 10
961.53168652291436
 20
3906.0684720527029
 30
0.0
 11
961.5316865229139
 21
3827.4843491009651
 31
0.0
  0
LINE
  5
190
  8
1
 10
994.73168652291395
 20
3867.4843491009642
 30
0.0
 11
964.73168652291383
 21
3867.4843491009642
 31
0.0
  0
LINE
  5
191
  8
1
 10
971.73168652291395
 20
3864.4843491009642
 30
0.0
 11
992.73168652291406
 21
3864.4843491009642
 31
0.0
  0
ARC
  5
192
  8
1
 10
971.73168652291395
 20
3860.4843491009642
 30
0.0
 40
4.0
 50
90.0
 51
180.0
  0
LINE
  5
193
  8
1
 10
967.73168652291406
 20
3839.4843491009642
 30
0.0
 11
967.73168652291406
 21
3860.4843491009642
 31
0.0
  0
ARC
  5
194
  8
1
 10
965.73168652291406
 20
3839.4843491009642
 30
0.0
 40
2.0
 50
270.0
 51
0.0
  0
LINE
  5
195
  8
1
 10
964.73168652291406
 20
3837.4843491009642
 30
0.0
 11
965.73168652291406
 21
3837.4843491009642
 31
0.0
  0
LINE
  5
196
  8
1
 10
961.53168652291379
 20
3837.4843491009642
 30
0.0
 11
964.73168652291406
 21
3837.4843491009642
 31
0.0
  0
LINE
  5
197
  8
1
 10
994.73168652291395
 20
3866.4843491009642
 30
0.0
 11
994.73168652291395
 21
3867.4843491009642
 31
0.0
  0
ARC
  5
198
  8
1
 10
992.73168652291406
 20
3866.4843491009642
 30
0.0
 40
2.0
 50
270.0
 51
0.0
  0
LINE
  5
199
  8
2
 10
944.73168652291383
 20
4444.9843491009651
 30
0.0
 11
984.73168652291395
 21
4444.9843491009651
 31
0.0
  0
LINE
  5
19A
  8
1
 10
924.73168652291406
 20
4389.4843491009651
 30
0.0
 11
924.73168652291406
 21
4337.4843491009642
 31
0.0
  0
LINE
  5
19B
  8
1
 10
924.73168652291406
 20
4427.4843491009651
 30
0.0
 11
924.73168652291406
 21
4389.4843491009651
 31
0.0
  0
LINE
  5
19C
  8
1
 10
905.73168652291429
 20
4395.4843491009651
 30
0.0
 11
905.73168652291429
 21
4421.4843491009651
 31
0.0
  0
LINE
  5
19D
  8
1
 10
971.73168652291395
 20
4430.4843491009642
 30
0.0
 11
992.73168652291406
 21
4430.4843491009642
 31
0.0
  0
LINE
  5
19E
  8
1
 10
994.73168652291395
 20
4427.4843491009651
 30
0.0
 11
964.73168652291406
 21
4427.4843491009651
 31
0.0
  0
LINE
  5
19F
  8
1
 10
964.73168652291406
 20
4457.4843491009651
 30
0.0
 11
965.73168652291406
 21
4457.4843491009651
 31
0.0
  0
ARC
  5
1A0
  8
1
 10
965.73168652291406
 20
4455.4843491009651
 30
0.0
 40
2.0
 50
0.0
 51
90.0
  0
LINE
  5
1A1
  8
1
 10
967.73168652291406
 20
4455.4843491009651
 30
0.0
 11
967.73168652291406
 21
4434.4843491009651
 31
0.0
  0
ARC
  5
1A2
  8
1
 10
971.73168652291395
 20
4434.4843491009651
 30
0.0
 40
4.0
 50
180.0
 51
270.0
  0
LINE
  5
1A3
  8
1
 10
961.53168652291379
 20
4457.4843491009651
 30
0.0
 11
964.73168652291406
 21
4457.4843491009651
 31
0.0
  0
ARC
  5
1A4
  8
1
 10
992.73168652291406
 20
4428.4843491009651
 30
0.0
 40
2.0
 50
0.0
 51
90.0
  0
LINE
  5
1A5
  8
1
 10
994.73168652291395
 20
4428.4843491009651
 30
0.0
 11
994.73168652291395
 21
4427.4843491009651
 31
0.0
  0
LINE
  5
1A6
  8
4
 10
2966.4879898126851
 20
6486.0317931656909
 30
0.0
 11
2966.4879898126851
 21
2061.03179316569
 31
0.0
  0
TEXT
  5
1A8
  8
4
 10
1596.469733190906
 20
2536.7711695856051
 30
0.0
 40
75.0
  1
AP＃560-2
  0
TEXT
  5
1A9
  8
4
 10
1583.0061080441819
 20
2694.8894466020438
 30
0.0
 40
75.0
  1
ミツヤ軸流フアン
  0
LINE
  5
1AA
  8
4
 10
1541.4879898126851
 20
2811.0317931656909
 30
0.0
 11
1541.4879898126851
 21
2511.03179316569
 31
0.0
  0
LINE
  5
1AB
  8
4
 10
2591.4879898126851
 20
2811.0317931656909
 30
0.0
 11
2591.4879898126851
 21
2511.03179316569
 31
0.0
  0
DIMENSION
  5
1AC
  8
3
  2
*D21
 10
2386.478409697474
 20
3597.4772272042592
 30
0.0
 11
2453.3031889913
 21
3635.7192262693161
 31
0.0
 70
   128
 13
2361.478409697474
 23
3759.8370465094358
 33
0.0
 14
2386.478409697474
 24
3787.4843491009692
 34
0.0
1001
ACAD
1000
DSTYLE
1002
{
1070
   287
1070
     5
1070
   287
1070
     5
1070
    40
1040
15.0
1070
   279
1070
     2
1070
   289
1070
     3
1002
}
  0
DIMENSION
  5
1BB
  8
3
  2
*D22
 10
2386.478409697474
 20
3454.572923692363
 30
0.0
 11
2136.478409697474
 21
3484.572923692363
 31
0.0
 70
     0
 13
1886.478409697474
 23
3787.4843491009651
 33
0.0
 14
2386.478409697474
 24
3787.4843491009692
 34
0.0
1001
ACAD
1000
DSTYLE
1002
{
1070
   287
1070
     5
1070
   287
1070
     5
1070
    40
1040
15.0
1070
   279
1070
     2
1070
   289
1070
     3
1002
}
  0
LINE
  5
1C8
  8
4
 10
2591.4879898126851
 20
6082.9271678537916
 30
0.0
 11
1977.414123352482
 21
6082.9271678537916
 31
0.0
  0
LINE
  5
1C9
  8
4
 10
1977.414123352482
 20
6241.0101854903196
 30
0.0
 11
2591.4879898126851
 21
6241.0101854903196
 31
0.0
  0
TEXT
  5
1CA
  8
4
 10
1957.933796452696
 20
5636.1750551644636
 30
0.0
 40
80.999999999999986
  1
縮尺：1/15
  0
DIMENSION
  5
1CB
  8
3
  2
*D23
 10
2446.478409697474
 20
5040.3627128204098
 30
0.0
 11
2136.478409697474
 21
5070.3627128204107
 31
0.0
 70
     0
 13
1826.478409697474
 23
4147.4843491009651
 33
0.0
 14
2446.478409697474
 24
4147.4843491009651
 34
0.0
1001
ACAD
1000
DSTYLE
1002
{
1070
   287
1070
     5
1070
   287
1070
     5
1070
   287
1070
     5
1070
   287
1070
     5
1070
   287
1070
     5
1070
    40
1040
15.0
1070
   279
1070
     2
1070
   289
1070
     3
1002
}
  0
LINE
  5
1D8
  8
1
 10
1886.478409697474
 20
3787.4843491009651
 30
0.0
 11
2386.478409697474
 21
3787.4843491009692
 31
0.0
  0
LINE
  5
1D9
  8
2
 10
1811.478409697474
 20
4147.4843491009651
 30
0.0
 11
2461.478409697474
 21
4147.4843491009651
 31
0.0
  0
CIRCLE
  5
1DA
  8
1
 10
2136.478409697474
 20
4147.4843491009651
 30
0.0
 40
283.19999999999987
  0
CIRCLE
  5
1DB
  8
1
 10
2136.478409697474
 20
4147.4843491009651
 30
0.0
 40
310.0
  0
CIRCLE
  5
1DC
  8
1
 10
2136.478409697474
 20
4147.4843491009651
 30
0.0
 40
280.0
  0
DIMENSION
  5
1DD
  8
3
  2
*D24
 10
1886.478409697474
 20
3597.4772272042592
 30
0.0
 11
1816.6482400042039
 21
3635.7192262693161
 31
0.0
 70
   128
 13
1911.478409697474
 23
3759.8370465094358
 33
0.0
 14
1886.478409697474
 24
3787.4843491009651
 34
0.0
1001
ACAD
1000
DSTYLE
1002
{
1070
   287
1070
     5
1070
   287
1070
     5
1070
    40
1040
15.0
1070
   279
1070
     2
1070
   289
1070
     3
1002
}
  0
DIMENSION
  5
1EC
  8
3
  2
*D25
 10
1588.1272165379301
 20
3787.4843491009651
 30
0.0
 11
1558.1272165379289
 21
3967.4843491009651
 31
0.0
 70
     0
 13
1811.478409697474
 23
4147.4843491009651
 33
0.0
 14
1886.478409697474
 24
3787.4843491009651
 34
0.0
 50
90.0
1001
ACAD
1000
DSTYLE
1002
{
1070
   287
1070
     5
1070
   287
1070
     5
1070
   287
1070
     5
1070
   287
1070
     5
1070
   287
1070
     5
1070
    40
1040
15.0
1070
   279
1070
     2
1070
   289
1070
     3
1002
}
  0
POINT
  5
1F9
  8
1
 10
1853.278409697474
 20
4147.4843491009633
 30
0.0
  0
LINE
  5
1FA
  8
1
 10
2064.5129955604712
 20
4629.2529441422857
 30
0.0
 11
2079.5057901723462
 21
4145.7178201753441
 31
0.0
  0
LINE
  5
1FB
  8
1
 10
2208.4438238344769
 20
4629.2529441422857
 30
0.0
 11
2193.4510292226018
 21
4145.7178201753441
 31
0.0
  0
LINE
  5
1FC
  8
2
 10
2136.478409697474
 20
3699.924037000384
 30
0.0
 11
2136.478409697474
 21
4881.2314675911894
 31
0.0
  0
DIMENSION
  5
1FD
  8
3
  2
*D26
 10
2361.478409697474
 20
3597.4772272042592
 30
0.0
 11
2136.478409697474
 21
3627.4772272042592
 31
0.0
 70
     0
 13
1911.478409697474
 23
3759.8370465094358
 33
0.0
 14
2361.478409697474
 24
3759.8370465094358
 34
0.0
1001
ACAD
1000
DSTYLE
1002
{
1070
   287
1070
     5
1070
   287
1070
     5
1070
    40
1040
15.0
1070
   279
1070
     2
1070
   289
1070
     3
1002
}
  0
CIRCLE
  5
20A
  8
1
 10
2136.478409697474
 20
4147.4843491009651
 30
0.0
 40
57.0
  0
LINE
  5
20B
  8
1
 10
1886.478409697474
 20
3787.4843491009651
 30
0.0
 11
1886.478409697477
 21
3964.1813213027281
 31
0.0
  0
LINE
  5
20C
  8
2
 10
1911.478409697474
 20
3759.8370465094358
 30
0.0
 11
1911.478409697474
 21
3812.6464307728611
 31
0.0
  0
LINE
  5
20D
  8
2
 10
2361.478409697474
 20
3759.8370465094358
 30
0.0
 11
2361.478409697474
 21
3812.6464307728611
 31
0.0
  0
LINE
  5
20E
  8
2
 10
2278.4348096974741
 20
4631.4843491009651
 30
0.0
 11
1986.933409697474
 21
4631.4843491009651
 31
0.0
  0
ARC
  5
20F
  8
1
 10
2136.478409697474
 20
4631.4843491009651
 30
0.0
 40
142.5
 50
295.18740000000003
 51
180.0
  0
LINE
  5
210
  8
1
 10
2018.9784096974749
 20
4769.4661321789717
 30
0.0
 11
2253.978409697474
 21
4769.4661321789717
 31
0.0
  0
LINE
  5
211
  8
1
 10
2075.9371096974742
 20
4502.4843491009651
 30
0.0
 11
2197.0197096974739
 21
4502.4843491009651
 31
0.0
  0
CIRCLE
  5
212
  8
1
 10
2136.478409697474
 20
4631.4843491009651
 30
0.0
 40
72.0
  0
LINE
  5
213
  8
1
 10
1971.478409697474
 20
4493.4843491009651
 30
0.0
 11
2301.478409697474
 21
4493.4843491009651
 31
0.0
  0
LINE
  5
214
  8
1
 10
1971.478409697474
 20
4464.4843491009651
 30
0.0
 11
2301.478409697474
 21
4464.4843491009651
 31
0.0
  0
LINE
  5
215
  8
1
 10
1971.478409697474
 20
4499.4843491009651
 30
0.0
 11
2301.478409697474
 21
4499.4843491009651
 31
0.0
  0
LINE
  5
216
  8
1
 10
2018.9784096974749
 20
4769.4661321789717
 30
0.0
 11
2018.978409697474
 21
4405.4661321789708
 31
0.0
  0
LINE
  5
217
  8
1
 10
1990.478409697474
 20
4726.4843491009651
 30
0.0
 11
2030.157809697474
 21
4726.4843491009651
 31
0.0
  0
LINE
  5
218
  8
1
 10
2010.5731096974739
 20
4676.4843491009651
 30
0.0
 11
1979.545709697474
 21
4676.4843491009651
 31
0.0
  0
ARC
  5
219
  8
1
 10
2008.478409697474
 20
4512.4843491009642
 30
0.0
 40
2.0
 50
90.0
 51
180.0
  0
LINE
  5
21A
  8
1
 10
2016.9528096974741
 20
4553.5756491009652
 30
0.0
 11
2006.478409697474
 21
4514.4843491009651
 31
0.0
  0
ARC
  5
21B
  8
1
 10
2136.478409697474
 20
4631.4843491009651
 30
0.0
 40
142.5
 50
180.0
 51
244.78700000000001
  0
LINE
  5
21C
  8
1
 10
2006.478409697474
 20
4499.4843491009651
 30
0.0
 11
2056.478409697474
 21
4499.4843491009651
 31
0.0
  0
LINE
  5
21D
  8
1
 10
2006.478409697474
 20
4514.2869491009642
 30
0.0
 11
2006.478409697474
 21
4499.4843491009651
 31
0.0
  0
LINE
  5
21E
  8
1
 10
1931.4784096974749
 20
4389.4843491009651
 30
0.0
 11
1931.4784096974749
 21
4539.4843491009651
 31
0.0
  0
LINE
  5
21F
  8
1
 10
1971.4784096974749
 20
4409.924818541178
 30
0.0
 11
1971.4784096974749
 21
4539.4843491009651
 31
0.0
  0
LINE
  5
220
  8
1
 10
1966.978409697474
 20
4409.924818541178
 30
0.0
 11
1966.978409697474
 21
4539.4843491009651
 31
0.0
  0
ARC
  5
221
  8
1
 10
1948.978409697474
 20
4509.4843491009651
 30
0.0
 40
6.0
 50
0.0
 51
180.0
  0
ARC
  5
222
  8
1
 10
1948.978409697474
 20
4449.4843491009651
 30
0.0
 40
6.0
 50
180.0
 51
0.0
  0
LINE
  5
223
  8
1
 10
1926.718920524198
 20
4375.7406889948797
 30
0.0
 11
1926.718920524198
 21
4384.4843491009651
 31
0.0
  0
LINE
  5
224
  8
1
 10
1922.2189205241989
 20
4371.5220050858597
 30
0.0
 11
1922.2189205241989
 21
4384.4843491009651
 31
0.0
  0
ARC
  5
225
  8
1
 10
1927.218920524198
 20
4384.4843491009651
 30
0.0
 40
0.5
 50
90.0
 51
180.00000000000051
  0
ARC
  5
226
  8
1
 10
1927.2189205241989
 20
4384.4843491009651
 30
0.0
 40
5.0
 50
90.0
 51
180.0
  0
LINE
  5
227
  8
1
 10
1942.7363130844769
 20
4389.4843491009651
 30
0.0
 11
1927.2189205241989
 21
4389.4843491009651
 31
0.0
  0
LINE
  5
228
  8
1
 10
1937.245505788507
 20
4384.9843491009651
 30
0.0
 11
1927.218920524198
 21
4384.9843491009651
 31
0.0
  0
LINE
  5
229
  8
1
 10
1942.9784096974749
 20
4509.4843491009651
 30
0.0
 11
1942.9784096974749
 21
4449.4843491009651
 31
0.0
  0
LINE
  5
22A
  8
1
 10
1954.9784096974749
 20
4509.4843491009651
 30
0.0
 11
1954.9784096974749
 21
4449.4843491009651
 31
0.0
  0
LINE
  5
22B
  8
1
 10
1979.6401096974739
 20
4736.3813491009641
 30
0.0
 11
1944.0186096974739
 21
4732.0203491009652
 31
0.0
  0
LINE
  5
22C
  8
1
 10
1934.1403096974741
 20
4611.4843491009642
 30
0.0
 11
1980.478409697474
 21
4611.4843491009642
 31
0.0
  0
LINE
  5
22D
  8
1
 10
1986.372709697474
 20
4742.0653491009652
 30
0.0
 11
1929.921309697474
 21
4600.9373491009646
 31
0.0
  0
LINE
  5
22E
  8
1
 10
1982.101709697474
 20
4742.1583491009642
 30
0.0
 11
1926.7645096974741
 21
4603.8153491009652
 31
0.0
  0
LINE
  5
22F
  8
1
 10
1971.4784096974749
 20
4539.4843491009651
 30
0.0
 11
1931.4784096974749
 21
4539.4843491009651
 31
0.0
  0
LINE
  5
230
  8
1
 10
1930.859709697474
 20
4717.8653491009636
 30
0.0
 11
1925.5832096974741
 21
4610.2363491009646
 31
0.0
  0
ARC
  5
231
  8
1
 10
1928.5796096974741
 20
4610.0893491009647
 30
0.0
 40
3.0
 50
177.19419999999991
 51
248.19789999999989
  0
LINE
  5
232
  8
1
 10
1927.988609697474
 20
4607.0953491009641
 30
0.0
 11
1927.4654096974739
 21
4607.3043491009648
 31
0.0
  0
LINE
  5
233
  8
1
 10
1929.921309697474
 20
4600.9373491009646
 30
0.0
 11
1927.600109697474
 21
4601.8653491009636
 31
0.0
  0
ARC
  5
234
  8
1
 10
1928.1572096974739
 20
4603.2583491009636
 30
0.0
 40
1.5
 50
158.19690000000011
 51
248.1989999999999
  0
ARC
  5
235
  8
1
 10
1945.841709697474
 20
4717.1313491009641
 30
0.0
 40
15.0
 50
96.981099999999984
 51
177.19329999999991
  0
LINE
  5
236
  8
1
 10
1991.478409697474
 20
4626.4843491009651
 30
0.0
 11
1991.478409697474
 21
4726.4843491009651
 31
0.0
  0
LINE
  5
237
  8
1
 10
1990.478409697474
 20
4625.8283491009643
 30
0.0
 11
1990.478409697474
 21
4726.4323491009654
 31
0.0
  0
LINE
  5
238
  8
1
 10
1990.478409697474
 20
4621.4843491009651
 30
0.0
 11
1990.478409697474
 21
4730.4843491009642
 31
0.0
  0
LINE
  5
239
  8
1
 10
1955.478409697474
 20
4613.9793491009641
 30
0.0
 11
1955.478409697474
 21
4607.4803491009643
 31
0.0
  0
LINE
  5
23A
  8
1
 10
1994.0662096974741
 20
4626.4843491009651
 30
0.0
 11
1990.478409697474
 21
4626.4843491009651
 31
0.0
  0
ARC
  5
23B
  8
1
 10
1980.478409697474
 20
4621.4843491009651
 30
0.0
 40
10.0
 50
270.0
 51
0.0
  0
LINE
  5
23C
  8
1
 10
1984.076309697474
 20
4736.4843491009642
 30
0.0
 11
1984.478409697474
 21
4736.4843491009642
 31
0.0
  0
ARC
  5
23D
  8
1
 10
1983.4945096974741
 20
4741.6013491009662
 30
0.0
 40
1.5000999999999991
 50
68.198999999999998
 51
158.19770000000011
  0
LINE
  5
23E
  8
1
 10
1991.478409697474
 20
4726.4843491009651
 30
0.0
 11
1990.478409697474
 21
4726.4843491009651
 31
0.0
  0
ARC
  5
23F
  8
1
 10
1984.478409697474
 20
4730.4843491009642
 30
0.0
 40
6.0
 50
0.0
 51
90.0
  0
LINE
  5
240
  8
1
 10
1986.372709697474
 20
4742.0653491009652
 30
0.0
 11
1984.0515096974741
 21
4742.9933491009651
 31
0.0
  0
ARC
  5
241
  8
1
 10
2061.4783096974738
 20
4507.4133491009652
 30
0.0
 40
4.9999000000000002
 50
134.99950000000001
 51
180.0
  0
LINE
  5
242
  8
2
 10
2028.478409697474
 20
4517.5227491009637
 30
0.0
 11
2028.478409697474
 21
4496.5393491009663
 31
0.0
  0
LINE
  5
243
  8
1
 10
2056.478409697474
 20
4499.4843491009651
 30
0.0
 11
2056.478409697474
 21
4507.4133491009652
 31
0.0
  0
LINE
  5
244
  8
1
 10
2043.2652096974739
 20
4514.4843491009651
 30
0.0
 11
2008.478409697474
 21
4514.4843491009651
 31
0.0
  0
LINE
  5
245
  8
1
 10
2058.7163096974741
 20
4511.7223491009636
 30
0.0
 11
2057.9429096974741
 21
4510.9488491009652
 31
0.0
  0
ARC
  5
246
  8
1
 10
2043.2652096974739
 20
4517.4843491009651
 30
0.0
 40
3.0
 50
270.0
 51
315.0
  0
LINE
  5
247
  8
1
 10
2048.7651096974751
 20
4518.7416491009644
 30
0.0
 11
2045.3865096974739
 21
4515.3630491009644
 31
0.0
  0
LINE
  5
248
  8
1
 10
2052.5855096974742
 20
4746.8373491009643
 30
0.0
 11
2008.9383096974741
 21
4726.4843491009651
 31
0.0
  0
LINE
  5
249
  8
1
 10
2253.978409697474
 20
4769.4661321789717
 30
0.0
 11
2253.978409697474
 21
4405.4661321789708
 31
0.0
  0
LINE
  5
24A
  8
1
 10
2266.478409697474
 20
4499.4843491009651
 30
0.0
 11
2216.478409697474
 21
4499.4843491009651
 31
0.0
  0
LINE
  5
24B
  8
1
 10
2229.6916096974751
 20
4514.4843491009651
 30
0.0
 11
2264.478409697474
 21
4514.4843491009651
 31
0.0
  0
ARC
  5
24C
  8
1
 10
2211.4785096974738
 20
4507.4133491009652
 30
0.0
 40
4.9999000000000002
 50
0.0
 51
45.000500000000002
  0
LINE
  5
24D
  8
2
 10
2244.478409697474
 20
4517.5227491009637
 30
0.0
 11
2244.478409697474
 21
4496.5393491009663
 31
0.0
  0
LINE
  5
24E
  8
1
 10
2216.478409697474
 20
4499.4843491009651
 30
0.0
 11
2216.478409697474
 21
4507.4133491009652
 31
0.0
  0
LINE
  5
24F
  8
1
 10
2215.3582096974742
 20
4510.6045491009636
 30
0.0
 11
2213.9873096974738
 21
4511.9754491009644
 31
0.0
  0
ARC
  5
250
  8
1
 10
2229.6916096974751
 20
4517.4843491009651
 30
0.0
 40
3.0
 50
225.0
 51
270.0
  0
LINE
  5
251
  8
1
 10
2223.9414096974738
 20
4518.9918491009648
 30
0.0
 11
2227.5703096974739
 21
4515.3630491009644
 31
0.0
  0
LINE
  5
252
  8
1
 10
2266.478409697474
 20
4514.2869491009642
 30
0.0
 11
2266.478409697474
 21
4499.4843491009651
 31
0.0
  0
ARC
  5
253
  8
1
 10
2323.978409697474
 20
4509.4843491009651
 30
0.0
 40
6.0
 50
0.0
 51
180.0
  0
LINE
  5
254
  8
1
 10
2305.978409697474
 20
4409.924818541178
 30
0.0
 11
2305.978409697474
 21
4539.4843491009651
 31
0.0
  0
LINE
  5
255
  8
1
 10
2301.478409697474
 20
4409.924818541178
 30
0.0
 11
2301.478409697474
 21
4539.4843491009651
 31
0.0
  0
LINE
  5
256
  8
1
 10
2341.478409697474
 20
4389.4843491009651
 30
0.0
 11
2341.478409697474
 21
4539.4843491009651
 31
0.0
  0
LINE
  5
257
  8
1
 10
2350.7378988707501
 20
4371.5220050858597
 30
0.0
 11
2350.7378988707501
 21
4384.4843491009651
 31
0.0
  0
LINE
  5
258
  8
1
 10
2346.237898870751
 20
4375.7406889948797
 30
0.0
 11
2346.237898870751
 21
4384.4843491009651
 31
0.0
  0
LINE
  5
259
  8
1
 10
2335.7113136064422
 20
4384.9843491009651
 30
0.0
 11
2345.737898870751
 21
4384.9843491009651
 31
0.0
  0
LINE
  5
25A
  8
1
 10
2330.220506310472
 20
4389.4843491009651
 30
0.0
 11
2345.7378988707501
 21
4389.4843491009651
 31
0.0
  0
LINE
  5
25B
  8
1
 10
2329.978409697474
 20
4509.4843491009651
 30
0.0
 11
2329.978409697474
 21
4449.4843491009651
 31
0.0
  0
LINE
  5
25C
  8
1
 10
2317.978409697474
 20
4509.4843491009651
 30
0.0
 11
2317.978409697474
 21
4449.4843491009651
 31
0.0
  0
ARC
  5
25D
  8
1
 10
2323.978409697474
 20
4449.4843491009651
 30
0.0
 40
6.0
 50
180.0
 51
0.0
  0
ARC
  5
25E
  8
1
 10
2345.7378988707501
 20
4384.4843491009651
 30
0.0
 40
5.0
 50
0.0
 51
90.0
  0
ARC
  5
25F
  8
1
 10
2345.737898870751
 20
4384.4843491009651
 30
0.0
 40
0.5
 50
359.99999999999937
 51
90.0
  0
LINE
  5
260
  8
1
 10
2301.478409697474
 20
4539.4843491009651
 30
0.0
 11
2341.478409697474
 21
4539.4843491009651
 31
0.0
  0
ARC
  5
261
  8
1
 10
2264.478409697474
 20
4512.4843491009642
 30
0.0
 40
2.0
 50
0.0
 51
90.0
  0
LINE
  5
262
  8
1
 10
2255.9612096974738
 20
4553.7349491009636
 30
0.0
 11
2266.478409697474
 21
4514.4843491009651
 31
0.0
  0
LINE
  5
263
  8
1
 10
2130.9609096974741
 20
4774.0573491009654
 30
0.0
 11
2141.850909697474
 21
4774.0573491009654
 31
0.0
  0
ARC
  5
264
  8
1
 10
2136.478409697474
 20
4814.9843491009651
 30
0.0
 40
4.5
 50
0.0
 51
180.0
  0
LINE
  5
265
  8
1
 10
2131.4609096974741
 20
4778.4373491009637
 30
0.0
 11
2141.350909697474
 21
4778.4373491009637
 31
0.0
  0
LINE
  5
266
  8
1
 10
2131.978409697474
 20
4780.7943491009637
 30
0.0
 11
2131.978409697474
 21
4814.9843491009651
 31
0.0
  0
LINE
  5
267
  8
1
 10
2136.4059096974738
 20
4773.1133491009641
 30
0.0
 11
2136.4059096974738
 21
4778.9703491009641
 31
0.0
  0
ARC
  5
268
  8
1
 10
2126.6671096974742
 20
4782.1693491009637
 30
0.0
 40
5.5106000000000002
 50
313.98250000000002
 51
345.33210000000003
  0
LINE
  5
269
  8
1
 10
2130.478409697474
 20
4773.8813491009641
 30
0.0
 11
2130.478409697474
 21
4778.2173491009653
 31
0.0
  0
LINE
  5
26A
  8
1
 10
2130.9609096974741
 20
4777.9373491009646
 30
0.0
 11
2130.9609096974741
 21
4774.0573491009654
 31
0.0
  0
LINE
  5
26B
  8
1
 10
2131.4609096974741
 20
4778.4373491009637
 30
0.0
 11
2130.9609096974741
 21
4777.9373491009646
 31
0.0
  0
LINE
  5
26C
  8
1
 10
2133.2341096974742
 20
4777.9373491009646
 30
0.0
 11
2132.7341096974742
 21
4778.4373491009637
 31
0.0
  0
LINE
  5
26D
  8
1
 10
2133.2341096974742
 20
4777.9373491009646
 30
0.0
 11
2133.7341096974742
 21
4778.4373491009637
 31
0.0
  0
LINE
  5
26E
  8
1
 10
2133.2341096974742
 20
4774.0573491009654
 30
0.0
 11
2133.2341096974742
 21
4777.9373491009646
 31
0.0
  0
LINE
  5
26F
  8
1
 10
2140.978409697474
 20
4780.7113491009641
 30
0.0
 11
2140.978409697474
 21
4814.9843491009651
 31
0.0
  0
LINE
  5
270
  8
1
 10
2139.5777096974739
 20
4777.9373491009646
 30
0.0
 11
2140.0777096974739
 21
4778.4373491009637
 31
0.0
  0
LINE
  5
271
  8
1
 10
2139.5777096974739
 20
4777.9373491009646
 30
0.0
 11
2139.0777096974739
 21
4778.4373491009637
 31
0.0
  0
LINE
  5
272
  8
1
 10
2139.5777096974739
 20
4774.0573491009654
 30
0.0
 11
2139.5777096974739
 21
4777.9373491009646
 31
0.0
  0
LINE
  5
273
  8
1
 10
2142.478409697474
 20
4773.818349100964
 30
0.0
 11
2142.478409697474
 21
4778.2043491009636
 31
0.0
  0
ARC
  5
274
  8
1
 10
2146.2897096974739
 20
4782.1693491009637
 30
0.0
 40
5.5106000000000002
 50
194.6679
 51
226.01750000000001
  0
LINE
  5
275
  8
1
 10
2141.850909697474
 20
4777.9373491009646
 30
0.0
 11
2141.850909697474
 21
4774.0573491009654
 31
0.0
  0
LINE
  5
276
  8
1
 10
2141.850909697474
 20
4777.9373491009646
 30
0.0
 11
2141.350909697474
 21
4778.4373491009637
 31
0.0
  0
TEXT
  5
277
  8
4
 10
2019.9423286866199
 20
6120.1234154086542
 30
0.0
 40
84.000000000000014
  1
No.
  0
LINE
  5
278
  8
4
 10
1977.414123352482
 20
6082.9271678537916
 30
0.0
 11
1977.414123352482
 21
6241.0101854903196
 31
0.0
  0
LINE
  5
279
  8
1
 10
2386.478409697474
 20
3787.4843491009651
 30
0.0
 11
2386.4784096974709
 21
3964.1813213027281
 31
0.0
  0
LINE
  5
27A
  8
4
 10
2591.4879898126851
 20
6065.1449245628983
 30
0.0
 11
2591.4879898126851
 21
5765.1449245628983
 31
0.0
  0
LINE
  5
27B
  8
4
 10
2591.4879898126851
 20
6241.0101854903196
 30
0.0
 11
2591.4879898126851
 21
6082.9271678537916
 31
0.0
  0
LINE
  5
27C
  8
4
 10
2966.4879898126851
 20
6486.0317931656909
 30
0.0
 11
2966.4879898126851
 21
6486.0317931656909
 31
0.0
  0
ENDSEC
  0
EOF
