  0
SECTION
  2
HEADER
  9
$ACADVER
  1
AC1009
  9
$INSBASE
 10
0.0
 20
0.0
 30
0.0
  9
$EXTMIN
 10
-183.51201018731439
 20
2061.03179316569
 30
0.0
  9
$EXTMAX
 10
2966.4879898126851
 20
6486.0317931656909
 30
0.0
  9
$LIMMIN
 10
0.0
 20
0.0
  9
$LIMMAX
 10
297.0
 20
210.0
  9
$ORTHOMODE
 70
     0
  9
$REGENMODE
 70
     1
  9
$FILLMODE
 70
     1
  9
$QTEXTMODE
 70
     0
  9
$MIRRTEXT
 70
     0
  9
$DRAGMODE
 70
     2
  9
$LTSCALE
 40
60.0
  9
$OSMODE
 70
    37
  9
$ATTMODE
 70
     1
  9
$TEXTSIZE
 40
45.0
  9
$TRACEWID
 40
0.05
  9
$TEXTSTYLE
  7
STANDARD
  9
$CLAYER
  8
3
  9
$CELTYPE
  6
BYLAYER
  9
$CECOLOR
 62
   256
  9
$DIMSCALE
 40
15.0
  9
$DIMASZ
 40
2.0
  9
$DIMEXO
 40
1.0
  9
$DIMDLI
 40
10.0
  9
$DIMRND
 40
0.0
  9
$DIMDLE
 40
0.0
  9
$DIMEXE
 40
1.0
  9
$DIMTP
 40
0.0
  9
$DIMTM
 40
0.0
  9
$DIMTXT
 40
3.0
  9
$DIMCEN
 40
0.0
  9
$DIMTSZ
 40
0.0
  9
$DIMTOL
 70
     0
  9
$DIMLIM
 70
     0
  9
$DIMTIH
 70
     0
  9
$DIMTOH
 70
     0
  9
$DIMSE1
 70
     0
  9
$DIMSE2
 70
     0
  9
$DIMTAD
 70
     1
  9
$DIMZIN
 70
     8
  9
$DIMBLK
  1

  9
$DIMASO
 70
     1
  9
$DIMSHO
 70
     1
  9
$DIMPOST
  1

  9
$DIMAPOST
  1

  9
$DIMALT
 70
     0
  9
$DIMALTD
 70
     2
  9
$DIMALTF
 40
0.03937
  9
$DIMLFAC
 40
1.0
  9
$DIMTOFL
 70
     1
  9
$DIMTVP
 40
0.0
  9
$DIMTIX
 70
     0
  9
$DIMSOXD
 70
     0
  9
$DIMSAH
 70
     1
  9
$DIMBLK1
  1
OPEN
  9
$DIMBLK2
  1
OPEN
  9
$DIMSTYLE
  2
MATSU
  9
$DIMCLRD
 70
   256
  9
$DIMCLRE
 70
   256
  9
$DIMCLRT
 70
   256
  9
$DIMTFAC
 40
1.0
  9
$DIMGAP
 40
0.5
  9
$LUNITS
 70
     2
  9
$LUPREC
 70
     3
  9
$SKETCHINC
 40
0.1
  9
$FILLETRAD
 40
10.0
  9
$AUNITS
 70
     0
  9
$AUPREC
 70
     2
  9
$MENU
  1
acad
  9
$ELEVATION
 40
0.0
  9
$PELEVATION
 40
0.0
  9
$THICKNESS
 40
0.0
  9
$LIMCHECK
 70
     0
  9
$BLIPMODE
 70
     0
  9
$CHAMFERA
 40
10.0
  9
$CHAMFERB
 40
10.0
  9
$SKPOLY
 70
     0
  9
$TDCREATE
 40
2451939.3787035882
  9
$TDUPDATE
 40
2454953.6311615622
  9
$TDINDWG
 40
0.0787402894
  9
$TDUSRTIMER
 40
0.0787402894
  9
$USRTIMER
 70
     1
  9
$ANGBASE
 50
0.0
  9
$ANGDIR
 70
     0
  9
$PDMODE
 70
     0
  9
$PDSIZE
 40
1.0
  9
$PLINEWID
 40
0.0
  9
$COORDS
 70
     1
  9
$SPLFRAME
 70
     0
  9
$SPLINETYPE
 70
     6
  9
$SPLINESEGS
 70
     8
  9
$ATTDIA
 70
     0
  9
$ATTREQ
 70
     1
  9
$HANDLING
 70
 10241
  9
$HANDSEED
  5
39A9
  9
$SURFTAB1
 70
     6
  9
$SURFTAB2
 70
     6
  9
$SURFTYPE
 70
     6
  9
$SURFU
 70
     6
  9
$SURFV
 70
     6
  9
$UCSNAME
  2

  9
$UCSORG
 10
0.0
 20
0.0
 30
0.0
  9
$UCSXDIR
 10
1.0
 20
0.0
 30
0.0
  9
$UCSYDIR
 10
0.0
 20
1.0
 30
0.0
  9
$PUCSNAME
  2

  9
$PUCSORG
 10
0.0
 20
0.0
 30
0.0
  9
$PUCSXDIR
 10
1.0
 20
0.0
 30
0.0
  9
$PUCSYDIR
 10
0.0
 20
1.0
 30
0.0
  9
$USERI1
 70
     0
  9
$USERI2
 70
     0
  9
$USERI3
 70
     0
  9
$USERI4
 70
     0
  9
$USERI5
 70
     0
  9
$USERR1
 40
0.0
  9
$USERR2
 40
0.0
  9
$USERR3
 40
0.0
  9
$USERR4
 40
0.0
  9
$USERR5
 40
0.0
  9
$WORLDVIEW
 70
     1
  9
$SHADEDGE
 70
     3
  9
$SHADEDIF
 70
    70
  9
$TILEMODE
 70
     1
  9
$MAXACTVP
 70
    16
  9
$PLIMCHECK
 70
     0
  9
$PEXTMIN
 10
1.0000000000000000E+020
 20
1.0000000000000000E+020
 30
1.0000000000000000E+020
  9
$PEXTMAX
 10
-1.0000000000000000E+020
 20
-1.0000000000000000E+020
 30
-1.0000000000000000E+020
  9
$PLIMMIN
 10
0.0
 20
0.0
  9
$PLIMMAX
 10
12.0
 20
9.0
  9
$UNITMODE
 70
     0
  9
$VISRETAIN
 70
     0
  9
$PLINEGEN
 70
     0
  9
$PSLTSCALE
 70
     0
  0
ENDSEC
  0
SECTION
  2
TABLES
  0
TABLE
  2
VPORT
 70
     2
  0
VPORT
  2
*ACTIVE
 70
     0
 10
0.0
 20
0.0
 11
1.0
 21
1.0
 12
2719.4512367452339
 22
2573.862844429163
 13
0.0
 23
0.0
 14
5.0
 24
5.0
 15
0.0
 25
0.0
 16
0.0
 26
0.0
 36
1.0
 17
0.0
 27
0.0
 37
0.0
 40
1246.5508858501471
 41
3.1666666666666661
 42
50.0
 43
0.0
 44
0.0
 50
0.0
 51
0.0
 71
     0
 72
   100
 73
     1
 74
     0
 75
     0
 76
     0
 77
     0
 78
     0
  0
ENDTAB
  0
TABLE
  2
LTYPE
 70
     2
  0
LTYPE
  2
CONTINUOUS
 70
     0
  3
Solid line
 72
    65
 73
     0
 40
0.0
  0
LTYPE
  2
CENTER
 70
     0
  3
____ _ ____ _ ____ _ ____ _ ____ _ ____ _ ____ 
 72
    65
 73
     4
 40
2.0
 49
1.25
 49
-0.25
 49
0.25
 49
-0.25
  0
ENDTAB
  0
TABLE
  2
LAYER
 70
     8
  0
LAYER
  2
0
 70
     0
 62
     7
  6
CONTINUOUS
  0
LAYER
  2
FUTO
 70
     0
 62
     4
  6
CONTINUOUS
  0
LAYER
  2
SP
 70
     0
 62
     2
  6
CONTINUOUS
  0
LAYER
  2
DEFPOINTS
 70
     0
 62
     7
  6
CONTINUOUS
  0
LAYER
  2
3
 70
     0
 62
     2
  6
CONTINUOUS
  0
LAYER
  2
2
 70
     0
 62
     3
  6
CENTER
  0
LAYER
  2
1
 70
     0
 62
     4
  6
CONTINUOUS
  0
LAYER
  2
4
 70
     0
 62
     7
  6
CONTINUOUS
  0
ENDTAB
  0
TABLE
  2
STYLE
 70
     1
  0
STYLE
  2
STANDARD
 70
     0
 40
0.0
 41
1.0
 50
15.0
 71
     0
 42
45.0
  3
C:\Program Files\AutoCAD LT\simplex.shx
  4
C:\Program Files\AutoCAD LT\extfont.shx
  0
ENDTAB
  0
TABLE
  2
VIEW
 70
     0
  0
ENDTAB
  0
TABLE
  2
UCS
 70
     0
  0
ENDTAB
  0
TABLE
  2
APPID
 70
     1
  0
APPID
  2
ACAD
 70
     0
  0
ENDTAB
  0
TABLE
  2
DIMSTYLE
 70
     2
  0
DIMSTYLE
  2
STANDARD
 70
     0
  3

  4

  5

  6

  7

 40
1.0
 41
0.18
 42
0.0625
 43
0.38
 44
0.18
 45
0.0
 46
0.0
 47
0.0
 48
0.0
140
0.18
141
0.09
142
0.0
143
25.399999999999999
144
1.0
145
0.0
146
1.0
147
0.09
 71
     0
 72
     0
 73
     1
 74
     1
 75
     0
 76
     0
 77
     0
 78
     0
170
     0
171
     2
172
     0
173
     0
174
     0
175
     0
176
     0
177
     0
178
     0
  0
DIMSTYLE
  2
MATSU
 70
     0
  3

  4

  5

  6
OPEN
  7
OPEN
 40
1.0
 41
2.0
 42
1.0
 43
10.0
 44
1.0
 45
0.0
 46
0.0
 47
0.0
 48
0.0
140
3.0
141
0.0
142
0.0
143
0.03937
144
1.0
145
0.0
146
1.0
147
0.5
 71
     0
 72
     0
 73
     0
 74
     0
 75
     0
 76
     0
 77
     1
 78
     8
170
     0
171
     2
172
     1
173
     1
174
     0
175
     0
176
   256
177
   256
178
   256
  0
ENDTAB
  0
ENDSEC
  0
SECTION
  2
BLOCKS
  0
BLOCK
  8
0
  2
$MODEL_SPACE
 70
     0
 10
0.0
 20
0.0
 30
0.0
  3
$MODEL_SPACE
  1

  0
ENDBLK
  5
1B
  8
0
  0
BLOCK
 67
     1
  8
0
  2
$PAPER_SPACE
 70
     0
 10
0.0
 20
0.0
 30
0.0
  3
$PAPER_SPACE
  1

  0
ENDBLK
  5
18
 67
     1
  8
0
  0
BLOCK
  8
0
  2
_OPEN
 70
     0
 10
0.0
 20
0.0
 30
0.0
  3
_OPEN
  1

  0
LINE
  5
28
  8
0
  6
BYBLOCK
 62
     0
 10
-1.0
 20
0.1666666666666666
 30
0.0
 11
0.0
 21
0.0
 31
0.0
  0
LINE
  5
29
  8
0
  6
BYBLOCK
 62
     0
 10
0.0
 20
0.0
 30
0.0
 11
-1.0
 21
-0.1666666666666666
 31
0.0
  0
LINE
  5
2A
  8
0
  6
BYBLOCK
 62
     0
 10
0.0
 20
0.0
 30
0.0
 11
-1.0
 21
0.0
 31
0.0
  0
ENDBLK
  5
2B
  8
0
  0
BLOCK
  8
0
  2
YA_N
 70
     0
 10
0.0
 20
0.0
 30
0.0
  3
YA_N
  1

  0
ENDBLK
  5
23AE
  8
0
  0
BLOCK
  8
0
  2
SAITOS
 70
     0
 10
0.0
 20
0.0
 30
0.0
  3
SAITOS
  1

  0
INSERT
  5
23DA
  8
0
  2
YA_N
 10
6.0
 20
5.0
 30
0.0
  0
ENDBLK
  5
23DC
  8
0
  0
BLOCK
  8
0
  2
*D3
 70
     1
 10
0.0
 20
0.0
 30
0.0
  3
*D3
  1

  0
LINE
  5
394C
  8
3
 10
1826.478409697474
 20
4162.4843491009651
 30
0.0
 11
1826.478409697474
 21
5055.3627128204107
 31
0.0
  0
LINE
  5
394D
  8
3
 10
2446.478409697474
 20
4162.4843491009651
 30
0.0
 11
2446.478409697474
 21
5055.3627128204107
 31
0.0
  0
LINE
  5
394E
  8
3
 10
1856.478409697474
 20
5040.3627128204098
 30
0.0
 11
2416.478409697474
 21
5040.3627128204098
 31
0.0
  0
INSERT
  5
394F
  8
3
  2
_OPEN
 10
1826.478409697474
 20
5040.3627128204098
 30
0.0
 41
30.0
 42
30.0
 43
30.0
 50
180.0
  0
INSERT
  5
3950
  8
3
  2
_OPEN
 10
2446.478409697474
 20
5040.3627128204098
 30
0.0
 41
30.0
 42
30.0
 43
30.0
  0
TEXT
  8
3
  40
45
  5
39A0
  72
0
  71
0
 10
2046.48
 20
4990.71
 30
0.000000
  1
620
  0
POINT
  5
3952
  8
DEFPOINTS
 62
     0
 10
1826.478409697474
 20
4147.4843491009651
 30
0.0
  0
POINT
  5
3953
  8
DEFPOINTS
 62
     0
 10
2446.478409697474
 20
4147.4843491009651
 30
0.0
  0
POINT
  5
3954
  8
DEFPOINTS
 62
     0
 10
2446.478409697474
 20
5040.3627128204098
 30
0.0
  0
ENDBLK
  5
31F8
  8
0
  0
BLOCK
  8
0
  2
*D4
 70
     1
 10
0.0
 20
0.0
 30
0.0
  3
*D4
  1

  0
LINE
  5
3955
  8
3
 10
1791.478409697474
 20
3696.4843491009642
 30
0.0
 11
1791.478409697474
 21
3405.3946243996438
 31
0.0
  0
LINE
  5
3956
  8
3
 10
2481.4784096974749
 20
3696.4843491009642
 30
0.0
 11
2481.4784096974749
 21
3405.3946243996438
 31
0.0
  0
LINE
  5
3957
  8
3
 10
1821.478409697474
 20
3420.3946243996438
 30
0.0
 11
2451.4784096974749
 21
3420.3946243996438
 31
0.0
  0
INSERT
  5
3958
  8
3
  2
_OPEN
 10
1791.478409697474
 20
3420.3946243996438
 30
0.0
 41
30.0
 42
30.0
 43
30.0
 50
180.0
  0
INSERT
  5
3959
  8
3
  2
_OPEN
 10
2481.4784096974749
 20
3420.3946243996438
 30
0.0
 41
30.0
 42
30.0
 43
30.0
  0
TEXT
  8
3
  40
45
  5
39A1
  72
0
  71
0
 10
2046.48
 20
3370.74
 30
0.000000
  1
690
  0
POINT
  5
395B
  8
DEFPOINTS
 62
     0
 10
1791.478409697474
 20
3711.4843491009642
 30
0.0
  0
POINT
  5
395C
  8
DEFPOINTS
 62
     0
 10
2481.4784096974749
 20
3711.4843491009642
 30
0.0
  0
POINT
  5
395D
  8
DEFPOINTS
 62
     0
 10
2481.4784096974749
 20
3420.3946243996438
 30
0.0
  0
ENDBLK
  5
320E
  8
0
  0
BLOCK
  8
0
  2
*D5
 70
     1
 10
0.0
 20
0.0
 30
0.0
  3
*D5
  1

  0
LINE
  5
395E
  8
3
 10
1004.7316865229139
 20
3696.4843491009642
 30
0.0
 11
1004.7316865229139
 21
3398.6214430060741
 31
0.0
  0
LINE
  5
395F
  8
3
 10
254.731686522914
 20
3696.4843491009642
 30
0.0
 11
254.731686522914
 21
3398.6214430060741
 31
0.0
  0
LINE
  5
3960
  8
3
 10
974.73168652291406
 20
3413.6214430060741
 30
0.0
 11
284.731686522914
 21
3413.6214430060741
 31
0.0
  0
INSERT
  5
3961
  8
3
  2
_OPEN
 10
1004.7316865229139
 20
3413.6214430060741
 30
0.0
 41
30.0
 42
30.0
 43
30.0
  0
INSERT
  5
3962
  8
3
  2
_OPEN
 10
254.731686522914
 20
3413.6214430060741
 30
0.0
 41
30.0
 42
30.0
 43
30.0
 50
180.0
  0
TEXT
  8
3
  40
45
  5
39A2
  72
0
  71
0
 10
539.732
 20
3363.97
 30
0.000000
  1
750
  0
POINT
  5
3964
  8
DEFPOINTS
 62
     0
 10
1004.7316865229139
 20
3711.4843491009642
 30
0.0
  0
POINT
  5
3965
  8
DEFPOINTS
 62
     0
 10
254.731686522914
 20
3711.4843491009642
 30
0.0
  0
POINT
  5
3966
  8
DEFPOINTS
 62
     0
 10
254.731686522914
 20
3413.6214430060741
 30
0.0
  0
ENDBLK
  5
3224
  8
0
  0
BLOCK
  8
0
  2
*D6
 70
     1
 10
0.0
 20
0.0
 30
0.0
  3
*D6
  1

  0
LINE
  5
3967
  8
3
 10
294.731686522914
 20
4472.4843491009651
 30
0.0
 11
294.731686522914
 21
5054.8390168395899
 31
0.0
  0
LINE
  5
3968
  8
3
 10
964.73168652291406
 20
4472.4843491009651
 30
0.0
 11
964.73168652291406
 21
5054.8390168395899
 31
0.0
  0
LINE
  5
3969
  8
3
 10
324.73168652291412
 20
5039.839016839589
 30
0.0
 11
934.73168652291395
 21
5039.839016839589
 31
0.0
  0
INSERT
  5
396A
  8
3
  2
_OPEN
 10
294.731686522914
 20
5039.839016839589
 30
0.0
 41
30.0
 42
30.0
 43
30.0
 50
180.0
  0
INSERT
  5
396B
  8
3
  2
_OPEN
 10
964.73168652291406
 20
5039.839016839589
 30
0.0
 41
30.0
 42
30.0
 43
30.0
  0
TEXT
  8
3
  40
45
  5
39A3
  72
0
  71
0
 10
539.732
 20
4990.19
 30
0.000000
  1
670
  0
POINT
  5
396D
  8
DEFPOINTS
 62
     0
 10
294.731686522914
 20
4457.4843491009651
 30
0.0
  0
POINT
  5
396E
  8
DEFPOINTS
 62
     0
 10
964.73168652291406
 20
4457.4843491009651
 30
0.0
  0
POINT
  5
396F
  8
DEFPOINTS
 62
     0
 10
964.73168652291406
 20
5039.839016839589
 30
0.0
  0
ENDBLK
  5
3231
  8
0
  0
BLOCK
  8
0
  2
*D7
 70
     1
 10
0.0
 20
0.0
 30
0.0
  3
*D7
  1

  0
LINE
  5
3970
  8
3
 10
249.731686522914
 20
4427.4843491009651
 30
0.0
 11
77.94015718089581
 21
4427.4843491009651
 31
0.0
  0
LINE
  5
3971
  8
3
 10
249.731686522914
 20
3867.4843491009642
 30
0.0
 11
77.940157180895682
 21
3867.4843491009642
 31
0.0
  0
LINE
  5
3972
  8
3
 10
92.940157180895795
 20
4397.4843491009651
 30
0.0
 11
92.940157180895696
 21
3897.4843491009642
 31
0.0
  0
INSERT
  5
3973
  8
3
  2
_OPEN
 10
92.940157180895795
 20
4427.4843491009651
 30
0.0
 41
30.0
 42
30.0
 43
30.0
 50
90.0
  0
INSERT
  5
3974
  8
3
  2
_OPEN
 10
92.940157180895682
 20
3867.4843491009642
 30
0.0
 41
30.0
 42
30.0
 43
30.0
 50
270.0
  0
TEXT
  8
3
  40
45
  5
39A4
  72
0
  71
0
 10
-27.0598
 20
4067.83
 30
0.000000
  1
%%c560
  0
POINT
  5
3976
  8
DEFPOINTS
 62
     0
 10
264.731686522914
 20
4427.4843491009651
 30
0.0
  0
POINT
  5
3977
  8
DEFPOINTS
 62
     0
 10
264.731686522914
 20
3867.4843491009642
 30
0.0
  0
POINT
  5
3978
  8
DEFPOINTS
 62
     0
 10
92.940157180895682
 20
3867.4843491009642
 30
0.0
  0
ENDBLK
  5
323E
  8
0
  0
BLOCK
  8
0
  2
*D8
 70
     1
 10
0.0
 20
0.0
 30
0.0
  3
*D8
  1

  0
LINE
  5
3979
  8
3
 10
1009.7316865229139
 20
4427.4843491009651
 30
0.0
 11
1190.2762982682541
 21
4427.4843491009651
 31
0.0
  0
LINE
  5
397A
  8
3
 10
1009.7316865229139
 20
3867.4843491009642
 30
0.0
 11
1190.2762982682541
 21
3867.4843491009642
 31
0.0
  0
LINE
  5
397B
  8
3
 10
1175.2762982682541
 20
4397.4843491009651
 30
0.0
 11
1175.2762982682541
 21
3897.4843491009628
 31
0.0
  0
INSERT
  5
397C
  8
3
  2
_OPEN
 10
1175.2762982682541
 20
4427.4843491009651
 30
0.0
 41
30.0
 42
30.0
 43
30.0
 50
90.0
  0
INSERT
  5
397D
  8
3
  2
_OPEN
 10
1175.2762982682541
 20
3867.4843491009642
 30
0.0
 41
30.0
 42
30.0
 43
30.0
 50
270.0
  0
TEXT
  8
3
  40
45
  5
39A5
  72
0
  71
0
 10
1055.28
 20
4067.83
 30
0.000000
  1
%%c560
  0
POINT
  5
397F
  8
DEFPOINTS
 62
     0
 10
994.73168652291395
 20
4427.4843491009651
 30
0.0
  0
POINT
  5
3980
  8
DEFPOINTS
 62
     0
 10
994.73168652291395
 20
3867.4843491009642
 30
0.0
  0
POINT
  5
3981
  8
DEFPOINTS
 62
     0
 10
1175.2762982682541
 20
3867.4843491009642
 30
0.0
  0
ENDBLK
  5
326F
  8
0
  0
BLOCK
  8
0
  2
*D9
 70
     1
 10
0.0
 20
0.0
 30
0.0
  3
*D9
  1

  0
LINE
  5
3982
  8
3
 10
1796.478409697474
 20
4147.4843491009651
 30
0.0
 11
1573.1272165379301
 21
4147.4843491009651
 31
0.0
  0
LINE
  5
3983
  8
3
 10
1871.478409697474
 20
3787.4843491009651
 30
0.0
 11
1573.1272165379301
 21
3787.4843491009651
 31
0.0
  0
LINE
  5
3984
  8
3
 10
1588.1272165379301
 20
4117.4843491009651
 30
0.0
 11
1588.1272165379301
 21
3817.4843491009642
 31
0.0
  0
INSERT
  5
3985
  8
3
  2
_OPEN
 10
1588.1272165379301
 20
4147.4843491009651
 30
0.0
 41
30.0
 42
30.0
 43
30.0
 50
90.0
  0
INSERT
  5
3986
  8
3
  2
_OPEN
 10
1588.1272165379301
 20
3787.4843491009651
 30
0.0
 41
30.0
 42
30.0
 43
30.0
 50
270.0
  0
TEXT
  8
3
  40
45
  5
39A6
  72
0
  71
0
 10
1468.13
 20
3887.83
 30
0.000000
  1
360
  0
POINT
  5
3988
  8
DEFPOINTS
 62
     0
 10
1811.478409697474
 20
4147.4843491009651
 30
0.0
  0
POINT
  5
3989
  8
DEFPOINTS
 62
     0
 10
1886.478409697474
 20
3787.4843491009651
 30
0.0
  0
POINT
  5
398A
  8
DEFPOINTS
 62
     0
 10
1588.1272165379301
 20
3787.4843491009651
 30
0.0
  0
ENDBLK
  5
32F5
  8
0
  0
BLOCK
  8
0
  2
*D10
 70
     1
 10
0.0
 20
0.0
 30
0.0
  3
*D10
  1

  0
LINE
  5
398B
  8
3
 10
1871.478409697474
 20
3787.4843491009651
 30
0.0
 11
1573.1272165379301
 21
3787.4843491009651
 31
0.0
  0
LINE
  5
398C
  8
3
 10
1776.4784096974749
 20
3751.4843491009642
 30
0.0
 11
1573.1272165379301
 21
3751.4843491009642
 31
0.0
  0
LINE
  5
398D
  8
3
 10
1588.1272165379301
 20
3787.4843491009651
 30
0.0
 11
1588.1272165379301
 21
3751.4843491009642
 31
0.0
  0
TEXT
  8
3
  40
45
  5
39A7
  72
0
  71
0
 10
1437.59
 20
3689.83
 30
0.000000
  1
(36)
  0
POINT
  5
398F
  8
DEFPOINTS
 62
     0
 10
1886.478409697474
 20
3787.4843491009651
 30
0.0
  0
POINT
  5
3990
  8
DEFPOINTS
 62
     0
 10
1791.4784096974749
 20
3751.4843491009642
 30
0.0
  0
POINT
  5
3991
  8
DEFPOINTS
 62
     0
 10
1588.1272165379301
 20
3751.4843491009642
 30
0.0
  0
ENDBLK
  5
3302
  8
0
  0
BLOCK
  8
0
  2
*D11
 70
     1
 10
0.0
 20
0.0
 30
0.0
  3
*D11
  1

  0
LINE
  5
3992
  8
3
 10
1776.4784096974749
 20
3751.4843491009642
 30
0.0
 11
1573.1272165379301
 21
3751.4843491009642
 31
0.0
  0
LINE
  5
3993
  8
3
 10
1776.4784096974749
 20
3711.4843491009642
 30
0.0
 11
1573.1272165379301
 21
3711.4843491009642
 31
0.0
  0
LINE
  5
3994
  8
3
 10
1588.1272165379301
 20
3751.4843491009642
 30
0.0
 11
1588.1272165379301
 21
3781.4843491009628
 31
0.0
  0
LINE
  5
3995
  8
3
 10
1588.1272165379301
 20
3681.4843491009642
 30
0.0
 11
1588.1272165379301
 21
3651.4843491009642
 31
0.0
  0
TEXT
  8
3
  40
45
  5
39A8
  72
0
  71
0
 10
1482.86
 20
3529.54
 30
0.000000
  1
40
  0
LINE
  5
3997
  8
3
 10
1588.1272165379301
 20
3751.4843491009642
 30
0.0
 11
1588.1272165379301
 21
3711.4843491009642
 31
0.0
  0
INSERT
  5
3998
  8
3
  2
_DOTSMALL
 10
1588.1272165379301
 20
3751.4843491009642
 30
0.0
 41
30.0
 42
30.0
 43
30.0
 50
270.0
  0
INSERT
  5
3999
  8
3
  2
_OPEN
 10
1588.1272165379301
 20
3711.4843491009642
 30
0.0
 41
30.0
 42
30.0
 43
30.0
 50
90.0
  0
POINT
  5
399A
  8
DEFPOINTS
 62
     0
 10
1791.4784096974749
 20
3751.4843491009642
 30
0.0
  0
POINT
  5
399B
  8
DEFPOINTS
 62
     0
 10
1791.478409697474
 20
3711.4843491009642
 30
0.0
  0
POINT
  5
399C
  8
DEFPOINTS
 62
     0
 10
1588.1272165379301
 20
3711.4843491009642
 30
0.0
  0
ENDBLK
  5
3311
  8
0
  0
BLOCK
  8
0
  2
_DOTSMALL
 70
     0
 10
0.0
 20
0.0
 30
0.0
  3
_DOTSMALL
  1

  0
POLYLINE
  5
35E3
  8
3
 62
     0
 66
     1
 10
0.0
 20
0.0
 30
0.0
 70
     1
 40
0.5
 41
0.5
  0
VERTEX
  5
399D
  8
3
 62
     0
 10
-0.0625
 20
0.0
 30
0.0
 42
1.0
  0
VERTEX
  5
399E
  8
3
 62
     0
 10
0.0625
 20
0.0
 30
0.0
 42
1.0
  0
SEQEND
  5
399F
  8
3
 62
     0
  0
ENDBLK
  5
35E5
  8
0
  0
BLOCK
  8
0
  2
_NONE
 70
     0
 10
0.0
 20
0.0
 30
0.0
  3
_NONE
  1

  0
ENDBLK
  5
35F3
  8
0
  0
ENDSEC
  0
SECTION
  2
ENTITIES
  0
LINE
  5
2939
  8
1
 10
408.58809298346517
 20
4493.4843491009651
 30
0.0
 11
408.58809298346517
 21
4481.4125523312396
 31
0.0
  0
LINE
  5
293A
  8
1
 10
401.65988975318982
 20
4481.4125523312396
 30
0.0
 11
401.65988975318982
 21
4493.4843491009651
 31
0.0
  0
LINE
  5
293B
  8
1
 10
405.12399136832749
 20
4480.4843491009642
 30
0.0
 11
384.33938167750102
 21
4480.4843491009642
 31
0.0
  0
ARC
  5
293C
  8
1
 10
405.12399136832749
 20
4487.4125523312387
 30
0.0
 40
6.9282032302754892
 50
240.00000000000011
 51
300.00000000000028
  0
LINE
  5
293D
  8
1
 10
387.80348329263859
 20
4481.4125523312396
 30
0.0
 11
387.80348329263859
 21
4493.4843491009651
 31
0.0
  0
ARC
  5
293E
  8
1
 10
384.33938167750102
 20
4487.4125523312387
 30
0.0
 40
6.9282032302754892
 50
239.9999999999996
 51
299.99999999999989
  0
LINE
  5
293F
  8
1
 10
380.87528006236329
 20
4493.4843491009651
 30
0.0
 11
380.87528006236329
 21
4481.4125523312396
 31
0.0
  0
ARC
  5
2940
  8
1
 10
394.731686522914
 20
4506.8048571766531
 30
0.0
 40
26.32050807568676
 50
254.73851957513861
 51
285.26148042486119
  0
LINE
  5
2941
  8
1
 10
380.87528006236329
 20
4499.4843491009651
 30
0.0
 11
380.87528006236329
 21
4511.5561458706889
 31
0.0
  0
LINE
  5
2942
  8
1
 10
387.80348329263859
 20
4511.5561458706889
 30
0.0
 11
387.80348329263859
 21
4499.4843491009651
 31
0.0
  0
LINE
  5
2943
  8
1
 10
384.33938167750102
 20
4512.4843491009642
 30
0.0
 11
405.12399136832749
 21
4512.4843491009642
 31
0.0
  0
ARC
  5
2944
  8
1
 10
384.33938167750102
 20
4505.5561458706889
 30
0.0
 40
6.9282032302754892
 50
60.000000000000142
 51
120.0000000000003
  0
LINE
  5
2945
  8
1
 10
401.65988975318982
 20
4511.5561458706889
 30
0.0
 11
401.65988975318982
 21
4499.4843491009651
 31
0.0
  0
ARC
  5
2946
  8
1
 10
405.12399136832749
 20
4505.5561458706889
 30
0.0
 40
6.9282032302754892
 50
59.999999999999623
 51
119.9999999999998
  0
LINE
  5
2947
  8
1
 10
408.58809298346517
 20
4499.4843491009651
 30
0.0
 11
408.58809298346517
 21
4511.5561458706889
 31
0.0
  0
ARC
  5
2948
  8
1
 10
394.731686522914
 20
4486.1638410252781
 30
0.0
 40
26.32050807568676
 50
74.738519575138611
 51
105.2614804248612
  0
LINE
  5
2949
  8
1
 10
402.731686522914
 20
4557.5691818145133
 30
0.0
 11
386.731686522914
 21
4557.5691818145133
 31
0.0
  0
LINE
  5
294A
  8
1
 10
402.731686522914
 20
4389.4843491009651
 30
0.0
 11
402.731686522914
 21
4480.4843491009642
 31
0.0
  0
LINE
  5
294B
  8
1
 10
386.731686522914
 20
4389.4843491009651
 30
0.0
 11
386.731686522914
 21
4480.4843491009642
 31
0.0
  0
LINE
  5
294C
  8
1
 10
386.731686522914
 20
4512.4843491009642
 30
0.0
 11
386.731686522914
 21
4557.5691818145133
 31
0.0
  0
LINE
  5
294D
  8
1
 10
402.731686522914
 20
4512.4843491009642
 30
0.0
 11
402.731686522914
 21
4557.5691818145133
 31
0.0
  0
LINE
  5
2954
  8
1
 10
692.73168652291406
 20
4389.4843491009651
 30
0.0
 11
692.73168652291406
 21
4480.4843491009642
 31
0.0
  0
LINE
  5
2955
  8
1
 10
676.73168652291395
 20
4389.4843491009651
 30
0.0
 11
676.73168652291395
 21
4480.4843491009642
 31
0.0
  0
ARC
  5
2956
  8
1
 10
684.73168652291417
 20
4506.8048571766531
 30
0.0
 40
26.32050807568676
 50
254.73851957513861
 51
285.26148042486119
  0
LINE
  5
2957
  8
1
 10
695.12399136832755
 20
4480.4843491009642
 30
0.0
 11
674.33938167750102
 21
4480.4843491009642
 31
0.0
  0
LINE
  5
2958
  8
1
 10
670.87528006236334
 20
4493.4843491009651
 30
0.0
 11
670.87528006236334
 21
4481.4125523312396
 31
0.0
  0
ARC
  5
2959
  8
1
 10
674.33938167750102
 20
4487.4125523312387
 30
0.0
 40
6.9282032302754892
 50
239.9999999999996
 51
299.99999999999989
  0
LINE
  5
295A
  8
1
 10
677.8034832926387
 20
4481.4125523312396
 30
0.0
 11
677.8034832926387
 21
4493.4843491009651
 31
0.0
  0
ARC
  5
295B
  8
1
 10
695.12399136832755
 20
4487.4125523312387
 30
0.0
 40
6.9282032302754892
 50
240.00000000000011
 51
300.00000000000028
  0
LINE
  5
295C
  8
1
 10
691.65988975318987
 20
4481.4125523312396
 30
0.0
 11
691.65988975318987
 21
4493.4843491009651
 31
0.0
  0
LINE
  5
295D
  8
1
 10
698.58809298346523
 20
4493.4843491009651
 30
0.0
 11
698.58809298346523
 21
4481.4125523312396
 31
0.0
  0
LINE
  5
2960
  8
1
 10
676.73168652291395
 20
4512.4843491009642
 30
0.0
 11
676.73168652291395
 21
4557.5691818145133
 31
0.0
  0
LINE
  5
2961
  8
1
 10
692.73168652291406
 20
4512.4843491009642
 30
0.0
 11
692.73168652291406
 21
4557.5691818145133
 31
0.0
  0
ARC
  5
2962
  8
1
 10
684.73168652291417
 20
4486.1638410252781
 30
0.0
 40
26.32050807568676
 50
74.738519575138611
 51
105.2614804248612
  0
LINE
  5
2963
  8
1
 10
674.33938167750102
 20
4512.4843491009642
 30
0.0
 11
695.12399136832755
 21
4512.4843491009642
 31
0.0
  0
ARC
  5
2964
  8
1
 10
674.33938167750102
 20
4505.5561458706889
 30
0.0
 40
6.9282032302754892
 50
60.000000000000142
 51
120.0000000000003
  0
LINE
  5
2965
  8
1
 10
677.8034832926387
 20
4511.5561458706889
 30
0.0
 11
677.8034832926387
 21
4499.4843491009651
 31
0.0
  0
LINE
  5
2966
  8
1
 10
670.87528006236334
 20
4499.4843491009651
 30
0.0
 11
670.87528006236334
 21
4511.5561458706889
 31
0.0
  0
LINE
  5
2967
  8
1
 10
698.58809298346523
 20
4499.4843491009651
 30
0.0
 11
698.58809298346523
 21
4511.5561458706889
 31
0.0
  0
ARC
  5
2968
  8
1
 10
695.12399136832755
 20
4505.5561458706889
 30
0.0
 40
6.9282032302754892
 50
59.999999999999623
 51
119.9999999999998
  0
LINE
  5
2969
  8
1
 10
691.65988975318987
 20
4511.5561458706889
 30
0.0
 11
691.65988975318987
 21
4499.4843491009651
 31
0.0
  0
LINE
  5
296A
  8
1
 10
692.73168652291406
 20
4557.5691818145133
 30
0.0
 11
676.73168652291417
 21
4557.5691818145133
 31
0.0
  0
LINE
  5
296B
  8
1
 10
614.73168652291383
 20
4736.4993491009654
 30
0.0
 11
526.73168652291395
 21
4736.4993491009654
 31
0.0
  0
LINE
  5
296C
  8
1
 10
523.23168652291395
 20
4600.9873491009648
 30
0.0
 11
618.23168652291383
 21
4600.9873491009648
 31
0.0
  0
LINE
  5
296D
  8
1
 10
523.23168652291395
 20
4743.309349100964
 30
0.0
 11
618.23168652291383
 21
4743.309349100964
 31
0.0
  0
ARC
  5
296E
  8
1
 10
560.05068652291379
 20
4610.1163491009647
 30
0.0
 40
3.0
 50
270.0
 51
346.1740999999999
  0
ARC
  5
296F
  8
1
 10
570.73168652291383
 20
4607.4873491009657
 30
0.0
 40
11.9999
 50
13.108000000000001
 51
166.89199999999991
  0
LINE
  5
2970
  8
1
 10
491.14468652291362
 20
4773.4843491009642
 30
0.0
 11
570.73168652291383
 21
4773.4843491009642
 31
0.0
  0
ARC
  5
2971
  8
1
 10
555.09368652291391
 20
4523.4072491009647
 30
0.0
 40
8.0
 50
270.58139999999997
 51
357.32159999999988
  0
LINE
  5
2972
  8
1
 10
483.231686522914
 20
4499.4843491009651
 30
0.0
 11
570.73168652291383
 21
4499.4843491009651
 31
0.0
  0
ARC
  5
2973
  8
1
 10
570.73168652291383
 20
4798.9843491009642
 30
0.0
 40
20.500099999999989
 50
293.3698
 51
247.48159999999999
  0
ARC
  5
2974
  8
1
 10
570.73168652291383
 20
4798.9843491009642
 30
0.0
 40
20.5
 50
295.75760000000002
 51
246.82189999999991
  0
LINE
  5
2975
  8
1
 10
503.74768652291368
 20
4676.4843491009651
 30
0.0
 11
640.31268652291374
 21
4676.4843491009651
 31
0.0
  0
LINE
  5
2976
  8
1
 10
545.11268652291392
 20
4798.9843491009642
 30
0.0
 11
597.03268652291376
 21
4798.9843491009642
 31
0.0
  0
CIRCLE
  5
2977
  8
1
 10
570.73168652291383
 20
4798.9843491009642
 30
0.0
 40
11.5
  0
LINE
  5
2978
  8
1
 10
425.7319865229137
 20
4771.9843491009651
 30
0.0
 11
425.7319865229137
 21
4504.4843491009651
 31
0.0
  0
LINE
  5
2979
  8
1
 10
485.731686522914
 20
4561.4843491009651
 30
0.0
 11
485.731686522914
 21
4773.9843491009651
 31
0.0
  0
LINE
  5
297A
  8
1
 10
360.7319865229137
 20
4754.8323491009651
 30
0.0
 11
360.7319865229137
 21
4508.4237491009644
 31
0.0
  0
LINE
  5
297B
  8
1
 10
465.28768652291399
 20
4502.4843491009651
 30
0.0
 11
427.7319865229137
 21
4502.4843491009651
 31
0.0
  0
LINE
  5
297C
  8
1
 10
425.7319865229137
 20
4504.4843491009651
 30
0.0
 11
408.58809298346517
 21
4505.0118660649423
 31
0.0
  0
ARC
  5
297D
  8
1
 10
362.7319865229137
 20
4508.4237491009644
 30
0.0
 40
2.0
 50
180.0
 51
268.23719999999992
  0
ARC
  5
297E
  8
1
 10
427.7320865229139
 20
4504.4844491009653
 30
0.0
 40
2.0001000000000002
 50
180.00349999999989
 51
269.99650000000003
  0
LINE
  5
297F
  8
1
 10
485.21168652291351
 20
4514.5044491009639
 30
0.0
 11
555.17468652291382
 21
4515.4076491009646
 31
0.0
  0
LINE
  5
2980
  8
1
 10
465.28768652291359
 20
4541.0403491009629
 30
0.0
 11
485.731686522914
 21
4561.4843491009651
 31
0.0
  0
LINE
  5
2981
  8
1
 10
465.28768652291359
 20
4510.9843491009642
 30
0.0
 11
483.231686522914
 21
4510.9843491009642
 31
0.0
  0
LINE
  5
2982
  8
1
 10
483.231686522914
 20
4499.4843491009651
 30
0.0
 11
483.231686522914
 21
4512.5045491009641
 31
0.0
  0
ARC
  5
2983
  8
1
 10
485.231686522914
 20
4512.5045491009641
 30
0.0
 40
2.0
 50
90.580499999999986
 51
180.0
  0
LINE
  5
2984
  8
1
 10
500.73168652291412
 20
4517.8318491009641
 30
0.0
 11
500.73168652291412
 21
4493.2384491009652
 31
0.0
  0
LINE
  5
2985
  8
1
 10
485.731686522914
 20
4773.9843491009651
 30
0.0
 11
427.7319865229137
 21
4773.9843491009651
 31
0.0
  0
LINE
  5
2986
  8
1
 10
425.7319865229137
 20
4768.9843491009651
 30
0.0
 11
362.3542865229137
 21
4756.796349100965
 31
0.0
  0
ARC
  5
2987
  8
1
 10
362.7319865229137
 20
4754.8323491009651
 30
0.0
 40
2.0
 50
100.8854
 51
180.0
  0
ARC
  5
2988
  8
1
 10
427.7320865229139
 20
4771.9843491009651
 30
0.0
 40
2.0001000000000002
 50
90.003500000000003
 51
179.9965
  0
LINE
  5
2989
  8
1
 10
514.73168652291395
 20
4615.1163491009638
 30
0.0
 11
514.73168652291395
 21
4724.4993491009636
 31
0.0
  0
LINE
  5
298A
  8
1
 10
509.23168652291412
 20
4729.309349100964
 30
0.0
 11
509.23168652291412
 21
4614.9873491009657
 31
0.0
  0
ARC
  5
298B
  8
1
 10
523.23168652291395
 20
4614.9873491009657
 30
0.0
 40
14.0
 50
180.0
 51
270.0
  0
LINE
  5
298C
  8
1
 10
560.05068652291379
 20
4607.1163491009647
 30
0.0
 11
522.73168652291395
 21
4607.1163491009647
 31
0.0
  0
ARC
  5
298D
  8
1
 10
522.73168652291395
 20
4615.1163491009638
 30
0.0
 40
8.0
 50
180.0
 51
270.0
  0
ARC
  5
298E
  8
1
 10
555.14868652291375
 20
4611.1163491009647
 30
0.0
 40
4.0
 50
270.0
 51
346.89120000000003
  0
ARC
  5
298F
  8
1
 10
523.23168652291395
 20
4729.309349100964
 30
0.0
 40
14.0
 50
90.0
 51
180.0
  0
LINE
  5
2990
  8
1
 10
485.83868652291397
 20
4764.2933491009644
 30
0.0
 11
491.14468652291362
 21
4773.4843491009642
 31
0.0
  0
ARC
  5
2991
  8
1
 10
526.73168652291395
 20
4724.4993491009636
 30
0.0
 40
12.0
 50
90.0
 51
180.0
  0
LINE
  5
2992
  8
1
 10
712.73168652291383
 20
4748.4843491009651
 30
0.0
 11
712.73168652291383
 21
4514.4843491009651
 31
0.0
  0
LINE
  5
2993
  8
1
 10
722.73168652291383
 20
4573.4843491009642
 30
0.0
 11
722.73168652291383
 21
4689.4843491009651
 31
0.0
  0
LINE
  5
2994
  8
1
 10
570.73168652291383
 20
4824.0343491009653
 30
0.0
 11
570.73168652291383
 21
4492.8388491009646
 31
0.0
  0
LINE
  5
2995
  8
1
 10
665.73168652291383
 20
4512.4843491009642
 30
0.0
 11
679.73168652291406
 21
4512.4843491009642
 31
0.0
  0
LINE
  5
2996
  8
1
 10
656.25268652291379
 20
4514.5044491009639
 30
0.0
 11
586.28868652291385
 21
4515.4076491009646
 31
0.0
  0
LINE
  5
2997
  8
1
 10
658.23168652291383
 20
4499.4843491009651
 30
0.0
 11
570.73168652291383
 21
4499.4843491009651
 31
0.0
  0
LINE
  5
2998
  8
1
 10
578.37868652291377
 20
4523.0333491009642
 30
0.0
 11
576.97668652291361
 21
4553.0016491009646
 31
0.0
  0
LINE
  5
2999
  8
1
 10
563.0846865229139
 20
4523.0333491009642
 30
0.0
 11
564.48668652291371
 21
4553.0016491009646
 31
0.0
  0
ARC
  5
299A
  8
1
 10
586.36968652291375
 20
4523.4072491009647
 30
0.0
 40
8.0
 50
182.6783999999999
 51
269.41860000000003
  0
LINE
  5
299B
  8
1
 10
640.73168652291383
 20
4517.8318491009641
 30
0.0
 11
640.73168652291383
 21
4493.2384491009652
 31
0.0
  0
LINE
  5
299C
  8
1
 10
658.23168652291383
 20
4499.4843491009651
 30
0.0
 11
658.23168652291383
 21
4512.5045491009641
 31
0.0
  0
LINE
  5
299D
  8
1
 10
665.73168652291383
 20
4510.9843491009642
 30
0.0
 11
658.23168652291383
 21
4510.9843491009642
 31
0.0
  0
ARC
  5
299E
  8
1
 10
656.23168652291383
 20
4512.5045491009641
 30
0.0
 40
2.0
 50
0.0
 51
89.419499999999999
  0
LINE
  5
299F
  8
1
 10
712.73168652291383
 20
4572.4843491009651
 30
0.0
 11
721.73168652291383
 21
4572.4843491009651
 31
0.0
  0
ARC
  5
29A0
  8
1
 10
710.73168652291383
 20
4514.4844491009644
 30
0.0
 40
2.0001000000000002
 50
270.0
 51
359.99650000000003
  0
ARC
  5
29A1
  8
1
 10
721.73168652291383
 20
4573.4843491009642
 30
0.0
 40
0.9999
 50
269.99299999999999
 51
0.0035
  0
LINE
  5
29A2
  8
1
 10
746.73168652291383
 20
4653.4843491009651
 30
0.0
 11
764.73168652291395
 21
4653.4843491009651
 31
0.0
  0
LINE
  5
29A3
  8
1
 10
729.73168652291383
 20
4612.4843491009651
 30
0.0
 11
764.73168652291395
 21
4612.4843491009651
 31
0.0
  0
LINE
  5
29A4
  8
1
 10
729.73168652291383
 20
4650.4843491009651
 30
0.0
 11
764.73168652291395
 21
4650.4843491009651
 31
0.0
  0
ARC
  5
29A5
  8
1
 10
570.73168652291383
 20
4798.9843491009642
 30
0.0
 40
20.500099999999989
 50
292.51819999999992
 51
0.0
  0
LINE
  5
29A6
  8
1
 10
665.73168652291383
 20
4750.4843491009651
 30
0.0
 11
710.73168652291383
 21
4750.4843491009651
 31
0.0
  0
LINE
  5
29A7
  8
1
 10
626.73168652291383
 20
4615.1163491009638
 30
0.0
 11
626.73168652291383
 21
4724.4993491009636
 31
0.0
  0
LINE
  5
29A8
  8
1
 10
632.23168652291383
 20
4614.9873491009657
 30
0.0
 11
632.23168652291383
 21
4729.309349100964
 31
0.0
  0
LINE
  5
29A9
  8
1
 10
581.41368652291385
 20
4607.1163491009647
 30
0.0
 11
618.73168652291383
 21
4607.1163491009647
 31
0.0
  0
ARC
  5
29AA
  8
1
 10
570.73168652291383
 20
4607.4873491009657
 30
0.0
 40
8.0
 50
13.825699999999999
 51
166.1742999999999
  0
CIRCLE
  5
29AB
  8
1
 10
570.73168652291383
 20
4607.4873491009657
 30
0.0
 40
3.5
  0
ARC
  5
29AC
  8
1
 10
581.41368652291385
 20
4610.1163491009647
 30
0.0
 40
3.0
 50
193.82589999999999
 51
270.0
  0
ARC
  5
29AD
  8
1
 10
586.31468652291392
 20
4611.1163491009647
 30
0.0
 40
4.0000999999999989
 50
193.1088
 51
270.0
  0
ARC
  5
29AE
  8
1
 10
618.73168652291383
 20
4615.1163491009638
 30
0.0
 40
8.0
 50
270.0
 51
0.0
  0
ARC
  5
29AF
  8
1
 10
618.23168652291383
 20
4614.9873491009657
 30
0.0
 40
14.0
 50
270.0
 51
0.0
  0
LINE
  5
29B0
  8
1
 10
650.31868652291382
 20
4773.4843491009642
 30
0.0
 11
570.73168652291383
 21
4773.4843491009642
 31
0.0
  0
LINE
  5
29B1
  8
1
 10
564.73168652291383
 20
4777.903349100965
 30
0.0
 11
564.73168652291383
 21
4773.4843491009642
 31
0.0
  0
ARC
  5
29B2
  8
1
 10
561.73168652291383
 20
4777.2763491009637
 30
0.0
 40
3.0
 50
18.553599999999999
 51
67.4816
  0
ARC
  5
29B3
  8
1
 10
579.73168652291383
 20
4777.2763491009637
 30
0.0
 40
3.0
 50
112.5183999999999
 51
165.63069999999991
  0
LINE
  5
29B4
  8
1
 10
576.73168652291383
 20
4778.532349100964
 30
0.0
 11
576.73168652291383
 21
4773.4843491009642
 31
0.0
  0
ARC
  5
29B5
  8
1
 10
618.23168652291383
 20
4729.309349100964
 30
0.0
 40
14.0
 50
0.0
 51
90.0
  0
ARC
  5
29B6
  8
1
 10
614.73168652291383
 20
4724.4993491009636
 30
0.0
 40
12.0
 50
0.0
 51
90.0
  0
LINE
  5
29B7
  8
1
 10
650.31868652291382
 20
4773.4843491009642
 30
0.0
 11
662.73168652291383
 21
4751.9843491009651
 31
0.0
  0
LINE
  5
29B8
  8
1
 10
665.73168652291383
 20
4751.9843491009651
 30
0.0
 11
662.73168652291383
 21
4751.9843491009651
 31
0.0
  0
LINE
  5
29B9
  8
1
 10
662.73168652291383
 20
4751.9843491009651
 30
0.0
 11
665.73168652291383
 21
4751.9843491009651
 31
0.0
  0
LINE
  5
29BA
  8
1
 10
665.73168652291383
 20
4751.9843491009651
 30
0.0
 11
662.73168652291383
 21
4751.9843491009651
 31
0.0
  0
LINE
  5
29BB
  8
1
 10
712.73168652291383
 20
4690.4843491009651
 30
0.0
 11
721.73168652291383
 21
4690.4843491009651
 31
0.0
  0
LINE
  5
29BC
  8
1
 10
729.73168652291383
 20
4611.4843491009642
 30
0.0
 11
729.73168652291383
 21
4651.4843491009642
 31
0.0
  0
LINE
  5
29BD
  8
1
 10
722.73168652291383
 20
4611.4843491009642
 30
0.0
 11
729.73168652291383
 21
4611.4843491009642
 31
0.0
  0
LINE
  5
29BE
  8
1
 10
722.73168652291383
 20
4651.4843491009642
 30
0.0
 11
729.73168652291383
 21
4651.4843491009642
 31
0.0
  0
LINE
  5
29BF
  8
1
 10
746.73168652291383
 20
4650.4843491009651
 30
0.0
 11
746.73168652291383
 21
4653.4843491009651
 31
0.0
  0
ARC
  5
29C0
  8
1
 10
721.73268652291381
 20
4689.4843491009651
 30
0.0
 40
0.9998000000000001
 50
359.99299999999999
 51
90.013999999999982
  0
ARC
  5
29C1
  8
1
 10
710.73168652291383
 20
4748.4843491009651
 30
0.0
 40
2.0001000000000002
 50
0.0
 51
89.996499999999997
  0
LINE
  5
29C3
  8
1
 10
695.73168652291395
 20
4512.4843491009642
 30
0.0
 11
710.73168652291383
 21
4512.4843491009642
 31
0.0
  0
INSERT
  5
29C4
  8
0
  2
YA_N
 10
-32.358882711669132
 20
3383.3851076857031
 30
0.0
  0
CIRCLE
  5
29C5
  8
1
 10
2136.478409697474
 20
4147.4843491009651
 30
0.0
 40
280.0
  0
CIRCLE
  5
29C6
  8
1
 10
2136.478409697474
 20
4147.4843491009651
 30
0.0
 40
310.0
  0
CIRCLE
  5
29C7
  8
1
 10
2136.478409697474
 20
4147.4843491009651
 30
0.0
 40
283.19999999999987
  0
LINE
  5
29C9
  8
2
 10
2136.478409697474
 20
3699.924037000384
 30
0.0
 11
2136.478409697474
 21
4881.2314675911894
 31
0.0
  0
LINE
  5
29CA
  8
2
 10
1811.478409697474
 20
4147.4843491009651
 30
0.0
 11
2461.478409697474
 21
4147.4843491009651
 31
0.0
  0
ARC
  5
29E7
  8
1
 10
2345.737898870751
 20
4384.4843491009651
 30
0.0
 40
0.5
 50
359.99999999999937
 51
90.0
  0
ARC
  5
29E8
  8
1
 10
2345.7378988707501
 20
4384.4843491009651
 30
0.0
 40
5.0
 50
0.0
 51
90.0
  0
LINE
  5
29E9
  8
1
 10
2330.220506310472
 20
4389.4843491009651
 30
0.0
 11
2345.7378988707501
 21
4389.4843491009651
 31
0.0
  0
LINE
  5
29EA
  8
1
 10
2335.7113136064422
 20
4384.9843491009651
 30
0.0
 11
2345.737898870751
 21
4384.9843491009651
 31
0.0
  0
LINE
  5
29EB
  8
1
 10
2346.237898870751
 20
4375.7406889948797
 30
0.0
 11
2346.237898870751
 21
4384.4843491009651
 31
0.0
  0
LINE
  5
29EC
  8
1
 10
2350.7378988707501
 20
4371.5220050858597
 30
0.0
 11
2350.7378988707501
 21
4384.4843491009651
 31
0.0
  0
LINE
  5
29EE
  8
1
 10
2341.478409697474
 20
4389.4843491009651
 30
0.0
 11
2341.478409697474
 21
4539.4843491009651
 31
0.0
  0
LINE
  5
29EF
  8
1
 10
2301.478409697474
 20
4539.4843491009651
 30
0.0
 11
2341.478409697474
 21
4539.4843491009651
 31
0.0
  0
LINE
  5
29F0
  8
1
 10
2301.478409697474
 20
4409.924818541178
 30
0.0
 11
2301.478409697474
 21
4539.4843491009651
 31
0.0
  0
LINE
  5
29F1
  8
1
 10
2305.978409697474
 20
4409.924818541178
 30
0.0
 11
2305.978409697474
 21
4539.4843491009651
 31
0.0
  0
ARC
  5
29F4
  8
1
 10
2323.978409697474
 20
4509.4843491009651
 30
0.0
 40
6.0
 50
0.0
 51
180.0
  0
ARC
  5
29F5
  8
1
 10
2323.978409697474
 20
4449.4843491009651
 30
0.0
 40
6.0
 50
180.0
 51
0.0
  0
LINE
  5
29F6
  8
1
 10
2317.978409697474
 20
4509.4843491009651
 30
0.0
 11
2317.978409697474
 21
4449.4843491009651
 31
0.0
  0
LINE
  5
29F7
  8
1
 10
2329.978409697474
 20
4509.4843491009651
 30
0.0
 11
2329.978409697474
 21
4449.4843491009651
 31
0.0
  0
LINE
  5
29F8
  8
1
 10
1942.9784096974749
 20
4509.4843491009651
 30
0.0
 11
1942.9784096974749
 21
4449.4843491009651
 31
0.0
  0
LINE
  5
29F9
  8
1
 10
1954.9784096974749
 20
4509.4843491009651
 30
0.0
 11
1954.9784096974749
 21
4449.4843491009651
 31
0.0
  0
ARC
  5
29FA
  8
1
 10
1948.978409697474
 20
4449.4843491009651
 30
0.0
 40
6.0
 50
180.0
 51
0.0
  0
ARC
  5
29FB
  8
1
 10
1948.978409697474
 20
4509.4843491009651
 30
0.0
 40
6.0
 50
0.0
 51
180.0
  0
LINE
  5
29FE
  8
1
 10
1966.978409697474
 20
4409.924818541178
 30
0.0
 11
1966.978409697474
 21
4539.4843491009651
 31
0.0
  0
LINE
  5
29FF
  8
1
 10
1971.4784096974749
 20
4409.924818541178
 30
0.0
 11
1971.4784096974749
 21
4539.4843491009651
 31
0.0
  0
LINE
  5
2A00
  8
1
 10
1971.4784096974749
 20
4539.4843491009651
 30
0.0
 11
1931.4784096974749
 21
4539.4843491009651
 31
0.0
  0
LINE
  5
2A01
  8
1
 10
1931.4784096974749
 20
4389.4843491009651
 30
0.0
 11
1931.4784096974749
 21
4539.4843491009651
 31
0.0
  0
LINE
  5
2A03
  8
1
 10
1922.2189205241989
 20
4371.5220050858597
 30
0.0
 11
1922.2189205241989
 21
4384.4843491009651
 31
0.0
  0
LINE
  5
2A04
  8
1
 10
1926.718920524198
 20
4375.7406889948797
 30
0.0
 11
1926.718920524198
 21
4384.4843491009651
 31
0.0
  0
LINE
  5
2A05
  8
1
 10
1937.245505788507
 20
4384.9843491009651
 30
0.0
 11
1927.218920524198
 21
4384.9843491009651
 31
0.0
  0
LINE
  5
2A06
  8
1
 10
1942.7363130844769
 20
4389.4843491009651
 30
0.0
 11
1927.2189205241989
 21
4389.4843491009651
 31
0.0
  0
ARC
  5
2A07
  8
1
 10
1927.2189205241989
 20
4384.4843491009651
 30
0.0
 40
5.0
 50
90.0
 51
180.0
  0
ARC
  5
2A08
  8
1
 10
1927.218920524198
 20
4384.4843491009651
 30
0.0
 40
0.5
 50
90.0
 51
180.00000000000051
  0
LINE
  5
2A0F
  8
1
 10
1971.478409697474
 20
4499.4843491009651
 30
0.0
 11
2301.478409697474
 21
4499.4843491009651
 31
0.0
  0
LINE
  5
2A10
  8
1
 10
1971.478409697474
 20
4464.4843491009651
 30
0.0
 11
2301.478409697474
 21
4464.4843491009651
 31
0.0
  0
LINE
  5
2A11
  8
1
 10
1971.478409697474
 20
4493.4843491009651
 30
0.0
 11
2301.478409697474
 21
4493.4843491009651
 31
0.0
  0
LINE
  5
2A3C
  8
2
 10
244.79852409842979
 20
4147.4843491009651
 30
0.0
 11
1016.966625178821
 21
4147.4843491009651
 31
0.0
  0
LINE
  5
2A3D
  8
1
 10
964.73168652291406
 20
4457.4843491009651
 30
0.0
 11
964.73168652291383
 21
3837.4843491009642
 31
0.0
  0
LINE
  5
2A3E
  8
1
 10
294.731686522914
 20
4427.4843491009651
 30
0.0
 11
964.73168652291406
 21
4427.4843491009651
 31
0.0
  0
LINE
  5
2A3F
  8
1
 10
297.93168652291382
 20
4430.684349100964
 30
0.0
 11
386.731686522914
 21
4430.684349100964
 31
0.0
  0
LINE
  5
2A40
  8
1
 10
961.53168652291379
 20
4457.4843491009651
 30
0.0
 11
964.73168652291406
 21
4457.4843491009651
 31
0.0
  0
LINE
  5
2A41
  8
1
 10
961.53168652291379
 20
4457.4843491009651
 30
0.0
 11
961.53168652291379
 21
3837.4843491009642
 31
0.0
  0
LINE
  5
2A42
  8
1
 10
961.53168652291379
 20
3837.4843491009642
 30
0.0
 11
964.73168652291406
 21
3837.4843491009642
 31
0.0
  0
LINE
  5
2A43
  8
1
 10
297.93168652291382
 20
3864.2843491009639
 30
0.0
 11
961.53168652291379
 21
3864.2843491009639
 31
0.0
  0
LINE
  5
2A44
  8
1
 10
294.731686522914
 20
3867.4843491009642
 30
0.0
 11
964.73168652291406
 21
3867.4843491009642
 31
0.0
  0
LINE
  5
2A45
  8
1
 10
297.93168652291382
 20
3837.4843491009642
 30
0.0
 11
294.731686522914
 21
3837.4843491009642
 31
0.0
  0
LINE
  5
2A46
  8
1
 10
297.93168652291382
 20
4457.4843491009651
 30
0.0
 11
297.93168652291382
 21
3837.4843491009642
 31
0.0
  0
LINE
  5
2A47
  8
1
 10
297.93168652291382
 20
4457.4843491009651
 30
0.0
 11
294.731686522914
 21
4457.4843491009651
 31
0.0
  0
LINE
  5
2A48
  8
1
 10
294.731686522914
 20
4457.4843491009651
 30
0.0
 11
294.731686522914
 21
3837.4843491009642
 31
0.0
  0
LINE
  5
2A49
  8
1
 10
309.731686522914
 20
4287.4843491009651
 30
0.0
 11
309.731686522914
 21
4007.4843491009642
 31
0.0
  0
LINE
  5
2A4A
  8
1
 10
419.731686522914
 20
4287.4843491009651
 30
0.0
 11
419.731686522914
 21
4007.4843491009642
 31
0.0
  0
LINE
  5
2A4B
  8
1
 10
309.731686522914
 20
4287.4843491009651
 30
0.0
 11
419.731686522914
 21
4287.4843491009651
 31
0.0
  0
LINE
  5
2A4C
  8
1
 10
334.731686522914
 20
4424.4843491009651
 30
0.0
 11
394.731686522914
 21
4424.4843491009651
 31
0.0
  0
LINE
  5
2A4D
  8
1
 10
329.731686522914
 20
4182.4843491009651
 30
0.0
 11
329.731686522914
 21
4112.4843491009651
 31
0.0
  0
LINE
  5
2A4E
  8
1
 10
399.731686522914
 20
4182.4843491009651
 30
0.0
 11
399.731686522914
 21
4112.4843491009651
 31
0.0
  0
LINE
  5
2A4F
  8
1
 10
329.731686522914
 20
4182.4843491009651
 30
0.0
 11
399.731686522914
 21
4182.4843491009651
 31
0.0
  0
LINE
  5
2A50
  8
1
 10
329.731686522914
 20
4112.4843491009651
 30
0.0
 11
399.731686522914
 21
4112.4843491009651
 31
0.0
  0
LINE
  5
2A51
  8
1
 10
314.731686522914
 20
4287.4843491009651
 30
0.0
 11
334.731686522914
 21
4424.4843491009651
 31
0.0
  0
LINE
  5
2A52
  8
1
 10
394.731686522914
 20
4424.4843491009651
 30
0.0
 11
414.731686522914
 21
4287.4843491009651
 31
0.0
  0
LINE
  5
2A53
  8
1
 10
394.731686522914
 20
3870.4843491009642
 30
0.0
 11
414.731686522914
 21
4007.4843491009642
 31
0.0
  0
LINE
  5
2A54
  8
1
 10
314.731686522914
 20
4007.4843491009642
 30
0.0
 11
334.731686522914
 21
3870.4843491009642
 31
0.0
  0
LINE
  5
2A55
  8
1
 10
334.731686522914
 20
3870.4843491009642
 30
0.0
 11
394.731686522914
 21
3870.4843491009642
 31
0.0
  0
LINE
  5
2A56
  8
1
 10
309.731686522914
 20
4007.4843491009642
 30
0.0
 11
419.731686522914
 21
4007.4843491009642
 31
0.0
  0
LINE
  5
2A69
  8
1
 10
924.73168652291406
 20
4389.4843491009651
 30
0.0
 11
334.731686522914
 21
4389.4843491009651
 31
0.0
  0
LINE
  5
2A6A
  8
1
 10
334.731686522914
 20
4389.4843491009651
 30
0.0
 11
334.731686522914
 21
4337.4843491009642
 31
0.0
  0
LINE
  5
2A6B
  8
1
 10
924.73168652291406
 20
4389.4843491009651
 30
0.0
 11
924.73168652291406
 21
4337.4843491009642
 31
0.0
  0
LINE
  5
2A6C
  8
1
 10
924.73168652291406
 20
4337.4843491009642
 30
0.0
 11
334.731686522914
 21
4337.4843491009642
 31
0.0
  0
LINE
  5
2A6D
  8
1
 10
924.73168652291406
 20
4384.9843491009651
 30
0.0
 11
334.731686522914
 21
4384.9843491009651
 31
0.0
  0
LINE
  5
2A6E
  8
1
 10
734.73168652291395
 20
4539.4843491009651
 30
0.0
 11
734.73168652291395
 21
4389.4843491009651
 31
0.0
  0
LINE
  5
2A6F
  8
1
 10
734.73168652291395
 20
4539.4843491009651
 30
0.0
 11
784.73168652291395
 21
4539.4843491009651
 31
0.0
  0
LINE
  5
2A70
  8
1
 10
886.73168652291383
 20
4411.9843491009651
 30
0.0
 11
784.73168652291395
 21
4539.4843491009651
 31
0.0
  0
LINE
  5
2A71
  8
1
 10
739.23168652291395
 20
4539.4843491009651
 30
0.0
 11
739.23168652291395
 21
4389.4843491009651
 31
0.0
  0
LINE
  5
2A72
  8
1
 10
351.731686522914
 20
4499.4843491009651
 30
0.0
 11
727.73168652291395
 21
4499.4843491009651
 31
0.0
  0
LINE
  5
2A73
  8
1
 10
344.731686522914
 20
4492.4843491009651
 30
0.0
 11
344.731686522914
 21
4464.4843491009651
 31
0.0
  0
LINE
  5
2A74
  8
1
 10
344.731686522914
 20
4464.4843491009651
 30
0.0
 11
350.731686522914
 21
4464.4843491009651
 31
0.0
  0
LINE
  5
2A75
  8
1
 10
350.731686522914
 20
4492.4843491009651
 30
0.0
 11
350.731686522914
 21
4464.4843491009651
 31
0.0
  0
LINE
  5
2A76
  8
1
 10
351.731686522914
 20
4493.4843491009651
 30
0.0
 11
727.73168652291395
 21
4493.4843491009651
 31
0.0
  0
LINE
  5
2A77
  8
1
 10
728.73168652291395
 20
4492.4843491009651
 30
0.0
 11
728.73168652291395
 21
4464.4843491009651
 31
0.0
  0
LINE
  5
2A78
  8
1
 10
728.73168652291395
 20
4464.4843491009651
 30
0.0
 11
734.73168652291395
 21
4464.4843491009651
 31
0.0
  0
ARC
  5
2A79
  8
1
 10
727.73168652291395
 20
4492.4843491009651
 30
0.0
 40
1.0
 50
0.0
 51
90.0
  0
ARC
  5
2A7A
  8
1
 10
351.731686522914
 20
4492.4843491009651
 30
0.0
 40
1.0
 50
90.0
 51
180.0
  0
ARC
  5
2A7B
  8
1
 10
351.731686522914
 20
4492.4843491009651
 30
0.0
 40
7.0
 50
90.0
 51
180.0
  0
ARC
  5
2A7C
  8
1
 10
727.73168652291395
 20
4492.4843491009651
 30
0.0
 40
7.0
 50
359.99999999999989
 51
89.999999999999986
  0
LINE
  5
2A7D
  8
1
 10
350.731686522914
 20
4468.4843491009651
 30
0.0
 11
728.73168652291395
 21
4468.4843491009651
 31
0.0
  0
LINE
  5
2A7E
  8
2
 10
684.73168652291395
 20
4556.7355625274031
 30
0.0
 11
684.73168652291395
 21
4378.3811745020339
 31
0.0
  0
LINE
  5
2A7F
  8
1
 10
918.73168652291417
 20
4408.4843491009651
 30
0.0
 11
892.73168652291417
 21
4408.4843491009651
 31
0.0
  0
LINE
  5
2A80
  8
1
 10
905.73168652291429
 20
4395.4843491009651
 30
0.0
 11
905.73168652291429
 21
4421.4843491009651
 31
0.0
  0
CIRCLE
  5
2A81
  8
1
 10
905.73168652291429
 20
4408.4843491009651
 30
0.0
 40
10.0
  0
LINE
  5
2A82
  8
1
 10
886.73168652291395
 20
4427.4843491009651
 30
0.0
 11
886.73168652291395
 21
4389.4843491009651
 31
0.0
  0
LINE
  5
2A83
  8
1
 10
924.73168652291406
 20
4427.4843491009651
 30
0.0
 11
886.73168652291395
 21
4427.4843491009651
 31
0.0
  0
LINE
  5
2A84
  8
1
 10
717.83624612738129
 20
4479.4843491009651
 30
0.0
 11
748.57530490782585
 21
4479.4843491009651
 31
0.0
  0
LINE
  5
2A85
  8
2
 10
394.731686522914
 20
4556.7355625274031
 30
0.0
 11
394.731686522914
 21
4378.3811745020339
 31
0.0
  0
LINE
  5
2A86
  8
1
 10
871.77168652291368
 20
4430.684349100964
 30
0.0
 11
961.53168652291379
 21
4430.684349100964
 31
0.0
  0
LINE
  5
2A87
  8
1
 10
294.731686522914
 20
4457.4843491009651
 30
0.0
 11
294.731686522914
 21
3837.4843491009642
 31
0.0
  0
LINE
  5
2A88
  8
1
 10
294.731686522914
 20
4457.4843491009651
 30
0.0
 11
293.731686522914
 21
4457.4843491009651
 31
0.0
  0
ARC
  5
2A89
  8
1
 10
293.731686522914
 20
4455.4843491009651
 30
0.0
 40
2.0
 50
90.0
 51
180.0
  0
LINE
  5
2A8A
  8
1
 10
291.731686522914
 20
4455.4843491009651
 30
0.0
 11
291.731686522914
 21
4434.4843491009651
 31
0.0
  0
ARC
  5
2A8B
  8
1
 10
287.731686522914
 20
4434.4843491009651
 30
0.0
 40
4.0
 50
270.0
 51
0.0
  0
LINE
  5
2A8C
  8
1
 10
287.731686522914
 20
4430.4843491009642
 30
0.0
 11
266.731686522914
 21
4430.4843491009642
 31
0.0
  0
ARC
  5
2A8D
  8
1
 10
266.731686522914
 20
4428.4843491009651
 30
0.0
 40
2.0
 50
90.0
 51
180.0
  0
LINE
  5
2A8E
  8
1
 10
264.731686522914
 20
4428.4843491009651
 30
0.0
 11
264.731686522914
 21
4427.4843491009651
 31
0.0
  0
LINE
  5
2A8F
  8
1
 10
264.731686522914
 20
4427.4843491009651
 30
0.0
 11
294.731686522914
 21
4427.4843491009651
 31
0.0
  0
LINE
  5
2A90
  8
1
 10
264.731686522914
 20
3867.4843491009642
 30
0.0
 11
294.731686522914
 21
3867.4843491009642
 31
0.0
  0
LINE
  5
2A91
  8
1
 10
264.731686522914
 20
3866.4843491009642
 30
0.0
 11
264.731686522914
 21
3867.4843491009642
 31
0.0
  0
ARC
  5
2A92
  8
1
 10
266.731686522914
 20
3866.4843491009642
 30
0.0
 40
2.0
 50
180.0
 51
270.0
  0
LINE
  5
2A93
  8
1
 10
287.731686522914
 20
3864.4843491009642
 30
0.0
 11
266.731686522914
 21
3864.4843491009642
 31
0.0
  0
ARC
  5
2A94
  8
1
 10
287.731686522914
 20
3860.4843491009642
 30
0.0
 40
4.0
 50
0.0
 51
90.0
  0
LINE
  5
2A95
  8
1
 10
291.731686522914
 20
3839.4843491009642
 30
0.0
 11
291.731686522914
 21
3860.4843491009642
 31
0.0
  0
ARC
  5
2A96
  8
1
 10
293.731686522914
 20
3839.4843491009642
 30
0.0
 40
2.0
 50
180.0
 51
270.0
  0
LINE
  5
2A97
  8
1
 10
294.731686522914
 20
3837.4843491009642
 30
0.0
 11
293.731686522914
 21
3837.4843491009642
 31
0.0
  0
LINE
  5
2A98
  8
1
 10
291.731686522914
 20
4434.4843491009651
 30
0.0
 11
291.731686522914
 21
3860.4843491009642
 31
0.0
  0
LINE
  5
2A99
  8
1
 10
264.731686522914
 20
4427.4843491009651
 30
0.0
 11
264.731686522914
 21
3867.4843491009642
 31
0.0
  0
POINT
  5
2A9A
  8
1
 10
1853.278409697474
 20
4147.4843491009633
 30
0.0
  0
LINE
  5
2AAB
  8
1
 10
924.73168652291406
 20
4427.4843491009651
 30
0.0
 11
924.73168652291406
 21
4389.4843491009651
 31
0.0
  0
LINE
  5
2AAC
  8
1
 10
334.731686522914
 20
4427.4843491009651
 30
0.0
 11
334.731686522914
 21
4389.4843491009651
 31
0.0
  0
LINE
  5
2AAD
  8
1
 10
372.731686522914
 20
4427.4843491009651
 30
0.0
 11
372.731686522914
 21
4389.4843491009651
 31
0.0
  0
LINE
  5
2AAE
  8
1
 10
353.73168652291361
 20
4395.4843491009651
 30
0.0
 11
353.73168652291361
 21
4421.4843491009651
 31
0.0
  0
CIRCLE
  5
2AAF
  8
1
 10
353.73168652291361
 20
4408.4843491009651
 30
0.0
 40
10.0
  0
LINE
  5
2AB0
  8
1
 10
340.73168652291361
 20
4408.4843491009651
 30
0.0
 11
366.73168652291349
 21
4408.4843491009651
 31
0.0
  0
LINE
  5
2AB1
  8
1
 10
334.731686522914
 20
4427.4843491009651
 30
0.0
 11
372.731686522914
 21
4427.4843491009651
 31
0.0
  0
LINE
  5
2AB2
  8
1
 10
994.73168652291395
 20
4427.4843491009651
 30
0.0
 11
994.73168652291395
 21
3867.4843491009642
 31
0.0
  0
LINE
  5
2AB3
  8
1
 10
967.73168652291406
 20
4434.4843491009651
 30
0.0
 11
967.73168652291395
 21
3860.4843491009642
 31
0.0
  0
LINE
  5
2AB4
  8
1
 10
964.73168652291406
 20
4457.4843491009651
 30
0.0
 11
964.73168652291383
 21
3837.4843491009642
 31
0.0
  0
LINE
  5
2AB5
  8
1
 10
964.73168652291406
 20
3837.4843491009642
 30
0.0
 11
965.73168652291406
 21
3837.4843491009642
 31
0.0
  0
ARC
  5
2AB6
  8
1
 10
965.73168652291406
 20
3839.4843491009642
 30
0.0
 40
2.0
 50
270.0
 51
0.0
  0
LINE
  5
2AB7
  8
1
 10
967.73168652291406
 20
3839.4843491009642
 30
0.0
 11
967.73168652291406
 21
3860.4843491009642
 31
0.0
  0
ARC
  5
2AB8
  8
1
 10
971.73168652291395
 20
3860.4843491009642
 30
0.0
 40
4.0
 50
90.0
 51
180.0
  0
LINE
  5
2AB9
  8
1
 10
971.73168652291395
 20
3864.4843491009642
 30
0.0
 11
992.73168652291406
 21
3864.4843491009642
 31
0.0
  0
ARC
  5
2ABA
  8
1
 10
992.73168652291406
 20
3866.4843491009642
 30
0.0
 40
2.0
 50
270.0
 51
0.0
  0
LINE
  5
2ABB
  8
1
 10
994.73168652291395
 20
3866.4843491009642
 30
0.0
 11
994.73168652291395
 21
3867.4843491009642
 31
0.0
  0
LINE
  5
2ABC
  8
1
 10
994.73168652291395
 20
3867.4843491009642
 30
0.0
 11
964.73168652291383
 21
3867.4843491009642
 31
0.0
  0
LINE
  5
2ABD
  8
1
 10
994.73168652291395
 20
4427.4843491009651
 30
0.0
 11
964.73168652291406
 21
4427.4843491009651
 31
0.0
  0
LINE
  5
2ABE
  8
1
 10
994.73168652291395
 20
4428.4843491009651
 30
0.0
 11
994.73168652291395
 21
4427.4843491009651
 31
0.0
  0
ARC
  5
2ABF
  8
1
 10
992.73168652291406
 20
4428.4843491009651
 30
0.0
 40
2.0
 50
0.0
 51
90.0
  0
LINE
  5
2AC0
  8
1
 10
971.73168652291395
 20
4430.4843491009642
 30
0.0
 11
992.73168652291406
 21
4430.4843491009642
 31
0.0
  0
ARC
  5
2AC1
  8
1
 10
971.73168652291395
 20
4434.4843491009651
 30
0.0
 40
4.0
 50
180.0
 51
270.0
  0
LINE
  5
2AC2
  8
1
 10
967.73168652291406
 20
4455.4843491009651
 30
0.0
 11
967.73168652291406
 21
4434.4843491009651
 31
0.0
  0
ARC
  5
2AC3
  8
1
 10
965.73168652291406
 20
4455.4843491009651
 30
0.0
 40
2.0
 50
0.0
 51
90.0
  0
LINE
  5
2AC4
  8
1
 10
964.73168652291406
 20
4457.4843491009651
 30
0.0
 11
965.73168652291406
 21
4457.4843491009651
 31
0.0
  0
LINE
  5
2AC5
  8
2
 10
351.731686522914
 20
4631.4843491009651
 30
0.0
 11
849.42187111750263
 21
4631.4843491009651
 31
0.0
  0
LINE
  5
2AC6
  8
1
 10
380.87528006236329
 20
4505.8645882836036
 30
0.0
 11
362.6704865229139
 21
4506.4247491009637
 31
0.0
  0
LINE
  5
2AC7
  8
1
 10
465.28768652291359
 20
4510.9843491009642
 30
0.0
 11
465.28768652291359
 21
4502.4843491009651
 31
0.0
  0
LINE
  5
2AC8
  8
1
 10
465.28768652291359
 20
4510.9843491009642
 30
0.0
 11
465.28768652291359
 21
4541.0403491009629
 31
0.0
  0
LINE
  5
2AC9
  8
1
 10
882.73168652291429
 20
4401.6373541982884
 30
0.0
 11
882.73168652291599
 21
4765.6373541982894
 31
0.0
  0
LINE
  5
2ACA
  8
1
 10
742.73168652291417
 20
4401.6373541982884
 30
0.0
 11
742.73168652291633
 21
4765.6373541982894
 31
0.0
  0
LINE
  5
2ACB
  8
1
 10
836.73168652291383
 20
4699.5055711202804
 30
0.0
 11
836.73168652291395
 21
4090.334349100965
 31
0.0
  0
LINE
  5
2ACC
  8
1
 10
786.73168652291395
 20
4699.5055711202804
 30
0.0
 11
786.73168652291395
 21
4090.334349100965
 31
0.0
  0
LINE
  5
2ACE
  8
1
 10
764.73168652291383
 20
4590.8131270816502
 30
0.0
 11
764.73168652291395
 21
4672.15557112028
 31
0.0
  0
LINE
  5
2ACF
  8
1
 10
786.73168652291395
 20
4555.8055711202824
 30
0.0
 11
836.73168652291395
 21
4555.8055711202796
 31
0.0
  0
LINE
  5
2AD0
  8
1
 10
882.73168652291599
 20
4765.6373541982894
 30
0.0
 11
742.73168652291633
 21
4765.6373541982894
 31
0.0
  0
LINE
  5
2AD1
  8
1
 10
786.73168652291395
 20
4699.5055711202804
 30
0.0
 11
836.73168652291395
 21
4699.5055711202804
 31
0.0
  0
LINE
  5
2AD4
  8
1
 10
836.73168652291395
 20
4090.334349100965
 30
0.0
 11
786.73168652291395
 21
4090.334349100965
 31
0.0
  0
LINE
  5
2AD6
  8
1
 10
836.73168652291395
 20
4204.6343491009648
 30
0.0
 11
786.73168652291395
 21
4204.6343491009648
 31
0.0
  0
CIRCLE
  5
2AD7
  8
1
 10
2136.478409697474
 20
4631.4843491009651
 30
0.0
 40
72.0
  0
LINE
  5
2AD8
  8
1
 10
2043.2652096974739
 20
4514.4843491009651
 30
0.0
 11
2008.478409697474
 21
4514.4843491009651
 31
0.0
  0
LINE
  5
2AD9
  8
1
 10
2006.478409697474
 20
4499.4843491009651
 30
0.0
 11
2056.478409697474
 21
4499.4843491009651
 31
0.0
  0
ARC
  5
2ADA
  8
1
 10
2136.478409697474
 20
4631.4843491009651
 30
0.0
 40
142.5
 50
180.0
 51
244.78700000000001
  0
LINE
  5
2ADB
  8
1
 10
2016.9528096974741
 20
4553.5756491009652
 30
0.0
 11
2006.478409697474
 21
4514.4843491009651
 31
0.0
  0
LINE
  5
2ADC
  8
2
 10
2028.478409697474
 20
4517.5227491009637
 30
0.0
 11
2028.478409697474
 21
4496.5393491009663
 31
0.0
  0
ARC
  5
2ADD
  8
1
 10
2008.478409697474
 20
4512.4843491009642
 30
0.0
 40
2.0
 50
90.0
 51
180.0
  0
LINE
  5
2ADE
  8
1
 10
2006.478409697474
 20
4514.2869491009642
 30
0.0
 11
2006.478409697474
 21
4499.4843491009651
 31
0.0
  0
LINE
  5
2ADF
  8
1
 10
2075.9371096974742
 20
4502.4843491009651
 30
0.0
 11
2197.0197096974739
 21
4502.4843491009651
 31
0.0
  0
LINE
  5
2AE0
  8
1
 10
2048.7651096974751
 20
4518.7416491009644
 30
0.0
 11
2045.3865096974739
 21
4515.3630491009644
 31
0.0
  0
ARC
  5
2AE1
  8
1
 10
2043.2652096974739
 20
4517.4843491009651
 30
0.0
 40
3.0
 50
270.0
 51
315.0
  0
ARC
  5
2AE2
  8
1
 10
2061.4783096974738
 20
4507.4133491009652
 30
0.0
 40
4.9999000000000002
 50
134.99950000000001
 51
180.0
  0
LINE
  5
2AE3
  8
1
 10
2058.7163096974741
 20
4511.7223491009636
 30
0.0
 11
2057.9429096974741
 21
4510.9488491009652
 31
0.0
  0
LINE
  5
2AE4
  8
1
 10
2056.478409697474
 20
4499.4843491009651
 30
0.0
 11
2056.478409697474
 21
4507.4133491009652
 31
0.0
  0
LINE
  5
2AE5
  8
1
 10
2223.9414096974738
 20
4518.9918491009648
 30
0.0
 11
2227.5703096974739
 21
4515.3630491009644
 31
0.0
  0
ARC
  5
2AE6
  8
1
 10
2229.6916096974751
 20
4517.4843491009651
 30
0.0
 40
3.0
 50
225.0
 51
270.0
  0
LINE
  5
2AE7
  8
1
 10
2229.6916096974751
 20
4514.4843491009651
 30
0.0
 11
2264.478409697474
 21
4514.4843491009651
 31
0.0
  0
LINE
  5
2AE8
  8
1
 10
2255.9612096974738
 20
4553.7349491009636
 30
0.0
 11
2266.478409697474
 21
4514.4843491009651
 31
0.0
  0
ARC
  5
2AE9
  8
1
 10
2264.478409697474
 20
4512.4843491009642
 30
0.0
 40
2.0
 50
0.0
 51
90.0
  0
LINE
  5
2AEA
  8
1
 10
2266.478409697474
 20
4514.2869491009642
 30
0.0
 11
2266.478409697474
 21
4499.4843491009651
 31
0.0
  0
LINE
  5
2AEB
  8
2
 10
2244.478409697474
 20
4517.5227491009637
 30
0.0
 11
2244.478409697474
 21
4496.5393491009663
 31
0.0
  0
LINE
  5
2AEC
  8
1
 10
2216.478409697474
 20
4499.4843491009651
 30
0.0
 11
2216.478409697474
 21
4507.4133491009652
 31
0.0
  0
LINE
  5
2AED
  8
1
 10
2215.3582096974742
 20
4510.6045491009636
 30
0.0
 11
2213.9873096974738
 21
4511.9754491009644
 31
0.0
  0
LINE
  5
2AEE
  8
1
 10
2266.478409697474
 20
4499.4843491009651
 30
0.0
 11
2216.478409697474
 21
4499.4843491009651
 31
0.0
  0
ARC
  5
2AEF
  8
1
 10
2211.4785096974738
 20
4507.4133491009652
 30
0.0
 40
4.9999000000000002
 50
0.0
 51
45.000500000000002
  0
LINE
  5
2AF0
  8
1
 10
2018.9784096974749
 20
4769.4661321789717
 30
0.0
 11
2253.978409697474
 21
4769.4661321789717
 31
0.0
  0
LINE
  5
2AF1
  8
1
 10
2141.850909697474
 20
4777.9373491009646
 30
0.0
 11
2141.350909697474
 21
4778.4373491009637
 31
0.0
  0
LINE
  5
2AF2
  8
1
 10
2141.850909697474
 20
4777.9373491009646
 30
0.0
 11
2141.850909697474
 21
4774.0573491009654
 31
0.0
  0
ARC
  5
2AF3
  8
1
 10
2146.2897096974739
 20
4782.1693491009637
 30
0.0
 40
5.5106000000000002
 50
194.6679
 51
226.01750000000001
  0
LINE
  5
2AF4
  8
1
 10
2142.478409697474
 20
4773.818349100964
 30
0.0
 11
2142.478409697474
 21
4778.2043491009636
 31
0.0
  0
LINE
  5
2AF5
  8
1
 10
2139.5777096974739
 20
4774.0573491009654
 30
0.0
 11
2139.5777096974739
 21
4777.9373491009646
 31
0.0
  0
LINE
  5
2AF6
  8
1
 10
2139.5777096974739
 20
4777.9373491009646
 30
0.0
 11
2139.0777096974739
 21
4778.4373491009637
 31
0.0
  0
LINE
  5
2AF7
  8
1
 10
2139.5777096974739
 20
4777.9373491009646
 30
0.0
 11
2140.0777096974739
 21
4778.4373491009637
 31
0.0
  0
LINE
  5
2AF8
  8
1
 10
2140.978409697474
 20
4780.7113491009641
 30
0.0
 11
2140.978409697474
 21
4814.9843491009651
 31
0.0
  0
LINE
  5
2AF9
  8
1
 10
2133.2341096974742
 20
4774.0573491009654
 30
0.0
 11
2133.2341096974742
 21
4777.9373491009646
 31
0.0
  0
LINE
  5
2AFA
  8
1
 10
2133.2341096974742
 20
4777.9373491009646
 30
0.0
 11
2133.7341096974742
 21
4778.4373491009637
 31
0.0
  0
LINE
  5
2AFB
  8
1
 10
2133.2341096974742
 20
4777.9373491009646
 30
0.0
 11
2132.7341096974742
 21
4778.4373491009637
 31
0.0
  0
LINE
  5
2AFC
  8
1
 10
2131.4609096974741
 20
4778.4373491009637
 30
0.0
 11
2130.9609096974741
 21
4777.9373491009646
 31
0.0
  0
LINE
  5
2AFD
  8
1
 10
2130.9609096974741
 20
4777.9373491009646
 30
0.0
 11
2130.9609096974741
 21
4774.0573491009654
 31
0.0
  0
LINE
  5
2AFE
  8
1
 10
2130.478409697474
 20
4773.8813491009641
 30
0.0
 11
2130.478409697474
 21
4778.2173491009653
 31
0.0
  0
ARC
  5
2AFF
  8
1
 10
2126.6671096974742
 20
4782.1693491009637
 30
0.0
 40
5.5106000000000002
 50
313.98250000000002
 51
345.33210000000003
  0
LINE
  5
2B00
  8
1
 10
2136.4059096974738
 20
4773.1133491009641
 30
0.0
 11
2136.4059096974738
 21
4778.9703491009641
 31
0.0
  0
LINE
  5
2B01
  8
1
 10
2131.978409697474
 20
4780.7943491009637
 30
0.0
 11
2131.978409697474
 21
4814.9843491009651
 31
0.0
  0
LINE
  5
2B02
  8
1
 10
2131.4609096974741
 20
4778.4373491009637
 30
0.0
 11
2141.350909697474
 21
4778.4373491009637
 31
0.0
  0
ARC
  5
2B03
  8
1
 10
2136.478409697474
 20
4814.9843491009651
 30
0.0
 40
4.5
 50
0.0
 51
180.0
  0
LINE
  5
2B04
  8
1
 10
2130.9609096974741
 20
4774.0573491009654
 30
0.0
 11
2141.850909697474
 21
4774.0573491009654
 31
0.0
  0
LINE
  5
2B05
  8
1
 10
2052.5855096974742
 20
4746.8373491009643
 30
0.0
 11
2008.9383096974741
 21
4726.4843491009651
 31
0.0
  0
LINE
  5
2B06
  8
1
 10
1930.859709697474
 20
4717.8653491009636
 30
0.0
 11
1925.5832096974741
 21
4610.2363491009646
 31
0.0
  0
LINE
  5
2B07
  8
1
 10
1982.101709697474
 20
4742.1583491009642
 30
0.0
 11
1926.7645096974741
 21
4603.8153491009652
 31
0.0
  0
LINE
  5
2B08
  8
1
 10
1986.372709697474
 20
4742.0653491009652
 30
0.0
 11
1929.921309697474
 21
4600.9373491009646
 31
0.0
  0
LINE
  5
2B09
  8
1
 10
1990.478409697474
 20
4621.4843491009651
 30
0.0
 11
1990.478409697474
 21
4730.4843491009642
 31
0.0
  0
LINE
  5
2B0A
  8
1
 10
1990.478409697474
 20
4625.8283491009643
 30
0.0
 11
1990.478409697474
 21
4726.4323491009654
 31
0.0
  0
LINE
  5
2B0B
  8
1
 10
1991.478409697474
 20
4626.4843491009651
 30
0.0
 11
1991.478409697474
 21
4726.4843491009651
 31
0.0
  0
LINE
  5
2B0C
  8
1
 10
2010.5731096974739
 20
4676.4843491009651
 30
0.0
 11
1979.545709697474
 21
4676.4843491009651
 31
0.0
  0
ARC
  5
2B0D
  8
1
 10
1980.478409697474
 20
4621.4843491009651
 30
0.0
 40
10.0
 50
270.0
 51
0.0
  0
LINE
  5
2B0E
  8
1
 10
1994.0662096974741
 20
4626.4843491009651
 30
0.0
 11
1990.478409697474
 21
4626.4843491009651
 31
0.0
  0
ARC
  5
2B0F
  8
1
 10
1928.1572096974739
 20
4603.2583491009636
 30
0.0
 40
1.5
 50
158.19690000000011
 51
248.1989999999999
  0
LINE
  5
2B10
  8
1
 10
1929.921309697474
 20
4600.9373491009646
 30
0.0
 11
1927.600109697474
 21
4601.8653491009636
 31
0.0
  0
LINE
  5
2B11
  8
1
 10
1927.988609697474
 20
4607.0953491009641
 30
0.0
 11
1927.4654096974739
 21
4607.3043491009648
 31
0.0
  0
ARC
  5
2B12
  8
1
 10
1928.5796096974741
 20
4610.0893491009647
 30
0.0
 40
3.0
 50
177.19419999999991
 51
248.19789999999989
  0
LINE
  5
2B13
  8
1
 10
1955.478409697474
 20
4613.9793491009641
 30
0.0
 11
1955.478409697474
 21
4607.4803491009643
 31
0.0
  0
LINE
  5
2B14
  8
1
 10
1934.1403096974741
 20
4611.4843491009642
 30
0.0
 11
1980.478409697474
 21
4611.4843491009642
 31
0.0
  0
LINE
  5
2B15
  8
1
 10
1986.372709697474
 20
4742.0653491009652
 30
0.0
 11
1984.0515096974741
 21
4742.9933491009651
 31
0.0
  0
ARC
  5
2B16
  8
1
 10
1984.478409697474
 20
4730.4843491009642
 30
0.0
 40
6.0
 50
0.0
 51
90.0
  0
LINE
  5
2B17
  8
1
 10
1991.478409697474
 20
4726.4843491009651
 30
0.0
 11
1990.478409697474
 21
4726.4843491009651
 31
0.0
  0
LINE
  5
2B18
  8
1
 10
1990.478409697474
 20
4726.4843491009651
 30
0.0
 11
2030.157809697474
 21
4726.4843491009651
 31
0.0
  0
ARC
  5
2B19
  8
1
 10
1983.4945096974741
 20
4741.6013491009662
 30
0.0
 40
1.5000999999999991
 50
68.198999999999998
 51
158.19770000000011
  0
ARC
  5
2B1A
  8
1
 10
1945.841709697474
 20
4717.1313491009641
 30
0.0
 40
15.0
 50
96.981099999999984
 51
177.19329999999991
  0
LINE
  5
2B1B
  8
1
 10
1984.076309697474
 20
4736.4843491009642
 30
0.0
 11
1984.478409697474
 21
4736.4843491009642
 31
0.0
  0
LINE
  5
2B1C
  8
1
 10
1979.6401096974739
 20
4736.3813491009641
 30
0.0
 11
1944.0186096974739
 21
4732.0203491009652
 31
0.0
  0
LINE
  5
2B1D
  8
1
 10
2253.978409697474
 20
4769.4661321789717
 30
0.0
 11
2253.978409697474
 21
4405.4661321789708
 31
0.0
  0
ARC
  5
2B1E
  8
1
 10
2136.478409697474
 20
4631.4843491009651
 30
0.0
 40
142.5
 50
295.18740000000003
 51
180.0
  0
LINE
  5
2B1F
  8
2
 10
2278.4348096974741
 20
4631.4843491009651
 30
0.0
 11
1986.933409697474
 21
4631.4843491009651
 31
0.0
  0
LINE
  5
2B20
  8
1
 10
2018.9784096974749
 20
4769.4661321789717
 30
0.0
 11
2018.978409697474
 21
4405.4661321789708
 31
0.0
  0
CIRCLE
  5
2B21
  8
1
 10
2136.478409697474
 20
4147.4843491009651
 30
0.0
 40
57.0
  0
LINE
  5
2B22
  8
1
 10
665.73168652291383
 20
4751.9843491009651
 30
0.0
 11
665.73168652291395
 21
4510.9843491009642
 31
0.0
  0
INSERT
  5
2B54
  8
0
  2
YA_N
 10
685.61690505900879
 20
5777.1009585550792
 30
0.0
  0
INSERT
  5
2B55
  8
0
  2
YA_N
 10
685.61690505900879
 20
5777.1009585550792
 30
0.0
  0
INSERT
  5
2B56
  8
FUTO
  2
SAITOS
 10
679.61690505900867
 20
5772.1009585550792
 30
0.0
  0
INSERT
  5
2B57
  8
0
  2
YA_N
 10
685.61690505900879
 20
5777.1009585550792
 30
0.0
  0
INSERT
  5
2B58
  8
FUTO
  2
SAITOS
 10
679.61690505900867
 20
5772.1009585550792
 30
0.0
  0
INSERT
  5
2B59
  8
0
  2
YA_N
 10
-338.92621891106182
 20
8631.6818356778513
 30
0.0
  0
INSERT
  5
2B5A
  8
0
  2
YA_N
 10
971.26971589950244
 20
6810.3898233359732
 30
0.0
  0
INSERT
  5
2B5B
  8
0
  2
YA_N
 10
3742.749298393725
 20
8582.1666140487578
 30
0.0
  0
INSERT
  5
2B5C
  8
0
  2
YA_N
 10
4261.110900108084
 20
8018.2958049739109
 30
0.0
  0
INSERT
  5
2B5D
  8
0
  2
YA_N
 10
4985.9781405402773
 20
9160.7298856077632
 30
0.0
  0
INSERT
  5
2B5E
  8
0
  2
YA_N
 10
59.935436223082426
 20
5372.0179917242558
 30
0.0
 41
15.0
 42
15.0
 43
15.0
  0
INSERT
  5
2B5F
  8
FUTO
  2
SAITOS
 10
-30.064563776917559
 20
5297.0179917242558
 30
0.0
 41
15.0
 42
15.0
 43
15.0
  0
INSERT
  5
2B60
  8
0
  2
YA_N
 10
65310.21460575705
 20
6497.0179917242567
 30
0.0
 41
225.0
 42
225.0
 43
225.0
  0
INSERT
  5
2B61
  8
FUTO
  2
SAITOS
 10
63960.214605757043
 20
5372.0179917242558
 30
0.0
 41
225.0
 42
225.0
 43
225.0
  0
INSERT
  5
2B62
  8
0
  2
YA_N
 10
96900.589537090302
 20
7795.1614266406114
 30
0.0
 41
225.0
 42
225.0
 43
225.0
  0
INSERT
  5
2B63
  8
FUTO
  2
SAITOS
 10
95550.589537090302
 20
6670.1614266406114
 30
0.0
 41
225.0
 42
225.0
 43
225.0
  0
INSERT
  5
2B64
  8
0
  2
YA_N
 10
65310.21460575705
 20
6497.0179917242567
 30
0.0
 41
225.0
 42
225.0
 43
225.0
  0
INSERT
  5
2B65
  8
FUTO
  2
SAITOS
 10
63960.214605757043
 20
5372.0179917242558
 30
0.0
 41
225.0
 42
225.0
 43
225.0
  0
INSERT
  5
2B66
  8
0
  2
YA_N
 10
5521.5365216276459
 20
5558.6113972532694
 30
0.0
 41
15.0
 42
15.0
 43
15.0
  0
INSERT
  5
2B67
  8
FUTO
  2
SAITOS
 10
5431.5365216276459
 20
5483.6113972532703
 30
0.0
 41
15.0
 42
15.0
 43
15.0
  0
TEXT
  5
2B68
  8
SP
 10
6425.7463746417297
 20
8910.7079792651493
 30
0.0
 40
37.5
  1

  0
TEXT
  5
2B69
  8
SP
 10
6425.7463746417297
 20
8835.7079792651493
 30
0.0
 40
37.5
  1

  0
TEXT
  5
2B6A
  8
SP
 10
6350.7463746417297
 20
8685.7079792651493
 30
0.0
 40
37.5
  1

  0
TEXT
  5
2B6B
  8
SP
 10
6425.7463746417297
 20
8535.7079792651493
 30
0.0
 40
37.5
  1

  0
TEXT
  5
2B6C
  8
SP
 10
6425.7463746417297
 20
8610.7079792651475
 30
0.0
 40
37.5
  1

  0
LINE
  5
2B6D
  8
1
 10
297.93168652291382
 20
3787.4843491009651
 30
0.0
 11
357.93168652291382
 21
3787.4843491009651
 31
0.0
  0
INSERT
  5
2B6E
  8
0
  2
YA_N
 10
681.7219765655027
 20
7087.9817753373909
 30
0.0
  0
INSERT
  5
2B6F
  8
FUTO
  2
SAITOS
 10
675.7219765655027
 20
7082.9817753373909
 30
0.0
  0
INSERT
  5
2B70
  8
0
  2
YA_N
 10
4304.5617361133664
 20
7383.7197042161024
 30
0.0
  0
INSERT
  5
2B71
  8
FUTO
  2
SAITOS
 10
4298.5617361133664
 20
7378.7197042161024
 30
0.0
  0
TEXT
  5
2B72
  8
FUTO
 10
4624.6254899583491
 20
7371.3123115958469
 30
0.0
 40
10.0
  1

 51
15.0
  0
TEXT
  5
2B73
  8
FUTO
 10
4889.675995267231
 20
7371.3123115958469
 30
0.0
 40
10.0
  1

 51
15.0
  0
TEXT
  5
2B74
  8
FUTO
 10
4622.6621528103897
 20
7371.3123115958469
 30
0.0
 40
10.0
  1

 51
15.0
  0
LINE
  5
2B7B
  8
1
 10
961.53168652291436
 20
3906.0684720527029
 30
0.0
 11
961.5316865229139
 21
3827.4843491009651
 31
0.0
  0
LINE
  5
2B7C
  8
1
 10
297.93168652291382
 20
3906.0684720527029
 30
0.0
 11
297.93168652291382
 21
3787.4843491009642
 31
0.0
  0
INSERT
  5
2B7F
  8
0
  2
YA_N
 10
1299.85413742319
 20
5622.1953302815782
 30
0.0
  0
INSERT
  5
2B80
  8
FUTO
  2
SAITOS
 10
1293.8541374231891
 20
5617.1953302815782
 30
0.0
  0
TEXT
  5
2B81
  8
FUTO
 10
1619.9178912681721
 20
5609.7879376613218
 30
0.0
 40
10.0
  1

 51
15.0
  0
TEXT
  5
2B82
  8
FUTO
 10
1884.968396577055
 20
5609.7879376613218
 30
0.0
 40
10.0
  1

 51
15.0
  0
TEXT
  5
2B83
  8
FUTO
 10
1617.9545541202131
 20
5609.7879376613218
 30
0.0
 40
10.0
  1

 51
15.0
  0
LINE
  5
2B87
  8
1
 10
1886.478409697474
 20
3787.4843491009651
 30
0.0
 11
2386.478409697474
 21
3787.4843491009692
 31
0.0
  0
LINE
  5
2B90
  8
1
 10
1886.478409697474
 20
3787.4843491009651
 30
0.0
 11
1886.478409697477
 21
3964.1813213027281
 31
0.0
  0
LINE
  5
2B9A
  8
1
 10
2481.4784096974749
 20
3711.4843491009642
 30
0.0
 11
2481.4784096974749
 21
3751.4843491009651
 31
0.0
  0
LINE
  5
2B9B
  8
1
 10
1791.478409697474
 20
3711.4843491009642
 30
0.0
 11
2481.4784096974749
 21
3711.4843491009642
 31
0.0
  0
LINE
  5
2B9C
  8
1
 10
1791.4784096974749
 20
3751.4843491009642
 30
0.0
 11
2481.4784096974749
 21
3751.4843491009628
 31
0.0
  0
LINE
  5
2B9D
  8
1
 10
1791.4784096974749
 20
3716.4843491009642
 30
0.0
 11
2481.4784096974749
 21
3716.4843491009642
 31
0.0
  0
LINE
  5
2B9E
  8
1
 10
1791.478409697474
 20
3711.4843491009642
 30
0.0
 11
1791.4784096974749
 21
3751.4843491009651
 31
0.0
  0
LINE
  5
2B9F
  8
1
 10
254.731686522914
 20
3711.4843491009642
 30
0.0
 11
1004.7316865229139
 21
3711.4843491009642
 31
0.0
  0
LINE
  5
2BA0
  8
1
 10
294.731686522914
 20
3751.4843491009651
 30
0.0
 11
964.73168652291406
 21
3751.4843491009651
 31
0.0
  0
LINE
  5
2BA1
  8
1
 10
294.731686522914
 20
3748.4843491009642
 30
0.0
 11
964.73168652291406
 21
3748.4843491009642
 31
0.0
  0
LINE
  5
2BAB
  8
2
 10
986.73168652291395
 20
3736.4843491009642
 30
0.0
 11
986.73168652291395
 21
3686.4843491009642
 31
0.0
  0
LINE
  5
2BAC
  8
2
 10
272.731686522914
 20
3736.4843491009642
 30
0.0
 11
272.731686522914
 21
3686.4843491009642
 31
0.0
  0
LINE
  5
2BAD
  8
2
 10
2456.4784096974749
 20
4057.0102656658269
 30
0.0
 11
2456.4784096974749
 21
3686.4843491009642
 31
0.0
  0
LINE
  5
2BAE
  8
2
 10
1816.478409697474
 20
4081.4047919234772
 30
0.0
 11
1816.478409697474
 21
3686.4843491009642
 31
0.0
  0
INSERT
  5
2BAF
  8
0
  2
YA_N
 10
552.25317970123979
 20
3525.0011814068012
 30
0.0
  0
INSERT
  5
2BB0
  8
FUTO
  2
SAITOS
 10
546.25317970123967
 20
3520.0011814068012
 30
0.0
  0
TEXT
  5
2C0D
  8
FUTO
 10
872.31693354622234
 20
3512.5937887865439
 30
0.0
 40
10.0
  1

 51
15.0
  0
TEXT
  5
2C0E
  8
FUTO
 10
1137.367438855104
 20
3512.5937887865439
 30
0.0
 40
10.0
  1

 51
15.0
  0
TEXT
  5
2C0F
  8
FUTO
 10
870.35359639826356
 20
3512.5937887865439
 30
0.0
 40
10.0
  1

 51
15.0
  0
TEXT
  5
2E1D
  8
SP
 10
3409.764178583694
 20
3918.6101906113372
 30
0.0
 40
30.0
  1

 72
     2
 11
3409.764178583694
 21
3918.6101906113372
 31
0.0
 73
     1
  0
LINE
  5
2FD1
  8
1
 10
364.731686522914
 20
4287.4843491009651
 30
0.0
 11
364.731686522914
 21
4007.4843491009642
 31
0.0
  0
LINE
  5
2FD2
  8
1
 10
354.731686522914
 20
4287.4843491009651
 30
0.0
 11
354.731686522914
 21
4007.4843491009642
 31
0.0
  0
LINE
  5
2FD3
  8
2
 10
944.73168652291383
 20
3849.9843491009642
 30
0.0
 11
984.73168652291395
 21
3849.9843491009642
 31
0.0
  0
LINE
  5
2FD4
  8
2
 10
944.73168652291383
 20
4444.9843491009651
 30
0.0
 11
984.73168652291395
 21
4444.9843491009651
 31
0.0
  0
LINE
  5
2FD6
  8
2
 10
314.73168652291452
 20
4444.9843491009651
 30
0.0
 11
274.73168652291452
 21
4444.9843491009651
 31
0.0
  0
LINE
  5
2FD7
  8
2
 10
314.73168652291452
 20
3849.9843491009642
 30
0.0
 11
274.73168652291452
 21
3849.9843491009642
 31
0.0
  0
LINE
  5
3004
  8
1
 10
764.73168652291395
 20
4590.8131270816502
 30
0.0
 11
786.73168652291395
 21
4590.8131270816502
 31
0.0
  0
LINE
  5
3005
  8
1
 10
764.73168652291395
 20
4672.15557112028
 30
0.0
 11
786.73168652291395
 21
4672.15557112028
 31
0.0
  0
LINE
  5
3019
  8
1
 10
692.73168652291406
 20
4430.684349100964
 30
0.0
 11
744.73168652291395
 21
4430.684349100964
 31
0.0
  0
LINE
  5
301A
  8
1
 10
402.731686522914
 20
4430.684349100964
 30
0.0
 11
676.73168652291395
 21
4430.684349100964
 31
0.0
  0
LINE
  5
3025
  8
1
 10
2208.4438238344769
 20
4629.2529441422857
 30
0.0
 11
2193.4510292226018
 21
4145.7178201753441
 31
0.0
  0
LINE
  5
3026
  8
1
 10
2064.5129955604712
 20
4629.2529441422857
 30
0.0
 11
2079.5057901723462
 21
4145.7178201753441
 31
0.0
  0
LINE
  5
3111
  8
FUTO
 10
294.731686522914
 20
3711.4843491009642
 30
0.0
 11
254.731686522914
 21
3711.4843491009642
 31
0.0
  0
LINE
  5
3112
  8
FUTO
 10
294.731686522914
 20
3711.4843491009642
 30
0.0
 11
294.731686522914
 21
3751.4843491009651
 31
0.0
  0
LINE
  5
3113
  8
FUTO
 10
254.731686522914
 20
3711.4843491009642
 30
0.0
 11
254.731686522914
 21
3713.4843491009642
 31
0.0
  0
LINE
  5
3114
  8
FUTO
 10
294.731686522914
 20
3751.4843491009651
 30
0.0
 11
292.731686522914
 21
3751.4843491009651
 31
0.0
  0
LINE
  5
3115
  8
FUTO
 10
289.731686522914
 20
3720.9843491009651
 30
0.0
 11
289.731686522914
 21
3748.4843491009642
 31
0.0
  0
LINE
  5
3116
  8
FUTO
 10
285.231686522914
 20
3716.4843491009642
 30
0.0
 11
257.731686522914
 21
3716.4843491009642
 31
0.0
  0
ARC
  5
3117
  8
FUTO
 10
257.731686522914
 20
3713.4843491009642
 30
0.0
 40
3.0
 50
90.0
 51
180.0
  0
ARC
  5
3118
  8
FUTO
 10
292.731686522914
 20
3748.4843491009642
 30
0.0
 40
3.0
 50
90.0
 51
180.0
  0
ARC
  5
3119
  8
FUTO
 10
285.231686522914
 20
3720.9843491009651
 30
0.0
 40
4.5
 50
270.0
 51
0.0
  0
LINE
  5
3123
  8
FUTO
 10
964.73168652291406
 20
3711.4843491009642
 30
0.0
 11
1004.7316865229139
 21
3711.4843491009642
 31
0.0
  0
LINE
  5
3124
  8
FUTO
 10
964.73168652291406
 20
3711.4843491009642
 30
0.0
 11
964.73168652291406
 21
3751.4843491009651
 31
0.0
  0
LINE
  5
3125
  8
FUTO
 10
1004.7316865229139
 20
3711.4843491009642
 30
0.0
 11
1004.7316865229139
 21
3713.4843491009642
 31
0.0
  0
LINE
  5
3126
  8
FUTO
 10
964.73168652291406
 20
3751.4843491009651
 30
0.0
 11
966.73168652291406
 21
3751.4843491009651
 31
0.0
  0
LINE
  5
3127
  8
FUTO
 10
969.73168652291395
 20
3720.9843491009651
 30
0.0
 11
969.73168652291395
 21
3748.4843491009642
 31
0.0
  0
LINE
  5
3128
  8
FUTO
 10
974.23168652291395
 20
3716.4843491009642
 30
0.0
 11
1001.7316865229139
 21
3716.4843491009642
 31
0.0
  0
ARC
  5
3129
  8
FUTO
 10
1001.7316865229139
 20
3713.4843491009642
 30
0.0
 40
3.0
 50
0.0
 51
90.0
  0
ARC
  5
312A
  8
FUTO
 10
966.73168652291406
 20
3748.4843491009642
 30
0.0
 40
3.0
 50
0.0
 51
90.0
  0
ARC
  5
312B
  8
FUTO
 10
974.23168652291395
 20
3720.9843491009651
 30
0.0
 40
4.5
 50
180.0
 51
270.0
  0
DIMENSION
  5
31EC
  8
3
  2
*D3
 10
2446.478409697474
 20
5040.3627128204098
 30
0.0
 11
2136.478409697474
 21
5070.3627128204107
 31
0.0
 70
     0
 13
1826.478409697474
 23
4147.4843491009651
 33
0.0
 14
2446.478409697474
 24
4147.4843491009651
 34
0.0
1001
ACAD
1000
DSTYLE
1002
{
1070
   287
1070
     5
1070
   287
1070
     5
1070
   287
1070
     5
1070
   287
1070
     5
1070
   287
1070
     5
1070
   287
1070
     5
1070
    40
1040
15.0
1070
   279
1070
     2
1070
   289
1070
     3
1002
}
  0
DIMENSION
  5
3202
  8
3
  2
*D4
 10
2481.4784096974749
 20
3420.3946243996438
 30
0.0
 11
2136.4784096974749
 21
3450.3946243996438
 31
0.0
 70
     0
 13
1791.478409697474
 23
3711.4843491009642
 33
0.0
 14
2481.4784096974749
 24
3711.4843491009642
 34
0.0
1001
ACAD
1000
DSTYLE
1002
{
1070
   287
1070
     5
1070
   287
1070
     5
1070
   287
1070
     5
1070
   287
1070
     5
1070
   287
1070
     5
1070
   287
1070
     5
1070
    40
1040
15.0
1070
   279
1070
     2
1070
   289
1070
     3
1002
}
  0
DIMENSION
  5
3218
  8
3
  2
*D5
 10
254.731686522914
 20
3413.6214430060741
 30
0.0
 11
629.73168652291406
 21
3443.6214430060741
 31
0.0
 70
     0
 13
1004.7316865229139
 23
3711.4843491009642
 33
0.0
 14
254.731686522914
 24
3711.4843491009642
 34
0.0
1001
ACAD
1000
DSTYLE
1002
{
1070
   287
1070
     5
1070
   287
1070
     5
1070
   287
1070
     5
1070
   287
1070
     5
1070
   287
1070
     5
1070
   287
1070
     5
1070
    40
1040
15.0
1070
   279
1070
     2
1070
   289
1070
     3
1002
}
  0
DIMENSION
  5
3225
  8
3
  2
*D6
 10
964.73168652291406
 20
5039.839016839589
 30
0.0
 11
629.73168652291406
 21
5069.8390168395908
 31
0.0
 70
     0
 13
294.731686522914
 23
4457.4843491009651
 33
0.0
 14
964.73168652291406
 24
4457.4843491009651
 34
0.0
1001
ACAD
1000
DSTYLE
1002
{
1070
   287
1070
     5
1070
   287
1070
     5
1070
   287
1070
     5
1070
   287
1070
     5
1070
   287
1070
     5
1070
   287
1070
     5
1070
    40
1040
15.0
1070
   279
1070
     2
1070
   289
1070
     3
1002
}
  0
DIMENSION
  5
3232
  8
3
  2
*D7
 10
92.940157180895682
 20
3867.4843491009642
 30
0.0
 11
62.940157180895078
 21
4147.4843491009651
 31
0.0
 70
     0
  1
%%c<>
 13
264.731686522914
 23
4427.4843491009651
 33
0.0
 14
264.731686522914
 24
3867.4843491009642
 34
0.0
 50
90.0
1001
ACAD
1000
DSTYLE
1002
{
1070
   287
1070
     5
1070
   287
1070
     5
1070
   287
1070
     5
1070
   287
1070
     5
1070
   287
1070
     5
1070
   287
1070
     5
1070
    40
1040
15.0
1070
   279
1070
     2
1070
   289
1070
     3
1002
}
  0
DIMENSION
  5
3263
  8
3
  2
*D8
 10
1175.2762982682541
 20
3867.4843491009642
 30
0.0
 11
1145.276298268253
 21
4147.4843491009651
 31
0.0
 70
     0
  1
%%c<>
 13
994.73168652291395
 23
4427.4843491009651
 33
0.0
 14
994.73168652291395
 24
3867.4843491009642
 34
0.0
 50
90.0
1001
ACAD
1000
DSTYLE
1002
{
1070
   287
1070
     5
1070
   287
1070
     5
1070
   287
1070
     5
1070
   287
1070
     5
1070
   287
1070
     5
1070
   287
1070
     5
1070
    40
1040
15.0
1070
   279
1070
     2
1070
   289
1070
     3
1002
}
  0
DIMENSION
  5
32E9
  8
3
  2
*D9
 10
1588.1272165379301
 20
3787.4843491009651
 30
0.0
 11
1558.1272165379289
 21
3967.4843491009651
 31
0.0
 70
     0
 13
1811.478409697474
 23
4147.4843491009651
 33
0.0
 14
1886.478409697474
 24
3787.4843491009651
 34
0.0
 50
90.0
1001
ACAD
1000
DSTYLE
1002
{
1070
   287
1070
     5
1070
   287
1070
     5
1070
   287
1070
     5
1070
   287
1070
     5
1070
   287
1070
     5
1070
   287
1070
     5
1070
    40
1040
15.0
1070
   279
1070
     2
1070
   289
1070
     3
1002
}
  0
DIMENSION
  5
32F6
  8
3
  2
*D10
 10
1588.1272165379301
 20
3751.4843491009642
 30
0.0
 11
1527.5915022522149
 21
3769.4843491009651
 31
0.0
 70
     0
  1
(<>)
 13
1886.478409697474
 23
3787.4843491009651
 33
0.0
 14
1791.4784096974749
 24
3751.4843491009642
 34
0.0
 50
90.0
1001
ACAD
1000
DSTYLE
1002
{
1070
   287
1070
     5
1070
   287
1070
     5
1070
   287
1070
     5
1070
   287
1070
     5
1070
   287
1070
     5
1070
     7
1000
NONE
1070
     6
1000
NONE
1070
   287
1070
     5
1070
    40
1040
15.0
1070
   279
1070
     2
1070
   289
1070
     3
1002
}
  0
DIMENSION
  5
3303
  8
3
  2
*D11
 10
1588.1272165379301
 20
3711.4843491009642
 30
0.0
 11
1572.8610007939999
 21
3609.1949075079419
 31
0.0
 70
   128
 13
1791.4784096974749
 23
3751.4843491009642
 33
0.0
 14
1791.478409697474
 24
3711.4843491009642
 34
0.0
 50
90.0
1001
ACAD
1000
DSTYLE
1002
{
1070
   287
1070
     5
1070
   287
1070
     5
1070
   287
1070
     5
1070
   287
1070
     5
1070
   287
1070
     5
1070
     6
1000
DOTSMALL
1070
   287
1070
     5
1070
    40
1040
15.0
1070
   279
1070
     2
1070
   289
1070
     3
1002
}
  0
LINE
  5
33B4
  8
4
 10
2591.4879898126851
 20
2811.0317931656909
 30
0.0
 11
2591.4879898126851
 21
2511.03179316569
 31
0.0
  0
LINE
  5
33B5
  8
4
 10
1541.4879898126851
 20
2811.0317931656909
 30
0.0
 11
1541.4879898126851
 21
2511.03179316569
 31
0.0
  0
LINE
  5
33B6
  8
4
 10
791.48798981268556
 20
2811.0317931656909
 30
0.0
 11
791.48798981268556
 21
2511.03179316569
 31
0.0
  0
LINE
  5
33B9
  8
4
 10
791.48798981268556
 20
2511.03179316569
 30
0.0
 11
2591.4879898126851
 21
2511.03179316569
 31
0.0
  0
LINE
  5
33BA
  8
4
 10
791.48798981268556
 20
2661.03179316569
 30
0.0
 11
2591.4879898126851
 21
2661.03179316569
 31
0.0
  0
TEXT
  5
33BB
  8
4
 10
849.24111108303805
 20
2708.3463319656098
 30
0.0
 40
75.0
  1
機器名称
  0
TEXT
  5
33BC
  8
4
 10
845.87514884988195
 20
2543.4995282637069
 30
0.0
 40
75.0
  1
機器型番
  0
TEXT
  5
33BD
  8
4
 10
1583.0061080441819
 20
2694.8894466020438
 30
0.0
 40
75.0
  1
ミツヤ軸流フアン
  0
TEXT
  5
33BE
  8
4
 10
1596.469733190906
 20
2536.7711695856051
 30
0.0
 40
75.0
  1
AP＃560-2
  0
TEXT
  5
33C0
  8
4
 10
1009.635049149361
 20
5636.1750551644636
 30
0.0
 40
80.999999999999986
  1
天井吊防振ベット
  0
TEXT
  5
33C1
  8
4
 10
290.73937980685508
 20
5861.8532574646379
 30
0.0
 40
108.0
  1
ベルト駆動式横型軸流ファン
  0
LINE
  5
33C2
  8
4
 10
191.4879898126855
 20
5765.1449245628983
 30
0.0
 11
2591.4879898126851
 21
5765.1449245628983
 31
0.0
  0
LINE
  5
33C3
  8
4
 10
191.4879898126855
 20
6065.1449245628983
 30
0.0
 11
2591.4879898126851
 21
6065.1449245628983
 31
0.0
  0
LINE
  5
33C4
  8
4
 10
791.48798981268556
 20
2811.0317931656909
 30
0.0
 11
2591.4879898126851
 21
2811.0317931656909
 31
0.0
  0
LINE
  5
33C5
  8
4
 10
191.4879898126855
 20
6065.1449245628983
 30
0.0
 11
191.4879898126855
 21
5765.1449245628983
 31
0.0
  0
TEXT
  5
33C6
  8
4
 10
209.2653401884817
 20
5634.5110094852062
 30
0.0
 40
80.999999999999986
  1
左回転後方吐出
  0
TEXT
  5
33C7
  8
4
 10
2019.9423286866199
 20
6120.1234154086542
 30
0.0
 40
84.000000000000014
  1
No.
  0
TEXT
  5
33C8
  8
4
 10
1957.933796452696
 20
5636.1750551644636
 30
0.0
 40
80.999999999999986
  1
縮尺：1/15
  0
LINE
  5
33C9
  8
4
 10
2591.4879898126851
 20
6065.1449245628983
 30
0.0
 11
2591.4879898126851
 21
5765.1449245628983
 31
0.0
  0
LINE
  5
33CA
  8
4
 10
2966.4879898126851
 20
6486.0317931656909
 30
0.0
 11
2966.4879898126851
 21
6486.0317931656909
 31
0.0
  0
LINE
  5
33CB
  8
4
 10
1977.414123352482
 20
6082.9271678537916
 30
0.0
 11
1977.414123352482
 21
6241.0101854903196
 31
0.0
  0
LINE
  5
33CC
  8
4
 10
1977.414123352482
 20
6241.0101854903196
 30
0.0
 11
2591.4879898126851
 21
6241.0101854903196
 31
0.0
  0
LINE
  5
33CD
  8
4
 10
2591.4879898126851
 20
6241.0101854903196
 30
0.0
 11
2591.4879898126851
 21
6082.9271678537916
 31
0.0
  0
LINE
  5
33CE
  8
4
 10
2591.4879898126851
 20
6082.9271678537916
 30
0.0
 11
1977.414123352482
 21
6082.9271678537916
 31
0.0
  0
LINE
  5
33CF
  8
4
 10
-183.51201018731439
 20
2061.03179316569
 30
0.0
 11
-183.51201018731439
 21
6486.0317931656909
 31
0.0
  0
LINE
  5
33D0
  8
4
 10
-183.51201018731439
 20
6486.0317931656909
 30
0.0
 11
2966.4879898126851
 21
6486.0317931656909
 31
0.0
  0
LINE
  5
33D1
  8
4
 10
2966.4879898126851
 20
6486.0317931656909
 30
0.0
 11
2966.4879898126851
 21
2061.03179316569
 31
0.0
  0
LINE
  5
33D2
  8
4
 10
2966.4879898126851
 20
2061.03179316569
 30
0.0
 11
-183.51201018731439
 21
2061.03179316569
 31
0.0
  0
LINE
  5
3605
  8
1
 10
2386.478409697474
 20
3787.4843491009651
 30
0.0
 11
2386.4784096974709
 21
3964.1813213027281
 31
0.0
  0
LINE
  5
3606
  8
1
 10
297.93168652291382
 20
3947.4843491009651
 30
0.0
 11
302.43168652291382
 21
3947.4843491009651
 31
0.0
  0
LINE
  5
3607
  8
1
 10
357.93168652291382
 20
3791.9843491009651
 30
0.0
 11
357.93168652291382
 21
3787.4843491009642
 31
0.0
  0
LINE
  5
3608
  8
1
 10
302.43168652291382
 20
3947.4843491009651
 30
0.0
 11
302.43168652291382
 21
3791.9843491009651
 31
0.0
  0
LINE
  5
3609
  8
1
 10
302.43168652291382
 20
3791.9843491009651
 30
0.0
 11
357.93168652291382
 21
3791.9843491009651
 31
0.0
  0
LINE
  5
360B
  8
1
 10
961.53168652291436
 20
3947.4843491009651
 30
0.0
 11
957.03168652291436
 21
3947.4843491009651
 31
0.0
  0
LINE
  5
360C
  8
1
 10
961.53168652291436
 20
3787.4843491009651
 30
0.0
 11
901.53168652291413
 21
3787.4843491009651
 31
0.0
  0
LINE
  5
360D
  8
1
 10
957.03168652291436
 20
3791.9843491009651
 30
0.0
 11
901.53168652291413
 21
3791.9843491009651
 31
0.0
  0
LINE
  5
360E
  8
1
 10
957.03168652291436
 20
3947.4843491009651
 30
0.0
 11
957.03168652291436
 21
3791.9843491009651
 31
0.0
  0
LINE
  5
360F
  8
1
 10
961.53168652291436
 20
3906.0684720527029
 30
0.0
 11
961.53168652291436
 21
3787.4843491009642
 31
0.0
  0
LINE
  5
3610
  8
1
 10
901.53168652291413
 20
3791.9843491009651
 30
0.0
 11
901.53168652291413
 21
3787.4843491009642
 31
0.0
  0
LINE
  5
3611
  8
2
 10
334.731686522914
 20
3732.209461731014
 30
0.0
 11
334.731686522914
 21
3815.0667942502769
 31
0.0
  0
LINE
  5
3613
  8
2
 10
924.73168652291406
 20
3732.209461731014
 30
0.0
 11
924.73168652291406
 21
3815.0667942502769
 31
0.0
  0
ENDSEC
  0
EOF
