  0
SECTION
  2
HEADER
  9
$ACADVER
  1
AC1009
  9
$INSBASE
 10
0.0
 20
0.0
 30
0.0
  9
$EXTMIN
 10
-183.51201018731439
 20
2061.03179316569
 30
0.0
  9
$EXTMAX
 10
2966.4879898126851
 20
6486.0317931656909
 30
0.0
  9
$LIMMIN
 10
0.0
 20
0.0
  9
$LIMMAX
 10
297.0
 20
210.0
  9
$ORTHOMODE
 70
     0
  9
$REGENMODE
 70
     1
  9
$FILLMODE
 70
     1
  9
$QTEXTMODE
 70
     0
  9
$MIRRTEXT
 70
     0
  9
$DRAGMODE
 70
     2
  9
$LTSCALE
 40
60.0
  9
$OSMODE
 70
    37
  9
$ATTMODE
 70
     1
  9
$TEXTSIZE
 40
45.0
  9
$TRACEWID
 40
0.05
  9
$TEXTSTYLE
  7
STANDARD
  9
$CLAYER
  8
3
  9
$CELTYPE
  6
BYLAYER
  9
$CECOLOR
 62
   256
  9
$DIMSCALE
 40
15.0
  9
$DIMASZ
 40
2.0
  9
$DIMEXO
 40
1.0
  9
$DIMDLI
 40
10.0
  9
$DIMRND
 40
0.0
  9
$DIMDLE
 40
0.0
  9
$DIMEXE
 40
1.0
  9
$DIMTP
 40
0.0
  9
$DIMTM
 40
0.0
  9
$DIMTXT
 40
3.0
  9
$DIMCEN
 40
0.0
  9
$DIMTSZ
 40
0.0
  9
$DIMTOL
 70
     0
  9
$DIMLIM
 70
     0
  9
$DIMTIH
 70
     0
  9
$DIMTOH
 70
     0
  9
$DIMSE1
 70
     0
  9
$DIMSE2
 70
     0
  9
$DIMTAD
 70
     1
  9
$DIMZIN
 70
     8
  9
$DIMBLK
  1

  9
$DIMASO
 70
     1
  9
$DIMSHO
 70
     1
  9
$DIMPOST
  1

  9
$DIMAPOST
  1

  9
$DIMALT
 70
     0
  9
$DIMALTD
 70
     2
  9
$DIMALTF
 40
0.03937
  9
$DIMLFAC
 40
1.0
  9
$DIMTOFL
 70
     1
  9
$DIMTVP
 40
0.0
  9
$DIMTIX
 70
     0
  9
$DIMSOXD
 70
     0
  9
$DIMSAH
 70
     1
  9
$DIMBLK1
  1
OPEN
  9
$DIMBLK2
  1
OPEN
  9
$DIMSTYLE
  2
MATSU
  9
$DIMCLRD
 70
   256
  9
$DIMCLRE
 70
   256
  9
$DIMCLRT
 70
   256
  9
$DIMTFAC
 40
1.0
  9
$DIMGAP
 40
0.5
  9
$LUNITS
 70
     2
  9
$LUPREC
 70
     3
  9
$SKETCHINC
 40
0.1
  9
$FILLETRAD
 40
10.0
  9
$AUNITS
 70
     0
  9
$AUPREC
 70
     2
  9
$MENU
  1
acad
  9
$ELEVATION
 40
0.0
  9
$PELEVATION
 40
0.0
  9
$THICKNESS
 40
0.0
  9
$LIMCHECK
 70
     0
  9
$BLIPMODE
 70
     0
  9
$CHAMFERA
 40
10.0
  9
$CHAMFERB
 40
10.0
  9
$SKPOLY
 70
     0
  9
$TDCREATE
 40
2451939.3787035882
  9
$TDUPDATE
 40
2454953.631112372
  9
$TDINDWG
 40
0.0903310185
  9
$TDUSRTIMER
 40
0.0903310185
  9
$USRTIMER
 70
     1
  9
$ANGBASE
 50
0.0
  9
$ANGDIR
 70
     0
  9
$PDMODE
 70
     0
  9
$PDSIZE
 40
1.0
  9
$PLINEWID
 40
0.0
  9
$COORDS
 70
     1
  9
$SPLFRAME
 70
     0
  9
$SPLINETYPE
 70
     6
  9
$SPLINESEGS
 70
     8
  9
$ATTDIA
 70
     0
  9
$ATTREQ
 70
     1
  9
$HANDLING
 70
 10241
  9
$HANDSEED
  5
8F3
  9
$SURFTAB1
 70
     6
  9
$SURFTAB2
 70
     6
  9
$SURFTYPE
 70
     6
  9
$SURFU
 70
     6
  9
$SURFV
 70
     6
  9
$UCSNAME
  2

  9
$UCSORG
 10
0.0
 20
0.0
 30
0.0
  9
$UCSXDIR
 10
1.0
 20
0.0
 30
0.0
  9
$UCSYDIR
 10
0.0
 20
1.0
 30
0.0
  9
$PUCSNAME
  2

  9
$PUCSORG
 10
0.0
 20
0.0
 30
0.0
  9
$PUCSXDIR
 10
1.0
 20
0.0
 30
0.0
  9
$PUCSYDIR
 10
0.0
 20
1.0
 30
0.0
  9
$USERI1
 70
     0
  9
$USERI2
 70
     0
  9
$USERI3
 70
     0
  9
$USERI4
 70
     0
  9
$USERI5
 70
     0
  9
$USERR1
 40
0.0
  9
$USERR2
 40
0.0
  9
$USERR3
 40
0.0
  9
$USERR4
 40
0.0
  9
$USERR5
 40
0.0
  9
$WORLDVIEW
 70
     1
  9
$SHADEDGE
 70
     3
  9
$SHADEDIF
 70
    70
  9
$TILEMODE
 70
     1
  9
$MAXACTVP
 70
    16
  9
$PLIMCHECK
 70
     0
  9
$PEXTMIN
 10
1.0000000000000000E+020
 20
1.0000000000000000E+020
 30
1.0000000000000000E+020
  9
$PEXTMAX
 10
-1.0000000000000000E+020
 20
-1.0000000000000000E+020
 30
-1.0000000000000000E+020
  9
$PLIMMIN
 10
0.0
 20
0.0
  9
$PLIMMAX
 10
12.0
 20
9.0
  9
$UNITMODE
 70
     0
  9
$VISRETAIN
 70
     0
  9
$PLINEGEN
 70
     0
  9
$PSLTSCALE
 70
     0
  0
ENDSEC
  0
SECTION
  2
TABLES
  0
TABLE
  2
VPORT
 70
     2
  0
VPORT
  2
*ACTIVE
 70
     0
 10
0.0
 20
0.0
 11
1.0
 21
1.0
 12
2744.21440789295
 22
2577.79292454603
 13
0.0
 23
0.0
 14
5.0
 24
5.0
 15
0.0
 25
0.0
 16
0.0
 26
0.0
 36
1.0
 17
0.0
 27
0.0
 37
0.0
 40
1262.2288158456411
 41
3.1666666666666661
 42
50.0
 43
0.0
 44
0.0
 50
0.0
 51
0.0
 71
     0
 72
   100
 73
     1
 74
     0
 75
     0
 76
     0
 77
     0
 78
     0
  0
ENDTAB
  0
TABLE
  2
LTYPE
 70
     2
  0
LTYPE
  2
CONTINUOUS
 70
     0
  3
Solid line
 72
    65
 73
     0
 40
0.0
  0
LTYPE
  2
CENTER
 70
     0
  3
____ _ ____ _ ____ _ ____ _ ____ _ ____ _ ____ 
 72
    65
 73
     4
 40
2.0
 49
1.25
 49
-0.25
 49
0.25
 49
-0.25
  0
ENDTAB
  0
TABLE
  2
LAYER
 70
     6
  0
LAYER
  2
0
 70
     0
 62
     7
  6
CONTINUOUS
  0
LAYER
  2
DEFPOINTS
 70
     0
 62
     7
  6
CONTINUOUS
  0
LAYER
  2
3
 70
     0
 62
     2
  6
CONTINUOUS
  0
LAYER
  2
2
 70
     0
 62
     3
  6
CENTER
  0
LAYER
  2
1
 70
     0
 62
     4
  6
CONTINUOUS
  0
LAYER
  2
4
 70
     0
 62
     7
  6
CONTINUOUS
  0
ENDTAB
  0
TABLE
  2
STYLE
 70
     1
  0
STYLE
  2
STANDARD
 70
     0
 40
0.0
 41
1.0
 50
15.0
 71
     0
 42
45.0
  3
TXT
  4
extfont.shx
  0
ENDTAB
  0
TABLE
  2
VIEW
 70
     0
  0
ENDTAB
  0
TABLE
  2
UCS
 70
     0
  0
ENDTAB
  0
TABLE
  2
APPID
 70
     1
  0
APPID
  2
ACAD
 70
     0
  0
ENDTAB
  0
TABLE
  2
DIMSTYLE
 70
     3
  0
DIMSTYLE
  2
MATSU
 70
     0
  3

  4

  5

  6
OPEN
  7
OPEN
 40
1.0
 41
2.0
 42
1.0
 43
10.0
 44
1.0
 45
0.0
 46
0.0
 47
0.0
 48
0.0
140
3.0
141
0.0
142
0.0
143
0.03937
144
1.0
145
0.0
146
1.0
147
0.5
 71
     0
 72
     0
 73
     0
 74
     0
 75
     0
 76
     0
 77
     1
 78
     8
170
     0
171
     2
172
     1
173
     1
174
     0
175
     0
176
   256
177
   256
178
   256
  0
DIMSTYLE
  2
IGA
 70
     0
  3

  4

  5

  6
OPEN
  7
OPEN
 40
2.0
 41
2.0
 42
0.5
 43
10.0
 44
1.0
 45
0.0
 46
0.0
 47
1.0
 48
1.0
140
3.0
141
0.0
142
0.0
143
0.03937
144
1.0
145
0.0
146
10.0
147
1.0
 71
     0
 72
     0
 73
     0
 74
     0
 75
     0
 76
     0
 77
     1
 78
     8
170
     0
171
     2
172
     0
173
     1
174
     0
175
     0
176
     0
177
     0
178
     0
  0
DIMSTYLE
  2
STANDARD
 70
     0
  3

  4

  5

  6

  7

 40
1.0
 41
0.18
 42
0.0625
 43
0.38
 44
0.18
 45
0.0
 46
0.0
 47
0.0
 48
0.0
140
0.18
141
0.09
142
0.0
143
25.399999999999999
144
1.0
145
0.0
146
1.0
147
0.09
 71
     0
 72
     0
 73
     1
 74
     1
 75
     0
 76
     0
 77
     0
 78
     0
170
     0
171
     2
172
     0
173
     0
174
     0
175
     0
176
     0
177
     0
178
     0
  0
ENDTAB
  0
ENDSEC
  0
SECTION
  2
BLOCKS
  0
BLOCK
  8
0
  2
$MODEL_SPACE
 70
     0
 10
0.0
 20
0.0
 30
0.0
  3
$MODEL_SPACE
  1

  0
ENDBLK
  5
A
  8
0
  0
BLOCK
 67
     1
  8
0
  2
$PAPER_SPACE
 70
     0
 10
0.0
 20
0.0
 30
0.0
  3
$PAPER_SPACE
  1

  0
ENDBLK
  5
F
 67
     1
  8
0
  0
BLOCK
  8
0
  2
_OPEN
 70
     0
 10
0.0
 20
0.0
 30
0.0
  3
_OPEN
  1

  0
LINE
  5
55
  8
0
  6
BYBLOCK
 62
     0
 10
-1.0
 20
0.1666666666666666
 30
0.0
 11
0.0
 21
0.0
 31
0.0
  0
LINE
  5
56
  8
0
  6
BYBLOCK
 62
     0
 10
0.0
 20
0.0
 30
0.0
 11
-1.0
 21
-0.1666666666666666
 31
0.0
  0
LINE
  5
57
  8
0
  6
BYBLOCK
 62
     0
 10
0.0
 20
0.0
 30
0.0
 11
-1.0
 21
0.0
 31
0.0
  0
ENDBLK
  5
59
  8
0
  0
BLOCK
  8
0
  2
*D1
 70
     1
 10
0.0
 20
0.0
 30
0.0
  3
*D1
  1

  0
LINE
  5
8B2
  8
3
 62
     0
 10
1002.2316865229139
 20
4427.4843491009651
 30
0.0
 11
1190.2762982682541
 21
4427.4843491009651
 31
0.0
  0
LINE
  5
8B3
  8
3
 62
     0
 10
1002.2316865229139
 20
3867.4843491009642
 30
0.0
 11
1190.2762982682541
 21
3867.4843491009642
 31
0.0
  0
LINE
  5
8B4
  8
3
 62
     0
 10
1175.2762982682541
 20
4397.4843491009651
 30
0.0
 11
1175.2762982682541
 21
3897.4843491009628
 31
0.0
  0
INSERT
  5
8B5
  8
3
 62
     0
  2
_OPEN
 10
1175.2762982682541
 20
4427.4843491009651
 30
0.0
 41
30.0
 42
30.0
 43
30.0
 50
90.0
  0
INSERT
  5
8B6
  8
3
 62
     0
  2
_OPEN
 10
1175.2762982682541
 20
3867.4843491009642
 30
0.0
 41
30.0
 42
30.0
 43
30.0
 50
270.0
  0
TEXT
  8
3
  40
45
  5
8EC
  62
0
  72
0
  71
0
 10
1047.78
 20
4067.83
 30
0.000000
  1
%%c560
  0
POINT
  5
8B8
  8
DEFPOINTS
 62
     0
 10
994.73168652291395
 20
4427.4843491009651
 30
0.0
  0
POINT
  5
8B9
  8
DEFPOINTS
 62
     0
 10
994.73168652291395
 20
3867.4843491009642
 30
0.0
  0
POINT
  5
8BA
  8
DEFPOINTS
 62
     0
 10
1175.2762982682541
 20
3867.4843491009642
 30
0.0
  0
ENDBLK
  5
641
  8
0
  0
BLOCK
  8
0
  2
*D2
 70
     1
 10
0.0
 20
0.0
 30
0.0
  3
*D2
  1

  0
LINE
  5
8A9
  8
3
 62
     0
 10
257.231686522914
 20
4427.4843491009651
 30
0.0
 11
77.94015718089581
 21
4427.4843491009651
 31
0.0
  0
LINE
  5
8AA
  8
3
 62
     0
 10
257.231686522914
 20
3867.4843491009642
 30
0.0
 11
77.940157180895682
 21
3867.4843491009642
 31
0.0
  0
LINE
  5
8AB
  8
3
 62
     0
 10
92.940157180895795
 20
4397.4843491009651
 30
0.0
 11
92.940157180895696
 21
3897.4843491009642
 31
0.0
  0
INSERT
  5
8AC
  8
3
 62
     0
  2
_OPEN
 10
92.940157180895795
 20
4427.4843491009651
 30
0.0
 41
30.0
 42
30.0
 43
30.0
 50
90.0
  0
INSERT
  5
8AD
  8
3
 62
     0
  2
_OPEN
 10
92.940157180895682
 20
3867.4843491009642
 30
0.0
 41
30.0
 42
30.0
 43
30.0
 50
270.0
  0
TEXT
  8
3
  40
45
  5
8ED
  62
0
  72
0
  71
0
 10
-34.5598
 20
4067.83
 30
0.000000
  1
%%c560
  0
POINT
  5
8AF
  8
DEFPOINTS
 62
     0
 10
264.731686522914
 20
4427.4843491009651
 30
0.0
  0
POINT
  5
8B0
  8
DEFPOINTS
 62
     0
 10
264.731686522914
 20
3867.4843491009642
 30
0.0
  0
POINT
  5
8B1
  8
DEFPOINTS
 62
     0
 10
92.940157180895682
 20
3867.4843491009642
 30
0.0
  0
ENDBLK
  5
64D
  8
0
  0
BLOCK
  8
0
  2
L-50-6
 70
     0
 10
0.0
 20
0.0
 30
0.0
  3
L-50-6
  1

  0
LINE
  5
68C
  8
0
 10
120.38788803395499
 20
87.205995755295433
 30
0.0
 11
170.38788803395499
 21
87.205995755295433
 31
0.0
  0
LINE
  5
68D
  8
0
 10
120.38788803395499
 20
87.205995755295433
 30
0.0
 11
120.38788803395499
 21
137.20599575529539
 31
0.0
  0
LINE
  5
68E
  8
0
 10
170.38788803395499
 20
87.205995755295433
 30
0.0
 11
170.38788803395499
 21
88.705995755295433
 31
0.0
  0
LINE
  5
68F
  8
0
 10
120.38788803395499
 20
137.20599575529539
 30
0.0
 11
121.88788803395499
 21
137.20599575529539
 31
0.0
  0
LINE
  5
690
  8
0
 10
132.88788803395499
 20
93.205995755295433
 30
0.0
 11
165.88788803395499
 21
93.205995755295433
 31
0.0
  0
LINE
  5
691
  8
0
 10
126.38788803395499
 20
99.705995755295433
 30
0.0
 11
126.38788803395499
 21
132.70599575529539
 31
0.0
  0
ARC
  5
692
  8
0
 10
165.88788803395499
 20
88.705995755295433
 30
0.0
 40
4.5
 50
0.0
 51
90.0
  0
ARC
  5
693
  8
0
 10
121.88788803395499
 20
132.70599575529539
 30
0.0
 40
4.5
 50
0.0
 51
90.0
  0
ARC
  5
694
  8
0
 10
132.88788803395499
 20
99.705995755295433
 30
0.0
 40
6.5
 50
180.0
 51
270.0
  0
ENDBLK
  5
696
  8
0
  0
BLOCK
  8
0
  2
*D4
 70
     1
 10
0.0
 20
0.0
 30
0.0
  3
*D4
  1

  0
LINE
  5
8BB
  8
3
 10
1816.478409697474
 20
5082.5950456829041
 30
0.0
 11
1816.478409697474
 21
5150.7673696861038
 31
0.0
  0
LINE
  5
8BC
  8
3
 10
2456.478409697474
 20
5082.5950456829041
 30
0.0
 11
2456.478409697474
 21
5150.7673696861038
 31
0.0
  0
LINE
  5
8BD
  8
3
 10
1846.478409697474
 20
5135.7673696861038
 30
0.0
 11
2426.478409697474
 21
5135.7673696861038
 31
0.0
  0
INSERT
  5
8BE
  8
3
  2
_OPEN
 10
1816.478409697474
 20
5135.7673696861038
 30
0.0
 41
30.0
 42
30.0
 43
30.0
 50
180.0
  0
INSERT
  5
8BF
  8
3
  2
_OPEN
 10
2456.478409697474
 20
5135.7673696861038
 30
0.0
 41
30.0
 42
30.0
 43
30.0
  0
TEXT
  8
3
  40
45
  5
8EE
  72
0
  71
0
 10
2046.48
 20
5086.12
 30
0.000000
  1
640
  0
POINT
  5
8C1
  8
DEFPOINTS
 62
     0
 10
1816.478409697474
 20
5067.5950456829032
 30
0.0
  0
POINT
  5
8C2
  8
DEFPOINTS
 62
     0
 10
2456.478409697474
 20
5067.5950456829032
 30
0.0
  0
POINT
  5
8C3
  8
DEFPOINTS
 62
     0
 10
2456.478409697474
 20
5135.7673696861038
 30
0.0
  0
ENDBLK
  5
6B8
  8
0
  0
BLOCK
  8
0
  2
*D5
 70
     1
 10
0.0
 20
0.0
 30
0.0
  3
*D5
  1

  0
LINE
  5
8C4
  8
3
 10
317.73168652291378
 20
4917.1189989461864
 30
0.0
 11
317.73168652291378
 21
5082.8932755026763
 31
0.0
  0
LINE
  5
8C5
  8
3
 10
941.73168652291372
 20
4917.1189989461864
 30
0.0
 11
941.73168652291372
 21
5082.8932755026763
 31
0.0
  0
LINE
  5
8C6
  8
3
 10
347.73168652291378
 20
5067.8932755026763
 30
0.0
 11
911.73168652291383
 21
5067.8932755026763
 31
0.0
  0
INSERT
  5
8C7
  8
3
  2
_OPEN
 10
317.73168652291378
 20
5067.8932755026763
 30
0.0
 41
30.0
 42
30.0
 43
30.0
 50
180.0
  0
INSERT
  5
8C8
  8
3
  2
_OPEN
 10
941.73168652291372
 20
5067.8932755026763
 30
0.0
 41
30.0
 42
30.0
 43
30.0
  0
TEXT
  8
3
  40
45
  5
8EF
  72
0
  71
0
 10
539.732
 20
5018.24
 30
0.000000
  1
624
  0
POINT
  5
8CA
  8
DEFPOINTS
 62
     0
 10
317.73168652291378
 20
4902.1189989461845
 30
0.0
  0
POINT
  5
8CB
  8
DEFPOINTS
 62
     0
 10
941.73168652291372
 20
4902.1189989461845
 30
0.0
  0
POINT
  5
8CC
  8
DEFPOINTS
 62
     0
 10
941.73168652291372
 20
5067.8932755026763
 30
0.0
  0
ENDBLK
  5
6C5
  8
0
  0
BLOCK
  8
0
  2
*D6
 70
     1
 10
0.0
 20
0.0
 30
0.0
  3
*D6
  1

  0
LINE
  5
8CD
  8
3
 10
294.731686522914
 20
4472.4843491009651
 30
0.0
 11
294.731686522914
 21
5220.2564735496453
 31
0.0
  0
LINE
  5
8CE
  8
3
 10
964.73168652291406
 20
4472.4843491009651
 30
0.0
 11
964.73168652291406
 21
5220.2564735496453
 31
0.0
  0
LINE
  5
8CF
  8
3
 10
324.73168652291412
 20
5205.2564735496462
 30
0.0
 11
934.73168652291395
 21
5205.2564735496462
 31
0.0
  0
INSERT
  5
8D0
  8
3
  2
_OPEN
 10
294.731686522914
 20
5205.2564735496462
 30
0.0
 41
30.0
 42
30.0
 43
30.0
 50
180.0
  0
INSERT
  5
8D1
  8
3
  2
_OPEN
 10
964.73168652291406
 20
5205.2564735496462
 30
0.0
 41
30.0
 42
30.0
 43
30.0
  0
TEXT
  8
3
  40
45
  5
8F0
  72
0
  71
0
 10
539.732
 20
5155.61
 30
0.000000
  1
670
  0
POINT
  5
8D3
  8
DEFPOINTS
 62
     0
 10
294.731686522914
 20
4457.4843491009651
 30
0.0
  0
POINT
  5
8D4
  8
DEFPOINTS
 62
     0
 10
964.73168652291406
 20
4457.4843491009651
 30
0.0
  0
POINT
  5
8D5
  8
DEFPOINTS
 62
     0
 10
964.73168652291406
 20
5205.2564735496462
 30
0.0
  0
ENDBLK
  5
6D2
  8
0
  0
BLOCK
  8
0
  2
*D7
 70
     1
 10
0.0
 20
0.0
 30
0.0
  3
*D7
  1

  0
LINE
  5
8D6
  8
3
 10
941.73168652291372
 20
4917.1189989461864
 30
0.0
 11
941.73168652291372
 21
5082.8932755026763
 31
0.0
  0
LINE
  5
8D7
  8
3
 10
964.73168652291406
 20
4472.4843491009651
 30
0.0
 11
964.73168652291406
 21
5082.8932755026763
 31
0.0
  0
LINE
  5
8D8
  8
3
 10
911.73168652291383
 20
5067.8932755026763
 30
0.0
 11
881.73168652291383
 21
5067.8932755026763
 31
0.0
  0
LINE
  5
8D9
  8
3
 10
994.73168652291395
 20
5067.8932755026763
 30
0.0
 11
1024.7316865229141
 21
5067.8932755026763
 31
0.0
  0
TEXT
  8
3
  40
45
  5
8F1
  72
0
  71
0
 10
943.679
 20
5021.88
 30
0.000000
  1
23
  0
LINE
  5
8DB
  8
3
 10
941.73168652291372
 20
5067.8932755026763
 30
0.0
 11
964.73168652291406
 21
5067.8932755026763
 31
0.0
  0
INSERT
  5
8DC
  8
3
  2
_OPEN
 10
941.73168652291372
 20
5067.8932755026763
 30
0.0
 41
30.0
 42
30.0
 43
30.0
  0
INSERT
  5
8DD
  8
3
  2
_OPEN
 10
964.73168652291406
 20
5067.8932755026763
 30
0.0
 41
30.0
 42
30.0
 43
30.0
 50
180.0
  0
POINT
  5
8DE
  8
DEFPOINTS
 62
     0
 10
941.73168652291372
 20
4902.1189989461845
 30
0.0
  0
POINT
  5
8DF
  8
DEFPOINTS
 62
     0
 10
964.73168652291406
 20
4457.4843491009651
 30
0.0
  0
POINT
  5
8E0
  8
DEFPOINTS
 62
     0
 10
964.73168652291406
 20
5067.8932755026763
 30
0.0
  0
ENDBLK
  5
6F3
  8
0
  0
BLOCK
  8
0
  2
*D8
 70
     1
 10
0.0
 20
0.0
 30
0.0
  3
*D8
  1

  0
LINE
  5
8E1
  8
3
 10
317.73168652291378
 20
4917.1189989461864
 30
0.0
 11
317.73168652291378
 21
5082.8932755026763
 31
0.0
  0
LINE
  5
8E2
  8
3
 10
294.731686522914
 20
4472.4843491009651
 30
0.0
 11
294.731686522914
 21
5082.8932755026763
 31
0.0
  0
LINE
  5
8E3
  8
3
 10
347.73168652291378
 20
5067.8932755026763
 30
0.0
 11
377.73168652291378
 21
5067.8932755026763
 31
0.0
  0
LINE
  5
8E4
  8
3
 10
264.73168652291412
 20
5067.8932755026763
 30
0.0
 11
234.73168652291409
 21
5067.8932755026763
 31
0.0
  0
TEXT
  8
3
  40
45
  5
8F2
  72
0
  71
0
 10
120.199
 20
5023.18
 30
0.000000
  1
23
  0
LINE
  5
8E6
  8
3
 10
317.73168652291378
 20
5067.8932755026763
 30
0.0
 11
294.731686522914
 21
5067.8932755026763
 31
0.0
  0
INSERT
  5
8E7
  8
3
  2
_OPEN
 10
317.73168652291378
 20
5067.8932755026763
 30
0.0
 41
30.0
 42
30.0
 43
30.0
 50
180.0
  0
INSERT
  5
8E8
  8
3
  2
_OPEN
 10
294.731686522914
 20
5067.8932755026763
 30
0.0
 41
30.0
 42
30.0
 43
30.0
  0
POINT
  5
8E9
  8
DEFPOINTS
 62
     0
 10
317.73168652291378
 20
4902.1189989461845
 30
0.0
  0
POINT
  5
8EA
  8
DEFPOINTS
 62
     0
 10
294.731686522914
 20
4457.4843491009651
 30
0.0
  0
POINT
  5
8EB
  8
DEFPOINTS
 62
     0
 10
294.731686522914
 20
5067.8932755026763
 30
0.0
  0
ENDBLK
  5
702
  8
0
  0
ENDSEC
  0
SECTION
  2
ENTITIES
  0
LINE
  5
28
  8
4
 10
2966.4879898126851
 20
2061.03179316569
 30
0.0
 11
-183.51201018731439
 21
2061.03179316569
 31
0.0
  0
LINE
  5
2A
  8
4
 10
-183.51201018731439
 20
6486.0317931656909
 30
0.0
 11
2966.4879898126851
 21
6486.0317931656909
 31
0.0
  0
LINE
  5
2B
  8
4
 10
791.48798981268556
 20
2811.0317931656909
 30
0.0
 11
2591.4879898126851
 21
2811.0317931656909
 31
0.0
  0
LINE
  5
2C
  8
4
 10
191.4879898126855
 20
6065.1449245628983
 30
0.0
 11
2591.4879898126851
 21
6065.1449245628983
 31
0.0
  0
LINE
  5
2D
  8
4
 10
191.4879898126855
 20
5765.1449245628983
 30
0.0
 11
2591.4879898126851
 21
5765.1449245628983
 31
0.0
  0
TEXT
  5
2E
  8
4
 10
290.73937980685508
 20
5861.8532574646379
 30
0.0
 40
108.0
  1
ベルト駆動式横型軸流ファン
  0
TEXT
  5
2F
  8
4
 10
1009.635049149361
 20
5636.1750551644636
 30
0.0
 40
80.999999999999986
  1
天井吊本体形
  0
LINE
  5
30
  8
4
 10
791.48798981268556
 20
2661.03179316569
 30
0.0
 11
2591.4879898126851
 21
2661.03179316569
 31
0.0
  0
LINE
  5
31
  8
4
 10
791.48798981268556
 20
2511.03179316569
 30
0.0
 11
2591.4879898126851
 21
2511.03179316569
 31
0.0
  0
LINE
  5
33
  8
4
 10
-183.51201018731439
 20
2061.03179316569
 30
0.0
 11
-183.51201018731439
 21
6486.0317931656909
 31
0.0
  0
TEXT
  5
34
  8
4
 10
845.87514884988195
 20
2543.4995282637069
 30
0.0
 40
75.0
  1
機器型番
  0
TEXT
  5
35
  8
4
 10
849.24111108303805
 20
2708.3463319656098
 30
0.0
 40
75.0
  1
機器名称
  0
LINE
  5
37
  8
4
 10
791.48798981268556
 20
2811.0317931656909
 30
0.0
 11
791.48798981268556
 21
2511.03179316569
 31
0.0
  0
TEXT
  5
38
  8
4
 10
209.2653401884817
 20
5634.5110094852062
 30
0.0
 40
80.999999999999986
  1
左回転後方吐出
  0
LINE
  5
39
  8
1
 10
402.731686522914
 20
4430.684349100964
 30
0.0
 11
676.73168652291395
 21
4430.684349100964
 31
0.0
  0
LINE
  5
3A
  8
2
 10
351.731686522914
 20
4631.4843491009651
 30
0.0
 11
849.42187111750263
 21
4631.4843491009651
 31
0.0
  0
LINE
  5
3D
  8
1
 10
350.731686522914
 20
4468.4843491009651
 30
0.0
 11
728.73168652291395
 21
4468.4843491009651
 31
0.0
  0
LINE
  5
3E
  8
1
 10
351.731686522914
 20
4493.4843491009651
 30
0.0
 11
727.73168652291395
 21
4493.4843491009651
 31
0.0
  0
LINE
  5
3F
  8
1
 10
351.731686522914
 20
4499.4843491009651
 30
0.0
 11
727.73168652291395
 21
4499.4843491009651
 31
0.0
  0
LINE
  5
40
  8
1
 10
924.73168652291406
 20
4384.9843491009651
 30
0.0
 11
334.731686522914
 21
4384.9843491009651
 31
0.0
  0
LINE
  5
41
  8
1
 10
924.73168652291406
 20
4337.4843491009642
 30
0.0
 11
334.731686522914
 21
4337.4843491009642
 31
0.0
  0
LINE
  5
42
  8
1
 10
924.73168652291406
 20
4389.4843491009651
 30
0.0
 11
334.731686522914
 21
4389.4843491009651
 31
0.0
  0
LINE
  5
43
  8
1
 10
309.731686522914
 20
4007.4843491009642
 30
0.0
 11
419.731686522914
 21
4007.4843491009642
 31
0.0
  0
LINE
  5
44
  8
1
 10
394.731686522914
 20
3870.4843491009642
 30
0.0
 11
414.731686522914
 21
4007.4843491009642
 31
0.0
  0
LINE
  5
45
  8
1
 10
394.731686522914
 20
4424.4843491009651
 30
0.0
 11
414.731686522914
 21
4287.4843491009651
 31
0.0
  0
LINE
  5
46
  8
1
 10
309.731686522914
 20
4287.4843491009651
 30
0.0
 11
419.731686522914
 21
4287.4843491009651
 31
0.0
  0
LINE
  5
47
  8
1
 10
294.731686522914
 20
3867.4843491009642
 30
0.0
 11
964.73168652291406
 21
3867.4843491009642
 31
0.0
  0
LINE
  5
48
  8
1
 10
297.93168652291382
 20
3864.2843491009639
 30
0.0
 11
961.53168652291379
 21
3864.2843491009639
 31
0.0
  0
LINE
  5
49
  8
1
 10
294.731686522914
 20
4427.4843491009651
 30
0.0
 11
964.73168652291406
 21
4427.4843491009651
 31
0.0
  0
LINE
  5
4A
  8
2
 10
244.79852409842979
 20
4147.4843491009651
 30
0.0
 11
1016.966625178821
 21
4147.4843491009651
 31
0.0
  0
LINE
  5
4B
  8
1
 10
425.7319865229137
 20
4768.9843491009651
 30
0.0
 11
362.3542865229137
 21
4756.796349100965
 31
0.0
  0
ARC
  5
4C
  8
1
 10
405.12399136832749
 20
4505.5561458706889
 30
0.0
 40
6.9282032302754892
 50
59.999999999999623
 51
119.9999999999998
  0
ARC
  5
4D
  8
1
 10
405.12399136832749
 20
4487.4125523312387
 30
0.0
 40
6.9282032302754892
 50
240.00000000000011
 51
300.00000000000028
  0
DIMENSION
  5
4E
  8
3
  2
*D2
 10
92.940157180895682
 20
3867.4843491009642
 30
0.0
 11
55.440157180895078
 21
4147.4843491009651
 31
0.0
 70
     0
  1
%%c<>
 13
264.731686522914
 23
4427.4843491009651
 33
0.0
 14
264.731686522914
 24
3867.4843491009642
 34
0.0
 50
90.0
1001
ACAD
1000
DSTYLE
1002
{
1070
   287
1070
     3
1070
   287
1070
     3
1070
   287
1070
     3
1070
    40
1040
15.0
1070
   143
1040
0.039
1070
   172
1070
     1
1070
   271
1070
     0
1070
   279
1070
     0
1070
   288
1070
     1
1002
}
  0
LINE
  5
64
  8
1
 10
354.731686522914
 20
4287.4843491009651
 30
0.0
 11
354.731686522914
 21
4007.4843491009642
 31
0.0
  0
LINE
  5
65
  8
1
 10
364.731686522914
 20
4287.4843491009651
 30
0.0
 11
364.731686522914
 21
4007.4843491009642
 31
0.0
  0
LINE
  5
66
  8
1
 10
264.731686522914
 20
4427.4843491009651
 30
0.0
 11
264.731686522914
 21
3867.4843491009642
 31
0.0
  0
LINE
  5
67
  8
1
 10
291.731686522914
 20
4434.4843491009651
 30
0.0
 11
291.731686522914
 21
3860.4843491009642
 31
0.0
  0
LINE
  5
68
  8
1
 10
294.731686522914
 20
4457.4843491009651
 30
0.0
 11
294.731686522914
 21
3837.4843491009642
 31
0.0
  0
LINE
  5
69
  8
1
 10
309.731686522914
 20
4287.4843491009651
 30
0.0
 11
309.731686522914
 21
4007.4843491009642
 31
0.0
  0
LINE
  5
6A
  8
1
 10
294.731686522914
 20
4457.4843491009651
 30
0.0
 11
294.731686522914
 21
3837.4843491009642
 31
0.0
  0
LINE
  5
6B
  8
1
 10
297.93168652291382
 20
4457.4843491009651
 30
0.0
 11
297.93168652291382
 21
3837.4843491009642
 31
0.0
  0
LINE
  5
6C
  8
1
 10
314.73168652291452
 20
3849.9843491009642
 30
0.0
 11
274.73168652291452
 21
3849.9843491009642
 31
0.0
  0
LINE
  5
6D
  8
1
 10
287.731686522914
 20
3864.4843491009642
 30
0.0
 11
266.731686522914
 21
3864.4843491009642
 31
0.0
  0
LINE
  5
6E
  8
1
 10
264.731686522914
 20
3867.4843491009642
 30
0.0
 11
294.731686522914
 21
3867.4843491009642
 31
0.0
  0
ARC
  5
6F
  8
1
 10
266.731686522914
 20
3866.4843491009642
 30
0.0
 40
2.0
 50
180.0
 51
270.0
  0
LINE
  5
70
  8
1
 10
264.731686522914
 20
3866.4843491009642
 30
0.0
 11
264.731686522914
 21
3867.4843491009642
 31
0.0
  0
LINE
  5
71
  8
1
 10
314.731686522914
 20
4007.4843491009642
 30
0.0
 11
334.731686522914
 21
3870.4843491009642
 31
0.0
  0
LINE
  5
72
  8
1
 10
334.731686522914
 20
3870.4843491009642
 30
0.0
 11
394.731686522914
 21
3870.4843491009642
 31
0.0
  0
LINE
  5
73
  8
1
 10
294.731686522914
 20
3837.4843491009642
 30
0.0
 11
293.731686522914
 21
3837.4843491009642
 31
0.0
  0
ARC
  5
74
  8
1
 10
293.731686522914
 20
3839.4843491009642
 30
0.0
 40
2.0
 50
180.0
 51
270.0
  0
LINE
  5
75
  8
1
 10
291.731686522914
 20
3839.4843491009642
 30
0.0
 11
291.731686522914
 21
3860.4843491009642
 31
0.0
  0
ARC
  5
76
  8
1
 10
287.731686522914
 20
3860.4843491009642
 30
0.0
 40
4.0
 50
0.0
 51
90.0
  0
LINE
  5
77
  8
1
 10
297.93168652291382
 20
3837.4843491009642
 30
0.0
 11
294.731686522914
 21
3837.4843491009642
 31
0.0
  0
LINE
  5
78
  8
1
 10
329.731686522914
 20
4112.4843491009651
 30
0.0
 11
399.731686522914
 21
4112.4843491009651
 31
0.0
  0
LINE
  5
79
  8
1
 10
329.731686522914
 20
4182.4843491009651
 30
0.0
 11
399.731686522914
 21
4182.4843491009651
 31
0.0
  0
LINE
  5
7A
  8
1
 10
329.731686522914
 20
4182.4843491009651
 30
0.0
 11
329.731686522914
 21
4112.4843491009651
 31
0.0
  0
LINE
  5
7B
  8
1
 10
399.731686522914
 20
4182.4843491009651
 30
0.0
 11
399.731686522914
 21
4112.4843491009651
 31
0.0
  0
LINE
  5
7C
  8
1
 10
314.73168652291452
 20
4444.9843491009651
 30
0.0
 11
274.73168652291452
 21
4444.9843491009651
 31
0.0
  0
LINE
  5
7D
  8
1
 10
264.731686522914
 20
4427.4843491009651
 30
0.0
 11
294.731686522914
 21
4427.4843491009651
 31
0.0
  0
LINE
  5
7E
  8
1
 10
287.731686522914
 20
4430.4843491009642
 30
0.0
 11
266.731686522914
 21
4430.4843491009642
 31
0.0
  0
LINE
  5
7F
  8
1
 10
264.731686522914
 20
4428.4843491009651
 30
0.0
 11
264.731686522914
 21
4427.4843491009651
 31
0.0
  0
ARC
  5
80
  8
1
 10
266.731686522914
 20
4428.4843491009651
 30
0.0
 40
2.0
 50
90.0
 51
180.0
  0
LINE
  5
81
  8
1
 10
394.731686522914
 20
4556.7355625274031
 30
0.0
 11
394.731686522914
 21
4378.3811745020339
 31
0.0
  0
LINE
  5
82
  8
1
 10
360.7319865229137
 20
4754.8323491009651
 30
0.0
 11
360.7319865229137
 21
4508.4237491009644
 31
0.0
  0
LINE
  5
83
  8
1
 10
401.65988975318982
 20
4511.5561458706889
 30
0.0
 11
401.65988975318982
 21
4499.4843491009651
 31
0.0
  0
LINE
  5
84
  8
1
 10
387.80348329263859
 20
4511.5561458706889
 30
0.0
 11
387.80348329263859
 21
4499.4843491009651
 31
0.0
  0
LINE
  5
85
  8
1
 10
380.87528006236329
 20
4499.4843491009651
 30
0.0
 11
380.87528006236329
 21
4511.5561458706889
 31
0.0
  0
LINE
  5
86
  8
1
 10
334.731686522914
 20
4427.4843491009651
 30
0.0
 11
372.731686522914
 21
4427.4843491009651
 31
0.0
  0
LINE
  5
87
  8
1
 10
340.73168652291361
 20
4408.4843491009651
 30
0.0
 11
366.73168652291349
 21
4408.4843491009651
 31
0.0
  0
CIRCLE
  5
88
  8
1
 10
353.73168652291361
 20
4408.4843491009651
 30
0.0
 40
10.0
  0
ARC
  5
89
  8
1
 10
351.731686522914
 20
4492.4843491009651
 30
0.0
 40
7.0
 50
90.0
 51
180.0
  0
LINE
  5
8A
  8
1
 10
344.731686522914
 20
4464.4843491009651
 30
0.0
 11
350.731686522914
 21
4464.4843491009651
 31
0.0
  0
LINE
  5
8B
  8
1
 10
334.731686522914
 20
4424.4843491009651
 30
0.0
 11
394.731686522914
 21
4424.4843491009651
 31
0.0
  0
LINE
  5
8C
  8
1
 10
297.93168652291382
 20
4430.684349100964
 30
0.0
 11
386.731686522914
 21
4430.684349100964
 31
0.0
  0
LINE
  5
8D
  8
1
 10
334.731686522914
 20
4389.4843491009651
 30
0.0
 11
334.731686522914
 21
4337.4843491009642
 31
0.0
  0
LINE
  5
8E
  8
1
 10
314.731686522914
 20
4287.4843491009651
 30
0.0
 11
334.731686522914
 21
4424.4843491009651
 31
0.0
  0
ARC
  5
8F
  8
1
 10
287.731686522914
 20
4434.4843491009651
 30
0.0
 40
4.0
 50
270.0
 51
0.0
  0
LINE
  5
90
  8
1
 10
291.731686522914
 20
4455.4843491009651
 30
0.0
 11
291.731686522914
 21
4434.4843491009651
 31
0.0
  0
ARC
  5
91
  8
1
 10
293.731686522914
 20
4455.4843491009651
 30
0.0
 40
2.0
 50
90.0
 51
180.0
  0
LINE
  5
92
  8
1
 10
294.731686522914
 20
4457.4843491009651
 30
0.0
 11
293.731686522914
 21
4457.4843491009651
 31
0.0
  0
LINE
  5
93
  8
1
 10
297.93168652291382
 20
4457.4843491009651
 30
0.0
 11
294.731686522914
 21
4457.4843491009651
 31
0.0
  0
LINE
  5
94
  8
1
 10
334.731686522914
 20
4427.4843491009651
 30
0.0
 11
334.731686522914
 21
4389.4843491009651
 31
0.0
  0
LINE
  5
95
  8
1
 10
344.731686522914
 20
4492.4843491009651
 30
0.0
 11
344.731686522914
 21
4464.4843491009651
 31
0.0
  0
LINE
  5
96
  8
1
 10
380.87528006236329
 20
4505.8645882836036
 30
0.0
 11
362.6704865229139
 21
4506.4247491009637
 31
0.0
  0
LINE
  5
97
  8
1
 10
353.73168652291361
 20
4395.4843491009651
 30
0.0
 11
353.73168652291361
 21
4421.4843491009651
 31
0.0
  0
LINE
  5
98
  8
1
 10
372.731686522914
 20
4427.4843491009651
 30
0.0
 11
372.731686522914
 21
4389.4843491009651
 31
0.0
  0
ARC
  5
99
  8
1
 10
351.731686522914
 20
4492.4843491009651
 30
0.0
 40
1.0
 50
90.0
 51
180.0
  0
LINE
  5
9A
  8
1
 10
350.731686522914
 20
4492.4843491009651
 30
0.0
 11
350.731686522914
 21
4464.4843491009651
 31
0.0
  0
ARC
  5
9B
  8
1
 10
362.7319865229137
 20
4508.4237491009644
 30
0.0
 40
2.0
 50
180.0
 51
268.23719999999992
  0
LINE
  5
9C
  8
1
 10
386.731686522914
 20
4389.4843491009651
 30
0.0
 11
386.731686522914
 21
4480.4843491009642
 31
0.0
  0
LINE
  5
9D
  8
1
 10
402.731686522914
 20
4389.4843491009651
 30
0.0
 11
402.731686522914
 21
4480.4843491009642
 31
0.0
  0
ARC
  5
9E
  8
1
 10
394.731686522914
 20
4506.8048571766531
 30
0.0
 40
26.32050807568676
 50
254.73851957513861
 51
285.26148042486119
  0
LINE
  5
9F
  8
1
 10
380.87528006236329
 20
4493.4843491009651
 30
0.0
 11
380.87528006236329
 21
4481.4125523312396
 31
0.0
  0
ARC
  5
A0
  8
1
 10
384.33938167750102
 20
4487.4125523312387
 30
0.0
 40
6.9282032302754892
 50
239.9999999999996
 51
299.99999999999989
  0
LINE
  5
A1
  8
1
 10
387.80348329263859
 20
4481.4125523312396
 30
0.0
 11
387.80348329263859
 21
4493.4843491009651
 31
0.0
  0
LINE
  5
A2
  8
1
 10
405.12399136832749
 20
4480.4843491009642
 30
0.0
 11
384.33938167750102
 21
4480.4843491009642
 31
0.0
  0
LINE
  5
A3
  8
1
 10
401.65988975318982
 20
4481.4125523312396
 30
0.0
 11
401.65988975318982
 21
4493.4843491009651
 31
0.0
  0
LINE
  5
A4
  8
1
 10
402.731686522914
 20
4512.4843491009642
 30
0.0
 11
402.731686522914
 21
4557.5691818145133
 31
0.0
  0
LINE
  5
A5
  8
1
 10
386.731686522914
 20
4512.4843491009642
 30
0.0
 11
386.731686522914
 21
4557.5691818145133
 31
0.0
  0
LINE
  5
A6
  8
1
 10
402.731686522914
 20
4557.5691818145133
 30
0.0
 11
386.731686522914
 21
4557.5691818145133
 31
0.0
  0
ARC
  5
A7
  8
1
 10
394.731686522914
 20
4486.1638410252781
 30
0.0
 40
26.32050807568676
 50
74.738519575138611
 51
105.2614804248612
  0
ARC
  5
A8
  8
1
 10
384.33938167750102
 20
4505.5561458706889
 30
0.0
 40
6.9282032302754892
 50
60.000000000000142
 51
120.0000000000003
  0
LINE
  5
A9
  8
1
 10
384.33938167750102
 20
4512.4843491009642
 30
0.0
 11
405.12399136832749
 21
4512.4843491009642
 31
0.0
  0
ARC
  5
AA
  8
1
 10
362.7319865229137
 20
4754.8323491009651
 30
0.0
 40
2.0
 50
100.8854
 51
180.0
  0
LINE
  5
AB
  8
4
 10
191.4879898126855
 20
6065.1449245628983
 30
0.0
 11
191.4879898126855
 21
5765.1449245628983
 31
0.0
  0
LINE
  5
AC
  8
1
 10
871.77168652291368
 20
4430.684349100964
 30
0.0
 11
961.53168652291379
 21
4430.684349100964
 31
0.0
  0
LINE
  5
AD
  8
1
 10
924.73168652291406
 20
4427.4843491009651
 30
0.0
 11
886.73168652291395
 21
4427.4843491009651
 31
0.0
  0
CIRCLE
  5
AE
  8
1
 10
905.73168652291429
 20
4408.4843491009651
 30
0.0
 40
10.0
  0
LINE
  5
AF
  8
1
 10
918.73168652291417
 20
4408.4843491009651
 30
0.0
 11
892.73168652291417
 21
4408.4843491009651
 31
0.0
  0
LINE
  5
B0
  8
1
 10
786.73168652291395
 20
4699.5055711202804
 30
0.0
 11
786.73168652291395
 21
4090.334349100965
 31
0.0
  0
LINE
  5
B1
  8
1
 10
836.73168652291383
 20
4699.5055711202804
 30
0.0
 11
836.73168652291395
 21
4090.334349100965
 31
0.0
  0
LINE
  5
B2
  8
1
 10
419.731686522914
 20
4287.4843491009651
 30
0.0
 11
419.731686522914
 21
4007.4843491009642
 31
0.0
  0
LINE
  5
B3
  8
1
 10
836.73168652291395
 20
4090.334349100965
 30
0.0
 11
786.73168652291395
 21
4090.334349100965
 31
0.0
  0
LINE
  5
B4
  8
1
 10
836.73168652291395
 20
4204.6343491009648
 30
0.0
 11
786.73168652291395
 21
4204.6343491009648
 31
0.0
  0
LINE
  5
C2
  8
1
 10
650.31868652291382
 20
4773.4843491009642
 30
0.0
 11
662.73168652291383
 21
4751.9843491009651
 31
0.0
  0
LINE
  5
C3
  8
1
 10
658.23168652291383
 20
4499.4843491009651
 30
0.0
 11
570.73168652291383
 21
4499.4843491009651
 31
0.0
  0
LINE
  5
C4
  8
1
 10
656.25268652291379
 20
4514.5044491009639
 30
0.0
 11
586.28868652291385
 21
4515.4076491009646
 31
0.0
  0
LINE
  5
C5
  8
2
 10
570.73168652291383
 20
4824.0343491009653
 30
0.0
 11
570.73168652291383
 21
4492.8388491009646
 31
0.0
  0
LINE
  5
C6
  8
1
 10
485.731686522914
 20
4561.4843491009651
 30
0.0
 11
485.731686522914
 21
4773.9843491009651
 31
0.0
  0
LINE
  5
C7
  8
1
 10
425.7319865229137
 20
4771.9843491009651
 30
0.0
 11
425.7319865229137
 21
4504.4843491009651
 31
0.0
  0
LINE
  5
C8
  8
1
 10
560.05068652291379
 20
4607.1163491009647
 30
0.0
 11
522.73168652291395
 21
4607.1163491009647
 31
0.0
  0
LINE
  5
C9
  8
1
 10
485.21168652291351
 20
4514.5044491009639
 30
0.0
 11
555.17468652291382
 21
4515.4076491009646
 31
0.0
  0
LINE
  5
CA
  8
2
 10
503.74768652291368
 20
4676.4843491009651
 30
0.0
 11
640.31268652291374
 21
4676.4843491009651
 31
0.0
  0
LINE
  5
CB
  8
1
 10
483.231686522914
 20
4499.4843491009651
 30
0.0
 11
570.73168652291383
 21
4499.4843491009651
 31
0.0
  0
LINE
  5
CC
  8
1
 10
523.23168652291395
 20
4743.309349100964
 30
0.0
 11
618.23168652291383
 21
4743.309349100964
 31
0.0
  0
LINE
  5
CD
  8
1
 10
523.23168652291395
 20
4600.9873491009648
 30
0.0
 11
618.23168652291383
 21
4600.9873491009648
 31
0.0
  0
LINE
  5
CE
  8
1
 10
614.73168652291383
 20
4736.4993491009654
 30
0.0
 11
526.73168652291395
 21
4736.4993491009654
 31
0.0
  0
LINE
  5
CF
  8
1
 10
465.28768652291359
 20
4510.9843491009642
 30
0.0
 11
465.28768652291359
 21
4502.4843491009651
 31
0.0
  0
LINE
  5
D0
  8
1
 10
500.73168652291412
 20
4517.8318491009641
 30
0.0
 11
500.73168652291412
 21
4493.2384491009652
 31
0.0
  0
LINE
  5
D1
  8
1
 10
483.231686522914
 20
4499.4843491009651
 30
0.0
 11
483.231686522914
 21
4512.5045491009641
 31
0.0
  0
LINE
  5
D2
  8
1
 10
408.58809298346517
 20
4499.4843491009651
 30
0.0
 11
408.58809298346517
 21
4511.5561458706889
 31
0.0
  0
LINE
  5
D3
  8
1
 10
465.28768652291399
 20
4502.4843491009651
 30
0.0
 11
427.7319865229137
 21
4502.4843491009651
 31
0.0
  0
ARC
  5
D4
  8
1
 10
427.7320865229139
 20
4504.4844491009653
 30
0.0
 40
2.0001000000000002
 50
180.00349999999989
 51
269.99650000000003
  0
LINE
  5
D5
  8
1
 10
425.7319865229137
 20
4504.4843491009651
 30
0.0
 11
408.58809298346517
 21
4505.0118660649423
 31
0.0
  0
LINE
  5
D6
  8
1
 10
408.58809298346517
 20
4493.4843491009651
 30
0.0
 11
408.58809298346517
 21
4481.4125523312396
 31
0.0
  0
LINE
  5
D7
  8
1
 10
465.28768652291359
 20
4510.9843491009642
 30
0.0
 11
483.231686522914
 21
4510.9843491009642
 31
0.0
  0
LINE
  5
D8
  8
1
 10
465.28768652291359
 20
4541.0403491009629
 30
0.0
 11
485.731686522914
 21
4561.4843491009651
 31
0.0
  0
LINE
  5
D9
  8
1
 10
465.28768652291359
 20
4510.9843491009642
 30
0.0
 11
465.28768652291359
 21
4541.0403491009629
 31
0.0
  0
LINE
  5
DA
  8
1
 10
509.23168652291412
 20
4729.309349100964
 30
0.0
 11
509.23168652291412
 21
4614.9873491009657
 31
0.0
  0
LINE
  5
DB
  8
1
 10
514.73168652291395
 20
4615.1163491009638
 30
0.0
 11
514.73168652291395
 21
4724.4993491009636
 31
0.0
  0
ARC
  5
DC
  8
1
 10
485.231686522914
 20
4512.5045491009641
 30
0.0
 40
2.0
 50
90.580499999999986
 51
180.0
  0
ARC
  5
DD
  8
1
 10
522.73168652291395
 20
4615.1163491009638
 30
0.0
 40
8.0
 50
180.0
 51
270.0
  0
ARC
  5
DE
  8
1
 10
523.23168652291395
 20
4614.9873491009657
 30
0.0
 40
14.0
 50
180.0
 51
270.0
  0
ARC
  5
DF
  8
1
 10
526.73168652291395
 20
4724.4993491009636
 30
0.0
 40
12.0
 50
90.0
 51
180.0
  0
ARC
  5
E0
  8
1
 10
523.23168652291395
 20
4729.309349100964
 30
0.0
 40
14.0
 50
90.0
 51
180.0
  0
LINE
  5
E1
  8
1
 10
640.73168652291383
 20
4517.8318491009641
 30
0.0
 11
640.73168652291383
 21
4493.2384491009652
 31
0.0
  0
LINE
  5
E2
  8
1
 10
581.41368652291385
 20
4607.1163491009647
 30
0.0
 11
618.73168652291383
 21
4607.1163491009647
 31
0.0
  0
ARC
  5
E3
  8
1
 10
555.09368652291391
 20
4523.4072491009647
 30
0.0
 40
8.0
 50
270.58139999999997
 51
357.32159999999988
  0
ARC
  5
E4
  8
1
 10
570.73168652291383
 20
4607.4873491009657
 30
0.0
 40
11.9999
 50
13.108000000000001
 51
166.89199999999991
  0
ARC
  5
E5
  8
1
 10
560.05068652291379
 20
4610.1163491009647
 30
0.0
 40
3.0
 50
270.0
 51
346.1740999999999
  0
ARC
  5
E6
  8
1
 10
555.14868652291375
 20
4611.1163491009647
 30
0.0
 40
4.0
 50
270.0
 51
346.89120000000003
  0
ARC
  5
E7
  8
1
 10
586.31468652291392
 20
4611.1163491009647
 30
0.0
 40
4.0000999999999989
 50
193.1088
 51
270.0
  0
ARC
  5
E8
  8
1
 10
581.41368652291385
 20
4610.1163491009647
 30
0.0
 40
3.0
 50
193.82589999999999
 51
270.0
  0
CIRCLE
  5
E9
  8
1
 10
570.73168652291383
 20
4607.4873491009657
 30
0.0
 40
3.5
  0
ARC
  5
EA
  8
1
 10
570.73168652291383
 20
4607.4873491009657
 30
0.0
 40
8.0
 50
13.825699999999999
 51
166.1742999999999
  0
ARC
  5
EB
  8
1
 10
586.36968652291375
 20
4523.4072491009647
 30
0.0
 40
8.0
 50
182.6783999999999
 51
269.41860000000003
  0
LINE
  5
EC
  8
1
 10
563.0846865229139
 20
4523.0333491009642
 30
0.0
 11
564.48668652291371
 21
4553.0016491009646
 31
0.0
  0
LINE
  5
ED
  8
1
 10
578.37868652291377
 20
4523.0333491009642
 30
0.0
 11
576.97668652291361
 21
4553.0016491009646
 31
0.0
  0
LINE
  5
EE
  8
1
 10
632.23168652291383
 20
4614.9873491009657
 30
0.0
 11
632.23168652291383
 21
4729.309349100964
 31
0.0
  0
LINE
  5
EF
  8
1
 10
626.73168652291383
 20
4615.1163491009638
 30
0.0
 11
626.73168652291383
 21
4724.4993491009636
 31
0.0
  0
ARC
  5
F0
  8
1
 10
618.23168652291383
 20
4614.9873491009657
 30
0.0
 40
14.0
 50
270.0
 51
0.0
  0
ARC
  5
F1
  8
1
 10
618.73168652291383
 20
4615.1163491009638
 30
0.0
 40
8.0
 50
270.0
 51
0.0
  0
ARC
  5
F2
  8
1
 10
614.73168652291383
 20
4724.4993491009636
 30
0.0
 40
12.0
 50
0.0
 51
90.0
  0
ARC
  5
F3
  8
1
 10
618.23168652291383
 20
4729.309349100964
 30
0.0
 40
14.0
 50
0.0
 51
90.0
  0
LINE
  5
F4
  8
1
 10
491.14468652291362
 20
4773.4843491009642
 30
0.0
 11
570.73168652291383
 21
4773.4843491009642
 31
0.0
  0
LINE
  5
F5
  8
1
 10
485.731686522914
 20
4773.9843491009651
 30
0.0
 11
427.7319865229137
 21
4773.9843491009651
 31
0.0
  0
ARC
  5
F6
  8
1
 10
427.7320865229139
 20
4771.9843491009651
 30
0.0
 40
2.0001000000000002
 50
90.003500000000003
 51
179.9965
  0
LINE
  5
F7
  8
1
 10
485.83868652291397
 20
4764.2933491009644
 30
0.0
 11
491.14468652291362
 21
4773.4843491009642
 31
0.0
  0
LINE
  5
F8
  8
1
 10
650.31868652291382
 20
4773.4843491009642
 30
0.0
 11
570.73168652291383
 21
4773.4843491009642
 31
0.0
  0
ARC
  5
F9
  8
1
 10
570.73168652291383
 20
4798.9843491009642
 30
0.0
 40
20.500099999999989
 50
292.51819999999992
 51
0.0
  0
LINE
  5
FA
  8
2
 10
545.11268652291392
 20
4798.9843491009642
 30
0.0
 11
597.03268652291376
 21
4798.9843491009642
 31
0.0
  0
CIRCLE
  5
FB
  8
1
 10
570.73168652291383
 20
4798.9843491009642
 30
0.0
 40
11.5
  0
ARC
  5
FC
  8
1
 10
570.73168652291383
 20
4798.9843491009642
 30
0.0
 40
20.5
 50
295.75760000000002
 51
246.82189999999991
  0
ARC
  5
FD
  8
1
 10
570.73168652291383
 20
4798.9843491009642
 30
0.0
 40
20.500099999999989
 50
293.3698
 51
247.48159999999999
  0
LINE
  5
FE
  8
1
 10
576.73168652291383
 20
4778.532349100964
 30
0.0
 11
576.73168652291383
 21
4773.4843491009642
 31
0.0
  0
ARC
  5
FF
  8
1
 10
579.73168652291383
 20
4777.2763491009637
 30
0.0
 40
3.0
 50
112.5183999999999
 51
165.63069999999991
  0
ARC
  5
100
  8
1
 10
561.73168652291383
 20
4777.2763491009637
 30
0.0
 40
3.0
 50
18.553599999999999
 51
67.4816
  0
LINE
  5
101
  8
1
 10
564.73168652291383
 20
4777.903349100965
 30
0.0
 11
564.73168652291383
 21
4773.4843491009642
 31
0.0
  0
LINE
  5
102
  8
1
 10
742.73168652291417
 20
4401.6373541982884
 30
0.0
 11
742.73168652291633
 21
4765.6373541982894
 31
0.0
  0
LINE
  5
103
  8
1
 10
882.73168652291429
 20
4401.6373541982884
 30
0.0
 11
882.73168652291599
 21
4765.6373541982894
 31
0.0
  0
LINE
  5
104
  8
1
 10
764.73168652291395
 20
4672.15557112028
 30
0.0
 11
786.73168652291395
 21
4672.15557112028
 31
0.0
  0
LINE
  5
105
  8
1
 10
764.73168652291395
 20
4590.8131270816502
 30
0.0
 11
786.73168652291395
 21
4590.8131270816502
 31
0.0
  0
LINE
  5
106
  8
1
 10
734.73168652291395
 20
4539.4843491009651
 30
0.0
 11
784.73168652291395
 21
4539.4843491009651
 31
0.0
  0
LINE
  5
107
  8
1
 10
684.73168652291395
 20
4556.7355625274031
 30
0.0
 11
684.73168652291395
 21
4378.3811745020339
 31
0.0
  0
LINE
  5
108
  8
1
 10
739.23168652291395
 20
4539.4843491009651
 30
0.0
 11
739.23168652291395
 21
4389.4843491009651
 31
0.0
  0
LINE
  5
109
  8
1
 10
734.73168652291395
 20
4539.4843491009651
 30
0.0
 11
734.73168652291395
 21
4389.4843491009651
 31
0.0
  0
LINE
  5
10A
  8
1
 10
658.23168652291383
 20
4499.4843491009651
 30
0.0
 11
658.23168652291383
 21
4512.5045491009641
 31
0.0
  0
LINE
  5
10B
  8
1
 10
691.65988975318987
 20
4511.5561458706889
 30
0.0
 11
691.65988975318987
 21
4499.4843491009651
 31
0.0
  0
LINE
  5
10C
  8
1
 10
698.58809298346523
 20
4499.4843491009651
 30
0.0
 11
698.58809298346523
 21
4511.5561458706889
 31
0.0
  0
LINE
  5
10D
  8
1
 10
670.87528006236334
 20
4499.4843491009651
 30
0.0
 11
670.87528006236334
 21
4511.5561458706889
 31
0.0
  0
LINE
  5
10E
  8
1
 10
677.8034832926387
 20
4511.5561458706889
 30
0.0
 11
677.8034832926387
 21
4499.4843491009651
 31
0.0
  0
LINE
  5
10F
  8
1
 10
692.73168652291406
 20
4430.684349100964
 30
0.0
 11
744.73168652291395
 21
4430.684349100964
 31
0.0
  0
LINE
  5
110
  8
1
 10
695.12399136832755
 20
4480.4843491009642
 30
0.0
 11
674.33938167750102
 21
4480.4843491009642
 31
0.0
  0
ARC
  5
111
  8
1
 10
684.73168652291417
 20
4506.8048571766531
 30
0.0
 40
26.32050807568676
 50
254.73851957513861
 51
285.26148042486119
  0
LINE
  5
112
  8
1
 10
677.8034832926387
 20
4481.4125523312396
 30
0.0
 11
677.8034832926387
 21
4493.4843491009651
 31
0.0
  0
ARC
  5
113
  8
1
 10
674.33938167750102
 20
4487.4125523312387
 30
0.0
 40
6.9282032302754892
 50
239.9999999999996
 51
299.99999999999989
  0
LINE
  5
114
  8
1
 10
670.87528006236334
 20
4493.4843491009651
 30
0.0
 11
670.87528006236334
 21
4481.4125523312396
 31
0.0
  0
LINE
  5
115
  8
1
 10
676.73168652291395
 20
4389.4843491009651
 30
0.0
 11
676.73168652291395
 21
4480.4843491009642
 31
0.0
  0
LINE
  5
116
  8
1
 10
698.58809298346523
 20
4493.4843491009651
 30
0.0
 11
698.58809298346523
 21
4481.4125523312396
 31
0.0
  0
LINE
  5
117
  8
1
 10
691.65988975318987
 20
4481.4125523312396
 30
0.0
 11
691.65988975318987
 21
4493.4843491009651
 31
0.0
  0
ARC
  5
118
  8
1
 10
695.12399136832755
 20
4487.4125523312387
 30
0.0
 40
6.9282032302754892
 50
240.00000000000011
 51
300.00000000000028
  0
LINE
  5
119
  8
1
 10
692.73168652291406
 20
4389.4843491009651
 30
0.0
 11
692.73168652291406
 21
4480.4843491009642
 31
0.0
  0
LINE
  5
11A
  8
1
 10
717.83624612738129
 20
4479.4843491009651
 30
0.0
 11
748.57530490782585
 21
4479.4843491009651
 31
0.0
  0
ARC
  5
11B
  8
1
 10
727.73168652291395
 20
4492.4843491009651
 30
0.0
 40
7.0
 50
359.99999999999989
 51
89.999999999999986
  0
ARC
  5
11C
  8
1
 10
727.73168652291395
 20
4492.4843491009651
 30
0.0
 40
1.0
 50
0.0
 51
90.0
  0
LINE
  5
11D
  8
1
 10
728.73168652291395
 20
4464.4843491009651
 30
0.0
 11
734.73168652291395
 21
4464.4843491009651
 31
0.0
  0
LINE
  5
11E
  8
1
 10
728.73168652291395
 20
4492.4843491009651
 30
0.0
 11
728.73168652291395
 21
4464.4843491009651
 31
0.0
  0
LINE
  5
11F
  8
1
 10
712.73168652291383
 20
4690.4843491009651
 30
0.0
 11
721.73168652291383
 21
4690.4843491009651
 31
0.0
  0
LINE
  5
120
  8
1
 10
712.73168652291383
 20
4572.4843491009651
 30
0.0
 11
721.73168652291383
 21
4572.4843491009651
 31
0.0
  0
LINE
  5
121
  8
1
 10
665.73168652291383
 20
4751.9843491009651
 30
0.0
 11
665.73168652291395
 21
4510.9843491009642
 31
0.0
  0
LINE
  5
122
  8
1
 10
712.73168652291383
 20
4748.4843491009651
 30
0.0
 11
712.73168652291383
 21
4514.4843491009651
 31
0.0
  0
LINE
  5
123
  8
1
 10
692.73168652291406
 20
4557.5691818145133
 30
0.0
 11
676.73168652291417
 21
4557.5691818145133
 31
0.0
  0
LINE
  5
124
  8
1
 10
674.33938167750102
 20
4512.4843491009642
 30
0.0
 11
695.12399136832755
 21
4512.4843491009642
 31
0.0
  0
ARC
  5
125
  8
1
 10
684.73168652291417
 20
4486.1638410252781
 30
0.0
 40
26.32050807568676
 50
74.738519575138611
 51
105.2614804248612
  0
ARC
  5
126
  8
1
 10
656.23168652291383
 20
4512.5045491009641
 30
0.0
 40
2.0
 50
0.0
 51
89.419499999999999
  0
LINE
  5
127
  8
1
 10
665.73168652291383
 20
4510.9843491009642
 30
0.0
 11
658.23168652291383
 21
4510.9843491009642
 31
0.0
  0
LINE
  5
128
  8
1
 10
665.73168652291383
 20
4512.4843491009642
 30
0.0
 11
679.73168652291406
 21
4512.4843491009642
 31
0.0
  0
ARC
  5
129
  8
1
 10
674.33938167750102
 20
4505.5561458706889
 30
0.0
 40
6.9282032302754892
 50
60.000000000000142
 51
120.0000000000003
  0
LINE
  5
12A
  8
1
 10
676.73168652291395
 20
4512.4843491009642
 30
0.0
 11
676.73168652291395
 21
4557.5691818145133
 31
0.0
  0
LINE
  5
12B
  8
1
 10
695.73168652291395
 20
4512.4843491009642
 30
0.0
 11
710.73168652291383
 21
4512.4843491009642
 31
0.0
  0
ARC
  5
12C
  8
1
 10
710.73168652291383
 20
4514.4844491009644
 30
0.0
 40
2.0001000000000002
 50
270.0
 51
359.99650000000003
  0
ARC
  5
12D
  8
1
 10
695.12399136832755
 20
4505.5561458706889
 30
0.0
 40
6.9282032302754892
 50
59.999999999999623
 51
119.9999999999998
  0
LINE
  5
12E
  8
1
 10
692.73168652291406
 20
4512.4843491009642
 30
0.0
 11
692.73168652291406
 21
4557.5691818145133
 31
0.0
  0
LINE
  5
12F
  8
1
 10
665.73168652291383
 20
4750.4843491009651
 30
0.0
 11
710.73168652291383
 21
4750.4843491009651
 31
0.0
  0
LINE
  5
130
  8
1
 10
665.73168652291383
 20
4751.9843491009651
 30
0.0
 11
662.73168652291383
 21
4751.9843491009651
 31
0.0
  0
LINE
  5
131
  8
1
 10
662.73168652291383
 20
4751.9843491009651
 30
0.0
 11
665.73168652291383
 21
4751.9843491009651
 31
0.0
  0
LINE
  5
132
  8
1
 10
665.73168652291383
 20
4751.9843491009651
 30
0.0
 11
662.73168652291383
 21
4751.9843491009651
 31
0.0
  0
ARC
  5
133
  8
1
 10
710.73168652291383
 20
4748.4843491009651
 30
0.0
 40
2.0001000000000002
 50
0.0
 51
89.996499999999997
  0
LINE
  5
134
  8
1
 10
764.73168652291383
 20
4590.8131270816502
 30
0.0
 11
764.73168652291395
 21
4672.15557112028
 31
0.0
  0
LINE
  5
135
  8
1
 10
729.73168652291383
 20
4611.4843491009642
 30
0.0
 11
729.73168652291383
 21
4651.4843491009642
 31
0.0
  0
LINE
  5
136
  8
1
 10
722.73168652291383
 20
4573.4843491009642
 30
0.0
 11
722.73168652291383
 21
4689.4843491009651
 31
0.0
  0
LINE
  5
137
  8
1
 10
729.73168652291383
 20
4612.4843491009651
 30
0.0
 11
764.73168652291395
 21
4612.4843491009651
 31
0.0
  0
LINE
  5
138
  8
1
 10
722.73168652291383
 20
4611.4843491009642
 30
0.0
 11
729.73168652291383
 21
4611.4843491009642
 31
0.0
  0
ARC
  5
139
  8
1
 10
721.73168652291383
 20
4573.4843491009642
 30
0.0
 40
0.9999
 50
269.99299999999999
 51
0.0035
  0
LINE
  5
13A
  8
1
 10
729.73168652291383
 20
4650.4843491009651
 30
0.0
 11
764.73168652291395
 21
4650.4843491009651
 31
0.0
  0
ARC
  5
13B
  8
1
 10
721.73268652291381
 20
4689.4843491009651
 30
0.0
 40
0.9998000000000001
 50
359.99299999999999
 51
90.013999999999982
  0
LINE
  5
13C
  8
1
 10
722.73168652291383
 20
4651.4843491009642
 30
0.0
 11
729.73168652291383
 21
4651.4843491009642
 31
0.0
  0
LINE
  5
13D
  8
1
 10
746.73168652291383
 20
4650.4843491009651
 30
0.0
 11
746.73168652291383
 21
4653.4843491009651
 31
0.0
  0
LINE
  5
13E
  8
1
 10
746.73168652291383
 20
4653.4843491009651
 30
0.0
 11
764.73168652291395
 21
4653.4843491009651
 31
0.0
  0
LINE
  5
13F
  8
1
 10
886.73168652291383
 20
4411.9843491009651
 30
0.0
 11
784.73168652291395
 21
4539.4843491009651
 31
0.0
  0
LINE
  5
140
  8
1
 10
886.73168652291395
 20
4427.4843491009651
 30
0.0
 11
886.73168652291395
 21
4389.4843491009651
 31
0.0
  0
LINE
  5
141
  8
1
 10
786.73168652291395
 20
4555.8055711202824
 30
0.0
 11
836.73168652291395
 21
4555.8055711202796
 31
0.0
  0
LINE
  5
142
  8
1
 10
786.73168652291395
 20
4699.5055711202804
 30
0.0
 11
836.73168652291395
 21
4699.5055711202804
 31
0.0
  0
LINE
  5
143
  8
1
 10
882.73168652291599
 20
4765.6373541982894
 30
0.0
 11
742.73168652291633
 21
4765.6373541982894
 31
0.0
  0
DIMENSION
  5
144
  8
3
  2
*D1
 10
1175.2762982682541
 20
3867.4843491009642
 30
0.0
 11
1137.776298268253
 21
4147.4843491009651
 31
0.0
 70
     0
  1
%%c<>
 13
994.73168652291395
 23
4427.4843491009651
 33
0.0
 14
994.73168652291395
 24
3867.4843491009642
 34
0.0
 50
90.0
1001
ACAD
1000
DSTYLE
1002
{
1070
   287
1070
     3
1070
   287
1070
     3
1070
   287
1070
     3
1070
    40
1040
15.0
1070
   143
1040
0.039
1070
   172
1070
     1
1070
   271
1070
     0
1070
   279
1070
     0
1070
   288
1070
     1
1002
}
  0
LINE
  5
151
  8
1
 10
964.73168652291406
 20
4457.4843491009651
 30
0.0
 11
964.73168652291383
 21
3837.4843491009642
 31
0.0
  0
LINE
  5
152
  8
1
 10
967.73168652291406
 20
4434.4843491009651
 30
0.0
 11
967.73168652291395
 21
3860.4843491009642
 31
0.0
  0
LINE
  5
153
  8
1
 10
994.73168652291395
 20
4427.4843491009651
 30
0.0
 11
994.73168652291395
 21
3867.4843491009642
 31
0.0
  0
LINE
  5
154
  8
1
 10
961.53168652291379
 20
4457.4843491009651
 30
0.0
 11
961.53168652291379
 21
3837.4843491009642
 31
0.0
  0
LINE
  5
155
  8
1
 10
964.73168652291406
 20
4457.4843491009651
 30
0.0
 11
964.73168652291383
 21
3837.4843491009642
 31
0.0
  0
LINE
  5
156
  8
1
 10
944.73168652291383
 20
3849.9843491009642
 30
0.0
 11
984.73168652291395
 21
3849.9843491009642
 31
0.0
  0
LINE
  5
157
  8
1
 10
994.73168652291395
 20
3867.4843491009642
 30
0.0
 11
964.73168652291383
 21
3867.4843491009642
 31
0.0
  0
LINE
  5
158
  8
1
 10
971.73168652291395
 20
3864.4843491009642
 30
0.0
 11
992.73168652291406
 21
3864.4843491009642
 31
0.0
  0
ARC
  5
159
  8
1
 10
971.73168652291395
 20
3860.4843491009642
 30
0.0
 40
4.0
 50
90.0
 51
180.0
  0
LINE
  5
15A
  8
1
 10
967.73168652291406
 20
3839.4843491009642
 30
0.0
 11
967.73168652291406
 21
3860.4843491009642
 31
0.0
  0
ARC
  5
15B
  8
1
 10
965.73168652291406
 20
3839.4843491009642
 30
0.0
 40
2.0
 50
270.0
 51
0.0
  0
LINE
  5
15C
  8
1
 10
964.73168652291406
 20
3837.4843491009642
 30
0.0
 11
965.73168652291406
 21
3837.4843491009642
 31
0.0
  0
LINE
  5
15D
  8
1
 10
961.53168652291379
 20
3837.4843491009642
 30
0.0
 11
964.73168652291406
 21
3837.4843491009642
 31
0.0
  0
LINE
  5
15E
  8
1
 10
994.73168652291395
 20
3866.4843491009642
 30
0.0
 11
994.73168652291395
 21
3867.4843491009642
 31
0.0
  0
ARC
  5
15F
  8
1
 10
992.73168652291406
 20
3866.4843491009642
 30
0.0
 40
2.0
 50
270.0
 51
0.0
  0
LINE
  5
160
  8
1
 10
944.73168652291383
 20
4444.9843491009651
 30
0.0
 11
984.73168652291395
 21
4444.9843491009651
 31
0.0
  0
LINE
  5
161
  8
1
 10
924.73168652291406
 20
4389.4843491009651
 30
0.0
 11
924.73168652291406
 21
4337.4843491009642
 31
0.0
  0
LINE
  5
162
  8
1
 10
924.73168652291406
 20
4427.4843491009651
 30
0.0
 11
924.73168652291406
 21
4389.4843491009651
 31
0.0
  0
LINE
  5
163
  8
1
 10
905.73168652291429
 20
4395.4843491009651
 30
0.0
 11
905.73168652291429
 21
4421.4843491009651
 31
0.0
  0
LINE
  5
164
  8
1
 10
971.73168652291395
 20
4430.4843491009642
 30
0.0
 11
992.73168652291406
 21
4430.4843491009642
 31
0.0
  0
LINE
  5
165
  8
1
 10
994.73168652291395
 20
4427.4843491009651
 30
0.0
 11
964.73168652291406
 21
4427.4843491009651
 31
0.0
  0
LINE
  5
166
  8
1
 10
964.73168652291406
 20
4457.4843491009651
 30
0.0
 11
965.73168652291406
 21
4457.4843491009651
 31
0.0
  0
ARC
  5
167
  8
1
 10
965.73168652291406
 20
4455.4843491009651
 30
0.0
 40
2.0
 50
0.0
 51
90.0
  0
LINE
  5
168
  8
1
 10
967.73168652291406
 20
4455.4843491009651
 30
0.0
 11
967.73168652291406
 21
4434.4843491009651
 31
0.0
  0
ARC
  5
169
  8
1
 10
971.73168652291395
 20
4434.4843491009651
 30
0.0
 40
4.0
 50
180.0
 51
270.0
  0
LINE
  5
16A
  8
1
 10
961.53168652291379
 20
4457.4843491009651
 30
0.0
 11
964.73168652291406
 21
4457.4843491009651
 31
0.0
  0
ARC
  5
16B
  8
1
 10
992.73168652291406
 20
4428.4843491009651
 30
0.0
 40
2.0
 50
0.0
 51
90.0
  0
LINE
  5
16C
  8
1
 10
994.73168652291395
 20
4428.4843491009651
 30
0.0
 11
994.73168652291395
 21
4427.4843491009651
 31
0.0
  0
LINE
  5
16D
  8
4
 10
2966.4879898126851
 20
6486.0317931656909
 30
0.0
 11
2966.4879898126851
 21
2061.03179316569
 31
0.0
  0
TEXT
  5
16F
  8
4
 10
1596.469733190906
 20
2536.7711695856051
 30
0.0
 40
75.0
  1
AP＃560-2
  0
TEXT
  5
170
  8
4
 10
1583.0061080441819
 20
2694.8894466020438
 30
0.0
 40
75.0
  1
ミツヤ軸流フアン
  0
LINE
  5
171
  8
4
 10
1541.4879898126851
 20
2811.0317931656909
 30
0.0
 11
1541.4879898126851
 21
2511.03179316569
 31
0.0
  0
LINE
  5
172
  8
4
 10
2591.4879898126851
 20
2811.0317931656909
 30
0.0
 11
2591.4879898126851
 21
2511.03179316569
 31
0.0
  0
LINE
  5
174
  8
4
 10
2591.4879898126851
 20
6082.9271678537916
 30
0.0
 11
1977.414123352482
 21
6082.9271678537916
 31
0.0
  0
LINE
  5
175
  8
4
 10
1977.414123352482
 20
6241.0101854903196
 30
0.0
 11
2591.4879898126851
 21
6241.0101854903196
 31
0.0
  0
TEXT
  5
176
  8
4
 10
1957.933796452696
 20
5636.1750551644636
 30
0.0
 40
80.999999999999986
  1
縮尺：1/15
  0
LINE
  5
177
  8
2
 10
1705.790672578798
 20
4147.4843491009651
 30
0.0
 11
2510.5122404165518
 21
4147.4843491009651
 31
0.0
  0
CIRCLE
  5
178
  8
1
 10
2136.478409697474
 20
4147.4843491009651
 30
0.0
 40
283.19999999999987
  0
CIRCLE
  5
179
  8
1
 10
2136.478409697474
 20
4147.4843491009651
 30
0.0
 40
310.0
  0
CIRCLE
  5
17A
  8
1
 10
2136.478409697474
 20
4147.4843491009651
 30
0.0
 40
280.0
  0
LINE
  5
17B
  8
2
 10
1816.478409697474
 20
4100.7713208293244
 30
0.0
 11
1816.478409697474
 21
5067.5950456829032
 31
0.0
  0
POINT
  5
17C
  8
1
 10
1853.278409697474
 20
4147.4843491009633
 30
0.0
  0
LINE
  5
17D
  8
1
 10
2064.5129955604712
 20
4629.2529441422857
 30
0.0
 11
2079.5057901723462
 21
4145.7178201753441
 31
0.0
  0
LINE
  5
17E
  8
1
 10
2208.4438238344769
 20
4629.2529441422857
 30
0.0
 11
2193.4510292226018
 21
4145.7178201753441
 31
0.0
  0
LINE
  5
17F
  8
2
 10
2136.478409697474
 20
3699.924037000384
 30
0.0
 11
2136.478409697474
 21
4881.2314675911894
 31
0.0
  0
CIRCLE
  5
180
  8
1
 10
2136.478409697474
 20
4147.4843491009651
 30
0.0
 40
57.0
  0
LINE
  5
181
  8
2
 10
2278.4348096974741
 20
4631.4843491009651
 30
0.0
 11
1986.933409697474
 21
4631.4843491009651
 31
0.0
  0
ARC
  5
182
  8
1
 10
2136.478409697474
 20
4631.4843491009651
 30
0.0
 40
142.5
 50
295.18740000000003
 51
180.0
  0
LINE
  5
183
  8
1
 10
2018.9784096974749
 20
4769.4661321789717
 30
0.0
 11
2253.978409697474
 21
4769.4661321789717
 31
0.0
  0
LINE
  5
184
  8
1
 10
2075.9371096974742
 20
4502.4843491009651
 30
0.0
 11
2197.0197096974739
 21
4502.4843491009651
 31
0.0
  0
CIRCLE
  5
185
  8
1
 10
2136.478409697474
 20
4631.4843491009651
 30
0.0
 40
72.0
  0
LINE
  5
186
  8
1
 10
1971.478409697474
 20
4493.4843491009651
 30
0.0
 11
2301.478409697474
 21
4493.4843491009651
 31
0.0
  0
LINE
  5
187
  8
1
 10
1971.478409697474
 20
4464.4843491009651
 30
0.0
 11
2301.478409697474
 21
4464.4843491009651
 31
0.0
  0
LINE
  5
188
  8
1
 10
1971.478409697474
 20
4499.4843491009651
 30
0.0
 11
2301.478409697474
 21
4499.4843491009651
 31
0.0
  0
LINE
  5
189
  8
1
 10
2018.9784096974749
 20
4769.4661321789717
 30
0.0
 11
2018.978409697474
 21
4405.4661321789708
 31
0.0
  0
LINE
  5
18A
  8
1
 10
1990.478409697474
 20
4726.4843491009651
 30
0.0
 11
2030.157809697474
 21
4726.4843491009651
 31
0.0
  0
LINE
  5
18B
  8
1
 10
2010.5731096974739
 20
4676.4843491009651
 30
0.0
 11
1979.545709697474
 21
4676.4843491009651
 31
0.0
  0
ARC
  5
18C
  8
1
 10
2008.478409697474
 20
4512.4843491009642
 30
0.0
 40
2.0
 50
90.0
 51
180.0
  0
LINE
  5
18D
  8
1
 10
2016.9528096974741
 20
4553.5756491009652
 30
0.0
 11
2006.478409697474
 21
4514.4843491009651
 31
0.0
  0
ARC
  5
18E
  8
1
 10
2136.478409697474
 20
4631.4843491009651
 30
0.0
 40
142.5
 50
180.0
 51
244.78700000000001
  0
LINE
  5
18F
  8
1
 10
2006.478409697474
 20
4499.4843491009651
 30
0.0
 11
2056.478409697474
 21
4499.4843491009651
 31
0.0
  0
LINE
  5
190
  8
1
 10
2006.478409697474
 20
4514.2869491009642
 30
0.0
 11
2006.478409697474
 21
4499.4843491009651
 31
0.0
  0
LINE
  5
191
  8
1
 10
1931.4784096974749
 20
4389.4843491009651
 30
0.0
 11
1931.4784096974749
 21
4539.4843491009651
 31
0.0
  0
LINE
  5
192
  8
1
 10
1971.4784096974749
 20
4409.924818541178
 30
0.0
 11
1971.4784096974749
 21
4539.4843491009651
 31
0.0
  0
LINE
  5
193
  8
1
 10
1966.978409697474
 20
4409.924818541178
 30
0.0
 11
1966.978409697474
 21
4539.4843491009651
 31
0.0
  0
ARC
  5
194
  8
1
 10
1948.978409697474
 20
4509.4843491009651
 30
0.0
 40
6.0
 50
0.0
 51
180.0
  0
ARC
  5
195
  8
1
 10
1948.978409697474
 20
4449.4843491009651
 30
0.0
 40
6.0
 50
180.0
 51
0.0
  0
LINE
  5
196
  8
1
 10
1926.718920524198
 20
4375.7406889948797
 30
0.0
 11
1926.718920524198
 21
4384.4843491009651
 31
0.0
  0
LINE
  5
197
  8
1
 10
1922.2189205241989
 20
4371.5220050858597
 30
0.0
 11
1922.2189205241989
 21
4384.4843491009651
 31
0.0
  0
ARC
  5
198
  8
1
 10
1927.218920524198
 20
4384.4843491009651
 30
0.0
 40
0.5
 50
90.0
 51
180.00000000000051
  0
ARC
  5
199
  8
1
 10
1927.2189205241989
 20
4384.4843491009651
 30
0.0
 40
5.0
 50
90.0
 51
180.0
  0
LINE
  5
19A
  8
1
 10
1942.7363130844769
 20
4389.4843491009651
 30
0.0
 11
1927.2189205241989
 21
4389.4843491009651
 31
0.0
  0
LINE
  5
19B
  8
1
 10
1937.245505788507
 20
4384.9843491009651
 30
0.0
 11
1927.218920524198
 21
4384.9843491009651
 31
0.0
  0
LINE
  5
19C
  8
1
 10
1942.9784096974749
 20
4509.4843491009651
 30
0.0
 11
1942.9784096974749
 21
4449.4843491009651
 31
0.0
  0
LINE
  5
19D
  8
1
 10
1954.9784096974749
 20
4509.4843491009651
 30
0.0
 11
1954.9784096974749
 21
4449.4843491009651
 31
0.0
  0
LINE
  5
19E
  8
1
 10
1979.6401096974739
 20
4736.3813491009641
 30
0.0
 11
1944.0186096974739
 21
4732.0203491009652
 31
0.0
  0
LINE
  5
19F
  8
1
 10
1934.1403096974741
 20
4611.4843491009642
 30
0.0
 11
1980.478409697474
 21
4611.4843491009642
 31
0.0
  0
LINE
  5
1A0
  8
1
 10
1986.372709697474
 20
4742.0653491009652
 30
0.0
 11
1929.921309697474
 21
4600.9373491009646
 31
0.0
  0
LINE
  5
1A1
  8
1
 10
1982.101709697474
 20
4742.1583491009642
 30
0.0
 11
1926.7645096974741
 21
4603.8153491009652
 31
0.0
  0
LINE
  5
1A2
  8
1
 10
1971.4784096974749
 20
4539.4843491009651
 30
0.0
 11
1931.4784096974749
 21
4539.4843491009651
 31
0.0
  0
LINE
  5
1A3
  8
1
 10
1930.859709697474
 20
4717.8653491009636
 30
0.0
 11
1925.5832096974741
 21
4610.2363491009646
 31
0.0
  0
ARC
  5
1A4
  8
1
 10
1928.5796096974741
 20
4610.0893491009647
 30
0.0
 40
3.0
 50
177.19419999999991
 51
248.19789999999989
  0
LINE
  5
1A5
  8
1
 10
1927.988609697474
 20
4607.0953491009641
 30
0.0
 11
1927.4654096974739
 21
4607.3043491009648
 31
0.0
  0
LINE
  5
1A6
  8
1
 10
1929.921309697474
 20
4600.9373491009646
 30
0.0
 11
1927.600109697474
 21
4601.8653491009636
 31
0.0
  0
ARC
  5
1A7
  8
1
 10
1928.1572096974739
 20
4603.2583491009636
 30
0.0
 40
1.5
 50
158.19690000000011
 51
248.1989999999999
  0
ARC
  5
1A8
  8
1
 10
1945.841709697474
 20
4717.1313491009641
 30
0.0
 40
15.0
 50
96.981099999999984
 51
177.19329999999991
  0
LINE
  5
1A9
  8
1
 10
1991.478409697474
 20
4626.4843491009651
 30
0.0
 11
1991.478409697474
 21
4726.4843491009651
 31
0.0
  0
LINE
  5
1AA
  8
1
 10
1990.478409697474
 20
4625.8283491009643
 30
0.0
 11
1990.478409697474
 21
4726.4323491009654
 31
0.0
  0
LINE
  5
1AB
  8
1
 10
1990.478409697474
 20
4621.4843491009651
 30
0.0
 11
1990.478409697474
 21
4730.4843491009642
 31
0.0
  0
LINE
  5
1AC
  8
1
 10
1955.478409697474
 20
4613.9793491009641
 30
0.0
 11
1955.478409697474
 21
4607.4803491009643
 31
0.0
  0
LINE
  5
1AD
  8
1
 10
1994.0662096974741
 20
4626.4843491009651
 30
0.0
 11
1990.478409697474
 21
4626.4843491009651
 31
0.0
  0
ARC
  5
1AE
  8
1
 10
1980.478409697474
 20
4621.4843491009651
 30
0.0
 40
10.0
 50
270.0
 51
0.0
  0
LINE
  5
1AF
  8
1
 10
1984.076309697474
 20
4736.4843491009642
 30
0.0
 11
1984.478409697474
 21
4736.4843491009642
 31
0.0
  0
ARC
  5
1B0
  8
1
 10
1983.4945096974741
 20
4741.6013491009662
 30
0.0
 40
1.5000999999999991
 50
68.198999999999998
 51
158.19770000000011
  0
LINE
  5
1B1
  8
1
 10
1991.478409697474
 20
4726.4843491009651
 30
0.0
 11
1990.478409697474
 21
4726.4843491009651
 31
0.0
  0
ARC
  5
1B2
  8
1
 10
1984.478409697474
 20
4730.4843491009642
 30
0.0
 40
6.0
 50
0.0
 51
90.0
  0
LINE
  5
1B3
  8
1
 10
1986.372709697474
 20
4742.0653491009652
 30
0.0
 11
1984.0515096974741
 21
4742.9933491009651
 31
0.0
  0
ARC
  5
1B4
  8
1
 10
2061.4783096974738
 20
4507.4133491009652
 30
0.0
 40
4.9999000000000002
 50
134.99950000000001
 51
180.0
  0
LINE
  5
1B5
  8
2
 10
2028.478409697474
 20
4517.5227491009637
 30
0.0
 11
2028.478409697474
 21
4496.5393491009663
 31
0.0
  0
LINE
  5
1B6
  8
1
 10
2056.478409697474
 20
4499.4843491009651
 30
0.0
 11
2056.478409697474
 21
4507.4133491009652
 31
0.0
  0
LINE
  5
1B7
  8
1
 10
2043.2652096974739
 20
4514.4843491009651
 30
0.0
 11
2008.478409697474
 21
4514.4843491009651
 31
0.0
  0
LINE
  5
1B8
  8
1
 10
2058.7163096974741
 20
4511.7223491009636
 30
0.0
 11
2057.9429096974741
 21
4510.9488491009652
 31
0.0
  0
ARC
  5
1B9
  8
1
 10
2043.2652096974739
 20
4517.4843491009651
 30
0.0
 40
3.0
 50
270.0
 51
315.0
  0
LINE
  5
1BA
  8
1
 10
2048.7651096974751
 20
4518.7416491009644
 30
0.0
 11
2045.3865096974739
 21
4515.3630491009644
 31
0.0
  0
LINE
  5
1BB
  8
1
 10
2052.5855096974742
 20
4746.8373491009643
 30
0.0
 11
2008.9383096974741
 21
4726.4843491009651
 31
0.0
  0
LINE
  5
1BC
  8
1
 10
2253.978409697474
 20
4769.4661321789717
 30
0.0
 11
2253.978409697474
 21
4405.4661321789708
 31
0.0
  0
LINE
  5
1BD
  8
1
 10
2266.478409697474
 20
4499.4843491009651
 30
0.0
 11
2216.478409697474
 21
4499.4843491009651
 31
0.0
  0
LINE
  5
1BE
  8
1
 10
2229.6916096974751
 20
4514.4843491009651
 30
0.0
 11
2264.478409697474
 21
4514.4843491009651
 31
0.0
  0
ARC
  5
1BF
  8
1
 10
2211.4785096974738
 20
4507.4133491009652
 30
0.0
 40
4.9999000000000002
 50
0.0
 51
45.000500000000002
  0
LINE
  5
1C0
  8
2
 10
2244.478409697474
 20
4517.5227491009637
 30
0.0
 11
2244.478409697474
 21
4496.5393491009663
 31
0.0
  0
LINE
  5
1C1
  8
1
 10
2216.478409697474
 20
4499.4843491009651
 30
0.0
 11
2216.478409697474
 21
4507.4133491009652
 31
0.0
  0
LINE
  5
1C2
  8
1
 10
2215.3582096974742
 20
4510.6045491009636
 30
0.0
 11
2213.9873096974738
 21
4511.9754491009644
 31
0.0
  0
ARC
  5
1C3
  8
1
 10
2229.6916096974751
 20
4517.4843491009651
 30
0.0
 40
3.0
 50
225.0
 51
270.0
  0
LINE
  5
1C4
  8
1
 10
2223.9414096974738
 20
4518.9918491009648
 30
0.0
 11
2227.5703096974739
 21
4515.3630491009644
 31
0.0
  0
LINE
  5
1C5
  8
1
 10
2266.478409697474
 20
4514.2869491009642
 30
0.0
 11
2266.478409697474
 21
4499.4843491009651
 31
0.0
  0
ARC
  5
1C6
  8
1
 10
2323.978409697474
 20
4509.4843491009651
 30
0.0
 40
6.0
 50
0.0
 51
180.0
  0
LINE
  5
1C7
  8
1
 10
2305.978409697474
 20
4409.924818541178
 30
0.0
 11
2305.978409697474
 21
4539.4843491009651
 31
0.0
  0
LINE
  5
1C8
  8
1
 10
2301.478409697474
 20
4409.924818541178
 30
0.0
 11
2301.478409697474
 21
4539.4843491009651
 31
0.0
  0
LINE
  5
1C9
  8
1
 10
2341.478409697474
 20
4389.4843491009651
 30
0.0
 11
2341.478409697474
 21
4539.4843491009651
 31
0.0
  0
LINE
  5
1CA
  8
1
 10
2350.7378988707501
 20
4371.5220050858597
 30
0.0
 11
2350.7378988707501
 21
4384.4843491009651
 31
0.0
  0
LINE
  5
1CB
  8
1
 10
2346.237898870751
 20
4375.7406889948797
 30
0.0
 11
2346.237898870751
 21
4384.4843491009651
 31
0.0
  0
LINE
  5
1CC
  8
1
 10
2335.7113136064422
 20
4384.9843491009651
 30
0.0
 11
2345.737898870751
 21
4384.9843491009651
 31
0.0
  0
LINE
  5
1CD
  8
1
 10
2330.220506310472
 20
4389.4843491009651
 30
0.0
 11
2345.7378988707501
 21
4389.4843491009651
 31
0.0
  0
LINE
  5
1CE
  8
1
 10
2329.978409697474
 20
4509.4843491009651
 30
0.0
 11
2329.978409697474
 21
4449.4843491009651
 31
0.0
  0
LINE
  5
1CF
  8
1
 10
2317.978409697474
 20
4509.4843491009651
 30
0.0
 11
2317.978409697474
 21
4449.4843491009651
 31
0.0
  0
ARC
  5
1D0
  8
1
 10
2323.978409697474
 20
4449.4843491009651
 30
0.0
 40
6.0
 50
180.0
 51
0.0
  0
ARC
  5
1D1
  8
1
 10
2345.7378988707501
 20
4384.4843491009651
 30
0.0
 40
5.0
 50
0.0
 51
90.0
  0
ARC
  5
1D2
  8
1
 10
2345.737898870751
 20
4384.4843491009651
 30
0.0
 40
0.5
 50
359.99999999999937
 51
90.0
  0
LINE
  5
1D3
  8
1
 10
2301.478409697474
 20
4539.4843491009651
 30
0.0
 11
2341.478409697474
 21
4539.4843491009651
 31
0.0
  0
ARC
  5
1D4
  8
1
 10
2264.478409697474
 20
4512.4843491009642
 30
0.0
 40
2.0
 50
0.0
 51
90.0
  0
LINE
  5
1D5
  8
1
 10
2255.9612096974738
 20
4553.7349491009636
 30
0.0
 11
2266.478409697474
 21
4514.4843491009651
 31
0.0
  0
LINE
  5
1D6
  8
1
 10
2130.9609096974741
 20
4774.0573491009654
 30
0.0
 11
2141.850909697474
 21
4774.0573491009654
 31
0.0
  0
ARC
  5
1D7
  8
1
 10
2136.478409697474
 20
4814.9843491009651
 30
0.0
 40
4.5
 50
0.0
 51
180.0
  0
LINE
  5
1D8
  8
1
 10
2131.4609096974741
 20
4778.4373491009637
 30
0.0
 11
2141.350909697474
 21
4778.4373491009637
 31
0.0
  0
LINE
  5
1D9
  8
1
 10
2131.978409697474
 20
4780.7943491009637
 30
0.0
 11
2131.978409697474
 21
4814.9843491009651
 31
0.0
  0
LINE
  5
1DA
  8
1
 10
2136.4059096974738
 20
4773.1133491009641
 30
0.0
 11
2136.4059096974738
 21
4778.9703491009641
 31
0.0
  0
ARC
  5
1DB
  8
1
 10
2126.6671096974742
 20
4782.1693491009637
 30
0.0
 40
5.5106000000000002
 50
313.98250000000002
 51
345.33210000000003
  0
LINE
  5
1DC
  8
1
 10
2130.478409697474
 20
4773.8813491009641
 30
0.0
 11
2130.478409697474
 21
4778.2173491009653
 31
0.0
  0
LINE
  5
1DD
  8
1
 10
2130.9609096974741
 20
4777.9373491009646
 30
0.0
 11
2130.9609096974741
 21
4774.0573491009654
 31
0.0
  0
LINE
  5
1DE
  8
1
 10
2131.4609096974741
 20
4778.4373491009637
 30
0.0
 11
2130.9609096974741
 21
4777.9373491009646
 31
0.0
  0
LINE
  5
1DF
  8
1
 10
2133.2341096974742
 20
4777.9373491009646
 30
0.0
 11
2132.7341096974742
 21
4778.4373491009637
 31
0.0
  0
LINE
  5
1E0
  8
1
 10
2133.2341096974742
 20
4777.9373491009646
 30
0.0
 11
2133.7341096974742
 21
4778.4373491009637
 31
0.0
  0
LINE
  5
1E1
  8
1
 10
2133.2341096974742
 20
4774.0573491009654
 30
0.0
 11
2133.2341096974742
 21
4777.9373491009646
 31
0.0
  0
LINE
  5
1E2
  8
1
 10
2140.978409697474
 20
4780.7113491009641
 30
0.0
 11
2140.978409697474
 21
4814.9843491009651
 31
0.0
  0
LINE
  5
1E3
  8
1
 10
2139.5777096974739
 20
4777.9373491009646
 30
0.0
 11
2140.0777096974739
 21
4778.4373491009637
 31
0.0
  0
LINE
  5
1E4
  8
1
 10
2139.5777096974739
 20
4777.9373491009646
 30
0.0
 11
2139.0777096974739
 21
4778.4373491009637
 31
0.0
  0
LINE
  5
1E5
  8
1
 10
2139.5777096974739
 20
4774.0573491009654
 30
0.0
 11
2139.5777096974739
 21
4777.9373491009646
 31
0.0
  0
LINE
  5
1E6
  8
1
 10
2142.478409697474
 20
4773.818349100964
 30
0.0
 11
2142.478409697474
 21
4778.2043491009636
 31
0.0
  0
ARC
  5
1E7
  8
1
 10
2146.2897096974739
 20
4782.1693491009637
 30
0.0
 40
5.5106000000000002
 50
194.6679
 51
226.01750000000001
  0
LINE
  5
1E8
  8
1
 10
2141.850909697474
 20
4777.9373491009646
 30
0.0
 11
2141.850909697474
 21
4774.0573491009654
 31
0.0
  0
LINE
  5
1E9
  8
1
 10
2141.850909697474
 20
4777.9373491009646
 30
0.0
 11
2141.350909697474
 21
4778.4373491009637
 31
0.0
  0
TEXT
  5
1EA
  8
4
 10
2019.9423286866199
 20
6120.1234154086542
 30
0.0
 40
84.000000000000014
  1
No.
  0
LINE
  5
1EB
  8
4
 10
1977.414123352482
 20
6082.9271678537916
 30
0.0
 11
1977.414123352482
 21
6241.0101854903196
 31
0.0
  0
LINE
  5
1EC
  8
4
 10
2591.4879898126851
 20
6065.1449245628983
 30
0.0
 11
2591.4879898126851
 21
5765.1449245628983
 31
0.0
  0
LINE
  5
1ED
  8
4
 10
2591.4879898126851
 20
6241.0101854903196
 30
0.0
 11
2591.4879898126851
 21
6082.9271678537916
 31
0.0
  0
LINE
  5
1EE
  8
4
 10
2966.4879898126851
 20
6486.0317931656909
 30
0.0
 11
2966.4879898126851
 21
6486.0317931656909
 31
0.0
  0
LINE
  5
64E
  8
1
 10
1792.978409697474
 20
4122.4843491009651
 30
0.0
 11
1792.978409697474
 21
4172.4843491009642
 31
0.0
  0
LINE
  5
64F
  8
1
 10
1852.978409697474
 20
4122.4843491009651
 30
0.0
 11
1852.978409697474
 21
4172.4843491009642
 31
0.0
  0
LINE
  5
650
  8
1
 10
1792.978409697474
 20
4172.4843491009642
 30
0.0
 11
1852.978409697474
 21
4172.4843491009642
 31
0.0
  0
LINE
  5
651
  8
1
 10
1792.978409697474
 20
4122.4843491009651
 30
0.0
 11
1852.978409697474
 21
4122.4843491009651
 31
0.0
  0
LINE
  5
652
  8
1
 10
1792.978409697474
 20
4131.4843491009651
 30
0.0
 11
1852.978409697474
 21
4131.4843491009651
 31
0.0
  0
LINE
  5
65A
  8
2
 10
2456.478409697474
 20
4100.7713208293244
 30
0.0
 11
2456.478409697474
 21
5067.5950456829032
 31
0.0
  0
LINE
  5
65C
  8
2
 10
941.73168652291395
 20
4075.01048370432
 30
0.0
 11
941.73168652291372
 21
4902.1189989461845
 31
0.0
  0
LINE
  5
682
  8
1
 10
2479.9784096974749
 20
4131.4843491009651
 30
0.0
 11
2419.978409697474
 21
4131.4843491009651
 31
0.0
  0
LINE
  5
683
  8
1
 10
2479.9784096974749
 20
4122.4843491009651
 30
0.0
 11
2419.978409697474
 21
4122.4843491009651
 31
0.0
  0
LINE
  5
684
  8
1
 10
2479.9784096974749
 20
4172.4843491009642
 30
0.0
 11
2419.978409697474
 21
4172.4843491009642
 31
0.0
  0
LINE
  5
685
  8
1
 10
2479.9784096974749
 20
4122.4843491009651
 30
0.0
 11
2479.9784096974749
 21
4172.4843491009642
 31
0.0
  0
LINE
  5
686
  8
1
 10
2419.978409697474
 20
4122.4843491009651
 30
0.0
 11
2419.978409697474
 21
4172.4843491009642
 31
0.0
  0
POINT
  5
687
  8
1
 10
2419.6784096974739
 20
4147.4843491009633
 30
0.0
  0
LINE
  5
698
  8
1
 10
911.53168652291379
 20
4122.4843491009651
 30
0.0
 11
961.53168652291379
 21
4122.4843491009651
 31
0.0
  0
LINE
  5
699
  8
1
 10
911.53168652291379
 20
4122.4843491009651
 30
0.0
 11
911.53168652291379
 21
4172.4843491009642
 31
0.0
  0
LINE
  5
69A
  8
1
 10
961.53168652291379
 20
4122.4843491009651
 30
0.0
 11
961.53168652291379
 21
4123.9843491009651
 31
0.0
  0
LINE
  5
69B
  8
1
 10
911.53168652291379
 20
4172.4843491009642
 30
0.0
 11
913.03168652291379
 21
4172.4843491009642
 31
0.0
  0
LINE
  5
69C
  8
1
 10
924.03168652291379
 20
4128.4843491009651
 30
0.0
 11
957.03168652291379
 21
4128.4843491009651
 31
0.0
  0
LINE
  5
69D
  8
1
 10
917.53168652291379
 20
4134.9843491009651
 30
0.0
 11
917.53168652291379
 21
4167.9843491009642
 31
0.0
  0
ARC
  5
69E
  8
1
 10
957.03168652291379
 20
4123.9843491009651
 30
0.0
 40
4.5
 50
0.0
 51
90.0
  0
ARC
  5
69F
  8
1
 10
913.03168652291379
 20
4167.9843491009642
 30
0.0
 40
4.5
 50
0.0
 51
90.0
  0
ARC
  5
6A0
  8
1
 10
924.03168652291379
 20
4134.9843491009651
 30
0.0
 40
6.5
 50
180.0
 51
270.0
  0
ARC
  5
6A2
  8
1
 10
302.43168652291382
 20
4123.9843491009651
 30
0.0
 40
4.5
 50
90.0
 51
180.0
  0
LINE
  5
6A3
  8
1
 10
347.93168652291382
 20
4122.4843491009651
 30
0.0
 11
297.93168652291382
 21
4122.4843491009651
 31
0.0
  0
ARC
  5
6A4
  8
1
 10
335.43168652291382
 20
4134.9843491009651
 30
0.0
 40
6.5
 50
270.0
 51
0.000000000000007
  0
LINE
  5
6A5
  8
1
 10
347.93168652291382
 20
4122.4843491009651
 30
0.0
 11
347.93168652291382
 21
4172.4843491009642
 31
0.0
  0
LINE
  5
6A6
  8
1
 10
335.43168652291382
 20
4128.4843491009651
 30
0.0
 11
302.43168652291382
 21
4128.4843491009651
 31
0.0
  0
ARC
  5
6A7
  8
1
 10
346.43168652291382
 20
4167.9843491009642
 30
0.0
 40
4.5
 50
90.0
 51
180.0
  0
LINE
  5
6A8
  8
1
 10
341.93168652291382
 20
4134.9843491009651
 30
0.0
 11
341.93168652291382
 21
4167.9843491009642
 31
0.0
  0
LINE
  5
6A9
  8
1
 10
347.93168652291382
 20
4172.4843491009642
 30
0.0
 11
346.43168652291382
 21
4172.4843491009642
 31
0.0
  0
LINE
  5
6AA
  8
1
 10
297.93168652291382
 20
4122.4843491009651
 30
0.0
 11
297.93168652291382
 21
4123.9843491009651
 31
0.0
  0
LINE
  5
6AB
  8
2
 10
317.73168652291372
 20
4075.01048370432
 30
0.0
 11
317.73168652291378
 21
4902.1189989461845
 31
0.0
  0
DIMENSION
  5
6AC
  8
3
  2
*D4
 10
2456.478409697474
 20
5135.7673696861038
 30
0.0
 11
2136.478409697474
 21
5165.7673696861038
 31
0.0
 70
     0
 13
1816.478409697474
 23
5067.5950456829032
 33
0.0
 14
2456.478409697474
 24
5067.5950456829032
 34
0.0
1001
ACAD
1000
DSTYLE
1002
{
1070
   287
1070
     5
1070
   287
1070
     5
1070
   287
1070
     5
1070
    40
1040
15.0
1070
   279
1070
     2
1070
   289
1070
     3
1002
}
  0
DIMENSION
  5
6B9
  8
3
  2
*D5
 10
941.73168652291372
 20
5067.8932755026763
 30
0.0
 11
629.73168652291383
 21
5097.8932755026763
 31
0.0
 70
     0
 13
317.73168652291378
 23
4902.1189989461845
 33
0.0
 14
941.73168652291372
 24
4902.1189989461845
 34
0.0
1001
ACAD
1000
DSTYLE
1002
{
1070
   287
1070
     5
1070
   287
1070
     5
1070
   287
1070
     5
1070
    40
1040
15.0
1070
   279
1070
     2
1070
   289
1070
     3
1002
}
  0
DIMENSION
  5
6C6
  8
3
  2
*D6
 10
964.73168652291406
 20
5205.2564735496462
 30
0.0
 11
629.73168652291406
 21
5235.2564735496462
 31
0.0
 70
     0
 13
294.731686522914
 23
4457.4843491009651
 33
0.0
 14
964.73168652291406
 24
4457.4843491009651
 34
0.0
1001
ACAD
1000
DSTYLE
1002
{
1070
   287
1070
     5
1070
   287
1070
     5
1070
   287
1070
     5
1070
    40
1040
15.0
1070
   279
1070
     2
1070
   289
1070
     3
1002
}
  0
DIMENSION
  5
6E5
  8
3
  2
*D7
 10
964.73168652291406
 20
5067.8932755026763
 30
0.0
 11
1033.6785196536759
 21
5101.5304132741803
 31
0.0
 70
   128
 13
941.73168652291372
 23
4902.1189989461845
 33
0.0
 14
964.73168652291406
 24
4457.4843491009651
 34
0.0
1001
ACAD
1000
DSTYLE
1002
{
1070
   287
1070
     5
1070
   287
1070
     5
1070
   287
1070
     5
1070
    40
1040
15.0
1070
   279
1070
     2
1070
   289
1070
     3
1002
}
  0
DIMENSION
  5
6F4
  8
3
  2
*D8
 10
294.731686522914
 20
5067.8932755026763
 30
0.0
 11
210.19949650839399
 21
5102.832098237961
 31
0.0
 70
   128
 13
317.73168652291378
 23
4902.1189989461845
 33
0.0
 14
294.731686522914
 24
4457.4843491009651
 34
0.0
1001
ACAD
1000
DSTYLE
1002
{
1070
   287
1070
     5
1070
   287
1070
     5
1070
   287
1070
     5
1070
    40
1040
15.0
1070
   279
1070
     2
1070
   289
1070
     3
1002
}
  0
ENDSEC
  0
EOF
