  0
SECTION
  2
HEADER
  9
$ACADVER
  1
AC1009
  9
$INSBASE
 10
0.0
 20
0.0
 30
0.0
  9
$EXTMIN
 10
0.0
 20
0.0
 30
-0.00000001
  9
$EXTMAX
 10
3150.0
 20
4425.0
 30
0.00000001
  9
$LIMMIN
 10
0.0
 20
0.0
  9
$LIMMAX
 10
297.0
 20
210.0
  9
$ORTHOMODE
 70
     0
  9
$REGENMODE
 70
     1
  9
$FILLMODE
 70
     0
  9
$QTEXTMODE
 70
     0
  9
$MIRRTEXT
 70
     1
  9
$DRAGMODE
 70
     2
  9
$LTSCALE
 40
100.0
  9
$OSMODE
 70
    37
  9
$ATTMODE
 70
     1
  9
$TEXTSIZE
 40
180.0
  9
$TRACEWID
 40
0.05
  9
$TEXTSTYLE
  7
STANDARD
  9
$CLAYER
  8
1
  9
$CELTYPE
  6
BYLAYER
  9
$CECOLOR
 62
   256
  9
$DIMSCALE
 40
15.0
  9
$DIMASZ
 40
2.0
  9
$DIMEXO
 40
0.5
  9
$DIMDLI
 40
10.0
  9
$DIMRND
 40
0.0
  9
$DIMDLE
 40
0.0
  9
$DIMEXE
 40
1.0
  9
$DIMTP
 40
1.0
  9
$DIMTM
 40
1.0
  9
$DIMTXT
 40
3.0
  9
$DIMCEN
 40
0.0
  9
$DIMTSZ
 40
0.0
  9
$DIMTOL
 70
     0
  9
$DIMLIM
 70
     0
  9
$DIMTIH
 70
     0
  9
$DIMTOH
 70
     0
  9
$DIMSE1
 70
     0
  9
$DIMSE2
 70
     0
  9
$DIMTAD
 70
     1
  9
$DIMZIN
 70
     8
  9
$DIMBLK
  1

  9
$DIMASO
 70
     1
  9
$DIMSHO
 70
     1
  9
$DIMPOST
  1

  9
$DIMAPOST
  1

  9
$DIMALT
 70
     0
  9
$DIMALTD
 70
     2
  9
$DIMALTF
 40
0.039
  9
$DIMLFAC
 40
1.0
  9
$DIMTOFL
 70
     1
  9
$DIMTVP
 40
0.0
  9
$DIMTIX
 70
     0
  9
$DIMSOXD
 70
     0
  9
$DIMSAH
 70
     1
  9
$DIMBLK1
  1
OPEN
  9
$DIMBLK2
  1
OPEN
  9
$DIMSTYLE
  2
IGA
  9
$DIMCLRD
 70
     0
  9
$DIMCLRE
 70
     0
  9
$DIMCLRT
 70
     0
  9
$DIMTFAC
 40
10.0
  9
$DIMGAP
 40
1.0
  9
$LUNITS
 70
     2
  9
$LUPREC
 70
     3
  9
$SKETCHINC
 40
0.1
  9
$FILLETRAD
 40
50.0
  9
$AUNITS
 70
     0
  9
$AUPREC
 70
     0
  9
$MENU
  1
acad
  9
$ELEVATION
 40
0.0
  9
$PELEVATION
 40
0.0
  9
$THICKNESS
 40
0.0
  9
$LIMCHECK
 70
     0
  9
$BLIPMODE
 70
     0
  9
$CHAMFERA
 40
0.5
  9
$CHAMFERB
 40
0.5
  9
$SKPOLY
 70
     0
  9
$TDCREATE
 40
2453179.6396695599
  9
$TDUPDATE
 40
2454953.6249028821
  9
$TDINDWG
 40
0.0188545255
  9
$TDUSRTIMER
 40
0.0188545255
  9
$USRTIMER
 70
     1
  9
$ANGBASE
 50
0.0
  9
$ANGDIR
 70
     0
  9
$PDMODE
 70
     0
  9
$PDSIZE
 40
0.0
  9
$PLINEWID
 40
0.0
  9
$COORDS
 70
     1
  9
$SPLFRAME
 70
     0
  9
$SPLINETYPE
 70
     6
  9
$SPLINESEGS
 70
     8
  9
$ATTDIA
 70
     0
  9
$ATTREQ
 70
     1
  9
$HANDLING
 70
 10241
  9
$HANDSEED
  5
808F
  9
$SURFTAB1
 70
     6
  9
$SURFTAB2
 70
     6
  9
$SURFTYPE
 70
     6
  9
$SURFU
 70
     6
  9
$SURFV
 70
     6
  9
$UCSNAME
  2

  9
$UCSORG
 10
0.0
 20
0.0
 30
0.0
  9
$UCSXDIR
 10
1.0
 20
0.0
 30
0.0
  9
$UCSYDIR
 10
0.0
 20
1.0
 30
0.0
  9
$PUCSNAME
  2

  9
$PUCSORG
 10
0.0
 20
0.0
 30
0.0
  9
$PUCSXDIR
 10
1.0
 20
0.0
 30
0.0
  9
$PUCSYDIR
 10
0.0
 20
1.0
 30
0.0
  9
$USERI1
 70
     0
  9
$USERI2
 70
     0
  9
$USERI3
 70
     0
  9
$USERI4
 70
     0
  9
$USERI5
 70
     0
  9
$USERR1
 40
0.0
  9
$USERR2
 40
0.0
  9
$USERR3
 40
0.0
  9
$USERR4
 40
0.0
  9
$USERR5
 40
0.0
  9
$WORLDVIEW
 70
     1
  9
$SHADEDGE
 70
     3
  9
$SHADEDIF
 70
    70
  9
$TILEMODE
 70
     1
  9
$MAXACTVP
 70
    16
  9
$PLIMCHECK
 70
     0
  9
$PEXTMIN
 10
1.0000000000000000E+020
 20
1.0000000000000000E+020
 30
1.0000000000000000E+020
  9
$PEXTMAX
 10
-1.0000000000000000E+020
 20
-1.0000000000000000E+020
 30
-1.0000000000000000E+020
  9
$PLIMMIN
 10
0.0
 20
0.0
  9
$PLIMMAX
 10
12.0
 20
9.0
  9
$UNITMODE
 70
     0
  9
$VISRETAIN
 70
     0
  9
$PLINEGEN
 70
     0
  9
$PSLTSCALE
 70
     1
  0
ENDSEC
  0
SECTION
  2
TABLES
  0
TABLE
  2
VPORT
 70
     2
  0
VPORT
  2
*ACTIVE
 70
     0
 10
0.0
 20
0.0
 11
1.0
 21
1.0
 12
3008.5152112380301
 22
518.04913882652181
 13
0.0
 23
0.0
 14
10.0
 24
10.0
 15
10.0
 25
10.0
 16
0.0
 26
0.0
 36
1.0
 17
0.0
 27
0.0
 37
0.0
 40
1351.539076757613
 41
3.1666666666666661
 42
50.0
 43
0.0
 44
0.0
 50
0.0
 51
0.0
 71
     0
 72
   100
 73
     1
 74
     0
 75
     0
 76
     0
 77
     0
 78
     0
  0
ENDTAB
  0
TABLE
  2
LTYPE
 70
     2
  0
LTYPE
  2
CONTINUOUS
 70
     0
  3
Solid line
 72
    65
 73
     0
 40
0.0
  0
LTYPE
  2
CENTER
 70
     0
  3
____ _ ____ _ ____ _ ____ _ ____ _ ____ _ ____ 
 72
    65
 73
     4
 40
2.0
 49
1.25
 49
-0.25
 49
0.25
 49
-0.25
  0
ENDTAB
  0
TABLE
  2
LAYER
 70
     6
  0
LAYER
  2
0
 70
     0
 62
     7
  6
CONTINUOUS
  0
LAYER
  2
3
 70
     0
 62
     2
  6
CONTINUOUS
  0
LAYER
  2
2
 70
     0
 62
     3
  6
CENTER
  0
LAYER
  2
1
 70
     0
 62
     4
  6
CONTINUOUS
  0
LAYER
  2
4
 70
     0
 62
     7
  6
CONTINUOUS
  0
LAYER
  2
DEFPOINTS
 70
     0
 62
     7
  6
CONTINUOUS
  0
ENDTAB
  0
TABLE
  2
STYLE
 70
     1
  0
STYLE
  2
STANDARD
 70
     0
 40
0.0
 41
1.0
 50
0.0
 71
     0
 42
180.0
  3
simplex.shx
  4
extfont.shx
  0
ENDTAB
  0
TABLE
  2
VIEW
 70
     0
  0
ENDTAB
  0
TABLE
  2
UCS
 70
     0
  0
ENDTAB
  0
TABLE
  2
APPID
 70
     1
  0
APPID
  2
ACAD
 70
     0
  0
ENDTAB
  0
TABLE
  2
DIMSTYLE
 70
     1
  0
DIMSTYLE
  2
IGA
 70
     0
  3

  4

  5

  6
OPEN
  7
OPEN
 40
2.0
 41
2.0
 42
0.5
 43
10.0
 44
1.0
 45
0.0
 46
0.0
 47
1.0
 48
1.0
140
3.0
141
0.0
142
0.0
143
0.03937
144
1.0
145
0.0
146
10.0
147
1.0
 71
     0
 72
     0
 73
     0
 74
     0
 75
     0
 76
     0
 77
     1
 78
     8
170
     0
171
     2
172
     0
173
     1
174
     0
175
     0
176
     0
177
     0
178
     0
  0
ENDTAB
  0
ENDSEC
  0
SECTION
  2
BLOCKS
  0
BLOCK
  8
0
  2
$MODEL_SPACE
 70
     0
 10
0.0
 20
0.0
 30
0.0
  3
$MODEL_SPACE
  1

  0
ENDBLK
  5
1B
  8
0
  0
BLOCK
 67
     1
  8
0
  2
$PAPER_SPACE
 70
     0
 10
0.0
 20
0.0
 30
0.0
  3
$PAPER_SPACE
  1

  0
ENDBLK
  5
18
 67
     1
  8
0
  0
BLOCK
  8
0
  2
_OPEN
 70
     0
 10
0.0
 20
0.0
 30
0.0
  3
_OPEN
  1

  0
LINE
  5
79FD
  8
0
  6
BYBLOCK
 62
     0
 10
-1.0
 20
0.1666666666666666
 30
0.0
 11
0.0
 21
0.0
 31
0.0
  0
LINE
  5
79FE
  8
0
  6
BYBLOCK
 62
     0
 10
0.0
 20
0.0
 30
0.0
 11
-1.0
 21
-0.1666666666666666
 31
0.0
  0
LINE
  5
79FF
  8
0
  6
BYBLOCK
 62
     0
 10
0.0
 20
0.0
 30
0.0
 11
-1.0
 21
0.0
 31
0.0
  0
ENDBLK
  5
7A01
  8
0
  0
BLOCK
  8
0
  2
_DOT
 70
     0
 10
0.0
 20
0.0
 30
0.0
  3
_DOT
  1

  0
LINE
  5
7A17
  8
0
  6
BYBLOCK
 62
     0
 10
0.0
 20
0.0
 30
0.0
 11
-1.0
 21
-0.0000000000000284
 31
0.0
  0
POLYLINE
  5
7A18
  8
0
  6
BYBLOCK
 62
     0
 66
     1
 10
0.0
 20
0.0
 30
0.0
 70
     1
 40
0.1666666666666666
 41
0.1666666666666666
  0
VERTEX
  5
7CBC
  8
0
  6
BYBLOCK
 62
     0
 10
-0.0833333333333286
 20
-0.0000000000000284
 30
0.0
 42
1.0
  0
VERTEX
  5
7CBD
  8
0
  6
BYBLOCK
 62
     0
 10
0.0833333333333286
 20
-0.0000000000000284
 30
0.0
 42
1.0
  0
SEQEND
  5
7CBE
  8
0
  6
BYBLOCK
 62
     0
  0
ENDBLK
  5
7A1D
  8
0
  0
BLOCK
  8
0
  2
*D2
 70
     1
 10
0.0
 20
0.0
 30
0.0
  3
*D2
  1

  0
LINE
  5
7CBF
  8
3
 62
     0
 10
580.28914952247533
 20
1635.603770727824
 30
0.0
 11
580.28914952247533
 21
1397.2527274999261
 31
0.0
  0
LINE
  5
7CC0
  8
3
 62
     0
 10
1330.2891495224751
 20
1635.603770727824
 30
0.0
 11
1330.2891495224751
 21
1397.2527274999261
 31
0.0
  0
LINE
  5
7CC1
  8
3
 62
     0
 10
610.28914952247533
 20
1412.2527274999261
 30
0.0
 11
1300.2891495224751
 21
1412.2527274999261
 31
0.0
  0
INSERT
  5
7CC2
  8
3
 62
     0
  2
_OPEN
 10
580.28914952247533
 20
1412.2527274999261
 30
0.0
 41
30.0
 42
30.0
 43
30.0
 50
180.0
  0
INSERT
  5
7CC3
  8
3
 62
     0
  2
_OPEN
 10
1330.2891495224751
 20
1412.2527274999261
 30
0.0
 41
30.0
 42
30.0
 43
30.0
  0
TEXT
  8
3
  40
45
  5
7D00
  62
0
  72
0
  71
0
 10
859.378
 20
1370.10
 30
0.000000
  1
750
  0
POINT
  5
7CC5
  8
DEFPOINTS
 62
     0
 10
580.28914952247533
 20
1643.103770727824
 30
0.0
  0
POINT
  5
7CC6
  8
DEFPOINTS
 62
     0
 10
1330.2891495224751
 20
1643.103770727824
 30
0.0
  0
POINT
  5
7CC7
  8
DEFPOINTS
 62
     0
 10
1330.2891495224751
 20
1412.2527274999261
 30
0.0
  0
ENDBLK
  5
7C77
  8
0
  0
BLOCK
  8
0
  2
*D3
 70
     1
 10
0.0
 20
0.0
 30
0.0
  3
*D3
  1

  0
LINE
  5
7CC8
  8
3
 62
     0
 10
1910.818375183806
 20
2080.1037707278242
 30
0.0
 11
1712.0011279132079
 21
2080.1037707278242
 31
0.0
  0
LINE
  5
7CC9
  8
3
 62
     0
 10
2018.9917658175741
 20
1720.103770727824
 30
0.0
 11
1712.0011279132079
 21
1720.103770727824
 31
0.0
  0
LINE
  5
7CCA
  8
3
 62
     0
 10
1727.0011279132079
 20
2050.1037707278242
 30
0.0
 11
1727.0011279132079
 21
1750.103770727824
 31
0.0
  0
INSERT
  5
7CCB
  8
3
 62
     0
  2
_OPEN
 10
1727.0011279132079
 20
2080.1037707278242
 30
0.0
 41
30.0
 42
30.0
 43
30.0
 50
90.0
  0
INSERT
  5
7CCC
  8
3
 62
     0
  2
_OPEN
 10
1727.0011279132079
 20
1720.103770727824
 30
0.0
 41
30.0
 42
30.0
 43
30.0
 50
270.0
  0
TEXT
  8
3
  40
45
  5
7D01
  62
0
  72
0
  71
0
 10
1599.50
 20
1801.68
 30
0.000000
  1
360
  0
POINT
  5
7CCE
  8
DEFPOINTS
 62
     0
 10
1918.318375183806
 20
2080.1037707278242
 30
0.0
  0
POINT
  5
7CCF
  8
DEFPOINTS
 62
     0
 10
2026.4917658175741
 20
1720.103770727824
 30
0.0
  0
POINT
  5
7CD0
  8
DEFPOINTS
 62
     0
 10
1727.0011279132079
 20
1720.103770727824
 30
0.0
  0
ENDBLK
  5
7AD0
  8
0
  0
BLOCK
  8
0
  2
*D4
 70
     1
 10
0.0
 20
0.0
 30
0.0
  3
*D4
  1

  0
LINE
  5
7BEF
  8
0
  6
BYBLOCK
 62
     0
 10
1923.9917658180459
 20
1683.103770727824
 30
0.0
 11
1712.0011279132079
 21
1683.103770727824
 31
0.0
  0
LINE
  5
7BF0
  8
0
  6
BYBLOCK
 62
     0
 10
1727.0011279132079
 20
1750.103770727824
 30
0.0
 11
1727.0011279132079
 21
1780.103770727824
 31
0.0
  0
LINE
  5
7BF1
  8
0
  6
BYBLOCK
 62
     0
 10
1727.0011279132079
 20
1653.103770727824
 30
0.0
 11
1727.0011279132079
 21
1623.103770727824
 31
0.0
  0
TEXT
  5
7BF2
  8
1
 62
     0
 10
1670.2154136274939
 20
1636.2466278706811
 30
0.0
 40
45.0
  1
(37)
 50
90.0
  0
LINE
  5
7BF3
  8
0
  6
BYBLOCK
 62
     0
 10
1727.0011279132079
 20
1720.103770727824
 30
0.0
 11
1727.0011279132079
 21
1683.103770727824
 31
0.0
  0
INSERT
  5
7BF4
  8
0
  6
BYBLOCK
 62
     0
  2
_OPEN
 10
1727.0011279132079
 20
1720.103770727824
 30
0.0
 41
30.0
 42
30.0
 43
30.0
 50
270.0
  0
INSERT
  5
7BF5
  8
0
  6
BYBLOCK
 62
     0
  2
_DOT
 10
1727.0011279132079
 20
1683.103770727824
 30
0.0
 41
30.0
 42
30.0
 43
30.0
 50
90.0
  0
POINT
  5
7BF6
  8
DEFPOINTS
  6
BYBLOCK
 62
     0
 10
2026.4917658175741
 20
1720.103770727824
 30
0.0
  0
POINT
  5
7BF7
  8
DEFPOINTS
  6
BYBLOCK
 62
     0
 10
1931.4917658180459
 20
1683.103770727824
 30
0.0
  0
POINT
  5
7BF8
  8
DEFPOINTS
  6
BYBLOCK
 62
     0
 10
1727.0011279132079
 20
1683.103770727824
 30
0.0
  0
ENDBLK
  5
7BF9
  8
0
  0
BLOCK
  8
0
  2
*D5
 70
     1
 10
0.0
 20
0.0
 30
0.0
  3
*D5
  1

  0
LINE
  5
7CD1
  8
3
 62
     0
 10
1923.9917658180459
 20
1683.103770727824
 30
0.0
 11
1712.0011279132079
 21
1683.103770727824
 31
0.0
  0
LINE
  5
7CD2
  8
3
 62
     0
 10
1923.9917658180459
 20
1643.103770727824
 30
0.0
 11
1712.0011279132079
 21
1643.103770727824
 31
0.0
  0
LINE
  5
7CD3
  8
3
 62
     0
 10
1727.0011279132079
 20
1713.103770727824
 30
0.0
 11
1727.0011279132079
 21
1743.103770727824
 31
0.0
  0
LINE
  5
7CD4
  8
3
 62
     0
 10
1727.0011279132079
 20
1613.103770727824
 30
0.0
 11
1727.0011279132079
 21
1480.2466278706811
 31
0.0
  0
LINE
  5
7CD5
  8
3
 62
     0
 10
1727.0011279132079
 20
1683.103770727824
 30
0.0
 11
1727.0011279132079
 21
1643.103770727824
 31
0.0
  0
INSERT
  5
7CD6
  8
3
 62
     0
  2
_DOT
 10
1727.0011279132079
 20
1683.103770727824
 30
0.0
 41
30.0
 42
30.0
 43
30.0
 50
270.0
  0
INSERT
  5
7CD7
  8
3
 62
     0
  2
_OPEN
 10
1727.0011279132079
 20
1643.103770727824
 30
0.0
 41
30.0
 42
30.0
 43
30.0
 50
90.0
  0
TEXT
  8
3
  40
45
  5
7D02
  62
0
  72
0
  71
0
 10
1599.50
 20
1452.03
 30
0.000000
  1
40
  0
POINT
  5
7CD9
  8
DEFPOINTS
 62
     0
 10
1931.4917658180459
 20
1683.103770727824
 30
0.0
  0
POINT
  5
7CDA
  8
DEFPOINTS
 62
     0
 10
1931.4917658180459
 20
1643.103770727824
 30
0.0
  0
POINT
  5
7CDB
  8
DEFPOINTS
 62
     0
 10
1727.0011279132079
 20
1643.103770727824
 30
0.0
  0
ENDBLK
  5
7BED
  8
0
  0
BLOCK
  8
0
  2
*D6
 70
     1
 10
0.0
 20
0.0
 30
0.0
  3
*D6
  1

  0
LINE
  5
7CDC
  8
3
 62
     0
 10
1931.4917658180459
 20
1640.603770727824
 30
0.0
 11
1931.4917658180459
 21
1397.2527274999261
 31
0.0
  0
LINE
  5
7CDD
  8
3
 62
     0
 10
2621.4917658180461
 20
1635.603770727824
 30
0.0
 11
2621.4917658180461
 21
1397.2527274999261
 31
0.0
  0
LINE
  5
7CDE
  8
3
 62
     0
 10
1961.4917658180459
 20
1412.2527274999261
 30
0.0
 11
2591.4917658180461
 21
1412.2527274999261
 31
0.0
  0
INSERT
  5
7CDF
  8
3
 62
     0
  2
_OPEN
 10
1931.4917658180459
 20
1412.2527274999261
 30
0.0
 41
30.0
 42
30.0
 43
30.0
 50
180.0
  0
INSERT
  5
7CE0
  8
3
 62
     0
  2
_OPEN
 10
2621.4917658180461
 20
1412.2527274999261
 30
0.0
 41
30.0
 42
30.0
 43
30.0
  0
TEXT
  8
3
  40
45
  5
7D03
  62
0
  72
0
  71
0
 10
2185.91
 20
1370.10
 30
0.000000
  1
690
  0
POINT
  5
7CE2
  8
DEFPOINTS
 62
     0
 10
1931.4917658180459
 20
1648.103770727824
 30
0.0
  0
POINT
  5
7CE3
  8
DEFPOINTS
 62
     0
 10
2621.4917658180461
 20
1643.103770727824
 30
0.0
  0
POINT
  5
7CE4
  8
DEFPOINTS
 62
     0
 10
2621.4917658180461
 20
1412.2527274999261
 30
0.0
  0
ENDBLK
  5
7C82
  8
0
  0
BLOCK
  8
0
  2
*D7
 70
     1
 10
0.0
 20
0.0
 30
0.0
  3
*D7
  1

  0
LINE
  5
7CE5
  8
3
 62
     0
 10
620.28914952247476
 20
2397.6037707278242
 30
0.0
 11
620.28914952247476
 21
2564.992565787386
 31
0.0
  0
LINE
  5
7CE6
  8
3
 62
     0
 10
1290.2891495224751
 20
2397.6037707278251
 30
0.0
 11
1290.2891495224751
 21
2564.992565787386
 31
0.0
  0
LINE
  5
7CE7
  8
3
 62
     0
 10
650.28914952247487
 20
2549.992565787386
 30
0.0
 11
1260.2891495224751
 21
2549.992565787386
 31
0.0
  0
INSERT
  5
7CE8
  8
3
 62
     0
  2
_OPEN
 10
620.28914952247476
 20
2549.992565787386
 30
0.0
 41
30.0
 42
30.0
 43
30.0
 50
180.0
  0
INSERT
  5
7CE9
  8
3
 62
     0
  2
_OPEN
 10
1290.2891495224751
 20
2549.992565787386
 30
0.0
 41
30.0
 42
30.0
 43
30.0
  0
TEXT
  8
3
  40
45
  5
7D04
  62
0
  72
0
  71
0
 10
861.419
 20
2507.84
 30
0.000000
  1
670
  0
POINT
  5
7CEB
  8
DEFPOINTS
 62
     0
 10
620.28914952247476
 20
2390.1037707278242
 30
0.0
  0
POINT
  5
7CEC
  8
DEFPOINTS
 62
     0
 10
1290.2891495224751
 20
2390.1037707278251
 30
0.0
  0
POINT
  5
7CED
  8
DEFPOINTS
 62
     0
 10
1290.2891495224751
 20
2549.992565787386
 30
0.0
  0
ENDBLK
  5
7C10
  8
0
  0
BLOCK
  8
0
  2
*D8
 70
     1
 10
0.0
 20
0.0
 30
0.0
  3
*D8
  1

  0
LINE
  5
7CEE
  8
3
 62
     0
 10
1966.4917658180459
 20
2087.6037707278242
 30
0.0
 11
1966.4917658180459
 21
2564.992565787386
 31
0.0
  0
LINE
  5
7CEF
  8
3
 62
     0
 10
2586.4917658180461
 20
2087.6037707278242
 30
0.0
 11
2586.4917658180461
 21
2564.992565787386
 31
0.0
  0
LINE
  5
7CF0
  8
3
 62
     0
 10
1996.4917658180459
 20
2549.992565787386
 30
0.0
 11
2556.4917658180461
 21
2549.992565787386
 31
0.0
  0
INSERT
  5
7CF1
  8
3
 62
     0
  2
_OPEN
 10
1966.4917658180459
 20
2549.992565787386
 30
0.0
 41
30.0
 42
30.0
 43
30.0
 50
180.0
  0
INSERT
  5
7CF2
  8
3
 62
     0
  2
_OPEN
 10
2586.4917658180461
 20
2549.992565787386
 30
0.0
 41
30.0
 42
30.0
 43
30.0
  0
TEXT
  8
3
  40
45
  5
7D05
  62
0
  72
0
  71
0
 10
2184.18
 20
2507.84
 30
0.000000
  1
620
  0
POINT
  5
7CF4
  8
DEFPOINTS
 62
     0
 10
1966.4917658180459
 20
2080.1037707278242
 30
0.0
  0
POINT
  5
7CF5
  8
DEFPOINTS
 62
     0
 10
2586.4917658180461
 20
2080.1037707278242
 30
0.0
  0
POINT
  5
7CF6
  8
DEFPOINTS
 62
     0
 10
2586.4917658180461
 20
2549.992565787386
 30
0.0
  0
ENDBLK
  5
7C1D
  8
0
  0
BLOCK
  8
0
  2
*D9
 70
     1
 10
0.0
 20
0.0
 30
0.0
  3
*D9
  1

  0
LINE
  5
7CF7
  8
3
 62
     0
 10
615.9891495224756
 20
2390.1037707278251
 30
0.0
 11
385.44117628297528
 21
2390.1037707278251
 31
0.0
  0
LINE
  5
7CF8
  8
3
 62
     0
 10
572.78914952247533
 20
1643.103770727824
 30
0.0
 11
385.44117628297522
 21
1643.1037707278249
 31
0.0
  0
LINE
  5
7CF9
  8
3
 62
     0
 10
400.44117628297539
 20
2360.1037707278251
 30
0.0
 11
400.44117628297522
 21
1673.1037707278249
 31
0.0
  0
INSERT
  5
7CFA
  8
3
 62
     0
  2
_OPEN
 10
400.44117628297539
 20
2390.1037707278251
 30
0.0
 41
30.0
 42
30.0
 43
30.0
 50
90.0
  0
INSERT
  5
7CFB
  8
3
 62
     0
  2
_OPEN
 10
400.44117628297522
 20
1643.1037707278249
 30
0.0
 41
30.0
 42
30.0
 43
30.0
 50
270.0
  0
TEXT
  8
3
  40
45
  5
7D06
  62
0
  72
0
  71
0
 10
261.155
 20
1932.94
 30
0.000000
  1
(747)
  0
POINT
  5
7CFD
  8
DEFPOINTS
 62
     0
 10
623.4891495224756
 20
2390.1037707278251
 30
0.0
  0
POINT
  5
7CFE
  8
DEFPOINTS
 62
     0
 10
580.28914952247533
 20
1643.103770727824
 30
0.0
  0
POINT
  5
7CFF
  8
DEFPOINTS
 62
     0
 10
400.44117628297522
 20
1643.1037707278249
 30
0.0
  0
ENDBLK
  5
7C98
  8
0
  0
ENDSEC
  0
SECTION
  2
ENTITIES
  0
DIMENSION
  5
7AB9
  8
3
  2
*D2
 10
1330.2891495224751
 20
1412.2527274999261
 30
0.0
 11
949.37767405288832
 21
1412.2527274999261
 31
0.0
 70
   128
 13
580.28914952247533
 23
1643.103770727824
 33
0.0
 14
1330.2891495224751
 24
1643.103770727824
 34
0.0
1001
ACAD
1000
DSTYLE
1002
{
1070
   287
1070
     3
1070
    40
1040
15.0
1070
   143
1040
0.039
1070
   172
1070
     1
1070
   271
1070
     0
1070
   279
1070
     0
1070
   288
1070
     1
1002
}
  0
DIMENSION
  5
7AD1
  8
3
  2
*D3
 10
1727.0011279132079
 20
1720.103770727824
 30
0.0
 11
1727.0011279132079
 21
1881.3338113076311
 31
0.0
 70
   128
 13
1918.318375183806
 23
2080.1037707278242
 33
0.0
 14
2026.4917658175741
 24
1720.103770727824
 34
0.0
 50
90.0
1001
ACAD
1000
DSTYLE
1002
{
1070
   287
1070
     3
1070
    40
1040
15.0
1070
   143
1040
0.039
1070
   172
1070
     1
1070
   271
1070
     0
1070
   279
1070
     0
1070
   288
1070
     1
1002
}
  0
DIMENSION
  5
7AE1
  8
3
  2
*D4
 10
1727.0011279132079
 20
1683.103770727824
 30
0.0
 11
1655.2154136274939
 21
1701.603770727824
 31
0.0
 70
     0
  1
(<>)
 13
2026.4917658175741
 23
1720.103770727824
 33
0.0
 14
1931.4917658180459
 24
1683.103770727824
 34
0.0
 50
90.0
1001
ACAD
1000
DSTYLE
1002
{
1070
   288
1070
     1
1070
   172
1070
     1
1070
    75
1070
     1
1070
    40
1040
15.0
1070
   271
1070
     0
1070
     7
1000
_DOT
1070
   143
1040
0.039
1002
}
  0
DIMENSION
  5
7AF1
  8
3
  2
*D5
 10
1727.0011279132079
 20
1643.103770727824
 30
0.0
 11
1689.5011279132079
 21
1531.6751992992531
 31
0.0
 70
     0
 13
1931.4917658180459
 23
1683.103770727824
 33
0.0
 14
1931.4917658180459
 24
1643.103770727824
 34
0.0
 50
90.0
1001
ACAD
1000
DSTYLE
1002
{
1070
   287
1070
     3
1070
    40
1040
15.0
1070
   143
1040
0.039
1070
   172
1070
     1
1070
   271
1070
     0
1070
   279
1070
     0
1070
   288
1070
     1
1070
     6
1000
DOT
1002
}
  0
DIMENSION
  5
7B48
  8
3
  2
*D6
 10
2621.4917658180461
 20
1412.2527274999261
 30
0.0
 11
2275.9117859435132
 21
1412.2527274999261
 31
0.0
 70
   128
 13
1931.4917658180459
 23
1648.103770727824
 33
0.0
 14
2621.4917658180461
 24
1643.103770727824
 34
0.0
1001
ACAD
1000
DSTYLE
1002
{
1070
   287
1070
     3
1070
    40
1040
15.0
1070
   143
1040
0.039
1070
   172
1070
     1
1070
   271
1070
     0
1070
   279
1070
     0
1070
   288
1070
     1
1002
}
  0
LINE
  5
7B55
  8
1
 10
623.4891495224756
 20
1796.9037707278239
 30
0.0
 11
1287.0891495224751
 21
1796.9037707278239
 31
0.0
  0
LINE
  5
7B56
  8
1
 10
623.4891495224756
 20
2363.303770727824
 30
0.0
 11
1287.0891495224751
 21
2363.303770727824
 31
0.0
  0
LINE
  5
7B57
  8
1
 10
590.28914952247476
 20
2360.1037707278242
 30
0.0
 11
590.28914952247476
 21
1800.103770727824
 31
0.0
  0
LINE
  5
7B58
  8
1
 10
617.28914952247487
 20
2367.1037707278242
 30
0.0
 11
617.28914952247567
 21
1793.103770727824
 31
0.0
  0
LINE
  5
7B5A
  8
1
 10
620.28914952247476
 20
2390.1037707278251
 30
0.0
 11
620.28914952247578
 21
1770.103770727824
 31
0.0
  0
LINE
  5
7B5B
  8
1
 10
623.4891495224756
 20
2390.1037707278251
 30
0.0
 11
623.4891495224756
 21
1770.103770727824
 31
0.0
  0
LINE
  5
7B5C
  8
1
 10
613.28914952247487
 20
1797.103770727824
 30
0.0
 11
592.28914952247487
 21
1797.103770727824
 31
0.0
  0
LINE
  5
7B5D
  8
1
 10
590.28914952247476
 20
1800.103770727824
 30
0.0
 11
620.28914952247578
 21
1800.103770727824
 31
0.0
  0
ARC
  5
7B5E
  8
1
 10
592.28914952247487
 20
1799.103770727824
 30
0.0
 40
2.0
 50
180.0
 51
270.0
  0
LINE
  5
7B5F
  8
1
 10
590.28914952247476
 20
1799.103770727824
 30
0.0
 11
590.28914952247476
 21
1800.103770727824
 31
0.0
  0
LINE
  5
7B60
  8
1
 10
617.28914952247487
 20
1772.103770727824
 30
0.0
 11
617.28914952247487
 21
1793.103770727824
 31
0.0
  0
LINE
  5
7B61
  8
1
 10
620.28914952247476
 20
1770.103770727824
 30
0.0
 11
619.28914952247476
 21
1770.103770727824
 31
0.0
  0
ARC
  5
7B62
  8
1
 10
619.28914952247476
 20
1772.103770727824
 30
0.0
 40
2.0
 50
180.0
 51
270.0
  0
ARC
  5
7B63
  8
1
 10
613.28914952247487
 20
1793.103770727824
 30
0.0
 40
4.0
 50
0.0
 51
90.0
  0
LINE
  5
7B64
  8
1
 10
623.4891495224756
 20
1770.103770727824
 30
0.0
 11
620.28914952247476
 21
1770.103770727824
 31
0.0
  0
LINE
  5
7B65
  8
1
 10
606.61869126324927
 20
1782.603770727824
 30
0.0
 11
638.91733652206665
 21
1782.603770727824
 31
0.0
  0
LINE
  5
7B66
  8
1
 10
590.28914952247476
 20
2360.1037707278242
 30
0.0
 11
620.28914952247476
 21
2360.1037707278242
 31
0.0
  0
LINE
  5
7B67
  8
1
 10
613.28914952247487
 20
2363.1037707278242
 30
0.0
 11
592.28914952247487
 21
2363.1037707278242
 31
0.0
  0
LINE
  5
7B68
  8
1
 10
590.28914952247476
 20
2361.1037707278242
 30
0.0
 11
590.28914952247476
 21
2360.1037707278242
 31
0.0
  0
ARC
  5
7B69
  8
1
 10
592.28914952247487
 20
2361.1037707278242
 30
0.0
 40
2.0
 50
90.0
 51
180.0
  0
ARC
  5
7B6A
  8
1
 10
613.28914952247487
 20
2367.1037707278242
 30
0.0
 40
4.0
 50
270.0
 51
0.0
  0
LINE
  5
7B6B
  8
1
 10
617.28914952247487
 20
2388.1037707278242
 30
0.0
 11
617.28914952247487
 21
2367.1037707278242
 31
0.0
  0
ARC
  5
7B6C
  8
1
 10
619.28914952247476
 20
2388.1037707278242
 30
0.0
 40
2.0
 50
90.0
 51
180.0
  0
LINE
  5
7B6D
  8
1
 10
620.28914952247476
 20
2390.1037707278242
 30
0.0
 11
619.28914952247476
 21
2390.1037707278242
 31
0.0
  0
LINE
  5
7B6E
  8
1
 10
606.61869126324927
 20
2377.6037707278242
 30
0.0
 11
638.91733652206665
 21
2377.6037707278242
 31
0.0
  0
LINE
  5
7B6F
  8
1
 10
623.4891495224756
 20
2390.1037707278251
 30
0.0
 11
620.28914952247476
 21
2390.1037707278251
 31
0.0
  0
LINE
  5
7B70
  8
1
 10
1287.0891495224751
 20
2390.1037707278251
 30
0.0
 11
1287.0891495224751
 21
1770.103770727824
 31
0.0
  0
LINE
  5
7B72
  8
1
 10
1271.5907662358929
 20
1782.603770727824
 30
0.0
 11
1307.689249646942
 21
1782.603770727824
 31
0.0
  0
LINE
  5
7B73
  8
1
 10
1287.0891495224751
 20
1770.103770727824
 30
0.0
 11
1290.2891495224751
 21
1770.103770727824
 31
0.0
  0
LINE
  5
7B76
  8
1
 10
1271.590766235892
 20
2377.6037707278242
 30
0.0
 11
1307.689249646942
 21
2377.6037707278242
 31
0.0
  0
LINE
  5
7B77
  8
1
 10
1287.0891495224751
 20
2390.1037707278251
 30
0.0
 11
1290.2891495224751
 21
2390.1037707278251
 31
0.0
  0
LINE
  5
7B78
  8
1
 10
1290.2891495224751
 20
2390.1037707278251
 30
0.0
 11
1290.289149522474
 21
1770.103770727824
 31
0.0
  0
LINE
  5
7B79
  8
1
 10
1293.2891495224751
 20
2367.1037707278251
 30
0.0
 11
1293.289149522474
 21
1793.103770727824
 31
0.0
  0
LINE
  5
7B7A
  8
1
 10
1320.289149522476
 20
2360.1037707278251
 30
0.0
 11
1320.289149522476
 21
1800.103770727824
 31
0.0
  0
LINE
  5
7B7B
  8
1
 10
1320.289149522476
 20
1800.103770727824
 30
0.0
 11
1290.289149522474
 21
1800.103770727824
 31
0.0
  0
LINE
  5
7B7C
  8
1
 10
1297.2891495224751
 20
1797.103770727824
 30
0.0
 11
1318.289149522476
 21
1797.103770727824
 31
0.0
  0
LINE
  5
7B7D
  8
1
 10
1320.289149522476
 20
1799.1037707278249
 30
0.0
 11
1320.289149522476
 21
1800.103770727824
 31
0.0
  0
ARC
  5
7B7E
  8
1
 10
1318.289149522476
 20
1799.1037707278249
 30
0.0
 40
2.0
 50
270.0
 51
0.0
  0
LINE
  5
7B7F
  8
1
 10
1293.2891495224751
 20
1772.103770727824
 30
0.0
 11
1293.2891495224751
 21
1793.103770727824
 31
0.0
  0
ARC
  5
7B80
  8
1
 10
1291.2891495224751
 20
1772.103770727824
 30
0.0
 40
2.0
 50
270.0
 51
0.0
  0
LINE
  5
7B81
  8
1
 10
1290.2891495224751
 20
1770.103770727824
 30
0.0
 11
1291.2891495224751
 21
1770.103770727824
 31
0.0
  0
ARC
  5
7B82
  8
1
 10
1297.2891495224751
 20
1793.103770727824
 30
0.0
 40
4.0
 50
90.0
 51
180.0
  0
LINE
  5
7B83
  8
1
 10
1297.2891495224751
 20
2363.1037707278251
 30
0.0
 11
1318.289149522476
 21
2363.1037707278251
 31
0.0
  0
LINE
  5
7B84
  8
1
 10
1320.289149522476
 20
2360.1037707278251
 30
0.0
 11
1290.2891495224751
 21
2360.1037707278251
 31
0.0
  0
ARC
  5
7B85
  8
1
 10
1318.289149522476
 20
2361.1037707278251
 30
0.0
 40
2.0
 50
0.0
 51
90.0
  0
LINE
  5
7B86
  8
1
 10
1320.289149522476
 20
2361.1037707278251
 30
0.0
 11
1320.289149522476
 21
2360.1037707278251
 31
0.0
  0
LINE
  5
7B87
  8
1
 10
1290.2891495224751
 20
2390.1037707278251
 30
0.0
 11
1291.2891495224751
 21
2390.1037707278251
 31
0.0
  0
ARC
  5
7B88
  8
1
 10
1291.2891495224751
 20
2388.1037707278251
 30
0.0
 40
2.0
 50
0.0
 51
90.0
  0
LINE
  5
7B89
  8
1
 10
1293.2891495224751
 20
2388.1037707278251
 30
0.0
 11
1293.2891495224751
 21
2367.1037707278251
 31
0.0
  0
ARC
  5
7B8A
  8
1
 10
1297.2891495224751
 20
2367.1037707278251
 30
0.0
 40
4.0
 50
180.0
 51
270.0
  0
LINE
  5
7B8B
  8
1
 10
2026.4917658175741
 20
1720.103770727824
 30
0.0
 11
2526.4917658175741
 21
1720.103770727824
 31
0.0
  0
LINE
  5
7B8C
  8
1
 10
623.4891495224756
 20
1880.103770727824
 30
0.0
 11
623.4891495224756
 21
1720.103770727824
 31
0.0
  0
LINE
  5
7B8D
  8
1
 10
627.9891495224756
 20
1880.103770727824
 30
0.0
 11
627.9891495224756
 21
1724.603770727824
 31
0.0
  0
LINE
  5
7B8E
  8
1
 10
683.4891495224756
 20
1720.103770727824
 30
0.0
 11
623.4891495224756
 21
1720.103770727824
 31
0.0
  0
LINE
  5
7B8F
  8
1
 10
683.4891495224756
 20
1724.603770727824
 30
0.0
 11
627.9891495224756
 21
1724.603770727824
 31
0.0
  0
LINE
  5
7B90
  8
1
 10
683.4891495224756
 20
1724.603770727824
 30
0.0
 11
683.4891495224756
 21
1720.103770727824
 31
0.0
  0
LINE
  5
7B91
  8
1
 10
627.9891495224756
 20
1880.103770727824
 30
0.0
 11
623.4891495224756
 21
1880.103770727824
 31
0.0
  0
LINE
  5
7B92
  8
1
 10
627.9891495224756
 20
1870.103770727824
 30
0.0
 11
623.4891495224756
 21
1870.103770727824
 31
0.0
  0
LINE
  5
7B93
  8
1
 10
1282.5891495224751
 20
1880.103770727824
 30
0.0
 11
1282.5891495224751
 21
1724.603770727824
 31
0.0
  0
LINE
  5
7B94
  8
1
 10
1287.089149522476
 20
1880.103770727824
 30
0.0
 11
1287.0891495224751
 21
1720.103770727824
 31
0.0
  0
LINE
  5
7B95
  8
1
 10
1227.0891495224751
 20
1724.603770727824
 30
0.0
 11
1282.5891495224751
 21
1724.603770727824
 31
0.0
  0
LINE
  5
7B96
  8
1
 10
1227.0891495224751
 20
1720.103770727824
 30
0.0
 11
1287.0891495224751
 21
1720.103770727824
 31
0.0
  0
LINE
  5
7B97
  8
1
 10
1227.0891495224751
 20
1724.603770727824
 30
0.0
 11
1227.0891495224751
 21
1720.103770727824
 31
0.0
  0
LINE
  5
7B98
  8
1
 10
1282.5891495224751
 20
1880.103770727824
 30
0.0
 11
1287.089149522476
 21
1880.103770727824
 31
0.0
  0
LINE
  5
7B99
  8
1
 10
1282.5891495224751
 20
1870.103770727824
 30
0.0
 11
1287.089149522476
 21
1870.103770727824
 31
0.0
  0
LINE
  5
7B9A
  8
1
 10
2026.4917658175741
 20
1870.103770727824
 30
0.0
 11
2026.4917658175741
 21
1720.103770727824
 31
0.0
  0
LINE
  5
7B9B
  8
1
 10
2026.4917658175741
 20
1870.103770727824
 30
0.0
 11
2041.62427644591
 21
1877.774182095189
 31
0.0
  0
LINE
  5
7B9C
  8
1
 10
2526.4917658175741
 20
1870.103770727824
 30
0.0
 11
2526.4917658175741
 21
1720.103770727824
 31
0.0
  0
LINE
  5
7B9D
  8
1
 10
2526.4917658175741
 20
1870.103770727824
 30
0.0
 11
2511.3592551892389
 21
1877.7741820951901
 31
0.0
  0
LINE
  5
7B9E
  8
1
 10
1330.2891495224751
 20
1643.103770727824
 30
0.0
 11
580.28914952247533
 21
1643.103770727824
 31
0.0
  0
LINE
  5
7B9F
  8
1
 10
2621.4917658180461
 20
1643.103770727824
 30
0.0
 11
1931.4917658180459
 21
1643.103770727824
 31
0.0
  0
LINE
  5
7BA0
  8
1
 10
1295.289149522474
 20
1683.103770727824
 30
0.0
 11
620.28914952247533
 21
1683.103770727824
 31
0.0
  0
LINE
  5
7BA1
  8
1
 10
2621.4917658180461
 20
1683.103770727824
 30
0.0
 11
1931.4917658180459
 21
1683.103770727824
 31
0.0
  0
LINE
  5
7BA2
  8
2
 10
1371.1861302798841
 20
2080.1037707278242
 30
0.0
 11
538.35859854420585
 21
2080.1037707278242
 31
0.0
  0
LINE
  5
7BA4
  8
1
 10
1295.289149522474
 20
1683.103770727824
 30
0.0
 11
1295.289149522474
 21
1643.103770727824
 31
0.0
  0
CIRCLE
  5
7BA5
  8
1
 10
2276.4917658180461
 20
2080.1037707278242
 30
0.0
 40
310.0
  0
CIRCLE
  5
7BA6
  8
1
 10
2276.4917658180461
 20
2080.1037707278242
 30
0.0
 40
280.0
  0
LINE
  5
7BA7
  8
1
 10
640.2891692588554
 20
1940.103770727824
 30
0.0
 11
640.2891692588554
 21
2220.1037707278242
 31
0.0
  0
LINE
  5
7BA8
  8
1
 10
750.28916925885551
 20
1940.103770727824
 30
0.0
 11
750.28916925885551
 21
2220.1037707278242
 31
0.0
  0
POLYLINE
  8
1
  5
7D07
  66
     1
 10
0.000000
 20
0.000000
 30
0.000000
  70
     8
  0
VERTEX
  8
1
  5
7D08
 10
676.957
 20
1803.10
 30
0.000000
  70
    32
  0
VERTEX
  8
1
  5
7D09
 10
676.844
 20
1803.73
 30
0.000000
  70
    32
  0
VERTEX
  8
1
  5
7D0A
 10
676.731
 20
1804.36
 30
0.000000
  70
    32
  0
VERTEX
  8
1
  5
7D0B
 10
676.618
 20
1804.99
 30
0.000000
  70
    32
  0
VERTEX
  8
1
  5
7D0C
 10
676.505
 20
1805.62
 30
0.000000
  70
    32
  0
VERTEX
  8
1
  5
7D0D
 10
676.393
 20
1806.25
 30
0.000000
  70
    32
  0
VERTEX
  8
1
  5
7D0E
 10
676.280
 20
1806.88
 30
0.000000
  70
    32
  0
VERTEX
  8
1
  5
7D0F
 10
676.168
 20
1807.51
 30
0.000000
  70
    32
  0
VERTEX
  8
1
  5
7D10
 10
676.056
 20
1808.14
 30
0.000000
  70
    32
  0
VERTEX
  8
1
  5
7D11
 10
675.944
 20
1808.77
 30
0.000000
  70
    32
  0
VERTEX
  8
1
  5
7D12
 10
675.832
 20
1809.40
 30
0.000000
  70
    32
  0
VERTEX
  8
1
  5
7D13
 10
675.721
 20
1810.03
 30
0.000000
  70
    32
  0
VERTEX
  8
1
  5
7D14
 10
675.609
 20
1810.66
 30
0.000000
  70
    32
  0
VERTEX
  8
1
  5
7D15
 10
675.499
 20
1811.29
 30
0.000000
  70
    32
  0
VERTEX
  8
1
  5
7D16
 10
675.388
 20
1811.92
 30
0.000000
  70
    32
  0
VERTEX
  8
1
  5
7D17
 10
675.278
 20
1812.55
 30
0.000000
  70
    32
  0
VERTEX
  8
1
  5
7D18
 10
675.168
 20
1813.18
 30
0.000000
  70
    32
  0
VERTEX
  8
1
  5
7D19
 10
675.059
 20
1813.81
 30
0.000000
  70
    32
  0
VERTEX
  8
1
  5
7D1A
 10
674.950
 20
1814.44
 30
0.000000
  70
    32
  0
VERTEX
  8
1
  5
7D1B
 10
674.842
 20
1815.07
 30
0.000000
  70
    32
  0
VERTEX
  8
1
  5
7D1C
 10
674.734
 20
1815.70
 30
0.000000
  70
    32
  0
VERTEX
  8
1
  5
7D1D
 10
674.627
 20
1816.33
 30
0.000000
  70
    32
  0
VERTEX
  8
1
  5
7D1E
 10
674.520
 20
1816.96
 30
0.000000
  70
    32
  0
VERTEX
  8
1
  5
7D1F
 10
674.414
 20
1817.59
 30
0.000000
  70
    32
  0
VERTEX
  8
1
  5
7D20
 10
674.309
 20
1818.22
 30
0.000000
  70
    32
  0
VERTEX
  8
1
  5
7D21
 10
674.204
 20
1818.85
 30
0.000000
  70
    32
  0
VERTEX
  8
1
  5
7D22
 10
674.100
 20
1819.49
 30
0.000000
  70
    32
  0
VERTEX
  8
1
  5
7D23
 10
673.997
 20
1820.12
 30
0.000000
  70
    32
  0
VERTEX
  8
1
  5
7D24
 10
673.894
 20
1820.75
 30
0.000000
  70
    32
  0
VERTEX
  8
1
  5
7D25
 10
673.792
 20
1821.38
 30
0.000000
  70
    32
  0
VERTEX
  8
1
  5
7D26
 10
673.691
 20
1822.01
 30
0.000000
  70
    32
  0
VERTEX
  8
1
  5
7D27
 10
673.591
 20
1822.64
 30
0.000000
  70
    32
  0
VERTEX
  8
1
  5
7D28
 10
673.491
 20
1823.27
 30
0.000000
  70
    32
  0
VERTEX
  8
1
  5
7D29
 10
673.393
 20
1823.91
 30
0.000000
  70
    32
  0
VERTEX
  8
1
  5
7D2A
 10
673.295
 20
1824.54
 30
0.000000
  70
    32
  0
VERTEX
  8
1
  5
7D2B
 10
673.198
 20
1825.17
 30
0.000000
  70
    32
  0
VERTEX
  8
1
  5
7D2C
 10
673.103
 20
1825.80
 30
0.000000
  70
    32
  0
VERTEX
  8
1
  5
7D2D
 10
673.008
 20
1826.44
 30
0.000000
  70
    32
  0
VERTEX
  8
1
  5
7D2E
 10
672.914
 20
1827.07
 30
0.000000
  70
    32
  0
VERTEX
  8
1
  5
7D2F
 10
672.821
 20
1827.70
 30
0.000000
  70
    32
  0
VERTEX
  8
1
  5
7D30
 10
672.729
 20
1828.33
 30
0.000000
  70
    32
  0
VERTEX
  8
1
  5
7D31
 10
672.639
 20
1828.97
 30
0.000000
  70
    32
  0
VERTEX
  8
1
  5
7D32
 10
672.549
 20
1829.60
 30
0.000000
  70
    32
  0
VERTEX
  8
1
  5
7D33
 10
672.461
 20
1830.23
 30
0.000000
  70
    32
  0
VERTEX
  8
1
  5
7D34
 10
672.374
 20
1830.87
 30
0.000000
  70
    32
  0
VERTEX
  8
1
  5
7D35
 10
672.287
 20
1831.50
 30
0.000000
  70
    32
  0
VERTEX
  8
1
  5
7D36
 10
672.202
 20
1832.13
 30
0.000000
  70
    32
  0
VERTEX
  8
1
  5
7D37
 10
672.118
 20
1832.77
 30
0.000000
  70
    32
  0
VERTEX
  8
1
  5
7D38
 10
672.035
 20
1833.40
 30
0.000000
  70
    32
  0
VERTEX
  8
1
  5
7D39
 10
671.952
 20
1834.04
 30
0.000000
  70
    32
  0
VERTEX
  8
1
  5
7D3A
 10
671.871
 20
1834.67
 30
0.000000
  70
    32
  0
VERTEX
  8
1
  5
7D3B
 10
671.789
 20
1835.31
 30
0.000000
  70
    32
  0
VERTEX
  8
1
  5
7D3C
 10
671.709
 20
1835.94
 30
0.000000
  70
    32
  0
VERTEX
  8
1
  5
7D3D
 10
671.629
 20
1836.58
 30
0.000000
  70
    32
  0
VERTEX
  8
1
  5
7D3E
 10
671.549
 20
1837.21
 30
0.000000
  70
    32
  0
VERTEX
  8
1
  5
7D3F
 10
671.470
 20
1837.85
 30
0.000000
  70
    32
  0
VERTEX
  8
1
  5
7D40
 10
671.391
 20
1838.48
 30
0.000000
  70
    32
  0
VERTEX
  8
1
  5
7D41
 10
671.313
 20
1839.12
 30
0.000000
  70
    32
  0
VERTEX
  8
1
  5
7D42
 10
671.235
 20
1839.75
 30
0.000000
  70
    32
  0
VERTEX
  8
1
  5
7D43
 10
671.156
 20
1840.39
 30
0.000000
  70
    32
  0
VERTEX
  8
1
  5
7D44
 10
671.078
 20
1841.02
 30
0.000000
  70
    32
  0
VERTEX
  8
1
  5
7D45
 10
671.000
 20
1841.66
 30
0.000000
  70
    32
  0
VERTEX
  8
1
  5
7D46
 10
670.921
 20
1842.29
 30
0.000000
  70
    32
  0
VERTEX
  8
1
  5
7D47
 10
670.843
 20
1842.93
 30
0.000000
  70
    32
  0
VERTEX
  8
1
  5
7D48
 10
670.764
 20
1843.56
 30
0.000000
  70
    32
  0
VERTEX
  8
1
  5
7D49
 10
670.685
 20
1844.20
 30
0.000000
  70
    32
  0
VERTEX
  8
1
  5
7D4A
 10
670.606
 20
1844.83
 30
0.000000
  70
    32
  0
VERTEX
  8
1
  5
7D4B
 10
670.526
 20
1845.47
 30
0.000000
  70
    32
  0
VERTEX
  8
1
  5
7D4C
 10
670.445
 20
1846.10
 30
0.000000
  70
    32
  0
VERTEX
  8
1
  5
7D4D
 10
670.364
 20
1846.73
 30
0.000000
  70
    32
  0
VERTEX
  8
1
  5
7D4E
 10
670.283
 20
1847.37
 30
0.000000
  70
    32
  0
VERTEX
  8
1
  5
7D4F
 10
670.201
 20
1848.00
 30
0.000000
  70
    32
  0
VERTEX
  8
1
  5
7D50
 10
670.117
 20
1848.64
 30
0.000000
  70
    32
  0
VERTEX
  8
1
  5
7D51
 10
670.033
 20
1849.27
 30
0.000000
  70
    32
  0
VERTEX
  8
1
  5
7D52
 10
669.948
 20
1849.91
 30
0.000000
  70
    32
  0
VERTEX
  8
1
  5
7D53
 10
669.862
 20
1850.54
 30
0.000000
  70
    32
  0
VERTEX
  8
1
  5
7D54
 10
669.775
 20
1851.17
 30
0.000000
  70
    32
  0
VERTEX
  8
1
  5
7D55
 10
669.687
 20
1851.81
 30
0.000000
  70
    32
  0
VERTEX
  8
1
  5
7D56
 10
669.598
 20
1852.44
 30
0.000000
  70
    32
  0
VERTEX
  8
1
  5
7D57
 10
669.507
 20
1853.07
 30
0.000000
  70
    32
  0
VERTEX
  8
1
  5
7D58
 10
669.415
 20
1853.70
 30
0.000000
  70
    32
  0
VERTEX
  8
1
  5
7D59
 10
669.322
 20
1854.34
 30
0.000000
  70
    32
  0
VERTEX
  8
1
  5
7D5A
 10
669.227
 20
1854.97
 30
0.000000
  70
    32
  0
VERTEX
  8
1
  5
7D5B
 10
669.130
 20
1855.60
 30
0.000000
  70
    32
  0
VERTEX
  8
1
  5
7D5C
 10
669.032
 20
1856.23
 30
0.000000
  70
    32
  0
VERTEX
  8
1
  5
7D5D
 10
668.932
 20
1856.86
 30
0.000000
  70
    32
  0
VERTEX
  8
1
  5
7D5E
 10
668.831
 20
1857.50
 30
0.000000
  70
    32
  0
VERTEX
  8
1
  5
7D5F
 10
668.727
 20
1858.13
 30
0.000000
  70
    32
  0
VERTEX
  8
1
  5
7D60
 10
668.622
 20
1858.76
 30
0.000000
  70
    32
  0
VERTEX
  8
1
  5
7D61
 10
668.515
 20
1859.39
 30
0.000000
  70
    32
  0
VERTEX
  8
1
  5
7D62
 10
668.405
 20
1860.02
 30
0.000000
  70
    32
  0
VERTEX
  8
1
  5
7D63
 10
668.294
 20
1860.65
 30
0.000000
  70
    32
  0
VERTEX
  8
1
  5
7D64
 10
668.180
 20
1861.28
 30
0.000000
  70
    32
  0
VERTEX
  8
1
  5
7D65
 10
668.065
 20
1861.90
 30
0.000000
  70
    32
  0
VERTEX
  8
1
  5
7D66
 10
667.947
 20
1862.53
 30
0.000000
  70
    32
  0
VERTEX
  8
1
  5
7D67
 10
667.827
 20
1863.16
 30
0.000000
  70
    32
  0
VERTEX
  8
1
  5
7D68
 10
667.705
 20
1863.79
 30
0.000000
  70
    32
  0
VERTEX
  8
1
  5
7D69
 10
667.581
 20
1864.42
 30
0.000000
  70
    32
  0
VERTEX
  8
1
  5
7D6A
 10
667.455
 20
1865.04
 30
0.000000
  70
    32
  0
VERTEX
  8
1
  5
7D6B
 10
667.327
 20
1865.67
 30
0.000000
  70
    32
  0
VERTEX
  8
1
  5
7D6C
 10
667.196
 20
1866.30
 30
0.000000
  70
    32
  0
VERTEX
  8
1
  5
7D6D
 10
667.064
 20
1866.92
 30
0.000000
  70
    32
  0
VERTEX
  8
1
  5
7D6E
 10
666.930
 20
1867.55
 30
0.000000
  70
    32
  0
VERTEX
  8
1
  5
7D6F
 10
666.794
 20
1868.17
 30
0.000000
  70
    32
  0
VERTEX
  8
1
  5
7D70
 10
666.656
 20
1868.80
 30
0.000000
  70
    32
  0
VERTEX
  8
1
  5
7D71
 10
666.516
 20
1869.42
 30
0.000000
  70
    32
  0
VERTEX
  8
1
  5
7D72
 10
666.374
 20
1870.04
 30
0.000000
  70
    32
  0
VERTEX
  8
1
  5
7D73
 10
666.230
 20
1870.67
 30
0.000000
  70
    32
  0
VERTEX
  8
1
  5
7D74
 10
666.084
 20
1871.29
 30
0.000000
  70
    32
  0
VERTEX
  8
1
  5
7D75
 10
665.936
 20
1871.91
 30
0.000000
  70
    32
  0
VERTEX
  8
1
  5
7D76
 10
665.786
 20
1872.54
 30
0.000000
  70
    32
  0
VERTEX
  8
1
  5
7D77
 10
665.635
 20
1873.16
 30
0.000000
  70
    32
  0
VERTEX
  8
1
  5
7D78
 10
665.481
 20
1873.78
 30
0.000000
  70
    32
  0
VERTEX
  8
1
  5
7D79
 10
665.326
 20
1874.40
 30
0.000000
  70
    32
  0
VERTEX
  8
1
  5
7D7A
 10
665.169
 20
1875.02
 30
0.000000
  70
    32
  0
VERTEX
  8
1
  5
7D7B
 10
665.010
 20
1875.64
 30
0.000000
  70
    32
  0
VERTEX
  8
1
  5
7D7C
 10
664.849
 20
1876.26
 30
0.000000
  70
    32
  0
VERTEX
  8
1
  5
7D7D
 10
664.687
 20
1876.88
 30
0.000000
  70
    32
  0
VERTEX
  8
1
  5
7D7E
 10
664.523
 20
1877.50
 30
0.000000
  70
    32
  0
VERTEX
  8
1
  5
7D7F
 10
664.357
 20
1878.12
 30
0.000000
  70
    32
  0
VERTEX
  8
1
  5
7D80
 10
664.189
 20
1878.74
 30
0.000000
  70
    32
  0
VERTEX
  8
1
  5
7D81
 10
664.019
 20
1879.35
 30
0.000000
  70
    32
  0
VERTEX
  8
1
  5
7D82
 10
663.848
 20
1879.97
 30
0.000000
  70
    32
  0
VERTEX
  8
1
  5
7D83
 10
663.675
 20
1880.59
 30
0.000000
  70
    32
  0
VERTEX
  8
1
  5
7D84
 10
663.500
 20
1881.21
 30
0.000000
  70
    32
  0
VERTEX
  8
1
  5
7D85
 10
663.324
 20
1881.82
 30
0.000000
  70
    32
  0
VERTEX
  8
1
  5
7D86
 10
663.146
 20
1882.44
 30
0.000000
  70
    32
  0
VERTEX
  8
1
  5
7D87
 10
662.966
 20
1883.05
 30
0.000000
  70
    32
  0
VERTEX
  8
1
  5
7D88
 10
662.785
 20
1883.67
 30
0.000000
  70
    32
  0
VERTEX
  8
1
  5
7D89
 10
662.602
 20
1884.28
 30
0.000000
  70
    32
  0
VERTEX
  8
1
  5
7D8A
 10
662.417
 20
1884.89
 30
0.000000
  70
    32
  0
VERTEX
  8
1
  5
7D8B
 10
662.231
 20
1885.51
 30
0.000000
  70
    32
  0
VERTEX
  8
1
  5
7D8C
 10
662.043
 20
1886.12
 30
0.000000
  70
    32
  0
VERTEX
  8
1
  5
7D8D
 10
661.854
 20
1886.73
 30
0.000000
  70
    32
  0
VERTEX
  8
1
  5
7D8E
 10
661.663
 20
1887.35
 30
0.000000
  70
    32
  0
VERTEX
  8
1
  5
7D8F
 10
661.471
 20
1887.96
 30
0.000000
  70
    32
  0
VERTEX
  8
1
  5
7D90
 10
661.277
 20
1888.57
 30
0.000000
  70
    32
  0
VERTEX
  8
1
  5
7D91
 10
661.081
 20
1889.18
 30
0.000000
  70
    32
  0
VERTEX
  8
1
  5
7D92
 10
660.884
 20
1889.79
 30
0.000000
  70
    32
  0
VERTEX
  8
1
  5
7D93
 10
660.685
 20
1890.40
 30
0.000000
  70
    32
  0
VERTEX
  8
1
  5
7D94
 10
660.485
 20
1891.01
 30
0.000000
  70
    32
  0
VERTEX
  8
1
  5
7D95
 10
660.284
 20
1891.62
 30
0.000000
  70
    32
  0
VERTEX
  8
1
  5
7D96
 10
660.081
 20
1892.22
 30
0.000000
  70
    32
  0
VERTEX
  8
1
  5
7D97
 10
659.877
 20
1892.83
 30
0.000000
  70
    32
  0
VERTEX
  8
1
  5
7D98
 10
659.671
 20
1893.44
 30
0.000000
  70
    32
  0
VERTEX
  8
1
  5
7D99
 10
659.464
 20
1894.05
 30
0.000000
  70
    32
  0
VERTEX
  8
1
  5
7D9A
 10
659.255
 20
1894.65
 30
0.000000
  70
    32
  0
VERTEX
  8
1
  5
7D9B
 10
659.045
 20
1895.26
 30
0.000000
  70
    32
  0
VERTEX
  8
1
  5
7D9C
 10
658.834
 20
1895.86
 30
0.000000
  70
    32
  0
VERTEX
  8
1
  5
7D9D
 10
658.621
 20
1896.47
 30
0.000000
  70
    32
  0
VERTEX
  8
1
  5
7D9E
 10
658.407
 20
1897.07
 30
0.000000
  70
    32
  0
VERTEX
  8
1
  5
7D9F
 10
658.192
 20
1897.68
 30
0.000000
  70
    32
  0
VERTEX
  8
1
  5
7DA0
 10
657.975
 20
1898.28
 30
0.000000
  70
    32
  0
VERTEX
  8
1
  5
7DA1
 10
657.757
 20
1898.88
 30
0.000000
  70
    32
  0
VERTEX
  8
1
  5
7DA2
 10
657.538
 20
1899.48
 30
0.000000
  70
    32
  0
VERTEX
  8
1
  5
7DA3
 10
657.317
 20
1900.09
 30
0.000000
  70
    32
  0
VERTEX
  8
1
  5
7DA4
 10
657.095
 20
1900.69
 30
0.000000
  70
    32
  0
VERTEX
  8
1
  5
7DA5
 10
656.872
 20
1901.29
 30
0.000000
  70
    32
  0
VERTEX
  8
1
  5
7DA6
 10
656.648
 20
1901.89
 30
0.000000
  70
    32
  0
VERTEX
  8
1
  5
7DA7
 10
656.422
 20
1902.49
 30
0.000000
  70
    32
  0
VERTEX
  8
1
  5
7DA8
 10
656.196
 20
1903.09
 30
0.000000
  70
    32
  0
VERTEX
  8
1
  5
7DA9
 10
655.968
 20
1903.68
 30
0.000000
  70
    32
  0
VERTEX
  8
1
  5
7DAA
 10
655.739
 20
1904.28
 30
0.000000
  70
    32
  0
VERTEX
  8
1
  5
7DAB
 10
655.508
 20
1904.88
 30
0.000000
  70
    32
  0
VERTEX
  8
1
  5
7DAC
 10
655.277
 20
1905.48
 30
0.000000
  70
    32
  0
VERTEX
  8
1
  5
7DAD
 10
655.044
 20
1906.07
 30
0.000000
  70
    32
  0
VERTEX
  8
1
  5
7DAE
 10
654.811
 20
1906.67
 30
0.000000
  70
    32
  0
VERTEX
  8
1
  5
7DAF
 10
654.576
 20
1907.27
 30
0.000000
  70
    32
  0
VERTEX
  8
1
  5
7DB0
 10
654.340
 20
1907.86
 30
0.000000
  70
    32
  0
VERTEX
  8
1
  5
7DB1
 10
654.103
 20
1908.45
 30
0.000000
  70
    32
  0
VERTEX
  8
1
  5
7DB2
 10
653.865
 20
1909.05
 30
0.000000
  70
    32
  0
VERTEX
  8
1
  5
7DB3
 10
653.627
 20
1909.64
 30
0.000000
  70
    32
  0
VERTEX
  8
1
  5
7DB4
 10
653.387
 20
1910.24
 30
0.000000
  70
    32
  0
VERTEX
  8
1
  5
7DB5
 10
653.146
 20
1910.83
 30
0.000000
  70
    32
  0
VERTEX
  8
1
  5
7DB6
 10
652.904
 20
1911.42
 30
0.000000
  70
    32
  0
VERTEX
  8
1
  5
7DB7
 10
652.661
 20
1912.01
 30
0.000000
  70
    32
  0
VERTEX
  8
1
  5
7DB8
 10
652.418
 20
1912.60
 30
0.000000
  70
    32
  0
VERTEX
  8
1
  5
7DB9
 10
652.173
 20
1913.20
 30
0.000000
  70
    32
  0
VERTEX
  8
1
  5
7DBA
 10
651.928
 20
1913.79
 30
0.000000
  70
    32
  0
VERTEX
  8
1
  5
7DBB
 10
651.682
 20
1914.38
 30
0.000000
  70
    32
  0
VERTEX
  8
1
  5
7DBC
 10
651.435
 20
1914.97
 30
0.000000
  70
    32
  0
VERTEX
  8
1
  5
7DBD
 10
651.187
 20
1915.56
 30
0.000000
  70
    32
  0
VERTEX
  8
1
  5
7DBE
 10
650.938
 20
1916.15
 30
0.000000
  70
    32
  0
VERTEX
  8
1
  5
7DBF
 10
650.689
 20
1916.73
 30
0.000000
  70
    32
  0
VERTEX
  8
1
  5
7DC0
 10
650.438
 20
1917.32
 30
0.000000
  70
    32
  0
VERTEX
  8
1
  5
7DC1
 10
650.187
 20
1917.91
 30
0.000000
  70
    32
  0
VERTEX
  8
1
  5
7DC2
 10
649.936
 20
1918.50
 30
0.000000
  70
    32
  0
VERTEX
  8
1
  5
7DC3
 10
649.683
 20
1919.09
 30
0.000000
  70
    32
  0
VERTEX
  8
1
  5
7DC4
 10
649.430
 20
1919.67
 30
0.000000
  70
    32
  0
VERTEX
  8
1
  5
7DC5
 10
649.176
 20
1920.26
 30
0.000000
  70
    32
  0
VERTEX
  8
1
  5
7DC6
 10
648.922
 20
1920.85
 30
0.000000
  70
    32
  0
VERTEX
  8
1
  5
7DC7
 10
648.667
 20
1921.43
 30
0.000000
  70
    32
  0
VERTEX
  8
1
  5
7DC8
 10
648.411
 20
1922.02
 30
0.000000
  70
    32
  0
VERTEX
  8
1
  5
7DC9
 10
648.155
 20
1922.61
 30
0.000000
  70
    32
  0
VERTEX
  8
1
  5
7DCA
 10
647.898
 20
1923.19
 30
0.000000
  70
    32
  0
VERTEX
  8
1
  5
7DCB
 10
647.641
 20
1923.78
 30
0.000000
  70
    32
  0
VERTEX
  8
1
  5
7DCC
 10
647.383
 20
1924.36
 30
0.000000
  70
    32
  0
VERTEX
  8
1
  5
7DCD
 10
647.125
 20
1924.95
 30
0.000000
  70
    32
  0
VERTEX
  8
1
  5
7DCE
 10
646.866
 20
1925.53
 30
0.000000
  70
    32
  0
VERTEX
  8
1
  5
7DCF
 10
646.607
 20
1926.12
 30
0.000000
  70
    32
  0
VERTEX
  8
1
  5
7DD0
 10
646.347
 20
1926.70
 30
0.000000
  70
    32
  0
VERTEX
  8
1
  5
7DD1
 10
646.087
 20
1927.29
 30
0.000000
  70
    32
  0
VERTEX
  8
1
  5
7DD2
 10
645.826
 20
1927.87
 30
0.000000
  70
    32
  0
VERTEX
  8
1
  5
7DD3
 10
645.565
 20
1928.45
 30
0.000000
  70
    32
  0
VERTEX
  8
1
  5
7DD4
 10
645.303
 20
1929.04
 30
0.000000
  70
    32
  0
VERTEX
  8
1
  5
7DD5
 10
645.042
 20
1929.62
 30
0.000000
  70
    32
  0
VERTEX
  8
1
  5
7DD6
 10
644.780
 20
1930.20
 30
0.000000
  70
    32
  0
VERTEX
  8
1
  5
7DD7
 10
644.517
 20
1930.79
 30
0.000000
  70
    32
  0
VERTEX
  8
1
  5
7DD8
 10
644.254
 20
1931.37
 30
0.000000
  70
    32
  0
VERTEX
  8
1
  5
7DD9
 10
643.991
 20
1931.95
 30
0.000000
  70
    32
  0
VERTEX
  8
1
  5
7DDA
 10
643.728
 20
1932.54
 30
0.000000
  70
    32
  0
VERTEX
  8
1
  5
7DDB
 10
643.464
 20
1933.12
 30
0.000000
  70
    32
  0
VERTEX
  8
1
  5
7DDC
 10
643.201
 20
1933.70
 30
0.000000
  70
    32
  0
VERTEX
  8
1
  5
7DDD
 10
642.937
 20
1934.28
 30
0.000000
  70
    32
  0
VERTEX
  8
1
  5
7DDE
 10
642.672
 20
1934.87
 30
0.000000
  70
    32
  0
VERTEX
  8
1
  5
7DDF
 10
642.408
 20
1935.45
 30
0.000000
  70
    32
  0
VERTEX
  8
1
  5
7DE0
 10
642.143
 20
1936.03
 30
0.000000
  70
    32
  0
VERTEX
  8
1
  5
7DE1
 10
641.879
 20
1936.61
 30
0.000000
  70
    32
  0
VERTEX
  8
1
  5
7DE2
 10
641.614
 20
1937.19
 30
0.000000
  70
    32
  0
VERTEX
  8
1
  5
7DE3
 10
641.349
 20
1937.78
 30
0.000000
  70
    32
  0
VERTEX
  8
1
  5
7DE4
 10
641.084
 20
1938.36
 30
0.000000
  70
    32
  0
VERTEX
  8
1
  5
7DE5
 10
640.819
 20
1938.94
 30
0.000000
  70
    32
  0
VERTEX
  8
1
  5
7DE6
 10
640.554
 20
1939.52
 30
0.000000
  70
    32
  0
VERTEX
  8
1
  5
7DE7
 10
640.289
 20
1940.10
 30
0.000000
  70
    32
  0
SEQEND
  8
1
  5
7DE8
  0
POLYLINE
  8
1
  5
7DE9
  66
     1
 10
0.000000
 20
0.000000
 30
0.000000
  70
     8
  0
VERTEX
  8
1
  5
7DEA
 10
713.621
 20
1803.10
 30
0.000000
  70
    32
  0
VERTEX
  8
1
  5
7DEB
 10
713.734
 20
1803.73
 30
0.000000
  70
    32
  0
VERTEX
  8
1
  5
7DEC
 10
713.847
 20
1804.36
 30
0.000000
  70
    32
  0
VERTEX
  8
1
  5
7DED
 10
713.960
 20
1804.99
 30
0.000000
  70
    32
  0
VERTEX
  8
1
  5
7DEE
 10
714.073
 20
1805.62
 30
0.000000
  70
    32
  0
VERTEX
  8
1
  5
7DEF
 10
714.186
 20
1806.25
 30
0.000000
  70
    32
  0
VERTEX
  8
1
  5
7DF0
 10
714.298
 20
1806.88
 30
0.000000
  70
    32
  0
VERTEX
  8
1
  5
7DF1
 10
714.410
 20
1807.51
 30
0.000000
  70
    32
  0
VERTEX
  8
1
  5
7DF2
 10
714.523
 20
1808.14
 30
0.000000
  70
    32
  0
VERTEX
  8
1
  5
7DF3
 10
714.635
 20
1808.77
 30
0.000000
  70
    32
  0
VERTEX
  8
1
  5
7DF4
 10
714.746
 20
1809.40
 30
0.000000
  70
    32
  0
VERTEX
  8
1
  5
7DF5
 10
714.858
 20
1810.03
 30
0.000000
  70
    32
  0
VERTEX
  8
1
  5
7DF6
 10
714.969
 20
1810.66
 30
0.000000
  70
    32
  0
VERTEX
  8
1
  5
7DF7
 10
715.080
 20
1811.29
 30
0.000000
  70
    32
  0
VERTEX
  8
1
  5
7DF8
 10
715.190
 20
1811.92
 30
0.000000
  70
    32
  0
VERTEX
  8
1
  5
7DF9
 10
715.300
 20
1812.55
 30
0.000000
  70
    32
  0
VERTEX
  8
1
  5
7DFA
 10
715.410
 20
1813.18
 30
0.000000
  70
    32
  0
VERTEX
  8
1
  5
7DFB
 10
715.519
 20
1813.81
 30
0.000000
  70
    32
  0
VERTEX
  8
1
  5
7DFC
 10
715.628
 20
1814.44
 30
0.000000
  70
    32
  0
VERTEX
  8
1
  5
7DFD
 10
715.736
 20
1815.07
 30
0.000000
  70
    32
  0
VERTEX
  8
1
  5
7DFE
 10
715.844
 20
1815.70
 30
0.000000
  70
    32
  0
VERTEX
  8
1
  5
7DFF
 10
715.951
 20
1816.33
 30
0.000000
  70
    32
  0
VERTEX
  8
1
  5
7E00
 10
716.058
 20
1816.96
 30
0.000000
  70
    32
  0
VERTEX
  8
1
  5
7E01
 10
716.164
 20
1817.59
 30
0.000000
  70
    32
  0
VERTEX
  8
1
  5
7E02
 10
716.269
 20
1818.22
 30
0.000000
  70
    32
  0
VERTEX
  8
1
  5
7E03
 10
716.374
 20
1818.85
 30
0.000000
  70
    32
  0
VERTEX
  8
1
  5
7E04
 10
716.478
 20
1819.49
 30
0.000000
  70
    32
  0
VERTEX
  8
1
  5
7E05
 10
716.582
 20
1820.12
 30
0.000000
  70
    32
  0
VERTEX
  8
1
  5
7E06
 10
716.684
 20
1820.75
 30
0.000000
  70
    32
  0
VERTEX
  8
1
  5
7E07
 10
716.786
 20
1821.38
 30
0.000000
  70
    32
  0
VERTEX
  8
1
  5
7E08
 10
716.887
 20
1822.01
 30
0.000000
  70
    32
  0
VERTEX
  8
1
  5
7E09
 10
716.988
 20
1822.64
 30
0.000000
  70
    32
  0
VERTEX
  8
1
  5
7E0A
 10
717.087
 20
1823.27
 30
0.000000
  70
    32
  0
VERTEX
  8
1
  5
7E0B
 10
717.186
 20
1823.91
 30
0.000000
  70
    32
  0
VERTEX
  8
1
  5
7E0C
 10
717.283
 20
1824.54
 30
0.000000
  70
    32
  0
VERTEX
  8
1
  5
7E0D
 10
717.380
 20
1825.17
 30
0.000000
  70
    32
  0
VERTEX
  8
1
  5
7E0E
 10
717.476
 20
1825.80
 30
0.000000
  70
    32
  0
VERTEX
  8
1
  5
7E0F
 10
717.571
 20
1826.44
 30
0.000000
  70
    32
  0
VERTEX
  8
1
  5
7E10
 10
717.664
 20
1827.07
 30
0.000000
  70
    32
  0
VERTEX
  8
1
  5
7E11
 10
717.757
 20
1827.70
 30
0.000000
  70
    32
  0
VERTEX
  8
1
  5
7E12
 10
717.849
 20
1828.33
 30
0.000000
  70
    32
  0
VERTEX
  8
1
  5
7E13
 10
717.940
 20
1828.97
 30
0.000000
  70
    32
  0
VERTEX
  8
1
  5
7E14
 10
718.029
 20
1829.60
 30
0.000000
  70
    32
  0
VERTEX
  8
1
  5
7E15
 10
718.118
 20
1830.23
 30
0.000000
  70
    32
  0
VERTEX
  8
1
  5
7E16
 10
718.205
 20
1830.87
 30
0.000000
  70
    32
  0
VERTEX
  8
1
  5
7E17
 10
718.291
 20
1831.50
 30
0.000000
  70
    32
  0
VERTEX
  8
1
  5
7E18
 10
718.376
 20
1832.13
 30
0.000000
  70
    32
  0
VERTEX
  8
1
  5
7E19
 10
718.460
 20
1832.77
 30
0.000000
  70
    32
  0
VERTEX
  8
1
  5
7E1A
 10
718.544
 20
1833.40
 30
0.000000
  70
    32
  0
VERTEX
  8
1
  5
7E1B
 10
718.626
 20
1834.04
 30
0.000000
  70
    32
  0
VERTEX
  8
1
  5
7E1C
 10
718.708
 20
1834.67
 30
0.000000
  70
    32
  0
VERTEX
  8
1
  5
7E1D
 10
718.789
 20
1835.31
 30
0.000000
  70
    32
  0
VERTEX
  8
1
  5
7E1E
 10
718.869
 20
1835.94
 30
0.000000
  70
    32
  0
VERTEX
  8
1
  5
7E1F
 10
718.949
 20
1836.58
 30
0.000000
  70
    32
  0
VERTEX
  8
1
  5
7E20
 10
719.029
 20
1837.21
 30
0.000000
  70
    32
  0
VERTEX
  8
1
  5
7E21
 10
719.108
 20
1837.85
 30
0.000000
  70
    32
  0
VERTEX
  8
1
  5
7E22
 10
719.187
 20
1838.48
 30
0.000000
  70
    32
  0
VERTEX
  8
1
  5
7E23
 10
719.265
 20
1839.12
 30
0.000000
  70
    32
  0
VERTEX
  8
1
  5
7E24
 10
719.344
 20
1839.75
 30
0.000000
  70
    32
  0
VERTEX
  8
1
  5
7E25
 10
719.422
 20
1840.39
 30
0.000000
  70
    32
  0
VERTEX
  8
1
  5
7E26
 10
719.500
 20
1841.02
 30
0.000000
  70
    32
  0
VERTEX
  8
1
  5
7E27
 10
719.578
 20
1841.66
 30
0.000000
  70
    32
  0
VERTEX
  8
1
  5
7E28
 10
719.657
 20
1842.29
 30
0.000000
  70
    32
  0
VERTEX
  8
1
  5
7E29
 10
719.735
 20
1842.93
 30
0.000000
  70
    32
  0
VERTEX
  8
1
  5
7E2A
 10
719.814
 20
1843.56
 30
0.000000
  70
    32
  0
VERTEX
  8
1
  5
7E2B
 10
719.893
 20
1844.20
 30
0.000000
  70
    32
  0
VERTEX
  8
1
  5
7E2C
 10
719.973
 20
1844.83
 30
0.000000
  70
    32
  0
VERTEX
  8
1
  5
7E2D
 10
720.052
 20
1845.47
 30
0.000000
  70
    32
  0
VERTEX
  8
1
  5
7E2E
 10
720.133
 20
1846.10
 30
0.000000
  70
    32
  0
VERTEX
  8
1
  5
7E2F
 10
720.214
 20
1846.73
 30
0.000000
  70
    32
  0
VERTEX
  8
1
  5
7E30
 10
720.295
 20
1847.37
 30
0.000000
  70
    32
  0
VERTEX
  8
1
  5
7E31
 10
720.378
 20
1848.00
 30
0.000000
  70
    32
  0
VERTEX
  8
1
  5
7E32
 10
720.461
 20
1848.64
 30
0.000000
  70
    32
  0
VERTEX
  8
1
  5
7E33
 10
720.545
 20
1849.27
 30
0.000000
  70
    32
  0
VERTEX
  8
1
  5
7E34
 10
720.630
 20
1849.91
 30
0.000000
  70
    32
  0
VERTEX
  8
1
  5
7E35
 10
720.716
 20
1850.54
 30
0.000000
  70
    32
  0
VERTEX
  8
1
  5
7E36
 10
720.803
 20
1851.17
 30
0.000000
  70
    32
  0
VERTEX
  8
1
  5
7E37
 10
720.891
 20
1851.81
 30
0.000000
  70
    32
  0
VERTEX
  8
1
  5
7E38
 10
720.980
 20
1852.44
 30
0.000000
  70
    32
  0
VERTEX
  8
1
  5
7E39
 10
721.071
 20
1853.07
 30
0.000000
  70
    32
  0
VERTEX
  8
1
  5
7E3A
 10
721.163
 20
1853.70
 30
0.000000
  70
    32
  0
VERTEX
  8
1
  5
7E3B
 10
721.257
 20
1854.34
 30
0.000000
  70
    32
  0
VERTEX
  8
1
  5
7E3C
 10
721.352
 20
1854.97
 30
0.000000
  70
    32
  0
VERTEX
  8
1
  5
7E3D
 10
721.448
 20
1855.60
 30
0.000000
  70
    32
  0
VERTEX
  8
1
  5
7E3E
 10
721.546
 20
1856.23
 30
0.000000
  70
    32
  0
VERTEX
  8
1
  5
7E3F
 10
721.646
 20
1856.86
 30
0.000000
  70
    32
  0
VERTEX
  8
1
  5
7E40
 10
721.747
 20
1857.50
 30
0.000000
  70
    32
  0
VERTEX
  8
1
  5
7E41
 10
721.851
 20
1858.13
 30
0.000000
  70
    32
  0
VERTEX
  8
1
  5
7E42
 10
721.956
 20
1858.76
 30
0.000000
  70
    32
  0
VERTEX
  8
1
  5
7E43
 10
722.064
 20
1859.39
 30
0.000000
  70
    32
  0
VERTEX
  8
1
  5
7E44
 10
722.173
 20
1860.02
 30
0.000000
  70
    32
  0
VERTEX
  8
1
  5
7E45
 10
722.284
 20
1860.65
 30
0.000000
  70
    32
  0
VERTEX
  8
1
  5
7E46
 10
722.398
 20
1861.28
 30
0.000000
  70
    32
  0
VERTEX
  8
1
  5
7E47
 10
722.514
 20
1861.90
 30
0.000000
  70
    32
  0
VERTEX
  8
1
  5
7E48
 10
722.631
 20
1862.53
 30
0.000000
  70
    32
  0
VERTEX
  8
1
  5
7E49
 10
722.751
 20
1863.16
 30
0.000000
  70
    32
  0
VERTEX
  8
1
  5
7E4A
 10
722.873
 20
1863.79
 30
0.000000
  70
    32
  0
VERTEX
  8
1
  5
7E4B
 10
722.997
 20
1864.42
 30
0.000000
  70
    32
  0
VERTEX
  8
1
  5
7E4C
 10
723.124
 20
1865.04
 30
0.000000
  70
    32
  0
VERTEX
  8
1
  5
7E4D
 10
723.252
 20
1865.67
 30
0.000000
  70
    32
  0
VERTEX
  8
1
  5
7E4E
 10
723.382
 20
1866.30
 30
0.000000
  70
    32
  0
VERTEX
  8
1
  5
7E4F
 10
723.514
 20
1866.92
 30
0.000000
  70
    32
  0
VERTEX
  8
1
  5
7E50
 10
723.648
 20
1867.55
 30
0.000000
  70
    32
  0
VERTEX
  8
1
  5
7E51
 10
723.784
 20
1868.17
 30
0.000000
  70
    32
  0
VERTEX
  8
1
  5
7E52
 10
723.923
 20
1868.80
 30
0.000000
  70
    32
  0
VERTEX
  8
1
  5
7E53
 10
724.063
 20
1869.42
 30
0.000000
  70
    32
  0
VERTEX
  8
1
  5
7E54
 10
724.205
 20
1870.04
 30
0.000000
  70
    32
  0
VERTEX
  8
1
  5
7E55
 10
724.349
 20
1870.67
 30
0.000000
  70
    32
  0
VERTEX
  8
1
  5
7E56
 10
724.495
 20
1871.29
 30
0.000000
  70
    32
  0
VERTEX
  8
1
  5
7E57
 10
724.642
 20
1871.91
 30
0.000000
  70
    32
  0
VERTEX
  8
1
  5
7E58
 10
724.792
 20
1872.54
 30
0.000000
  70
    32
  0
VERTEX
  8
1
  5
7E59
 10
724.944
 20
1873.16
 30
0.000000
  70
    32
  0
VERTEX
  8
1
  5
7E5A
 10
725.097
 20
1873.78
 30
0.000000
  70
    32
  0
VERTEX
  8
1
  5
7E5B
 10
725.252
 20
1874.40
 30
0.000000
  70
    32
  0
VERTEX
  8
1
  5
7E5C
 10
725.409
 20
1875.02
 30
0.000000
  70
    32
  0
VERTEX
  8
1
  5
7E5D
 10
725.568
 20
1875.64
 30
0.000000
  70
    32
  0
VERTEX
  8
1
  5
7E5E
 10
725.729
 20
1876.26
 30
0.000000
  70
    32
  0
VERTEX
  8
1
  5
7E5F
 10
725.891
 20
1876.88
 30
0.000000
  70
    32
  0
VERTEX
  8
1
  5
7E60
 10
726.056
 20
1877.50
 30
0.000000
  70
    32
  0
VERTEX
  8
1
  5
7E61
 10
726.222
 20
1878.12
 30
0.000000
  70
    32
  0
VERTEX
  8
1
  5
7E62
 10
726.390
 20
1878.74
 30
0.000000
  70
    32
  0
VERTEX
  8
1
  5
7E63
 10
726.559
 20
1879.35
 30
0.000000
  70
    32
  0
VERTEX
  8
1
  5
7E64
 10
726.730
 20
1879.97
 30
0.000000
  70
    32
  0
VERTEX
  8
1
  5
7E65
 10
726.903
 20
1880.59
 30
0.000000
  70
    32
  0
VERTEX
  8
1
  5
7E66
 10
727.078
 20
1881.21
 30
0.000000
  70
    32
  0
VERTEX
  8
1
  5
7E67
 10
727.254
 20
1881.82
 30
0.000000
  70
    32
  0
VERTEX
  8
1
  5
7E68
 10
727.433
 20
1882.44
 30
0.000000
  70
    32
  0
VERTEX
  8
1
  5
7E69
 10
727.612
 20
1883.05
 30
0.000000
  70
    32
  0
VERTEX
  8
1
  5
7E6A
 10
727.794
 20
1883.67
 30
0.000000
  70
    32
  0
VERTEX
  8
1
  5
7E6B
 10
727.977
 20
1884.28
 30
0.000000
  70
    32
  0
VERTEX
  8
1
  5
7E6C
 10
728.161
 20
1884.89
 30
0.000000
  70
    32
  0
VERTEX
  8
1
  5
7E6D
 10
728.347
 20
1885.51
 30
0.000000
  70
    32
  0
VERTEX
  8
1
  5
7E6E
 10
728.535
 20
1886.12
 30
0.000000
  70
    32
  0
VERTEX
  8
1
  5
7E6F
 10
728.724
 20
1886.73
 30
0.000000
  70
    32
  0
VERTEX
  8
1
  5
7E70
 10
728.915
 20
1887.35
 30
0.000000
  70
    32
  0
VERTEX
  8
1
  5
7E71
 10
729.108
 20
1887.96
 30
0.000000
  70
    32
  0
VERTEX
  8
1
  5
7E72
 10
729.302
 20
1888.57
 30
0.000000
  70
    32
  0
VERTEX
  8
1
  5
7E73
 10
729.497
 20
1889.18
 30
0.000000
  70
    32
  0
VERTEX
  8
1
  5
7E74
 10
729.694
 20
1889.79
 30
0.000000
  70
    32
  0
VERTEX
  8
1
  5
7E75
 10
729.893
 20
1890.40
 30
0.000000
  70
    32
  0
VERTEX
  8
1
  5
7E76
 10
730.093
 20
1891.01
 30
0.000000
  70
    32
  0
VERTEX
  8
1
  5
7E77
 10
730.294
 20
1891.62
 30
0.000000
  70
    32
  0
VERTEX
  8
1
  5
7E78
 10
730.497
 20
1892.22
 30
0.000000
  70
    32
  0
VERTEX
  8
1
  5
7E79
 10
730.702
 20
1892.83
 30
0.000000
  70
    32
  0
VERTEX
  8
1
  5
7E7A
 10
730.907
 20
1893.44
 30
0.000000
  70
    32
  0
VERTEX
  8
1
  5
7E7B
 10
731.115
 20
1894.05
 30
0.000000
  70
    32
  0
VERTEX
  8
1
  5
7E7C
 10
731.323
 20
1894.65
 30
0.000000
  70
    32
  0
VERTEX
  8
1
  5
7E7D
 10
731.533
 20
1895.26
 30
0.000000
  70
    32
  0
VERTEX
  8
1
  5
7E7E
 10
731.745
 20
1895.86
 30
0.000000
  70
    32
  0
VERTEX
  8
1
  5
7E7F
 10
731.957
 20
1896.47
 30
0.000000
  70
    32
  0
VERTEX
  8
1
  5
7E80
 10
732.171
 20
1897.07
 30
0.000000
  70
    32
  0
VERTEX
  8
1
  5
7E81
 10
732.387
 20
1897.68
 30
0.000000
  70
    32
  0
VERTEX
  8
1
  5
7E82
 10
732.603
 20
1898.28
 30
0.000000
  70
    32
  0
VERTEX
  8
1
  5
7E83
 10
732.821
 20
1898.88
 30
0.000000
  70
    32
  0
VERTEX
  8
1
  5
7E84
 10
733.041
 20
1899.48
 30
0.000000
  70
    32
  0
VERTEX
  8
1
  5
7E85
 10
733.261
 20
1900.09
 30
0.000000
  70
    32
  0
VERTEX
  8
1
  5
7E86
 10
733.483
 20
1900.69
 30
0.000000
  70
    32
  0
VERTEX
  8
1
  5
7E87
 10
733.706
 20
1901.29
 30
0.000000
  70
    32
  0
VERTEX
  8
1
  5
7E88
 10
733.930
 20
1901.89
 30
0.000000
  70
    32
  0
VERTEX
  8
1
  5
7E89
 10
734.156
 20
1902.49
 30
0.000000
  70
    32
  0
VERTEX
  8
1
  5
7E8A
 10
734.383
 20
1903.09
 30
0.000000
  70
    32
  0
VERTEX
  8
1
  5
7E8B
 10
734.611
 20
1903.68
 30
0.000000
  70
    32
  0
VERTEX
  8
1
  5
7E8C
 10
734.840
 20
1904.28
 30
0.000000
  70
    32
  0
VERTEX
  8
1
  5
7E8D
 10
735.070
 20
1904.88
 30
0.000000
  70
    32
  0
VERTEX
  8
1
  5
7E8E
 10
735.301
 20
1905.48
 30
0.000000
  70
    32
  0
VERTEX
  8
1
  5
7E8F
 10
735.534
 20
1906.07
 30
0.000000
  70
    32
  0
VERTEX
  8
1
  5
7E90
 10
735.768
 20
1906.67
 30
0.000000
  70
    32
  0
VERTEX
  8
1
  5
7E91
 10
736.002
 20
1907.27
 30
0.000000
  70
    32
  0
VERTEX
  8
1
  5
7E92
 10
736.238
 20
1907.86
 30
0.000000
  70
    32
  0
VERTEX
  8
1
  5
7E93
 10
736.475
 20
1908.45
 30
0.000000
  70
    32
  0
VERTEX
  8
1
  5
7E94
 10
736.713
 20
1909.05
 30
0.000000
  70
    32
  0
VERTEX
  8
1
  5
7E95
 10
736.952
 20
1909.64
 30
0.000000
  70
    32
  0
VERTEX
  8
1
  5
7E96
 10
737.192
 20
1910.24
 30
0.000000
  70
    32
  0
VERTEX
  8
1
  5
7E97
 10
737.432
 20
1910.83
 30
0.000000
  70
    32
  0
VERTEX
  8
1
  5
7E98
 10
737.674
 20
1911.42
 30
0.000000
  70
    32
  0
VERTEX
  8
1
  5
7E99
 10
737.917
 20
1912.01
 30
0.000000
  70
    32
  0
VERTEX
  8
1
  5
7E9A
 10
738.160
 20
1912.60
 30
0.000000
  70
    32
  0
VERTEX
  8
1
  5
7E9B
 10
738.405
 20
1913.20
 30
0.000000
  70
    32
  0
VERTEX
  8
1
  5
7E9C
 10
738.650
 20
1913.79
 30
0.000000
  70
    32
  0
VERTEX
  8
1
  5
7E9D
 10
738.897
 20
1914.38
 30
0.000000
  70
    32
  0
VERTEX
  8
1
  5
7E9E
 10
739.144
 20
1914.97
 30
0.000000
  70
    32
  0
VERTEX
  8
1
  5
7E9F
 10
739.392
 20
1915.56
 30
0.000000
  70
    32
  0
VERTEX
  8
1
  5
7EA0
 10
739.640
 20
1916.15
 30
0.000000
  70
    32
  0
VERTEX
  8
1
  5
7EA1
 10
739.890
 20
1916.73
 30
0.000000
  70
    32
  0
VERTEX
  8
1
  5
7EA2
 10
740.140
 20
1917.32
 30
0.000000
  70
    32
  0
VERTEX
  8
1
  5
7EA3
 10
740.391
 20
1917.91
 30
0.000000
  70
    32
  0
VERTEX
  8
1
  5
7EA4
 10
740.643
 20
1918.50
 30
0.000000
  70
    32
  0
VERTEX
  8
1
  5
7EA5
 10
740.895
 20
1919.09
 30
0.000000
  70
    32
  0
VERTEX
  8
1
  5
7EA6
 10
741.148
 20
1919.67
 30
0.000000
  70
    32
  0
VERTEX
  8
1
  5
7EA7
 10
741.402
 20
1920.26
 30
0.000000
  70
    32
  0
VERTEX
  8
1
  5
7EA8
 10
741.656
 20
1920.85
 30
0.000000
  70
    32
  0
VERTEX
  8
1
  5
7EA9
 10
741.911
 20
1921.43
 30
0.000000
  70
    32
  0
VERTEX
  8
1
  5
7EAA
 10
742.167
 20
1922.02
 30
0.000000
  70
    32
  0
VERTEX
  8
1
  5
7EAB
 10
742.423
 20
1922.61
 30
0.000000
  70
    32
  0
VERTEX
  8
1
  5
7EAC
 10
742.680
 20
1923.19
 30
0.000000
  70
    32
  0
VERTEX
  8
1
  5
7EAD
 10
742.937
 20
1923.78
 30
0.000000
  70
    32
  0
VERTEX
  8
1
  5
7EAE
 10
743.195
 20
1924.36
 30
0.000000
  70
    32
  0
VERTEX
  8
1
  5
7EAF
 10
743.453
 20
1924.95
 30
0.000000
  70
    32
  0
VERTEX
  8
1
  5
7EB0
 10
743.712
 20
1925.53
 30
0.000000
  70
    32
  0
VERTEX
  8
1
  5
7EB1
 10
743.972
 20
1926.12
 30
0.000000
  70
    32
  0
VERTEX
  8
1
  5
7EB2
 10
744.231
 20
1926.70
 30
0.000000
  70
    32
  0
VERTEX
  8
1
  5
7EB3
 10
744.492
 20
1927.29
 30
0.000000
  70
    32
  0
VERTEX
  8
1
  5
7EB4
 10
744.752
 20
1927.87
 30
0.000000
  70
    32
  0
VERTEX
  8
1
  5
7EB5
 10
745.013
 20
1928.45
 30
0.000000
  70
    32
  0
VERTEX
  8
1
  5
7EB6
 10
745.275
 20
1929.04
 30
0.000000
  70
    32
  0
VERTEX
  8
1
  5
7EB7
 10
745.537
 20
1929.62
 30
0.000000
  70
    32
  0
VERTEX
  8
1
  5
7EB8
 10
745.799
 20
1930.20
 30
0.000000
  70
    32
  0
VERTEX
  8
1
  5
7EB9
 10
746.061
 20
1930.79
 30
0.000000
  70
    32
  0
VERTEX
  8
1
  5
7EBA
 10
746.324
 20
1931.37
 30
0.000000
  70
    32
  0
VERTEX
  8
1
  5
7EBB
 10
746.587
 20
1931.95
 30
0.000000
  70
    32
  0
VERTEX
  8
1
  5
7EBC
 10
746.850
 20
1932.54
 30
0.000000
  70
    32
  0
VERTEX
  8
1
  5
7EBD
 10
747.114
 20
1933.12
 30
0.000000
  70
    32
  0
VERTEX
  8
1
  5
7EBE
 10
747.378
 20
1933.70
 30
0.000000
  70
    32
  0
VERTEX
  8
1
  5
7EBF
 10
747.642
 20
1934.28
 30
0.000000
  70
    32
  0
VERTEX
  8
1
  5
7EC0
 10
747.906
 20
1934.87
 30
0.000000
  70
    32
  0
VERTEX
  8
1
  5
7EC1
 10
748.170
 20
1935.45
 30
0.000000
  70
    32
  0
VERTEX
  8
1
  5
7EC2
 10
748.435
 20
1936.03
 30
0.000000
  70
    32
  0
VERTEX
  8
1
  5
7EC3
 10
748.700
 20
1936.61
 30
0.000000
  70
    32
  0
VERTEX
  8
1
  5
7EC4
 10
748.964
 20
1937.19
 30
0.000000
  70
    32
  0
VERTEX
  8
1
  5
7EC5
 10
749.229
 20
1937.78
 30
0.000000
  70
    32
  0
VERTEX
  8
1
  5
7EC6
 10
749.494
 20
1938.36
 30
0.000000
  70
    32
  0
VERTEX
  8
1
  5
7EC7
 10
749.759
 20
1938.94
 30
0.000000
  70
    32
  0
VERTEX
  8
1
  5
7EC8
 10
750.024
 20
1939.52
 30
0.000000
  70
    32
  0
VERTEX
  8
1
  5
7EC9
 10
750.289
 20
1940.10
 30
0.000000
  70
    32
  0
SEQEND
  8
1
  5
7ECA
  0
LINE
  5
7BAB
  8
1
 10
676.95694064260249
 20
1803.103770727824
 30
0.0
 11
713.62139787510841
 21
1803.103770727824
 31
0.0
  0
LINE
  5
7BAC
  8
1
 10
640.2891692588554
 20
1940.103770727824
 30
0.0
 11
750.28916925885551
 21
1940.103770727824
 31
0.0
  0
POLYLINE
  8
1
  5
7ECB
  66
     1
 10
0.000000
 20
0.000000
 30
0.000000
  70
     8
  0
VERTEX
  8
1
  5
7ECC
 10
713.621
 20
2357.10
 30
0.000000
  70
    32
  0
VERTEX
  8
1
  5
7ECD
 10
713.734
 20
2356.47
 30
0.000000
  70
    32
  0
VERTEX
  8
1
  5
7ECE
 10
713.847
 20
2355.84
 30
0.000000
  70
    32
  0
VERTEX
  8
1
  5
7ECF
 10
713.960
 20
2355.21
 30
0.000000
  70
    32
  0
VERTEX
  8
1
  5
7ED0
 10
714.073
 20
2354.59
 30
0.000000
  70
    32
  0
VERTEX
  8
1
  5
7ED1
 10
714.186
 20
2353.96
 30
0.000000
  70
    32
  0
VERTEX
  8
1
  5
7ED2
 10
714.298
 20
2353.33
 30
0.000000
  70
    32
  0
VERTEX
  8
1
  5
7ED3
 10
714.410
 20
2352.70
 30
0.000000
  70
    32
  0
VERTEX
  8
1
  5
7ED4
 10
714.523
 20
2352.07
 30
0.000000
  70
    32
  0
VERTEX
  8
1
  5
7ED5
 10
714.635
 20
2351.44
 30
0.000000
  70
    32
  0
VERTEX
  8
1
  5
7ED6
 10
714.746
 20
2350.81
 30
0.000000
  70
    32
  0
VERTEX
  8
1
  5
7ED7
 10
714.858
 20
2350.18
 30
0.000000
  70
    32
  0
VERTEX
  8
1
  5
7ED8
 10
714.969
 20
2349.55
 30
0.000000
  70
    32
  0
VERTEX
  8
1
  5
7ED9
 10
715.080
 20
2348.92
 30
0.000000
  70
    32
  0
VERTEX
  8
1
  5
7EDA
 10
715.190
 20
2348.29
 30
0.000000
  70
    32
  0
VERTEX
  8
1
  5
7EDB
 10
715.300
 20
2347.66
 30
0.000000
  70
    32
  0
VERTEX
  8
1
  5
7EDC
 10
715.410
 20
2347.03
 30
0.000000
  70
    32
  0
VERTEX
  8
1
  5
7EDD
 10
715.519
 20
2346.40
 30
0.000000
  70
    32
  0
VERTEX
  8
1
  5
7EDE
 10
715.628
 20
2345.77
 30
0.000000
  70
    32
  0
VERTEX
  8
1
  5
7EDF
 10
715.736
 20
2345.14
 30
0.000000
  70
    32
  0
VERTEX
  8
1
  5
7EE0
 10
715.844
 20
2344.51
 30
0.000000
  70
    32
  0
VERTEX
  8
1
  5
7EE1
 10
715.951
 20
2343.88
 30
0.000000
  70
    32
  0
VERTEX
  8
1
  5
7EE2
 10
716.058
 20
2343.24
 30
0.000000
  70
    32
  0
VERTEX
  8
1
  5
7EE3
 10
716.164
 20
2342.61
 30
0.000000
  70
    32
  0
VERTEX
  8
1
  5
7EE4
 10
716.269
 20
2341.98
 30
0.000000
  70
    32
  0
VERTEX
  8
1
  5
7EE5
 10
716.374
 20
2341.35
 30
0.000000
  70
    32
  0
VERTEX
  8
1
  5
7EE6
 10
716.478
 20
2340.72
 30
0.000000
  70
    32
  0
VERTEX
  8
1
  5
7EE7
 10
716.582
 20
2340.09
 30
0.000000
  70
    32
  0
VERTEX
  8
1
  5
7EE8
 10
716.684
 20
2339.46
 30
0.000000
  70
    32
  0
VERTEX
  8
1
  5
7EE9
 10
716.786
 20
2338.83
 30
0.000000
  70
    32
  0
VERTEX
  8
1
  5
7EEA
 10
716.887
 20
2338.20
 30
0.000000
  70
    32
  0
VERTEX
  8
1
  5
7EEB
 10
716.988
 20
2337.56
 30
0.000000
  70
    32
  0
VERTEX
  8
1
  5
7EEC
 10
717.087
 20
2336.93
 30
0.000000
  70
    32
  0
VERTEX
  8
1
  5
7EED
 10
717.186
 20
2336.30
 30
0.000000
  70
    32
  0
VERTEX
  8
1
  5
7EEE
 10
717.283
 20
2335.67
 30
0.000000
  70
    32
  0
VERTEX
  8
1
  5
7EEF
 10
717.380
 20
2335.04
 30
0.000000
  70
    32
  0
VERTEX
  8
1
  5
7EF0
 10
717.476
 20
2334.40
 30
0.000000
  70
    32
  0
VERTEX
  8
1
  5
7EF1
 10
717.571
 20
2333.77
 30
0.000000
  70
    32
  0
VERTEX
  8
1
  5
7EF2
 10
717.664
 20
2333.14
 30
0.000000
  70
    32
  0
VERTEX
  8
1
  5
7EF3
 10
717.757
 20
2332.51
 30
0.000000
  70
    32
  0
VERTEX
  8
1
  5
7EF4
 10
717.849
 20
2331.87
 30
0.000000
  70
    32
  0
VERTEX
  8
1
  5
7EF5
 10
717.940
 20
2331.24
 30
0.000000
  70
    32
  0
VERTEX
  8
1
  5
7EF6
 10
718.029
 20
2330.61
 30
0.000000
  70
    32
  0
VERTEX
  8
1
  5
7EF7
 10
718.118
 20
2329.97
 30
0.000000
  70
    32
  0
VERTEX
  8
1
  5
7EF8
 10
718.205
 20
2329.34
 30
0.000000
  70
    32
  0
VERTEX
  8
1
  5
7EF9
 10
718.291
 20
2328.71
 30
0.000000
  70
    32
  0
VERTEX
  8
1
  5
7EFA
 10
718.376
 20
2328.07
 30
0.000000
  70
    32
  0
VERTEX
  8
1
  5
7EFB
 10
718.460
 20
2327.44
 30
0.000000
  70
    32
  0
VERTEX
  8
1
  5
7EFC
 10
718.544
 20
2326.80
 30
0.000000
  70
    32
  0
VERTEX
  8
1
  5
7EFD
 10
718.626
 20
2326.17
 30
0.000000
  70
    32
  0
VERTEX
  8
1
  5
7EFE
 10
718.708
 20
2325.54
 30
0.000000
  70
    32
  0
VERTEX
  8
1
  5
7EFF
 10
718.789
 20
2324.90
 30
0.000000
  70
    32
  0
VERTEX
  8
1
  5
7F00
 10
718.869
 20
2324.27
 30
0.000000
  70
    32
  0
VERTEX
  8
1
  5
7F01
 10
718.949
 20
2323.63
 30
0.000000
  70
    32
  0
VERTEX
  8
1
  5
7F02
 10
719.029
 20
2323.00
 30
0.000000
  70
    32
  0
VERTEX
  8
1
  5
7F03
 10
719.108
 20
2322.36
 30
0.000000
  70
    32
  0
VERTEX
  8
1
  5
7F04
 10
719.187
 20
2321.73
 30
0.000000
  70
    32
  0
VERTEX
  8
1
  5
7F05
 10
719.265
 20
2321.09
 30
0.000000
  70
    32
  0
VERTEX
  8
1
  5
7F06
 10
719.344
 20
2320.46
 30
0.000000
  70
    32
  0
VERTEX
  8
1
  5
7F07
 10
719.422
 20
2319.82
 30
0.000000
  70
    32
  0
VERTEX
  8
1
  5
7F08
 10
719.500
 20
2319.19
 30
0.000000
  70
    32
  0
VERTEX
  8
1
  5
7F09
 10
719.578
 20
2318.55
 30
0.000000
  70
    32
  0
VERTEX
  8
1
  5
7F0A
 10
719.657
 20
2317.92
 30
0.000000
  70
    32
  0
VERTEX
  8
1
  5
7F0B
 10
719.735
 20
2317.28
 30
0.000000
  70
    32
  0
VERTEX
  8
1
  5
7F0C
 10
719.814
 20
2316.65
 30
0.000000
  70
    32
  0
VERTEX
  8
1
  5
7F0D
 10
719.893
 20
2316.01
 30
0.000000
  70
    32
  0
VERTEX
  8
1
  5
7F0E
 10
719.973
 20
2315.38
 30
0.000000
  70
    32
  0
VERTEX
  8
1
  5
7F0F
 10
720.052
 20
2314.74
 30
0.000000
  70
    32
  0
VERTEX
  8
1
  5
7F10
 10
720.133
 20
2314.11
 30
0.000000
  70
    32
  0
VERTEX
  8
1
  5
7F11
 10
720.214
 20
2313.47
 30
0.000000
  70
    32
  0
VERTEX
  8
1
  5
7F12
 10
720.295
 20
2312.84
 30
0.000000
  70
    32
  0
VERTEX
  8
1
  5
7F13
 10
720.378
 20
2312.20
 30
0.000000
  70
    32
  0
VERTEX
  8
1
  5
7F14
 10
720.461
 20
2311.57
 30
0.000000
  70
    32
  0
VERTEX
  8
1
  5
7F15
 10
720.545
 20
2310.94
 30
0.000000
  70
    32
  0
VERTEX
  8
1
  5
7F16
 10
720.630
 20
2310.30
 30
0.000000
  70
    32
  0
VERTEX
  8
1
  5
7F17
 10
720.716
 20
2309.67
 30
0.000000
  70
    32
  0
VERTEX
  8
1
  5
7F18
 10
720.803
 20
2309.03
 30
0.000000
  70
    32
  0
VERTEX
  8
1
  5
7F19
 10
720.891
 20
2308.40
 30
0.000000
  70
    32
  0
VERTEX
  8
1
  5
7F1A
 10
720.980
 20
2307.77
 30
0.000000
  70
    32
  0
VERTEX
  8
1
  5
7F1B
 10
721.071
 20
2307.14
 30
0.000000
  70
    32
  0
VERTEX
  8
1
  5
7F1C
 10
721.163
 20
2306.50
 30
0.000000
  70
    32
  0
VERTEX
  8
1
  5
7F1D
 10
721.257
 20
2305.87
 30
0.000000
  70
    32
  0
VERTEX
  8
1
  5
7F1E
 10
721.352
 20
2305.24
 30
0.000000
  70
    32
  0
VERTEX
  8
1
  5
7F1F
 10
721.448
 20
2304.61
 30
0.000000
  70
    32
  0
VERTEX
  8
1
  5
7F20
 10
721.546
 20
2303.97
 30
0.000000
  70
    32
  0
VERTEX
  8
1
  5
7F21
 10
721.646
 20
2303.34
 30
0.000000
  70
    32
  0
VERTEX
  8
1
  5
7F22
 10
721.747
 20
2302.71
 30
0.000000
  70
    32
  0
VERTEX
  8
1
  5
7F23
 10
721.851
 20
2302.08
 30
0.000000
  70
    32
  0
VERTEX
  8
1
  5
7F24
 10
721.956
 20
2301.45
 30
0.000000
  70
    32
  0
VERTEX
  8
1
  5
7F25
 10
722.064
 20
2300.82
 30
0.000000
  70
    32
  0
VERTEX
  8
1
  5
7F26
 10
722.173
 20
2300.19
 30
0.000000
  70
    32
  0
VERTEX
  8
1
  5
7F27
 10
722.284
 20
2299.56
 30
0.000000
  70
    32
  0
VERTEX
  8
1
  5
7F28
 10
722.398
 20
2298.93
 30
0.000000
  70
    32
  0
VERTEX
  8
1
  5
7F29
 10
722.514
 20
2298.30
 30
0.000000
  70
    32
  0
VERTEX
  8
1
  5
7F2A
 10
722.631
 20
2297.67
 30
0.000000
  70
    32
  0
VERTEX
  8
1
  5
7F2B
 10
722.751
 20
2297.05
 30
0.000000
  70
    32
  0
VERTEX
  8
1
  5
7F2C
 10
722.873
 20
2296.42
 30
0.000000
  70
    32
  0
VERTEX
  8
1
  5
7F2D
 10
722.997
 20
2295.79
 30
0.000000
  70
    32
  0
VERTEX
  8
1
  5
7F2E
 10
723.124
 20
2295.16
 30
0.000000
  70
    32
  0
VERTEX
  8
1
  5
7F2F
 10
723.252
 20
2294.54
 30
0.000000
  70
    32
  0
VERTEX
  8
1
  5
7F30
 10
723.382
 20
2293.91
 30
0.000000
  70
    32
  0
VERTEX
  8
1
  5
7F31
 10
723.514
 20
2293.29
 30
0.000000
  70
    32
  0
VERTEX
  8
1
  5
7F32
 10
723.648
 20
2292.66
 30
0.000000
  70
    32
  0
VERTEX
  8
1
  5
7F33
 10
723.784
 20
2292.04
 30
0.000000
  70
    32
  0
VERTEX
  8
1
  5
7F34
 10
723.923
 20
2291.41
 30
0.000000
  70
    32
  0
VERTEX
  8
1
  5
7F35
 10
724.063
 20
2290.79
 30
0.000000
  70
    32
  0
VERTEX
  8
1
  5
7F36
 10
724.205
 20
2290.16
 30
0.000000
  70
    32
  0
VERTEX
  8
1
  5
7F37
 10
724.349
 20
2289.54
 30
0.000000
  70
    32
  0
VERTEX
  8
1
  5
7F38
 10
724.495
 20
2288.92
 30
0.000000
  70
    32
  0
VERTEX
  8
1
  5
7F39
 10
724.642
 20
2288.29
 30
0.000000
  70
    32
  0
VERTEX
  8
1
  5
7F3A
 10
724.792
 20
2287.67
 30
0.000000
  70
    32
  0
VERTEX
  8
1
  5
7F3B
 10
724.944
 20
2287.05
 30
0.000000
  70
    32
  0
VERTEX
  8
1
  5
7F3C
 10
725.097
 20
2286.43
 30
0.000000
  70
    32
  0
VERTEX
  8
1
  5
7F3D
 10
725.252
 20
2285.81
 30
0.000000
  70
    32
  0
VERTEX
  8
1
  5
7F3E
 10
725.409
 20
2285.19
 30
0.000000
  70
    32
  0
VERTEX
  8
1
  5
7F3F
 10
725.568
 20
2284.57
 30
0.000000
  70
    32
  0
VERTEX
  8
1
  5
7F40
 10
725.729
 20
2283.95
 30
0.000000
  70
    32
  0
VERTEX
  8
1
  5
7F41
 10
725.891
 20
2283.33
 30
0.000000
  70
    32
  0
VERTEX
  8
1
  5
7F42
 10
726.056
 20
2282.71
 30
0.000000
  70
    32
  0
VERTEX
  8
1
  5
7F43
 10
726.222
 20
2282.09
 30
0.000000
  70
    32
  0
VERTEX
  8
1
  5
7F44
 10
726.390
 20
2281.47
 30
0.000000
  70
    32
  0
VERTEX
  8
1
  5
7F45
 10
726.559
 20
2280.85
 30
0.000000
  70
    32
  0
VERTEX
  8
1
  5
7F46
 10
726.730
 20
2280.24
 30
0.000000
  70
    32
  0
VERTEX
  8
1
  5
7F47
 10
726.903
 20
2279.62
 30
0.000000
  70
    32
  0
VERTEX
  8
1
  5
7F48
 10
727.078
 20
2279.00
 30
0.000000
  70
    32
  0
VERTEX
  8
1
  5
7F49
 10
727.254
 20
2278.39
 30
0.000000
  70
    32
  0
VERTEX
  8
1
  5
7F4A
 10
727.433
 20
2277.77
 30
0.000000
  70
    32
  0
VERTEX
  8
1
  5
7F4B
 10
727.612
 20
2277.16
 30
0.000000
  70
    32
  0
VERTEX
  8
1
  5
7F4C
 10
727.794
 20
2276.54
 30
0.000000
  70
    32
  0
VERTEX
  8
1
  5
7F4D
 10
727.977
 20
2275.93
 30
0.000000
  70
    32
  0
VERTEX
  8
1
  5
7F4E
 10
728.161
 20
2275.31
 30
0.000000
  70
    32
  0
VERTEX
  8
1
  5
7F4F
 10
728.347
 20
2274.70
 30
0.000000
  70
    32
  0
VERTEX
  8
1
  5
7F50
 10
728.535
 20
2274.09
 30
0.000000
  70
    32
  0
VERTEX
  8
1
  5
7F51
 10
728.724
 20
2273.47
 30
0.000000
  70
    32
  0
VERTEX
  8
1
  5
7F52
 10
728.915
 20
2272.86
 30
0.000000
  70
    32
  0
VERTEX
  8
1
  5
7F53
 10
729.108
 20
2272.25
 30
0.000000
  70
    32
  0
VERTEX
  8
1
  5
7F54
 10
729.302
 20
2271.64
 30
0.000000
  70
    32
  0
VERTEX
  8
1
  5
7F55
 10
729.497
 20
2271.03
 30
0.000000
  70
    32
  0
VERTEX
  8
1
  5
7F56
 10
729.694
 20
2270.42
 30
0.000000
  70
    32
  0
VERTEX
  8
1
  5
7F57
 10
729.893
 20
2269.81
 30
0.000000
  70
    32
  0
VERTEX
  8
1
  5
7F58
 10
730.093
 20
2269.20
 30
0.000000
  70
    32
  0
VERTEX
  8
1
  5
7F59
 10
730.294
 20
2268.59
 30
0.000000
  70
    32
  0
VERTEX
  8
1
  5
7F5A
 10
730.497
 20
2267.98
 30
0.000000
  70
    32
  0
VERTEX
  8
1
  5
7F5B
 10
730.702
 20
2267.38
 30
0.000000
  70
    32
  0
VERTEX
  8
1
  5
7F5C
 10
730.907
 20
2266.77
 30
0.000000
  70
    32
  0
VERTEX
  8
1
  5
7F5D
 10
731.115
 20
2266.16
 30
0.000000
  70
    32
  0
VERTEX
  8
1
  5
7F5E
 10
731.323
 20
2265.56
 30
0.000000
  70
    32
  0
VERTEX
  8
1
  5
7F5F
 10
731.533
 20
2264.95
 30
0.000000
  70
    32
  0
VERTEX
  8
1
  5
7F60
 10
731.745
 20
2264.34
 30
0.000000
  70
    32
  0
VERTEX
  8
1
  5
7F61
 10
731.957
 20
2263.74
 30
0.000000
  70
    32
  0
VERTEX
  8
1
  5
7F62
 10
732.171
 20
2263.14
 30
0.000000
  70
    32
  0
VERTEX
  8
1
  5
7F63
 10
732.387
 20
2262.53
 30
0.000000
  70
    32
  0
VERTEX
  8
1
  5
7F64
 10
732.603
 20
2261.93
 30
0.000000
  70
    32
  0
VERTEX
  8
1
  5
7F65
 10
732.821
 20
2261.33
 30
0.000000
  70
    32
  0
VERTEX
  8
1
  5
7F66
 10
733.041
 20
2260.72
 30
0.000000
  70
    32
  0
VERTEX
  8
1
  5
7F67
 10
733.261
 20
2260.12
 30
0.000000
  70
    32
  0
VERTEX
  8
1
  5
7F68
 10
733.483
 20
2259.52
 30
0.000000
  70
    32
  0
VERTEX
  8
1
  5
7F69
 10
733.706
 20
2258.92
 30
0.000000
  70
    32
  0
VERTEX
  8
1
  5
7F6A
 10
733.930
 20
2258.32
 30
0.000000
  70
    32
  0
VERTEX
  8
1
  5
7F6B
 10
734.156
 20
2257.72
 30
0.000000
  70
    32
  0
VERTEX
  8
1
  5
7F6C
 10
734.383
 20
2257.12
 30
0.000000
  70
    32
  0
VERTEX
  8
1
  5
7F6D
 10
734.611
 20
2256.52
 30
0.000000
  70
    32
  0
VERTEX
  8
1
  5
7F6E
 10
734.840
 20
2255.92
 30
0.000000
  70
    32
  0
VERTEX
  8
1
  5
7F6F
 10
735.070
 20
2255.33
 30
0.000000
  70
    32
  0
VERTEX
  8
1
  5
7F70
 10
735.301
 20
2254.73
 30
0.000000
  70
    32
  0
VERTEX
  8
1
  5
7F71
 10
735.534
 20
2254.13
 30
0.000000
  70
    32
  0
VERTEX
  8
1
  5
7F72
 10
735.768
 20
2253.54
 30
0.000000
  70
    32
  0
VERTEX
  8
1
  5
7F73
 10
736.002
 20
2252.94
 30
0.000000
  70
    32
  0
VERTEX
  8
1
  5
7F74
 10
736.238
 20
2252.35
 30
0.000000
  70
    32
  0
VERTEX
  8
1
  5
7F75
 10
736.475
 20
2251.75
 30
0.000000
  70
    32
  0
VERTEX
  8
1
  5
7F76
 10
736.713
 20
2251.16
 30
0.000000
  70
    32
  0
VERTEX
  8
1
  5
7F77
 10
736.952
 20
2250.56
 30
0.000000
  70
    32
  0
VERTEX
  8
1
  5
7F78
 10
737.192
 20
2249.97
 30
0.000000
  70
    32
  0
VERTEX
  8
1
  5
7F79
 10
737.432
 20
2249.38
 30
0.000000
  70
    32
  0
VERTEX
  8
1
  5
7F7A
 10
737.674
 20
2248.79
 30
0.000000
  70
    32
  0
VERTEX
  8
1
  5
7F7B
 10
737.917
 20
2248.19
 30
0.000000
  70
    32
  0
VERTEX
  8
1
  5
7F7C
 10
738.160
 20
2247.60
 30
0.000000
  70
    32
  0
VERTEX
  8
1
  5
7F7D
 10
738.405
 20
2247.01
 30
0.000000
  70
    32
  0
VERTEX
  8
1
  5
7F7E
 10
738.650
 20
2246.42
 30
0.000000
  70
    32
  0
VERTEX
  8
1
  5
7F7F
 10
738.897
 20
2245.83
 30
0.000000
  70
    32
  0
VERTEX
  8
1
  5
7F80
 10
739.144
 20
2245.24
 30
0.000000
  70
    32
  0
VERTEX
  8
1
  5
7F81
 10
739.392
 20
2244.65
 30
0.000000
  70
    32
  0
VERTEX
  8
1
  5
7F82
 10
739.640
 20
2244.06
 30
0.000000
  70
    32
  0
VERTEX
  8
1
  5
7F83
 10
739.890
 20
2243.47
 30
0.000000
  70
    32
  0
VERTEX
  8
1
  5
7F84
 10
740.140
 20
2242.88
 30
0.000000
  70
    32
  0
VERTEX
  8
1
  5
7F85
 10
740.391
 20
2242.30
 30
0.000000
  70
    32
  0
VERTEX
  8
1
  5
7F86
 10
740.643
 20
2241.71
 30
0.000000
  70
    32
  0
VERTEX
  8
1
  5
7F87
 10
740.895
 20
2241.12
 30
0.000000
  70
    32
  0
VERTEX
  8
1
  5
7F88
 10
741.148
 20
2240.53
 30
0.000000
  70
    32
  0
VERTEX
  8
1
  5
7F89
 10
741.402
 20
2239.95
 30
0.000000
  70
    32
  0
VERTEX
  8
1
  5
7F8A
 10
741.656
 20
2239.36
 30
0.000000
  70
    32
  0
VERTEX
  8
1
  5
7F8B
 10
741.911
 20
2238.77
 30
0.000000
  70
    32
  0
VERTEX
  8
1
  5
7F8C
 10
742.167
 20
2238.19
 30
0.000000
  70
    32
  0
VERTEX
  8
1
  5
7F8D
 10
742.423
 20
2237.60
 30
0.000000
  70
    32
  0
VERTEX
  8
1
  5
7F8E
 10
742.680
 20
2237.02
 30
0.000000
  70
    32
  0
VERTEX
  8
1
  5
7F8F
 10
742.937
 20
2236.43
 30
0.000000
  70
    32
  0
VERTEX
  8
1
  5
7F90
 10
743.195
 20
2235.84
 30
0.000000
  70
    32
  0
VERTEX
  8
1
  5
7F91
 10
743.453
 20
2235.26
 30
0.000000
  70
    32
  0
VERTEX
  8
1
  5
7F92
 10
743.712
 20
2234.67
 30
0.000000
  70
    32
  0
VERTEX
  8
1
  5
7F93
 10
743.972
 20
2234.09
 30
0.000000
  70
    32
  0
VERTEX
  8
1
  5
7F94
 10
744.231
 20
2233.51
 30
0.000000
  70
    32
  0
VERTEX
  8
1
  5
7F95
 10
744.492
 20
2232.92
 30
0.000000
  70
    32
  0
VERTEX
  8
1
  5
7F96
 10
744.752
 20
2232.34
 30
0.000000
  70
    32
  0
VERTEX
  8
1
  5
7F97
 10
745.013
 20
2231.75
 30
0.000000
  70
    32
  0
VERTEX
  8
1
  5
7F98
 10
745.275
 20
2231.17
 30
0.000000
  70
    32
  0
VERTEX
  8
1
  5
7F99
 10
745.537
 20
2230.59
 30
0.000000
  70
    32
  0
VERTEX
  8
1
  5
7F9A
 10
745.799
 20
2230.00
 30
0.000000
  70
    32
  0
VERTEX
  8
1
  5
7F9B
 10
746.061
 20
2229.42
 30
0.000000
  70
    32
  0
VERTEX
  8
1
  5
7F9C
 10
746.324
 20
2228.84
 30
0.000000
  70
    32
  0
VERTEX
  8
1
  5
7F9D
 10
746.587
 20
2228.26
 30
0.000000
  70
    32
  0
VERTEX
  8
1
  5
7F9E
 10
746.850
 20
2227.67
 30
0.000000
  70
    32
  0
VERTEX
  8
1
  5
7F9F
 10
747.114
 20
2227.09
 30
0.000000
  70
    32
  0
VERTEX
  8
1
  5
7FA0
 10
747.378
 20
2226.51
 30
0.000000
  70
    32
  0
VERTEX
  8
1
  5
7FA1
 10
747.642
 20
2225.92
 30
0.000000
  70
    32
  0
VERTEX
  8
1
  5
7FA2
 10
747.906
 20
2225.34
 30
0.000000
  70
    32
  0
VERTEX
  8
1
  5
7FA3
 10
748.170
 20
2224.76
 30
0.000000
  70
    32
  0
VERTEX
  8
1
  5
7FA4
 10
748.435
 20
2224.18
 30
0.000000
  70
    32
  0
VERTEX
  8
1
  5
7FA5
 10
748.700
 20
2223.60
 30
0.000000
  70
    32
  0
VERTEX
  8
1
  5
7FA6
 10
748.964
 20
2223.01
 30
0.000000
  70
    32
  0
VERTEX
  8
1
  5
7FA7
 10
749.229
 20
2222.43
 30
0.000000
  70
    32
  0
VERTEX
  8
1
  5
7FA8
 10
749.494
 20
2221.85
 30
0.000000
  70
    32
  0
VERTEX
  8
1
  5
7FA9
 10
749.759
 20
2221.27
 30
0.000000
  70
    32
  0
VERTEX
  8
1
  5
7FAA
 10
750.024
 20
2220.69
 30
0.000000
  70
    32
  0
VERTEX
  8
1
  5
7FAB
 10
750.289
 20
2220.10
 30
0.000000
  70
    32
  0
SEQEND
  8
1
  5
7FAC
  0
POLYLINE
  8
1
  5
7FAD
  66
     1
 10
0.000000
 20
0.000000
 30
0.000000
  70
     8
  0
VERTEX
  8
1
  5
7FAE
 10
676.957
 20
2357.10
 30
0.000000
  70
    32
  0
VERTEX
  8
1
  5
7FAF
 10
676.844
 20
2356.47
 30
0.000000
  70
    32
  0
VERTEX
  8
1
  5
7FB0
 10
676.731
 20
2355.84
 30
0.000000
  70
    32
  0
VERTEX
  8
1
  5
7FB1
 10
676.618
 20
2355.21
 30
0.000000
  70
    32
  0
VERTEX
  8
1
  5
7FB2
 10
676.505
 20
2354.59
 30
0.000000
  70
    32
  0
VERTEX
  8
1
  5
7FB3
 10
676.393
 20
2353.96
 30
0.000000
  70
    32
  0
VERTEX
  8
1
  5
7FB4
 10
676.280
 20
2353.33
 30
0.000000
  70
    32
  0
VERTEX
  8
1
  5
7FB5
 10
676.168
 20
2352.70
 30
0.000000
  70
    32
  0
VERTEX
  8
1
  5
7FB6
 10
676.056
 20
2352.07
 30
0.000000
  70
    32
  0
VERTEX
  8
1
  5
7FB7
 10
675.944
 20
2351.44
 30
0.000000
  70
    32
  0
VERTEX
  8
1
  5
7FB8
 10
675.832
 20
2350.81
 30
0.000000
  70
    32
  0
VERTEX
  8
1
  5
7FB9
 10
675.721
 20
2350.18
 30
0.000000
  70
    32
  0
VERTEX
  8
1
  5
7FBA
 10
675.609
 20
2349.55
 30
0.000000
  70
    32
  0
VERTEX
  8
1
  5
7FBB
 10
675.499
 20
2348.92
 30
0.000000
  70
    32
  0
VERTEX
  8
1
  5
7FBC
 10
675.388
 20
2348.29
 30
0.000000
  70
    32
  0
VERTEX
  8
1
  5
7FBD
 10
675.278
 20
2347.66
 30
0.000000
  70
    32
  0
VERTEX
  8
1
  5
7FBE
 10
675.168
 20
2347.03
 30
0.000000
  70
    32
  0
VERTEX
  8
1
  5
7FBF
 10
675.059
 20
2346.40
 30
0.000000
  70
    32
  0
VERTEX
  8
1
  5
7FC0
 10
674.950
 20
2345.77
 30
0.000000
  70
    32
  0
VERTEX
  8
1
  5
7FC1
 10
674.842
 20
2345.14
 30
0.000000
  70
    32
  0
VERTEX
  8
1
  5
7FC2
 10
674.734
 20
2344.51
 30
0.000000
  70
    32
  0
VERTEX
  8
1
  5
7FC3
 10
674.627
 20
2343.88
 30
0.000000
  70
    32
  0
VERTEX
  8
1
  5
7FC4
 10
674.520
 20
2343.24
 30
0.000000
  70
    32
  0
VERTEX
  8
1
  5
7FC5
 10
674.414
 20
2342.61
 30
0.000000
  70
    32
  0
VERTEX
  8
1
  5
7FC6
 10
674.309
 20
2341.98
 30
0.000000
  70
    32
  0
VERTEX
  8
1
  5
7FC7
 10
674.204
 20
2341.35
 30
0.000000
  70
    32
  0
VERTEX
  8
1
  5
7FC8
 10
674.100
 20
2340.72
 30
0.000000
  70
    32
  0
VERTEX
  8
1
  5
7FC9
 10
673.997
 20
2340.09
 30
0.000000
  70
    32
  0
VERTEX
  8
1
  5
7FCA
 10
673.894
 20
2339.46
 30
0.000000
  70
    32
  0
VERTEX
  8
1
  5
7FCB
 10
673.792
 20
2338.83
 30
0.000000
  70
    32
  0
VERTEX
  8
1
  5
7FCC
 10
673.691
 20
2338.20
 30
0.000000
  70
    32
  0
VERTEX
  8
1
  5
7FCD
 10
673.591
 20
2337.56
 30
0.000000
  70
    32
  0
VERTEX
  8
1
  5
7FCE
 10
673.491
 20
2336.93
 30
0.000000
  70
    32
  0
VERTEX
  8
1
  5
7FCF
 10
673.393
 20
2336.30
 30
0.000000
  70
    32
  0
VERTEX
  8
1
  5
7FD0
 10
673.295
 20
2335.67
 30
0.000000
  70
    32
  0
VERTEX
  8
1
  5
7FD1
 10
673.198
 20
2335.04
 30
0.000000
  70
    32
  0
VERTEX
  8
1
  5
7FD2
 10
673.103
 20
2334.40
 30
0.000000
  70
    32
  0
VERTEX
  8
1
  5
7FD3
 10
673.008
 20
2333.77
 30
0.000000
  70
    32
  0
VERTEX
  8
1
  5
7FD4
 10
672.914
 20
2333.14
 30
0.000000
  70
    32
  0
VERTEX
  8
1
  5
7FD5
 10
672.821
 20
2332.51
 30
0.000000
  70
    32
  0
VERTEX
  8
1
  5
7FD6
 10
672.729
 20
2331.87
 30
0.000000
  70
    32
  0
VERTEX
  8
1
  5
7FD7
 10
672.639
 20
2331.24
 30
0.000000
  70
    32
  0
VERTEX
  8
1
  5
7FD8
 10
672.549
 20
2330.61
 30
0.000000
  70
    32
  0
VERTEX
  8
1
  5
7FD9
 10
672.461
 20
2329.97
 30
0.000000
  70
    32
  0
VERTEX
  8
1
  5
7FDA
 10
672.374
 20
2329.34
 30
0.000000
  70
    32
  0
VERTEX
  8
1
  5
7FDB
 10
672.287
 20
2328.71
 30
0.000000
  70
    32
  0
VERTEX
  8
1
  5
7FDC
 10
672.202
 20
2328.07
 30
0.000000
  70
    32
  0
VERTEX
  8
1
  5
7FDD
 10
672.118
 20
2327.44
 30
0.000000
  70
    32
  0
VERTEX
  8
1
  5
7FDE
 10
672.035
 20
2326.80
 30
0.000000
  70
    32
  0
VERTEX
  8
1
  5
7FDF
 10
671.952
 20
2326.17
 30
0.000000
  70
    32
  0
VERTEX
  8
1
  5
7FE0
 10
671.871
 20
2325.54
 30
0.000000
  70
    32
  0
VERTEX
  8
1
  5
7FE1
 10
671.789
 20
2324.90
 30
0.000000
  70
    32
  0
VERTEX
  8
1
  5
7FE2
 10
671.709
 20
2324.27
 30
0.000000
  70
    32
  0
VERTEX
  8
1
  5
7FE3
 10
671.629
 20
2323.63
 30
0.000000
  70
    32
  0
VERTEX
  8
1
  5
7FE4
 10
671.549
 20
2323.00
 30
0.000000
  70
    32
  0
VERTEX
  8
1
  5
7FE5
 10
671.470
 20
2322.36
 30
0.000000
  70
    32
  0
VERTEX
  8
1
  5
7FE6
 10
671.391
 20
2321.73
 30
0.000000
  70
    32
  0
VERTEX
  8
1
  5
7FE7
 10
671.313
 20
2321.09
 30
0.000000
  70
    32
  0
VERTEX
  8
1
  5
7FE8
 10
671.235
 20
2320.46
 30
0.000000
  70
    32
  0
VERTEX
  8
1
  5
7FE9
 10
671.156
 20
2319.82
 30
0.000000
  70
    32
  0
VERTEX
  8
1
  5
7FEA
 10
671.078
 20
2319.19
 30
0.000000
  70
    32
  0
VERTEX
  8
1
  5
7FEB
 10
671.000
 20
2318.55
 30
0.000000
  70
    32
  0
VERTEX
  8
1
  5
7FEC
 10
670.921
 20
2317.92
 30
0.000000
  70
    32
  0
VERTEX
  8
1
  5
7FED
 10
670.843
 20
2317.28
 30
0.000000
  70
    32
  0
VERTEX
  8
1
  5
7FEE
 10
670.764
 20
2316.65
 30
0.000000
  70
    32
  0
VERTEX
  8
1
  5
7FEF
 10
670.685
 20
2316.01
 30
0.000000
  70
    32
  0
VERTEX
  8
1
  5
7FF0
 10
670.606
 20
2315.38
 30
0.000000
  70
    32
  0
VERTEX
  8
1
  5
7FF1
 10
670.526
 20
2314.74
 30
0.000000
  70
    32
  0
VERTEX
  8
1
  5
7FF2
 10
670.445
 20
2314.11
 30
0.000000
  70
    32
  0
VERTEX
  8
1
  5
7FF3
 10
670.364
 20
2313.47
 30
0.000000
  70
    32
  0
VERTEX
  8
1
  5
7FF4
 10
670.283
 20
2312.84
 30
0.000000
  70
    32
  0
VERTEX
  8
1
  5
7FF5
 10
670.201
 20
2312.20
 30
0.000000
  70
    32
  0
VERTEX
  8
1
  5
7FF6
 10
670.117
 20
2311.57
 30
0.000000
  70
    32
  0
VERTEX
  8
1
  5
7FF7
 10
670.033
 20
2310.94
 30
0.000000
  70
    32
  0
VERTEX
  8
1
  5
7FF8
 10
669.948
 20
2310.30
 30
0.000000
  70
    32
  0
VERTEX
  8
1
  5
7FF9
 10
669.862
 20
2309.67
 30
0.000000
  70
    32
  0
VERTEX
  8
1
  5
7FFA
 10
669.775
 20
2309.03
 30
0.000000
  70
    32
  0
VERTEX
  8
1
  5
7FFB
 10
669.687
 20
2308.40
 30
0.000000
  70
    32
  0
VERTEX
  8
1
  5
7FFC
 10
669.598
 20
2307.77
 30
0.000000
  70
    32
  0
VERTEX
  8
1
  5
7FFD
 10
669.507
 20
2307.14
 30
0.000000
  70
    32
  0
VERTEX
  8
1
  5
7FFE
 10
669.415
 20
2306.50
 30
0.000000
  70
    32
  0
VERTEX
  8
1
  5
7FFF
 10
669.322
 20
2305.87
 30
0.000000
  70
    32
  0
VERTEX
  8
1
  5
8000
 10
669.227
 20
2305.24
 30
0.000000
  70
    32
  0
VERTEX
  8
1
  5
8001
 10
669.130
 20
2304.61
 30
0.000000
  70
    32
  0
VERTEX
  8
1
  5
8002
 10
669.032
 20
2303.97
 30
0.000000
  70
    32
  0
VERTEX
  8
1
  5
8003
 10
668.932
 20
2303.34
 30
0.000000
  70
    32
  0
VERTEX
  8
1
  5
8004
 10
668.831
 20
2302.71
 30
0.000000
  70
    32
  0
VERTEX
  8
1
  5
8005
 10
668.727
 20
2302.08
 30
0.000000
  70
    32
  0
VERTEX
  8
1
  5
8006
 10
668.622
 20
2301.45
 30
0.000000
  70
    32
  0
VERTEX
  8
1
  5
8007
 10
668.515
 20
2300.82
 30
0.000000
  70
    32
  0
VERTEX
  8
1
  5
8008
 10
668.405
 20
2300.19
 30
0.000000
  70
    32
  0
VERTEX
  8
1
  5
8009
 10
668.294
 20
2299.56
 30
0.000000
  70
    32
  0
VERTEX
  8
1
  5
800A
 10
668.180
 20
2298.93
 30
0.000000
  70
    32
  0
VERTEX
  8
1
  5
800B
 10
668.065
 20
2298.30
 30
0.000000
  70
    32
  0
VERTEX
  8
1
  5
800C
 10
667.947
 20
2297.67
 30
0.000000
  70
    32
  0
VERTEX
  8
1
  5
800D
 10
667.827
 20
2297.05
 30
0.000000
  70
    32
  0
VERTEX
  8
1
  5
800E
 10
667.705
 20
2296.42
 30
0.000000
  70
    32
  0
VERTEX
  8
1
  5
800F
 10
667.581
 20
2295.79
 30
0.000000
  70
    32
  0
VERTEX
  8
1
  5
8010
 10
667.455
 20
2295.16
 30
0.000000
  70
    32
  0
VERTEX
  8
1
  5
8011
 10
667.327
 20
2294.54
 30
0.000000
  70
    32
  0
VERTEX
  8
1
  5
8012
 10
667.196
 20
2293.91
 30
0.000000
  70
    32
  0
VERTEX
  8
1
  5
8013
 10
667.064
 20
2293.29
 30
0.000000
  70
    32
  0
VERTEX
  8
1
  5
8014
 10
666.930
 20
2292.66
 30
0.000000
  70
    32
  0
VERTEX
  8
1
  5
8015
 10
666.794
 20
2292.04
 30
0.000000
  70
    32
  0
VERTEX
  8
1
  5
8016
 10
666.656
 20
2291.41
 30
0.000000
  70
    32
  0
VERTEX
  8
1
  5
8017
 10
666.516
 20
2290.79
 30
0.000000
  70
    32
  0
VERTEX
  8
1
  5
8018
 10
666.374
 20
2290.16
 30
0.000000
  70
    32
  0
VERTEX
  8
1
  5
8019
 10
666.230
 20
2289.54
 30
0.000000
  70
    32
  0
VERTEX
  8
1
  5
801A
 10
666.084
 20
2288.92
 30
0.000000
  70
    32
  0
VERTEX
  8
1
  5
801B
 10
665.936
 20
2288.29
 30
0.000000
  70
    32
  0
VERTEX
  8
1
  5
801C
 10
665.786
 20
2287.67
 30
0.000000
  70
    32
  0
VERTEX
  8
1
  5
801D
 10
665.635
 20
2287.05
 30
0.000000
  70
    32
  0
VERTEX
  8
1
  5
801E
 10
665.481
 20
2286.43
 30
0.000000
  70
    32
  0
VERTEX
  8
1
  5
801F
 10
665.326
 20
2285.81
 30
0.000000
  70
    32
  0
VERTEX
  8
1
  5
8020
 10
665.169
 20
2285.19
 30
0.000000
  70
    32
  0
VERTEX
  8
1
  5
8021
 10
665.010
 20
2284.57
 30
0.000000
  70
    32
  0
VERTEX
  8
1
  5
8022
 10
664.849
 20
2283.95
 30
0.000000
  70
    32
  0
VERTEX
  8
1
  5
8023
 10
664.687
 20
2283.33
 30
0.000000
  70
    32
  0
VERTEX
  8
1
  5
8024
 10
664.523
 20
2282.71
 30
0.000000
  70
    32
  0
VERTEX
  8
1
  5
8025
 10
664.357
 20
2282.09
 30
0.000000
  70
    32
  0
VERTEX
  8
1
  5
8026
 10
664.189
 20
2281.47
 30
0.000000
  70
    32
  0
VERTEX
  8
1
  5
8027
 10
664.019
 20
2280.85
 30
0.000000
  70
    32
  0
VERTEX
  8
1
  5
8028
 10
663.848
 20
2280.24
 30
0.000000
  70
    32
  0
VERTEX
  8
1
  5
8029
 10
663.675
 20
2279.62
 30
0.000000
  70
    32
  0
VERTEX
  8
1
  5
802A
 10
663.500
 20
2279.00
 30
0.000000
  70
    32
  0
VERTEX
  8
1
  5
802B
 10
663.324
 20
2278.39
 30
0.000000
  70
    32
  0
VERTEX
  8
1
  5
802C
 10
663.146
 20
2277.77
 30
0.000000
  70
    32
  0
VERTEX
  8
1
  5
802D
 10
662.966
 20
2277.16
 30
0.000000
  70
    32
  0
VERTEX
  8
1
  5
802E
 10
662.785
 20
2276.54
 30
0.000000
  70
    32
  0
VERTEX
  8
1
  5
802F
 10
662.602
 20
2275.93
 30
0.000000
  70
    32
  0
VERTEX
  8
1
  5
8030
 10
662.417
 20
2275.31
 30
0.000000
  70
    32
  0
VERTEX
  8
1
  5
8031
 10
662.231
 20
2274.70
 30
0.000000
  70
    32
  0
VERTEX
  8
1
  5
8032
 10
662.043
 20
2274.09
 30
0.000000
  70
    32
  0
VERTEX
  8
1
  5
8033
 10
661.854
 20
2273.47
 30
0.000000
  70
    32
  0
VERTEX
  8
1
  5
8034
 10
661.663
 20
2272.86
 30
0.000000
  70
    32
  0
VERTEX
  8
1
  5
8035
 10
661.471
 20
2272.25
 30
0.000000
  70
    32
  0
VERTEX
  8
1
  5
8036
 10
661.277
 20
2271.64
 30
0.000000
  70
    32
  0
VERTEX
  8
1
  5
8037
 10
661.081
 20
2271.03
 30
0.000000
  70
    32
  0
VERTEX
  8
1
  5
8038
 10
660.884
 20
2270.42
 30
0.000000
  70
    32
  0
VERTEX
  8
1
  5
8039
 10
660.685
 20
2269.81
 30
0.000000
  70
    32
  0
VERTEX
  8
1
  5
803A
 10
660.485
 20
2269.20
 30
0.000000
  70
    32
  0
VERTEX
  8
1
  5
803B
 10
660.284
 20
2268.59
 30
0.000000
  70
    32
  0
VERTEX
  8
1
  5
803C
 10
660.081
 20
2267.98
 30
0.000000
  70
    32
  0
VERTEX
  8
1
  5
803D
 10
659.877
 20
2267.38
 30
0.000000
  70
    32
  0
VERTEX
  8
1
  5
803E
 10
659.671
 20
2266.77
 30
0.000000
  70
    32
  0
VERTEX
  8
1
  5
803F
 10
659.464
 20
2266.16
 30
0.000000
  70
    32
  0
VERTEX
  8
1
  5
8040
 10
659.255
 20
2265.56
 30
0.000000
  70
    32
  0
VERTEX
  8
1
  5
8041
 10
659.045
 20
2264.95
 30
0.000000
  70
    32
  0
VERTEX
  8
1
  5
8042
 10
658.834
 20
2264.34
 30
0.000000
  70
    32
  0
VERTEX
  8
1
  5
8043
 10
658.621
 20
2263.74
 30
0.000000
  70
    32
  0
VERTEX
  8
1
  5
8044
 10
658.407
 20
2263.14
 30
0.000000
  70
    32
  0
VERTEX
  8
1
  5
8045
 10
658.192
 20
2262.53
 30
0.000000
  70
    32
  0
VERTEX
  8
1
  5
8046
 10
657.975
 20
2261.93
 30
0.000000
  70
    32
  0
VERTEX
  8
1
  5
8047
 10
657.757
 20
2261.33
 30
0.000000
  70
    32
  0
VERTEX
  8
1
  5
8048
 10
657.538
 20
2260.72
 30
0.000000
  70
    32
  0
VERTEX
  8
1
  5
8049
 10
657.317
 20
2260.12
 30
0.000000
  70
    32
  0
VERTEX
  8
1
  5
804A
 10
657.095
 20
2259.52
 30
0.000000
  70
    32
  0
VERTEX
  8
1
  5
804B
 10
656.872
 20
2258.92
 30
0.000000
  70
    32
  0
VERTEX
  8
1
  5
804C
 10
656.648
 20
2258.32
 30
0.000000
  70
    32
  0
VERTEX
  8
1
  5
804D
 10
656.422
 20
2257.72
 30
0.000000
  70
    32
  0
VERTEX
  8
1
  5
804E
 10
656.196
 20
2257.12
 30
0.000000
  70
    32
  0
VERTEX
  8
1
  5
804F
 10
655.968
 20
2256.52
 30
0.000000
  70
    32
  0
VERTEX
  8
1
  5
8050
 10
655.739
 20
2255.92
 30
0.000000
  70
    32
  0
VERTEX
  8
1
  5
8051
 10
655.508
 20
2255.33
 30
0.000000
  70
    32
  0
VERTEX
  8
1
  5
8052
 10
655.277
 20
2254.73
 30
0.000000
  70
    32
  0
VERTEX
  8
1
  5
8053
 10
655.044
 20
2254.13
 30
0.000000
  70
    32
  0
VERTEX
  8
1
  5
8054
 10
654.811
 20
2253.54
 30
0.000000
  70
    32
  0
VERTEX
  8
1
  5
8055
 10
654.576
 20
2252.94
 30
0.000000
  70
    32
  0
VERTEX
  8
1
  5
8056
 10
654.340
 20
2252.35
 30
0.000000
  70
    32
  0
VERTEX
  8
1
  5
8057
 10
654.103
 20
2251.75
 30
0.000000
  70
    32
  0
VERTEX
  8
1
  5
8058
 10
653.865
 20
2251.16
 30
0.000000
  70
    32
  0
VERTEX
  8
1
  5
8059
 10
653.627
 20
2250.56
 30
0.000000
  70
    32
  0
VERTEX
  8
1
  5
805A
 10
653.387
 20
2249.97
 30
0.000000
  70
    32
  0
VERTEX
  8
1
  5
805B
 10
653.146
 20
2249.38
 30
0.000000
  70
    32
  0
VERTEX
  8
1
  5
805C
 10
652.904
 20
2248.79
 30
0.000000
  70
    32
  0
VERTEX
  8
1
  5
805D
 10
652.661
 20
2248.19
 30
0.000000
  70
    32
  0
VERTEX
  8
1
  5
805E
 10
652.418
 20
2247.60
 30
0.000000
  70
    32
  0
VERTEX
  8
1
  5
805F
 10
652.173
 20
2247.01
 30
0.000000
  70
    32
  0
VERTEX
  8
1
  5
8060
 10
651.928
 20
2246.42
 30
0.000000
  70
    32
  0
VERTEX
  8
1
  5
8061
 10
651.682
 20
2245.83
 30
0.000000
  70
    32
  0
VERTEX
  8
1
  5
8062
 10
651.435
 20
2245.24
 30
0.000000
  70
    32
  0
VERTEX
  8
1
  5
8063
 10
651.187
 20
2244.65
 30
0.000000
  70
    32
  0
VERTEX
  8
1
  5
8064
 10
650.938
 20
2244.06
 30
0.000000
  70
    32
  0
VERTEX
  8
1
  5
8065
 10
650.689
 20
2243.47
 30
0.000000
  70
    32
  0
VERTEX
  8
1
  5
8066
 10
650.438
 20
2242.88
 30
0.000000
  70
    32
  0
VERTEX
  8
1
  5
8067
 10
650.187
 20
2242.30
 30
0.000000
  70
    32
  0
VERTEX
  8
1
  5
8068
 10
649.936
 20
2241.71
 30
0.000000
  70
    32
  0
VERTEX
  8
1
  5
8069
 10
649.683
 20
2241.12
 30
0.000000
  70
    32
  0
VERTEX
  8
1
  5
806A
 10
649.430
 20
2240.53
 30
0.000000
  70
    32
  0
VERTEX
  8
1
  5
806B
 10
649.176
 20
2239.95
 30
0.000000
  70
    32
  0
VERTEX
  8
1
  5
806C
 10
648.922
 20
2239.36
 30
0.000000
  70
    32
  0
VERTEX
  8
1
  5
806D
 10
648.667
 20
2238.77
 30
0.000000
  70
    32
  0
VERTEX
  8
1
  5
806E
 10
648.411
 20
2238.19
 30
0.000000
  70
    32
  0
VERTEX
  8
1
  5
806F
 10
648.155
 20
2237.60
 30
0.000000
  70
    32
  0
VERTEX
  8
1
  5
8070
 10
647.898
 20
2237.02
 30
0.000000
  70
    32
  0
VERTEX
  8
1
  5
8071
 10
647.641
 20
2236.43
 30
0.000000
  70
    32
  0
VERTEX
  8
1
  5
8072
 10
647.383
 20
2235.84
 30
0.000000
  70
    32
  0
VERTEX
  8
1
  5
8073
 10
647.125
 20
2235.26
 30
0.000000
  70
    32
  0
VERTEX
  8
1
  5
8074
 10
646.866
 20
2234.67
 30
0.000000
  70
    32
  0
VERTEX
  8
1
  5
8075
 10
646.607
 20
2234.09
 30
0.000000
  70
    32
  0
VERTEX
  8
1
  5
8076
 10
646.347
 20
2233.51
 30
0.000000
  70
    32
  0
VERTEX
  8
1
  5
8077
 10
646.087
 20
2232.92
 30
0.000000
  70
    32
  0
VERTEX
  8
1
  5
8078
 10
645.826
 20
2232.34
 30
0.000000
  70
    32
  0
VERTEX
  8
1
  5
8079
 10
645.565
 20
2231.75
 30
0.000000
  70
    32
  0
VERTEX
  8
1
  5
807A
 10
645.303
 20
2231.17
 30
0.000000
  70
    32
  0
VERTEX
  8
1
  5
807B
 10
645.042
 20
2230.59
 30
0.000000
  70
    32
  0
VERTEX
  8
1
  5
807C
 10
644.780
 20
2230.00
 30
0.000000
  70
    32
  0
VERTEX
  8
1
  5
807D
 10
644.517
 20
2229.42
 30
0.000000
  70
    32
  0
VERTEX
  8
1
  5
807E
 10
644.254
 20
2228.84
 30
0.000000
  70
    32
  0
VERTEX
  8
1
  5
807F
 10
643.991
 20
2228.26
 30
0.000000
  70
    32
  0
VERTEX
  8
1
  5
8080
 10
643.728
 20
2227.67
 30
0.000000
  70
    32
  0
VERTEX
  8
1
  5
8081
 10
643.464
 20
2227.09
 30
0.000000
  70
    32
  0
VERTEX
  8
1
  5
8082
 10
643.201
 20
2226.51
 30
0.000000
  70
    32
  0
VERTEX
  8
1
  5
8083
 10
642.937
 20
2225.92
 30
0.000000
  70
    32
  0
VERTEX
  8
1
  5
8084
 10
642.672
 20
2225.34
 30
0.000000
  70
    32
  0
VERTEX
  8
1
  5
8085
 10
642.408
 20
2224.76
 30
0.000000
  70
    32
  0
VERTEX
  8
1
  5
8086
 10
642.143
 20
2224.18
 30
0.000000
  70
    32
  0
VERTEX
  8
1
  5
8087
 10
641.879
 20
2223.60
 30
0.000000
  70
    32
  0
VERTEX
  8
1
  5
8088
 10
641.614
 20
2223.01
 30
0.000000
  70
    32
  0
VERTEX
  8
1
  5
8089
 10
641.349
 20
2222.43
 30
0.000000
  70
    32
  0
VERTEX
  8
1
  5
808A
 10
641.084
 20
2221.85
 30
0.000000
  70
    32
  0
VERTEX
  8
1
  5
808B
 10
640.819
 20
2221.27
 30
0.000000
  70
    32
  0
VERTEX
  8
1
  5
808C
 10
640.554
 20
2220.69
 30
0.000000
  70
    32
  0
VERTEX
  8
1
  5
808D
 10
640.289
 20
2220.10
 30
0.000000
  70
    32
  0
SEQEND
  8
1
  5
808E
  0
LINE
  5
7BAF
  8
1
 10
640.2891692588554
 20
2220.1037707278242
 30
0.0
 11
750.28916925885551
 21
2220.1037707278242
 31
0.0
  0
LINE
  5
7BB0
  8
1
 10
676.95694064260249
 20
2357.1037707278242
 30
0.0
 11
713.62139787510841
 21
2357.1037707278242
 31
0.0
  0
LINE
  5
7BB4
  8
2
 10
2276.4917658180461
 20
1609.519109482633
 30
0.0
 11
2276.4917658180461
 21
2441.3680351437902
 31
0.0
  0
LINE
  5
7BB5
  8
1
 10
1227.0891495224751
 20
1720.103770727824
 30
0.0
 11
1275.289149522476
 21
1720.103770727824
 31
0.0
  0
LINE
  5
7BB6
  8
1
 10
635.28914952247567
 20
1720.103770727824
 30
0.0
 11
683.4891495224756
 21
1720.103770727824
 31
0.0
  0
LINE
  5
7BB7
  8
1
 10
2621.4917658180461
 20
1643.103770727824
 30
0.0
 11
2621.4917658180461
 21
1683.103770727824
 31
0.0
  0
LINE
  5
7BB8
  8
1
 10
1931.4917658180459
 20
1643.103770727824
 30
0.0
 11
1931.4917658180459
 21
1683.103770727824
 31
0.0
  0
LINE
  5
7BBB
  8
2
 10
598.28914952247533
 20
2009.6221675433619
 30
0.0
 11
598.28914952247533
 21
1583.8178532692009
 31
0.0
  0
LINE
  5
7BBC
  8
2
 10
1312.2891495224751
 20
2009.6221675433619
 30
0.0
 11
1312.2891495224751
 21
1583.8178532692009
 31
0.0
  0
LINE
  5
7BBD
  8
2
 10
2596.491765818047
 20
1609.519109482633
 30
0.0
 11
2596.491765818047
 21
2004.936133510578
 31
0.0
  0
LINE
  5
7BBE
  8
2
 10
1956.4917658180459
 20
1609.519109482633
 30
0.0
 11
1956.4917658180459
 21
2004.936133510578
 31
0.0
  0
LINE
  5
7BBF
  8
1
 10
2621.4917658180461
 20
1648.103770727824
 30
0.0
 11
1931.4917658180459
 21
1648.103770727824
 31
0.0
  0
DIMENSION
  5
7C11
  8
3
  2
*D7
 10
1290.2891495224751
 20
2549.992565787386
 30
0.0
 11
951.41929750021507
 21
2549.992565787386
 31
0.0
 70
   128
 13
620.28914952247476
 23
2390.1037707278242
 33
0.0
 14
1290.2891495224751
 24
2390.1037707278251
 34
0.0
1001
ACAD
1000
DSTYLE
1002
{
1070
   287
1070
     3
1070
    40
1040
15.0
1070
   143
1040
0.039
1070
   172
1070
     1
1070
   271
1070
     0
1070
   279
1070
     0
1070
   288
1070
     1
1002
}
  0
DIMENSION
  5
7C1E
  8
3
  2
*D8
 10
2586.4917658180461
 20
2549.992565787386
 30
0.0
 11
2274.1803031427262
 21
2549.992565787386
 31
0.0
 70
   128
 13
1966.4917658180459
 23
2080.1037707278242
 33
0.0
 14
2586.4917658180461
 24
2080.1037707278242
 34
0.0
1001
ACAD
1000
DSTYLE
1002
{
1070
   287
1070
     3
1070
    40
1040
15.0
1070
   143
1040
0.039
1070
   172
1070
     1
1070
   271
1070
     0
1070
   279
1070
     0
1070
   288
1070
     1
1002
}
  0
LINE
  5
7C20
  8
4
 10
2775.0
 20
750.0
 30
0.0
 11
2775.0
 21
450.0
 31
0.0
  0
LINE
  5
7C21
  8
4
 10
1725.0
 20
750.0
 30
0.0
 11
1725.0
 21
450.0
 31
0.0
  0
LINE
  5
7C22
  8
4
 10
975.0
 20
750.0
 30
0.0
 11
975.0
 21
450.0
 31
0.0
  0
LINE
  5
7C25
  8
4
 10
975.0
 20
450.0
 30
0.0
 11
2775.0
 21
450.0
 31
0.0
  0
LINE
  5
7C26
  8
4
 10
975.0
 20
600.0
 30
0.0
 11
2775.0
 21
600.0
 31
0.0
  0
TEXT
  5
7C27
  8
4
 10
1032.753121270352
 20
647.31453879991932
 30
0.0
 40
75.0
  1
機器名称
  0
TEXT
  5
7C28
  8
4
 10
1029.3871590371959
 20
482.46773509801642
 30
0.0
 40
75.0
  1
機器型番
  0
TEXT
  5
7C29
  8
4
 10
1766.5181182314971
 20
633.85765343635285
 30
0.0
 40
75.0
  1
ミツヤ軸流ファン
  0
TEXT
  5
7C2A
  8
4
 10
1779.9817433782209
 20
475.739376419915
 30
0.0
 40
75.0
  1
AP#560-1
  0
TEXT
  5
7C2C
  8
4
 10
1147.5382030880171
 20
3575.1432619987731
 30
0.0
 40
80.999999999999986
  1
天井吊防振ベット
  0
TEXT
  5
7C2D
  8
4
 10
474.25138999416959
 20
3800.8214642989469
 30
0.0
 40
108.0
  1
電動機直動式横形軸流ファン
  0
LINE
  5
7C2E
  8
4
 10
375.0
 20
3704.1131313972069
 30
0.0
 11
2775.0
 21
3704.1131313972069
 31
0.0
  0
LINE
  5
7C2F
  8
4
 10
375.0
 20
4004.1131313972069
 30
0.0
 11
2775.0
 21
4004.1131313972069
 31
0.0
  0
LINE
  5
7C30
  8
4
 10
975.0
 20
750.0
 30
0.0
 11
2775.0
 21
750.0
 31
0.0
  0
LINE
  5
7C31
  8
4
 10
375.0
 20
4004.1131313972069
 30
0.0
 11
375.0
 21
3704.1131313972069
 31
0.0
  0
TEXT
  5
7C32
  8
4
 10
406.3997308802318
 20
3573.4792163195152
 30
0.0
 40
80.999999999999986
  1
左回転後方吐出
  0
TEXT
  5
7C33
  8
4
 10
2203.4543388739339
 20
4059.0916222429628
 30
0.0
 40
84.000000000000014
  1
No.
  0
TEXT
  5
7C34
  8
4
 10
1966.944093900019
 20
3575.1432619987731
 30
0.0
 40
80.999999999999986
  1
縮尺：1/15
  0
LINE
  5
7C35
  8
4
 10
2775.0
 20
4004.1131313972069
 30
0.0
 11
2775.0
 21
3704.1131313972069
 31
0.0
  0
LINE
  5
7C36
  8
4
 10
3150.0
 20
4425.0
 30
0.0
 11
3150.0
 21
4425.0
 31
0.0
  0
LINE
  5
7C37
  8
4
 10
2160.9261335397969
 20
4021.895374688102
 30
0.0
 11
2160.9261335397969
 21
4179.9783923246277
 31
0.0
  0
LINE
  5
7C38
  8
4
 10
2160.9261335397969
 20
4179.9783923246277
 30
0.0
 11
2775.0
 21
4179.9783923246277
 31
0.0
  0
LINE
  5
7C39
  8
4
 10
2775.0
 20
4179.9783923246277
 30
0.0
 11
2775.0
 21
4021.895374688102
 31
0.0
  0
LINE
  5
7C3A
  8
4
 10
2775.0
 20
4021.895374688102
 30
0.0
 11
2160.9261335397969
 21
4021.895374688102
 31
0.0
  0
LINE
  5
7C3B
  8
4
 10
0.0
 20
0.0
 30
0.0
 11
0.0
 21
4425.0
 31
0.0
  0
LINE
  5
7C3C
  8
4
 10
0.0
 20
4425.0
 30
0.0
 11
3150.0
 21
4425.0
 31
0.0
  0
LINE
  5
7C3D
  8
4
 10
3150.0
 20
4425.0
 30
0.0
 11
3150.0
 21
0.0
 31
0.0
  0
LINE
  5
7C3E
  8
4
 10
3150.0
 20
0.0
 30
0.0
 11
0.0
 21
0.0
 31
0.0
  0
LINE
  5
7C41
  8
2
 10
2630.0160317734621
 20
2080.1037707278242
 30
0.0
 11
1916.7422862759479
 21
2080.1037707278242
 31
0.0
  0
LINE
  5
7C42
  8
1
 10
1290.2891495224751
 20
1643.103770727824
 30
0.0
 11
1290.2891495224751
 21
1683.103770727824
 31
0.0
  0
LINE
  5
7C43
  8
1
 10
1290.2891495224751
 20
1643.103770727824
 30
0.0
 11
1330.2891495224751
 21
1643.103770727824
 31
0.0
  0
LINE
  5
7C44
  8
1
 10
1290.2891495224751
 20
1683.103770727824
 30
0.0
 11
1292.2891495224751
 21
1683.103770727824
 31
0.0
  0
LINE
  5
7C45
  8
1
 10
1330.2891495224751
 20
1643.103770727824
 30
0.0
 11
1330.2891495224751
 21
1645.103770727824
 31
0.0
  0
LINE
  5
7C46
  8
1
 10
1299.7891495224751
 20
1648.103770727824
 30
0.0
 11
1327.2891495224751
 21
1648.103770727824
 31
0.0
  0
LINE
  5
7C47
  8
1
 10
1295.2891495224751
 20
1652.603770727824
 30
0.0
 11
1295.2891495224751
 21
1680.103770727824
 31
0.0
  0
ARC
  5
7C48
  8
1
 10
1292.2891495224751
 20
1680.103770727824
 30
0.0
 40
3.0
 50
360.0
 51
90.0
  0
ARC
  5
7C49
  8
1
 10
1327.2891495224751
 20
1645.103770727824
 30
0.0
 40
3.0
 50
360.0
 51
90.0
  0
ARC
  5
7C4A
  8
1
 10
1299.7891495224751
 20
1652.603770727824
 30
0.0
 40
4.5
 50
180.0
 51
270.0
  0
LINE
  5
7C4B
  8
1
 10
620.28914952247533
 20
1643.103770727824
 30
0.0
 11
620.28914952247533
 21
1683.103770727824
 31
0.0
  0
LINE
  5
7C4C
  8
1
 10
620.28914952247533
 20
1643.103770727824
 30
0.0
 11
580.28914952247533
 21
1643.103770727824
 31
0.0
  0
LINE
  5
7C4D
  8
1
 10
620.28914952247533
 20
1683.103770727824
 30
0.0
 11
618.28914952247533
 21
1683.103770727824
 31
0.0
  0
LINE
  5
7C4E
  8
1
 10
580.28914952247533
 20
1643.103770727824
 30
0.0
 11
580.28914952247533
 21
1645.103770727824
 31
0.0
  0
LINE
  5
7C4F
  8
1
 10
610.78914952247533
 20
1648.103770727824
 30
0.0
 11
583.28914952247533
 21
1648.103770727824
 31
0.0
  0
LINE
  5
7C50
  8
1
 10
615.28914952247533
 20
1652.603770727824
 30
0.0
 11
615.28914952247533
 21
1680.103770727824
 31
0.0
  0
ARC
  5
7C51
  8
1
 10
618.28914952247533
 20
1680.103770727824
 30
0.0
 40
3.0
 50
90.0
 51
180.0
  0
ARC
  5
7C52
  8
1
 10
583.28914952247533
 20
1645.103770727824
 30
0.0
 40
3.0
 50
90.0
 51
180.0
  0
ARC
  5
7C53
  8
1
 10
610.78914952247533
 20
1652.603770727824
 30
0.0
 40
4.5
 50
270.0
 51
0.0
  0
DIMENSION
  5
7C61
  8
3
  2
*D9
 10
400.44117628297522
 20
1643.1037707278249
 30
0.0
 11
400.44117628297488
 21
2012.586656952124
 31
0.0
 70
   128
  1
(<>)
 13
623.4891495224756
 23
2390.1037707278251
 33
0.0
 14
580.28914952247533
 24
1643.103770727824
 34
0.0
 50
90.0
1001
ACAD
1000
DSTYLE
1002
{
1070
   287
1070
     3
1070
    40
1040
15.0
1070
   143
1040
0.039
1070
   172
1070
     1
1070
   271
1070
     0
1070
   279
1070
     0
1070
   288
1070
     1
1002
}
  0
ENDSEC
  0
EOF
