  0
SECTION
  2
HEADER
  9
$ACADVER
  1
AC1009
  9
$INSBASE
 10
0.0
 20
0.0
 30
0.0
  9
$EXTMIN
 10
-183.51201018731439
 20
2061.03179316569
 30
0.0
  9
$EXTMAX
 10
2966.4879898126851
 20
6486.0317931656909
 30
0.0
  9
$LIMMIN
 10
0.0
 20
0.0
  9
$LIMMAX
 10
297.0
 20
210.0
  9
$ORTHOMODE
 70
     0
  9
$REGENMODE
 70
     1
  9
$FILLMODE
 70
     1
  9
$QTEXTMODE
 70
     0
  9
$MIRRTEXT
 70
     0
  9
$DRAGMODE
 70
     2
  9
$LTSCALE
 40
60.0
  9
$OSMODE
 70
    37
  9
$ATTMODE
 70
     1
  9
$TEXTSIZE
 40
45.0
  9
$TRACEWID
 40
0.05
  9
$TEXTSTYLE
  7
STANDARD
  9
$CLAYER
  8
3
  9
$CELTYPE
  6
BYLAYER
  9
$CECOLOR
 62
   256
  9
$DIMSCALE
 40
15.0
  9
$DIMASZ
 40
2.0
  9
$DIMEXO
 40
1.0
  9
$DIMDLI
 40
10.0
  9
$DIMRND
 40
0.0
  9
$DIMDLE
 40
0.0
  9
$DIMEXE
 40
1.0
  9
$DIMTP
 40
0.0
  9
$DIMTM
 40
0.0
  9
$DIMTXT
 40
3.0
  9
$DIMCEN
 40
0.0
  9
$DIMTSZ
 40
0.0
  9
$DIMTOL
 70
     0
  9
$DIMLIM
 70
     0
  9
$DIMTIH
 70
     0
  9
$DIMTOH
 70
     0
  9
$DIMSE1
 70
     0
  9
$DIMSE2
 70
     0
  9
$DIMTAD
 70
     1
  9
$DIMZIN
 70
     8
  9
$DIMBLK
  1

  9
$DIMASO
 70
     1
  9
$DIMSHO
 70
     1
  9
$DIMPOST
  1

  9
$DIMAPOST
  1

  9
$DIMALT
 70
     0
  9
$DIMALTD
 70
     2
  9
$DIMALTF
 40
0.03937
  9
$DIMLFAC
 40
1.0
  9
$DIMTOFL
 70
     1
  9
$DIMTVP
 40
0.0
  9
$DIMTIX
 70
     0
  9
$DIMSOXD
 70
     0
  9
$DIMSAH
 70
     1
  9
$DIMBLK1
  1
OPEN
  9
$DIMBLK2
  1
OPEN
  9
$DIMSTYLE
  2
MATSU
  9
$DIMCLRD
 70
   256
  9
$DIMCLRE
 70
   256
  9
$DIMCLRT
 70
   256
  9
$DIMTFAC
 40
1.0
  9
$DIMGAP
 40
0.5
  9
$LUNITS
 70
     2
  9
$LUPREC
 70
     3
  9
$SKETCHINC
 40
0.1
  9
$FILLETRAD
 40
10.0
  9
$AUNITS
 70
     0
  9
$AUPREC
 70
     2
  9
$MENU
  1
acad
  9
$ELEVATION
 40
0.0
  9
$PELEVATION
 40
0.0
  9
$THICKNESS
 40
0.0
  9
$LIMCHECK
 70
     0
  9
$BLIPMODE
 70
     0
  9
$CHAMFERA
 40
10.0
  9
$CHAMFERB
 40
10.0
  9
$SKPOLY
 70
     0
  9
$TDCREATE
 40
2451939.3787035882
  9
$TDUPDATE
 40
2454953.6248495369
  9
$TDINDWG
 40
0.0889231481
  9
$TDUSRTIMER
 40
0.0889231481
  9
$USRTIMER
 70
     1
  9
$ANGBASE
 50
0.0
  9
$ANGDIR
 70
     0
  9
$PDMODE
 70
     0
  9
$PDSIZE
 40
1.0
  9
$PLINEWID
 40
0.0
  9
$COORDS
 70
     1
  9
$SPLFRAME
 70
     0
  9
$SPLINETYPE
 70
     6
  9
$SPLINESEGS
 70
     8
  9
$ATTDIA
 70
     0
  9
$ATTREQ
 70
     1
  9
$HANDLING
 70
 10241
  9
$HANDSEED
  5
444F
  9
$SURFTAB1
 70
     6
  9
$SURFTAB2
 70
     6
  9
$SURFTYPE
 70
     6
  9
$SURFU
 70
     6
  9
$SURFV
 70
     6
  9
$UCSNAME
  2

  9
$UCSORG
 10
0.0
 20
0.0
 30
0.0
  9
$UCSXDIR
 10
1.0
 20
0.0
 30
0.0
  9
$UCSYDIR
 10
0.0
 20
1.0
 30
0.0
  9
$PUCSNAME
  2

  9
$PUCSORG
 10
0.0
 20
0.0
 30
0.0
  9
$PUCSXDIR
 10
1.0
 20
0.0
 30
0.0
  9
$PUCSYDIR
 10
0.0
 20
1.0
 30
0.0
  9
$USERI1
 70
     0
  9
$USERI2
 70
     0
  9
$USERI3
 70
     0
  9
$USERI4
 70
     0
  9
$USERI5
 70
     0
  9
$USERR1
 40
0.0
  9
$USERR2
 40
0.0
  9
$USERR3
 40
0.0
  9
$USERR4
 40
0.0
  9
$USERR5
 40
0.0
  9
$WORLDVIEW
 70
     1
  9
$SHADEDGE
 70
     3
  9
$SHADEDIF
 70
    70
  9
$TILEMODE
 70
     1
  9
$MAXACTVP
 70
    16
  9
$PLIMCHECK
 70
     0
  9
$PEXTMIN
 10
1.0000000000000000E+020
 20
1.0000000000000000E+020
 30
1.0000000000000000E+020
  9
$PEXTMAX
 10
-1.0000000000000000E+020
 20
-1.0000000000000000E+020
 30
-1.0000000000000000E+020
  9
$PLIMMIN
 10
0.0
 20
0.0
  9
$PLIMMAX
 10
12.0
 20
9.0
  9
$UNITMODE
 70
     0
  9
$VISRETAIN
 70
     0
  9
$PLINEGEN
 70
     0
  9
$PSLTSCALE
 70
     0
  0
ENDSEC
  0
SECTION
  2
TABLES
  0
TABLE
  2
VPORT
 70
     2
  0
VPORT
  2
*ACTIVE
 70
     0
 10
0.0
 20
0.0
 11
1.0
 21
1.0
 12
2821.2579716878499
 22
2593.8695323686502
 13
0.0
 23
0.0
 14
5.0
 24
5.0
 15
0.0
 25
0.0
 16
0.0
 26
0.0
 36
1.0
 17
0.0
 27
0.0
 37
0.0
 40
1351.3030577170391
 41
3.1666666666666661
 42
50.0
 43
0.0
 44
0.0
 50
0.0
 51
0.0
 71
     0
 72
   100
 73
     1
 74
     0
 75
     0
 76
     0
 77
     0
 78
     0
  0
ENDTAB
  0
TABLE
  2
LTYPE
 70
     2
  0
LTYPE
  2
CONTINUOUS
 70
     0
  3
Solid line
 72
    65
 73
     0
 40
0.0
  0
LTYPE
  2
CENTER
 70
     0
  3
____ _ ____ _ ____ _ ____ _ ____ _ ____ _ ____ 
 72
    65
 73
     4
 40
2.0
 49
1.25
 49
-0.25
 49
0.25
 49
-0.25
  0
ENDTAB
  0
TABLE
  2
LAYER
 70
     8
  0
LAYER
  2
0
 70
     0
 62
     7
  6
CONTINUOUS
  0
LAYER
  2
FUTO
 70
     0
 62
     4
  6
CONTINUOUS
  0
LAYER
  2
SP
 70
     0
 62
     2
  6
CONTINUOUS
  0
LAYER
  2
DEFPOINTS
 70
     0
 62
     7
  6
CONTINUOUS
  0
LAYER
  2
3
 70
     0
 62
     2
  6
CONTINUOUS
  0
LAYER
  2
2
 70
     0
 62
     3
  6
CENTER
  0
LAYER
  2
1
 70
     0
 62
     4
  6
CONTINUOUS
  0
LAYER
  2
4
 70
     0
 62
     7
  6
CONTINUOUS
  0
ENDTAB
  0
TABLE
  2
STYLE
 70
     1
  0
STYLE
  2
STANDARD
 70
     0
 40
0.0
 41
1.0
 50
15.0
 71
     0
 42
45.0
  3
C:\Program Files\AutoCAD LT\simplex.shx
  4
C:\Program Files\AutoCAD LT\extfont.shx
  0
ENDTAB
  0
TABLE
  2
VIEW
 70
     0
  0
ENDTAB
  0
TABLE
  2
UCS
 70
     0
  0
ENDTAB
  0
TABLE
  2
APPID
 70
     1
  0
APPID
  2
ACAD
 70
     0
  0
ENDTAB
  0
TABLE
  2
DIMSTYLE
 70
     2
  0
DIMSTYLE
  2
STANDARD
 70
     0
  3

  4

  5

  6

  7

 40
1.0
 41
0.18
 42
0.0625
 43
0.38
 44
0.18
 45
0.0
 46
0.0
 47
0.0
 48
0.0
140
0.18
141
0.09
142
0.0
143
25.399999999999999
144
1.0
145
0.0
146
1.0
147
0.09
 71
     0
 72
     0
 73
     1
 74
     1
 75
     0
 76
     0
 77
     0
 78
     0
170
     0
171
     2
172
     0
173
     0
174
     0
175
     0
176
     0
177
     0
178
     0
  0
DIMSTYLE
  2
MATSU
 70
     0
  3

  4

  5

  6
OPEN
  7
OPEN
 40
1.0
 41
2.0
 42
1.0
 43
10.0
 44
1.0
 45
0.0
 46
0.0
 47
0.0
 48
0.0
140
3.0
141
0.0
142
0.0
143
0.03937
144
1.0
145
0.0
146
1.0
147
0.5
 71
     0
 72
     0
 73
     0
 74
     0
 75
     0
 76
     0
 77
     1
 78
     8
170
     0
171
     2
172
     1
173
     1
174
     0
175
     0
176
   256
177
   256
178
   256
  0
ENDTAB
  0
ENDSEC
  0
SECTION
  2
BLOCKS
  0
BLOCK
  8
0
  2
$MODEL_SPACE
 70
     0
 10
0.0
 20
0.0
 30
0.0
  3
$MODEL_SPACE
  1

  0
ENDBLK
  5
1B
  8
0
  0
BLOCK
 67
     1
  8
0
  2
$PAPER_SPACE
 70
     0
 10
0.0
 20
0.0
 30
0.0
  3
$PAPER_SPACE
  1

  0
ENDBLK
  5
18
 67
     1
  8
0
  0
BLOCK
  8
0
  2
_OPEN
 70
     0
 10
0.0
 20
0.0
 30
0.0
  3
_OPEN
  1

  0
LINE
  5
28
  8
0
  6
BYBLOCK
 62
     0
 10
-1.0
 20
0.1666666666666666
 30
0.0
 11
0.0
 21
0.0
 31
0.0
  0
LINE
  5
29
  8
0
  6
BYBLOCK
 62
     0
 10
0.0
 20
0.0
 30
0.0
 11
-1.0
 21
-0.1666666666666666
 31
0.0
  0
LINE
  5
2A
  8
0
  6
BYBLOCK
 62
     0
 10
0.0
 20
0.0
 30
0.0
 11
-1.0
 21
0.0
 31
0.0
  0
ENDBLK
  5
2B
  8
0
  0
BLOCK
  8
0
  2
YA_N
 70
     0
 10
0.0
 20
0.0
 30
0.0
  3
YA_N
  1

  0
ENDBLK
  5
23AE
  8
0
  0
BLOCK
  8
0
  2
SAITOS
 70
     0
 10
0.0
 20
0.0
 30
0.0
  3
SAITOS
  1

  0
INSERT
  5
23DA
  8
0
  2
YA_N
 10
6.0
 20
5.0
 30
0.0
  0
ENDBLK
  5
23DC
  8
0
  0
BLOCK
  8
0
  2
*D3
 70
     1
 10
0.0
 20
0.0
 30
0.0
  3
*D3
  1

  0
LINE
  5
440F
  8
3
 10
249.731686522914
 20
4427.4843491009651
 30
0.0
 11
77.94015718089581
 21
4427.4843491009651
 31
0.0
  0
LINE
  5
4410
  8
3
 10
249.731686522914
 20
3867.4843491009642
 30
0.0
 11
77.940157180895682
 21
3867.4843491009642
 31
0.0
  0
LINE
  5
4411
  8
3
 10
92.940157180895795
 20
4397.4843491009651
 30
0.0
 11
92.940157180895696
 21
3897.4843491009642
 31
0.0
  0
INSERT
  5
4412
  8
3
  2
_OPEN
 10
92.940157180895795
 20
4427.4843491009651
 30
0.0
 41
30.0
 42
30.0
 43
30.0
 50
90.0
  0
INSERT
  5
4413
  8
3
  2
_OPEN
 10
92.940157180895682
 20
3867.4843491009642
 30
0.0
 41
30.0
 42
30.0
 43
30.0
 50
270.0
  0
TEXT
  8
3
  40
45
  5
4449
  72
0
  71
0
 10
-27.0598
 20
4067.83
 30
0.000000
  1
%%c560
  0
POINT
  5
4415
  8
DEFPOINTS
 62
     0
 10
264.731686522914
 20
4427.4843491009651
 30
0.0
  0
POINT
  5
4416
  8
DEFPOINTS
 62
     0
 10
264.731686522914
 20
3867.4843491009642
 30
0.0
  0
POINT
  5
4417
  8
DEFPOINTS
 62
     0
 10
92.940157180895682
 20
3867.4843491009642
 30
0.0
  0
ENDBLK
  5
323E
  8
0
  0
BLOCK
  8
0
  2
*D4
 70
     1
 10
0.0
 20
0.0
 30
0.0
  3
*D4
  1

  0
LINE
  5
4418
  8
3
 10
1816.478409697474
 20
4729.4279390689126
 30
0.0
 11
1816.478409697474
 21
4871.5907537781432
 31
0.0
  0
LINE
  5
4419
  8
3
 10
2456.478409697474
 20
4729.4279390689126
 30
0.0
 11
2456.478409697474
 21
4871.5907537781432
 31
0.0
  0
LINE
  5
441A
  8
3
 10
1846.478409697474
 20
4856.5907537781432
 30
0.0
 11
2426.478409697474
 21
4856.5907537781432
 31
0.0
  0
INSERT
  5
441B
  8
3
  2
_OPEN
 10
1816.478409697474
 20
4856.5907537781432
 30
0.0
 41
30.0
 42
30.0
 43
30.0
 50
180.0
  0
INSERT
  5
441C
  8
3
  2
_OPEN
 10
2456.478409697474
 20
4856.5907537781432
 30
0.0
 41
30.0
 42
30.0
 43
30.0
  0
TEXT
  8
3
  40
45
  5
444A
  72
0
  71
0
 10
2046.48
 20
4806.94
 30
0.000000
  1
640
  0
POINT
  5
441E
  8
DEFPOINTS
 62
     0
 10
1816.478409697474
 20
4714.4279390689126
 30
0.0
  0
POINT
  5
441F
  8
DEFPOINTS
 62
     0
 10
2456.478409697474
 20
4714.4279390689126
 30
0.0
  0
POINT
  5
4420
  8
DEFPOINTS
 62
     0
 10
2456.478409697474
 20
4856.5907537781432
 30
0.0
  0
ENDBLK
  5
4271
  8
0
  0
BLOCK
  8
0
  2
*D5
 70
     1
 10
0.0
 20
0.0
 30
0.0
  3
*D5
  1

  0
LINE
  5
4421
  8
3
 10
294.731686522914
 20
4472.4843491009651
 30
0.0
 11
294.731686522914
 21
4967.0703723068036
 31
0.0
  0
LINE
  5
4422
  8
3
 10
964.73168652291406
 20
4472.4843491009651
 30
0.0
 11
964.73168652291406
 21
4967.0703723068036
 31
0.0
  0
LINE
  5
4423
  8
3
 10
324.73168652291412
 20
4952.0703723068036
 30
0.0
 11
934.73168652291395
 21
4952.0703723068036
 31
0.0
  0
INSERT
  5
4424
  8
3
  2
_OPEN
 10
294.731686522914
 20
4952.0703723068036
 30
0.0
 41
30.0
 42
30.0
 43
30.0
 50
180.0
  0
INSERT
  5
4425
  8
3
  2
_OPEN
 10
964.73168652291406
 20
4952.0703723068036
 30
0.0
 41
30.0
 42
30.0
 43
30.0
  0
TEXT
  8
3
  40
45
  5
444B
  72
0
  71
0
 10
539.732
 20
4902.42
 30
0.000000
  1
670
  0
POINT
  5
4427
  8
DEFPOINTS
 62
     0
 10
294.731686522914
 20
4457.4843491009651
 30
0.0
  0
POINT
  5
4428
  8
DEFPOINTS
 62
     0
 10
964.73168652291406
 20
4457.4843491009651
 30
0.0
  0
POINT
  5
4429
  8
DEFPOINTS
 62
     0
 10
964.73168652291406
 20
4952.0703723068036
 30
0.0
  0
ENDBLK
  5
427E
  8
0
  0
BLOCK
  8
0
  2
*D6
 70
     1
 10
0.0
 20
0.0
 30
0.0
  3
*D6
  1

  0
LINE
  5
442A
  8
3
 10
317.731686522914
 20
4805.3765177217319
 30
0.0
 11
317.731686522914
 21
4849.119974881015
 31
0.0
  0
LINE
  5
442B
  8
3
 10
941.73168652291406
 20
4805.3765177217319
 30
0.0
 11
941.73168652291406
 21
4849.119974881015
 31
0.0
  0
LINE
  5
442C
  8
3
 10
347.731686522914
 20
4834.119974881015
 30
0.0
 11
911.73168652291395
 21
4834.119974881015
 31
0.0
  0
INSERT
  5
442D
  8
3
  2
_OPEN
 10
317.731686522914
 20
4834.119974881015
 30
0.0
 41
30.0
 42
30.0
 43
30.0
 50
180.0
  0
INSERT
  5
442E
  8
3
  2
_OPEN
 10
941.73168652291406
 20
4834.119974881015
 30
0.0
 41
30.0
 42
30.0
 43
30.0
  0
TEXT
  8
3
  40
45
  5
444C
  72
0
  71
0
 10
539.732
 20
4784.47
 30
0.000000
  1
624
  0
POINT
  5
4430
  8
DEFPOINTS
 62
     0
 10
317.731686522914
 20
4790.3765177217319
 30
0.0
  0
POINT
  5
4431
  8
DEFPOINTS
 62
     0
 10
941.73168652291406
 20
4790.3765177217319
 30
0.0
  0
POINT
  5
4432
  8
DEFPOINTS
 62
     0
 10
941.73168652291406
 20
4834.119974881015
 30
0.0
  0
ENDBLK
  5
428B
  8
0
  0
BLOCK
  8
0
  2
*D7
 70
     1
 10
0.0
 20
0.0
 30
0.0
  3
*D7
  1

  0
LINE
  5
4433
  8
3
 10
941.73168652291406
 20
4805.3765177217319
 30
0.0
 11
941.73168652291406
 21
4849.119974881015
 31
0.0
  0
LINE
  5
4434
  8
3
 10
964.73168652291406
 20
4472.4843491009651
 30
0.0
 11
964.73168652291406
 21
4849.119974881015
 31
0.0
  0
LINE
  5
4435
  8
3
 10
911.73168652291395
 20
4834.119974881015
 30
0.0
 11
881.73168652291406
 21
4834.119974881015
 31
0.0
  0
LINE
  5
4436
  8
3
 10
994.73168652291395
 20
4834.119974881015
 30
0.0
 11
1024.7316865229141
 21
4834.119974881015
 31
0.0
  0
TEXT
  8
3
  40
45
  5
444D
  72
0
  71
0
 10
946.451
 20
4790.73
 30
0.000000
  1
23
  0
LINE
  5
4438
  8
3
 10
941.73168652291406
 20
4834.119974881015
 30
0.0
 11
964.73168652291406
 21
4834.119974881015
 31
0.0
  0
INSERT
  5
4439
  8
3
  2
_OPEN
 10
941.73168652291406
 20
4834.119974881015
 30
0.0
 41
30.0
 42
30.0
 43
30.0
  0
INSERT
  5
443A
  8
3
  2
_OPEN
 10
964.73168652291406
 20
4834.119974881015
 30
0.0
 41
30.0
 42
30.0
 43
30.0
 50
180.0
  0
POINT
  5
443B
  8
DEFPOINTS
 62
     0
 10
941.73168652291406
 20
4790.3765177217319
 30
0.0
  0
POINT
  5
443C
  8
DEFPOINTS
 62
     0
 10
964.73168652291406
 20
4457.4843491009651
 30
0.0
  0
POINT
  5
443D
  8
DEFPOINTS
 62
     0
 10
964.73168652291406
 20
4834.119974881015
 30
0.0
  0
ENDBLK
  5
429A
  8
0
  0
BLOCK
  8
0
  2
*D8
 70
     1
 10
0.0
 20
0.0
 30
0.0
  3
*D8
  1

  0
LINE
  5
443E
  8
3
 10
317.731686522914
 20
4805.3765177217319
 30
0.0
 11
317.731686522914
 21
4849.119974881015
 31
0.0
  0
LINE
  5
443F
  8
3
 10
294.731686522914
 20
4472.4843491009651
 30
0.0
 11
294.731686522914
 21
4849.119974881015
 31
0.0
  0
LINE
  5
4440
  8
3
 10
347.731686522914
 20
4834.119974881015
 30
0.0
 11
377.731686522914
 21
4834.119974881015
 31
0.0
  0
LINE
  5
4441
  8
3
 10
264.731686522914
 20
4834.119974881015
 30
0.0
 11
234.731686522914
 21
4834.119974881015
 31
0.0
  0
TEXT
  8
3
  40
45
  5
444E
  72
0
  71
0
 10
135.516
 20
4790.73
 30
0.000000
  1
23
  0
LINE
  5
4443
  8
3
 10
317.731686522914
 20
4834.119974881015
 30
0.0
 11
294.731686522914
 21
4834.119974881015
 31
0.0
  0
INSERT
  5
4444
  8
3
  2
_OPEN
 10
317.731686522914
 20
4834.119974881015
 30
0.0
 41
30.0
 42
30.0
 43
30.0
 50
180.0
  0
INSERT
  5
4445
  8
3
  2
_OPEN
 10
294.731686522914
 20
4834.119974881015
 30
0.0
 41
30.0
 42
30.0
 43
30.0
  0
POINT
  5
4446
  8
DEFPOINTS
 62
     0
 10
317.731686522914
 20
4790.3765177217319
 30
0.0
  0
POINT
  5
4447
  8
DEFPOINTS
 62
     0
 10
294.731686522914
 20
4457.4843491009651
 30
0.0
  0
POINT
  5
4448
  8
DEFPOINTS
 62
     0
 10
294.731686522914
 20
4834.119974881015
 30
0.0
  0
ENDBLK
  5
42A9
  8
0
  0
ENDSEC
  0
SECTION
  2
ENTITIES
  0
INSERT
  5
29C4
  8
0
  2
YA_N
 10
-32.358882711669132
 20
3383.3851076857031
 30
0.0
  0
CIRCLE
  5
29C5
  8
1
 10
2136.478409697474
 20
4147.4843491009651
 30
0.0
 40
280.0
  0
CIRCLE
  5
29C6
  8
1
 10
2136.478409697474
 20
4147.4843491009651
 30
0.0
 40
310.0
  0
CIRCLE
  5
29C7
  8
1
 10
2136.478409697474
 20
4147.4843491009651
 30
0.0
 40
283.19999999999987
  0
LINE
  5
29C9
  8
2
 10
2136.478409697474
 20
3699.924037000384
 30
0.0
 11
2136.478409697474
 21
4557.1293817380301
 31
0.0
  0
LINE
  5
29CA
  8
2
 10
1740.539663620787
 20
4147.4843491009651
 30
0.0
 11
2532.7964363604292
 21
4147.4843491009651
 31
0.0
  0
LINE
  5
2A3C
  8
2
 10
244.79852409842979
 20
4147.4843491009651
 30
0.0
 11
1016.966625178821
 21
4147.4843491009651
 31
0.0
  0
LINE
  5
2A3D
  8
1
 10
964.73168652291406
 20
4457.4843491009651
 30
0.0
 11
964.73168652291383
 21
3837.4843491009642
 31
0.0
  0
LINE
  5
2A3E
  8
1
 10
294.731686522914
 20
4427.4843491009651
 30
0.0
 11
964.73168652291406
 21
4427.4843491009651
 31
0.0
  0
LINE
  5
2A3F
  8
1
 10
297.93168652291382
 20
4430.684349100964
 30
0.0
 11
961.53168652291356
 21
4430.684349100964
 31
0.0
  0
LINE
  5
2A40
  8
1
 10
961.53168652291379
 20
4457.4843491009651
 30
0.0
 11
964.73168652291406
 21
4457.4843491009651
 31
0.0
  0
LINE
  5
2A41
  8
1
 10
961.53168652291379
 20
4457.4843491009651
 30
0.0
 11
961.53168652291379
 21
3837.4843491009642
 31
0.0
  0
LINE
  5
2A42
  8
1
 10
961.53168652291379
 20
3837.4843491009642
 30
0.0
 11
964.73168652291406
 21
3837.4843491009642
 31
0.0
  0
LINE
  5
2A43
  8
1
 10
297.93168652291382
 20
3864.2843491009639
 30
0.0
 11
961.53168652291379
 21
3864.2843491009639
 31
0.0
  0
LINE
  5
2A44
  8
1
 10
294.731686522914
 20
3867.4843491009642
 30
0.0
 11
964.73168652291406
 21
3867.4843491009642
 31
0.0
  0
LINE
  5
2A45
  8
1
 10
297.93168652291382
 20
3837.4843491009642
 30
0.0
 11
294.731686522914
 21
3837.4843491009642
 31
0.0
  0
LINE
  5
2A46
  8
1
 10
297.93168652291382
 20
4457.4843491009651
 30
0.0
 11
297.93168652291382
 21
3837.4843491009642
 31
0.0
  0
LINE
  5
2A47
  8
1
 10
297.93168652291382
 20
4457.4843491009651
 30
0.0
 11
294.731686522914
 21
4457.4843491009651
 31
0.0
  0
LINE
  5
2A48
  8
1
 10
294.731686522914
 20
4457.4843491009651
 30
0.0
 11
294.731686522914
 21
3837.4843491009642
 31
0.0
  0
LINE
  5
2A49
  8
1
 10
309.731686522914
 20
4287.4843491009651
 30
0.0
 11
309.731686522914
 21
4007.4843491009642
 31
0.0
  0
LINE
  5
2A4A
  8
1
 10
419.731686522914
 20
4287.4843491009651
 30
0.0
 11
419.731686522914
 21
4007.4843491009642
 31
0.0
  0
LINE
  5
2A4B
  8
1
 10
309.731686522914
 20
4287.4843491009651
 30
0.0
 11
419.731686522914
 21
4287.4843491009651
 31
0.0
  0
LINE
  5
2A4C
  8
1
 10
334.731686522914
 20
4424.4843491009651
 30
0.0
 11
394.731686522914
 21
4424.4843491009651
 31
0.0
  0
LINE
  5
2A4D
  8
1
 10
329.731686522914
 20
4182.4843491009651
 30
0.0
 11
329.731686522914
 21
4112.4843491009651
 31
0.0
  0
LINE
  5
2A4E
  8
1
 10
399.731686522914
 20
4182.4843491009651
 30
0.0
 11
399.731686522914
 21
4112.4843491009651
 31
0.0
  0
LINE
  5
2A4F
  8
1
 10
329.731686522914
 20
4182.4843491009651
 30
0.0
 11
399.731686522914
 21
4182.4843491009651
 31
0.0
  0
LINE
  5
2A50
  8
1
 10
329.731686522914
 20
4112.4843491009651
 30
0.0
 11
399.731686522914
 21
4112.4843491009651
 31
0.0
  0
LINE
  5
2A51
  8
1
 10
314.731686522914
 20
4287.4843491009651
 30
0.0
 11
334.731686522914
 21
4424.4843491009651
 31
0.0
  0
LINE
  5
2A52
  8
1
 10
394.731686522914
 20
4424.4843491009651
 30
0.0
 11
414.731686522914
 21
4287.4843491009651
 31
0.0
  0
LINE
  5
2A53
  8
1
 10
394.731686522914
 20
3870.4843491009642
 30
0.0
 11
414.731686522914
 21
4007.4843491009642
 31
0.0
  0
LINE
  5
2A54
  8
1
 10
314.731686522914
 20
4007.4843491009642
 30
0.0
 11
334.731686522914
 21
3870.4843491009642
 31
0.0
  0
LINE
  5
2A55
  8
1
 10
334.731686522914
 20
3870.4843491009642
 30
0.0
 11
394.731686522914
 21
3870.4843491009642
 31
0.0
  0
LINE
  5
2A56
  8
1
 10
309.731686522914
 20
4007.4843491009642
 30
0.0
 11
419.731686522914
 21
4007.4843491009642
 31
0.0
  0
LINE
  5
2A87
  8
1
 10
294.731686522914
 20
4457.4843491009651
 30
0.0
 11
294.731686522914
 21
3837.4843491009642
 31
0.0
  0
LINE
  5
2A88
  8
1
 10
294.731686522914
 20
4457.4843491009651
 30
0.0
 11
293.731686522914
 21
4457.4843491009651
 31
0.0
  0
ARC
  5
2A89
  8
1
 10
293.731686522914
 20
4455.4843491009651
 30
0.0
 40
2.0
 50
90.0
 51
180.0
  0
LINE
  5
2A8A
  8
1
 10
291.731686522914
 20
4455.4843491009651
 30
0.0
 11
291.731686522914
 21
4434.4843491009651
 31
0.0
  0
ARC
  5
2A8B
  8
1
 10
287.731686522914
 20
4434.4843491009651
 30
0.0
 40
4.0
 50
270.0
 51
0.0
  0
LINE
  5
2A8C
  8
1
 10
287.731686522914
 20
4430.4843491009642
 30
0.0
 11
266.731686522914
 21
4430.4843491009642
 31
0.0
  0
ARC
  5
2A8D
  8
1
 10
266.731686522914
 20
4428.4843491009651
 30
0.0
 40
2.0
 50
90.0
 51
180.0
  0
LINE
  5
2A8E
  8
1
 10
264.731686522914
 20
4428.4843491009651
 30
0.0
 11
264.731686522914
 21
4427.4843491009651
 31
0.0
  0
LINE
  5
2A8F
  8
1
 10
264.731686522914
 20
4427.4843491009651
 30
0.0
 11
294.731686522914
 21
4427.4843491009651
 31
0.0
  0
LINE
  5
2A90
  8
1
 10
264.731686522914
 20
3867.4843491009642
 30
0.0
 11
294.731686522914
 21
3867.4843491009642
 31
0.0
  0
LINE
  5
2A91
  8
1
 10
264.731686522914
 20
3866.4843491009642
 30
0.0
 11
264.731686522914
 21
3867.4843491009642
 31
0.0
  0
ARC
  5
2A92
  8
1
 10
266.731686522914
 20
3866.4843491009642
 30
0.0
 40
2.0
 50
180.0
 51
270.0
  0
LINE
  5
2A93
  8
1
 10
287.731686522914
 20
3864.4843491009642
 30
0.0
 11
266.731686522914
 21
3864.4843491009642
 31
0.0
  0
ARC
  5
2A94
  8
1
 10
287.731686522914
 20
3860.4843491009642
 30
0.0
 40
4.0
 50
0.0
 51
90.0
  0
LINE
  5
2A95
  8
1
 10
291.731686522914
 20
3839.4843491009642
 30
0.0
 11
291.731686522914
 21
3860.4843491009642
 31
0.0
  0
ARC
  5
2A96
  8
1
 10
293.731686522914
 20
3839.4843491009642
 30
0.0
 40
2.0
 50
180.0
 51
270.0
  0
LINE
  5
2A97
  8
1
 10
294.731686522914
 20
3837.4843491009642
 30
0.0
 11
293.731686522914
 21
3837.4843491009642
 31
0.0
  0
LINE
  5
2A98
  8
1
 10
291.731686522914
 20
4434.4843491009651
 30
0.0
 11
291.731686522914
 21
3860.4843491009642
 31
0.0
  0
LINE
  5
2A99
  8
1
 10
264.731686522914
 20
4427.4843491009651
 30
0.0
 11
264.731686522914
 21
3867.4843491009642
 31
0.0
  0
POINT
  5
2A9A
  8
1
 10
1853.278409697474
 20
4147.4843491009633
 30
0.0
  0
LINE
  5
2AB2
  8
1
 10
994.73168652291395
 20
4427.4843491009651
 30
0.0
 11
994.73168652291395
 21
3867.4843491009642
 31
0.0
  0
LINE
  5
2AB3
  8
1
 10
967.73168652291406
 20
4434.4843491009651
 30
0.0
 11
967.73168652291395
 21
3860.4843491009642
 31
0.0
  0
LINE
  5
2AB4
  8
1
 10
964.73168652291406
 20
4457.4843491009651
 30
0.0
 11
964.73168652291383
 21
3837.4843491009642
 31
0.0
  0
LINE
  5
2AB5
  8
1
 10
964.73168652291406
 20
3837.4843491009642
 30
0.0
 11
965.73168652291406
 21
3837.4843491009642
 31
0.0
  0
ARC
  5
2AB6
  8
1
 10
965.73168652291406
 20
3839.4843491009642
 30
0.0
 40
2.0
 50
270.0
 51
0.0
  0
LINE
  5
2AB7
  8
1
 10
967.73168652291406
 20
3839.4843491009642
 30
0.0
 11
967.73168652291406
 21
3860.4843491009642
 31
0.0
  0
ARC
  5
2AB8
  8
1
 10
971.73168652291395
 20
3860.4843491009642
 30
0.0
 40
4.0
 50
90.0
 51
180.0
  0
LINE
  5
2AB9
  8
1
 10
971.73168652291395
 20
3864.4843491009642
 30
0.0
 11
992.73168652291406
 21
3864.4843491009642
 31
0.0
  0
ARC
  5
2ABA
  8
1
 10
992.73168652291406
 20
3866.4843491009642
 30
0.0
 40
2.0
 50
270.0
 51
0.0
  0
LINE
  5
2ABB
  8
1
 10
994.73168652291395
 20
3866.4843491009642
 30
0.0
 11
994.73168652291395
 21
3867.4843491009642
 31
0.0
  0
LINE
  5
2ABC
  8
1
 10
994.73168652291395
 20
3867.4843491009642
 30
0.0
 11
964.73168652291383
 21
3867.4843491009642
 31
0.0
  0
LINE
  5
2ABD
  8
1
 10
994.73168652291395
 20
4427.4843491009651
 30
0.0
 11
964.73168652291406
 21
4427.4843491009651
 31
0.0
  0
LINE
  5
2ABE
  8
1
 10
994.73168652291395
 20
4428.4843491009651
 30
0.0
 11
994.73168652291395
 21
4427.4843491009651
 31
0.0
  0
ARC
  5
2ABF
  8
1
 10
992.73168652291406
 20
4428.4843491009651
 30
0.0
 40
2.0
 50
0.0
 51
90.0
  0
LINE
  5
2AC0
  8
1
 10
971.73168652291395
 20
4430.4843491009642
 30
0.0
 11
992.73168652291406
 21
4430.4843491009642
 31
0.0
  0
ARC
  5
2AC1
  8
1
 10
971.73168652291395
 20
4434.4843491009651
 30
0.0
 40
4.0
 50
180.0
 51
270.0
  0
LINE
  5
2AC2
  8
1
 10
967.73168652291406
 20
4455.4843491009651
 30
0.0
 11
967.73168652291406
 21
4434.4843491009651
 31
0.0
  0
ARC
  5
2AC3
  8
1
 10
965.73168652291406
 20
4455.4843491009651
 30
0.0
 40
2.0
 50
0.0
 51
90.0
  0
LINE
  5
2AC4
  8
1
 10
964.73168652291406
 20
4457.4843491009651
 30
0.0
 11
965.73168652291406
 21
4457.4843491009651
 31
0.0
  0
INSERT
  5
2B54
  8
0
  2
YA_N
 10
685.61690505900879
 20
5777.1009585550792
 30
0.0
  0
INSERT
  5
2B55
  8
0
  2
YA_N
 10
685.61690505900879
 20
5777.1009585550792
 30
0.0
  0
INSERT
  5
2B56
  8
FUTO
  2
SAITOS
 10
679.61690505900867
 20
5772.1009585550792
 30
0.0
  0
INSERT
  5
2B57
  8
0
  2
YA_N
 10
685.61690505900879
 20
5777.1009585550792
 30
0.0
  0
INSERT
  5
2B58
  8
FUTO
  2
SAITOS
 10
679.61690505900867
 20
5772.1009585550792
 30
0.0
  0
INSERT
  5
2B59
  8
0
  2
YA_N
 10
-338.92621891106182
 20
8631.6818356778513
 30
0.0
  0
INSERT
  5
2B5A
  8
0
  2
YA_N
 10
971.26971589950244
 20
6810.3898233359732
 30
0.0
  0
INSERT
  5
2B5B
  8
0
  2
YA_N
 10
3742.749298393725
 20
8582.1666140487578
 30
0.0
  0
INSERT
  5
2B5C
  8
0
  2
YA_N
 10
4261.110900108084
 20
8018.2958049739109
 30
0.0
  0
INSERT
  5
2B5D
  8
0
  2
YA_N
 10
4985.9781405402773
 20
9160.7298856077632
 30
0.0
  0
INSERT
  5
2B5E
  8
0
  2
YA_N
 10
59.935436223082426
 20
5372.0179917242558
 30
0.0
 41
15.0
 42
15.0
 43
15.0
  0
INSERT
  5
2B5F
  8
FUTO
  2
SAITOS
 10
-30.064563776917559
 20
5297.0179917242558
 30
0.0
 41
15.0
 42
15.0
 43
15.0
  0
INSERT
  5
2B60
  8
0
  2
YA_N
 10
65310.21460575705
 20
6497.0179917242567
 30
0.0
 41
225.0
 42
225.0
 43
225.0
  0
INSERT
  5
2B61
  8
FUTO
  2
SAITOS
 10
63960.214605757043
 20
5372.0179917242558
 30
0.0
 41
225.0
 42
225.0
 43
225.0
  0
INSERT
  5
2B62
  8
0
  2
YA_N
 10
96900.589537090302
 20
7795.1614266406114
 30
0.0
 41
225.0
 42
225.0
 43
225.0
  0
INSERT
  5
2B63
  8
FUTO
  2
SAITOS
 10
95550.589537090302
 20
6670.1614266406114
 30
0.0
 41
225.0
 42
225.0
 43
225.0
  0
INSERT
  5
2B64
  8
0
  2
YA_N
 10
65310.21460575705
 20
6497.0179917242567
 30
0.0
 41
225.0
 42
225.0
 43
225.0
  0
INSERT
  5
2B65
  8
FUTO
  2
SAITOS
 10
63960.214605757043
 20
5372.0179917242558
 30
0.0
 41
225.0
 42
225.0
 43
225.0
  0
INSERT
  5
2B66
  8
0
  2
YA_N
 10
5521.5365216276459
 20
5558.6113972532694
 30
0.0
 41
15.0
 42
15.0
 43
15.0
  0
INSERT
  5
2B67
  8
FUTO
  2
SAITOS
 10
5431.5365216276459
 20
5483.6113972532703
 30
0.0
 41
15.0
 42
15.0
 43
15.0
  0
TEXT
  5
2B68
  8
SP
 10
6425.7463746417297
 20
8910.7079792651493
 30
0.0
 40
37.5
  1

  0
TEXT
  5
2B69
  8
SP
 10
6425.7463746417297
 20
8835.7079792651493
 30
0.0
 40
37.5
  1

  0
TEXT
  5
2B6A
  8
SP
 10
6350.7463746417297
 20
8685.7079792651493
 30
0.0
 40
37.5
  1

  0
TEXT
  5
2B6B
  8
SP
 10
6425.7463746417297
 20
8535.7079792651493
 30
0.0
 40
37.5
  1

  0
TEXT
  5
2B6C
  8
SP
 10
6425.7463746417297
 20
8610.7079792651475
 30
0.0
 40
37.5
  1

  0
INSERT
  5
2B6E
  8
0
  2
YA_N
 10
681.7219765655027
 20
7087.9817753373909
 30
0.0
  0
INSERT
  5
2B6F
  8
FUTO
  2
SAITOS
 10
675.7219765655027
 20
7082.9817753373909
 30
0.0
  0
INSERT
  5
2B70
  8
0
  2
YA_N
 10
4304.5617361133664
 20
7383.7197042161024
 30
0.0
  0
INSERT
  5
2B71
  8
FUTO
  2
SAITOS
 10
4298.5617361133664
 20
7378.7197042161024
 30
0.0
  0
TEXT
  5
2B72
  8
FUTO
 10
4624.6254899583491
 20
7371.3123115958469
 30
0.0
 40
10.0
  1

 51
15.0
  0
TEXT
  5
2B73
  8
FUTO
 10
4889.675995267231
 20
7371.3123115958469
 30
0.0
 40
10.0
  1

 51
15.0
  0
TEXT
  5
2B74
  8
FUTO
 10
4622.6621528103897
 20
7371.3123115958469
 30
0.0
 40
10.0
  1

 51
15.0
  0
INSERT
  5
2B7F
  8
0
  2
YA_N
 10
1299.85413742319
 20
5622.1953302815782
 30
0.0
  0
INSERT
  5
2B80
  8
FUTO
  2
SAITOS
 10
1293.8541374231891
 20
5617.1953302815782
 30
0.0
  0
TEXT
  5
2B81
  8
FUTO
 10
1619.9178912681721
 20
5609.7879376613218
 30
0.0
 40
10.0
  1

 51
15.0
  0
TEXT
  5
2B82
  8
FUTO
 10
1884.968396577055
 20
5609.7879376613218
 30
0.0
 40
10.0
  1

 51
15.0
  0
TEXT
  5
2B83
  8
FUTO
 10
1617.9545541202131
 20
5609.7879376613218
 30
0.0
 40
10.0
  1

 51
15.0
  0
INSERT
  5
2BAF
  8
0
  2
YA_N
 10
552.25317970123979
 20
3525.0011814068012
 30
0.0
  0
INSERT
  5
2BB0
  8
FUTO
  2
SAITOS
 10
546.25317970123967
 20
3520.0011814068012
 30
0.0
  0
TEXT
  5
2C0D
  8
FUTO
 10
872.31693354622234
 20
3512.5937887865439
 30
0.0
 40
10.0
  1

 51
15.0
  0
TEXT
  5
2C0E
  8
FUTO
 10
1137.367438855104
 20
3512.5937887865439
 30
0.0
 40
10.0
  1

 51
15.0
  0
TEXT
  5
2C0F
  8
FUTO
 10
870.35359639826356
 20
3512.5937887865439
 30
0.0
 40
10.0
  1

 51
15.0
  0
TEXT
  5
2E1D
  8
SP
 10
3409.764178583694
 20
3918.6101906113372
 30
0.0
 40
30.0
  1

 72
     2
 11
3409.764178583694
 21
3918.6101906113372
 31
0.0
 73
     1
  0
LINE
  5
2FD1
  8
1
 10
364.731686522914
 20
4287.4843491009651
 30
0.0
 11
364.731686522914
 21
4007.4843491009642
 31
0.0
  0
LINE
  5
2FD2
  8
1
 10
354.731686522914
 20
4287.4843491009651
 30
0.0
 11
354.731686522914
 21
4007.4843491009642
 31
0.0
  0
LINE
  5
2FD3
  8
2
 10
944.73168652291383
 20
3849.9843491009642
 30
0.0
 11
984.73168652291395
 21
3849.9843491009642
 31
0.0
  0
LINE
  5
2FD4
  8
2
 10
944.73168652291383
 20
4444.9843491009651
 30
0.0
 11
984.73168652291395
 21
4444.9843491009651
 31
0.0
  0
LINE
  5
2FD6
  8
2
 10
314.73168652291452
 20
4444.9843491009651
 30
0.0
 11
274.73168652291452
 21
4444.9843491009651
 31
0.0
  0
LINE
  5
2FD7
  8
2
 10
314.73168652291452
 20
3849.9843491009642
 30
0.0
 11
274.73168652291452
 21
3849.9843491009642
 31
0.0
  0
DIMENSION
  5
3232
  8
3
  2
*D3
 10
92.940157180895682
 20
3867.4843491009642
 30
0.0
 11
62.940157180895078
 21
4147.4843491009651
 31
0.0
 70
     0
  1
%%c<>
 13
264.731686522914
 23
4427.4843491009651
 33
0.0
 14
264.731686522914
 24
3867.4843491009642
 34
0.0
 50
90.0
1001
ACAD
1000
DSTYLE
1002
{
1070
   287
1070
     5
1070
   287
1070
     5
1070
   287
1070
     5
1070
   287
1070
     5
1070
   287
1070
     5
1070
   287
1070
     5
1070
    40
1040
15.0
1070
   279
1070
     2
1070
   289
1070
     3
1002
}
  0
LINE
  5
33B4
  8
4
 10
2591.4879898126851
 20
2811.0317931656909
 30
0.0
 11
2591.4879898126851
 21
2511.03179316569
 31
0.0
  0
LINE
  5
33B5
  8
4
 10
1541.4879898126851
 20
2811.0317931656909
 30
0.0
 11
1541.4879898126851
 21
2511.03179316569
 31
0.0
  0
LINE
  5
33B6
  8
4
 10
791.48798981268556
 20
2811.0317931656909
 30
0.0
 11
791.48798981268556
 21
2511.03179316569
 31
0.0
  0
LINE
  5
33B9
  8
4
 10
791.48798981268556
 20
2511.03179316569
 30
0.0
 11
2591.4879898126851
 21
2511.03179316569
 31
0.0
  0
LINE
  5
33BA
  8
4
 10
791.48798981268556
 20
2661.03179316569
 30
0.0
 11
2591.4879898126851
 21
2661.03179316569
 31
0.0
  0
TEXT
  5
33BB
  8
4
 10
849.24111108303805
 20
2708.3463319656098
 30
0.0
 40
75.0
  1
機器名称
  0
TEXT
  5
33BC
  8
4
 10
845.87514884988195
 20
2543.4995282637069
 30
0.0
 40
75.0
  1
機器型番
  0
TEXT
  5
33BD
  8
4
 10
1583.0061080441819
 20
2694.8894466020438
 30
0.0
 40
75.0
  1
ミツヤ軸流フアン
  0
TEXT
  5
33BE
  8
4
 10
1596.469733190906
 20
2536.7711695856051
 30
0.0
 40
75.0
  1
AP＃560-1
  0
TEXT
  5
33C0
  8
4
 10
1009.635049149361
 20
5636.1750551644636
 30
0.0
 40
80.999999999999986
  1
天井吊本体形
  0
TEXT
  5
33C1
  8
4
 10
290.73937980685508
 20
5861.8532574646379
 30
0.0
 40
108.0
  1
電動機直動式横型軸流ファン
  0
LINE
  5
33C2
  8
4
 10
191.4879898126855
 20
5765.1449245628983
 30
0.0
 11
2591.4879898126851
 21
5765.1449245628983
 31
0.0
  0
LINE
  5
33C3
  8
4
 10
191.4879898126855
 20
6065.1449245628983
 30
0.0
 11
2591.4879898126851
 21
6065.1449245628983
 31
0.0
  0
LINE
  5
33C4
  8
4
 10
791.48798981268556
 20
2811.0317931656909
 30
0.0
 11
2591.4879898126851
 21
2811.0317931656909
 31
0.0
  0
LINE
  5
33C5
  8
4
 10
191.4879898126855
 20
6065.1449245628983
 30
0.0
 11
191.4879898126855
 21
5765.1449245628983
 31
0.0
  0
TEXT
  5
33C6
  8
4
 10
209.2653401884817
 20
5634.5110094852062
 30
0.0
 40
80.999999999999986
  1
左回転後方吐出
  0
TEXT
  5
33C7
  8
4
 10
2019.9423286866199
 20
6120.1234154086542
 30
0.0
 40
84.000000000000014
  1
No.
  0
TEXT
  5
33C8
  8
4
 10
1957.933796452696
 20
5636.1750551644636
 30
0.0
 40
80.999999999999986
  1
縮尺：1/15
  0
LINE
  5
33C9
  8
4
 10
2591.4879898126851
 20
6065.1449245628983
 30
0.0
 11
2591.4879898126851
 21
5765.1449245628983
 31
0.0
  0
LINE
  5
33CA
  8
4
 10
2966.4879898126851
 20
6486.0317931656909
 30
0.0
 11
2966.4879898126851
 21
6486.0317931656909
 31
0.0
  0
LINE
  5
33CB
  8
4
 10
1977.414123352482
 20
6082.9271678537916
 30
0.0
 11
1977.414123352482
 21
6241.0101854903196
 31
0.0
  0
LINE
  5
33CC
  8
4
 10
1977.414123352482
 20
6241.0101854903196
 30
0.0
 11
2591.4879898126851
 21
6241.0101854903196
 31
0.0
  0
LINE
  5
33CD
  8
4
 10
2591.4879898126851
 20
6241.0101854903196
 30
0.0
 11
2591.4879898126851
 21
6082.9271678537916
 31
0.0
  0
LINE
  5
33CE
  8
4
 10
2591.4879898126851
 20
6082.9271678537916
 30
0.0
 11
1977.414123352482
 21
6082.9271678537916
 31
0.0
  0
LINE
  5
33CF
  8
4
 10
-183.51201018731439
 20
2061.03179316569
 30
0.0
 11
-183.51201018731439
 21
6486.0317931656909
 31
0.0
  0
LINE
  5
33D0
  8
4
 10
-183.51201018731439
 20
6486.0317931656909
 30
0.0
 11
2966.4879898126851
 21
6486.0317931656909
 31
0.0
  0
LINE
  5
33D1
  8
4
 10
2966.4879898126851
 20
6486.0317931656909
 30
0.0
 11
2966.4879898126851
 21
2061.03179316569
 31
0.0
  0
LINE
  5
33D2
  8
4
 10
2966.4879898126851
 20
2061.03179316569
 30
0.0
 11
-183.51201018731439
 21
2061.03179316569
 31
0.0
  0
LINE
  5
41FF
  8
1
 10
1792.978409697474
 20
4131.4843491009651
 30
0.0
 11
1852.978409697474
 21
4131.4843491009651
 31
0.0
  0
LINE
  5
4200
  8
1
 10
1792.978409697474
 20
4122.4843491009651
 30
0.0
 11
1852.978409697474
 21
4122.4843491009651
 31
0.0
  0
LINE
  5
4201
  8
1
 10
1792.978409697474
 20
4172.4843491009642
 30
0.0
 11
1852.978409697474
 21
4172.4843491009642
 31
0.0
  0
LINE
  5
4202
  8
1
 10
1792.978409697474
 20
4122.4843491009651
 30
0.0
 11
1792.978409697474
 21
4172.4843491009642
 31
0.0
  0
LINE
  5
4203
  8
1
 10
1852.978409697474
 20
4122.4843491009651
 30
0.0
 11
1852.978409697474
 21
4172.4843491009642
 31
0.0
  0
POINT
  5
4204
  8
1
 10
1853.278409697474
 20
4147.4843491009633
 30
0.0
  0
LINE
  5
4205
  8
1
 10
2479.9784096974749
 20
4172.4843491009642
 30
0.0
 11
2419.978409697474
 21
4172.4843491009642
 31
0.0
  0
LINE
  5
4206
  8
1
 10
2479.9784096974749
 20
4122.4843491009651
 30
0.0
 11
2419.978409697474
 21
4122.4843491009651
 31
0.0
  0
LINE
  5
4207
  8
1
 10
2479.9784096974749
 20
4131.4843491009651
 30
0.0
 11
2419.978409697474
 21
4131.4843491009651
 31
0.0
  0
LINE
  5
4208
  8
1
 10
2419.978409697474
 20
4122.4843491009651
 30
0.0
 11
2419.978409697474
 21
4172.4843491009642
 31
0.0
  0
POINT
  5
4209
  8
1
 10
2419.6784096974739
 20
4147.4843491009633
 30
0.0
  0
LINE
  5
420A
  8
1
 10
2479.9784096974749
 20
4122.4843491009651
 30
0.0
 11
2479.9784096974749
 21
4172.4843491009642
 31
0.0
  0
LINE
  5
420B
  8
2
 10
2456.478409697474
 20
4100.7713208293244
 30
0.0
 11
2456.478409697474
 21
4714.4279390689126
 31
0.0
  0
LINE
  5
420C
  8
2
 10
1816.478409697474
 20
4100.7713208293244
 30
0.0
 11
1816.478409697474
 21
4714.4279390689126
 31
0.0
  0
LINE
  5
4219
  8
1
 10
924.03168652291436
 20
4128.4843491009651
 30
0.0
 11
957.03168652291436
 21
4128.4843491009651
 31
0.0
  0
LINE
  5
421A
  8
1
 10
911.53168652291436
 20
4122.4843491009651
 30
0.0
 11
961.53168652291436
 21
4122.4843491009651
 31
0.0
  0
ARC
  5
421B
  8
1
 10
913.03168652291424
 20
4167.9843491009642
 30
0.0
 40
4.5
 50
0.0
 51
90.0
  0
LINE
  5
421C
  8
1
 10
911.53168652291436
 20
4122.4843491009651
 30
0.0
 11
911.53168652291436
 21
4172.4843491009642
 31
0.0
  0
ARC
  5
421D
  8
1
 10
924.03168652291436
 20
4134.9843491009651
 30
0.0
 40
6.5
 50
180.0
 51
270.0
  0
LINE
  5
421E
  8
1
 10
917.53168652291424
 20
4134.9843491009651
 30
0.0
 11
917.53168652291424
 21
4167.9843491009642
 31
0.0
  0
LINE
  5
421F
  8
1
 10
911.53168652291436
 20
4172.4843491009642
 30
0.0
 11
913.03168652291424
 21
4172.4843491009642
 31
0.0
  0
ARC
  5
4220
  8
1
 10
957.03168652291436
 20
4123.9843491009651
 30
0.0
 40
4.5
 50
0.0
 51
90.0
  0
LINE
  5
4221
  8
1
 10
961.53168652291436
 20
4122.4843491009651
 30
0.0
 11
961.53168652291436
 21
4123.9843491009651
 31
0.0
  0
LINE
  5
4222
  8
2
 10
941.73168652291406
 20
4075.01048370432
 30
0.0
 11
941.73168652291406
 21
4790.3765177217319
 31
0.0
  0
ARC
  5
4223
  8
1
 10
302.43168652291382
 20
4123.9843491009651
 30
0.0
 40
4.5
 50
90.0
 51
180.0
  0
LINE
  5
4224
  8
1
 10
347.93168652291382
 20
4122.4843491009651
 30
0.0
 11
297.93168652291382
 21
4122.4843491009651
 31
0.0
  0
ARC
  5
4225
  8
1
 10
335.43168652291382
 20
4134.9843491009651
 30
0.0
 40
6.5
 50
270.0
 51
0.000000000000007
  0
LINE
  5
4226
  8
1
 10
347.93168652291382
 20
4122.4843491009651
 30
0.0
 11
347.93168652291382
 21
4172.4843491009642
 31
0.0
  0
LINE
  5
4227
  8
1
 10
335.43168652291382
 20
4128.4843491009651
 30
0.0
 11
302.43168652291382
 21
4128.4843491009651
 31
0.0
  0
LINE
  5
4228
  8
1
 10
347.93168652291382
 20
4172.4843491009642
 30
0.0
 11
346.43168652291382
 21
4172.4843491009642
 31
0.0
  0
LINE
  5
4229
  8
1
 10
341.93168652291382
 20
4134.9843491009651
 30
0.0
 11
341.93168652291382
 21
4167.9843491009642
 31
0.0
  0
ARC
  5
422A
  8
1
 10
346.43168652291382
 20
4167.9843491009642
 30
0.0
 40
4.5
 50
90.0
 51
180.0
  0
LINE
  5
422B
  8
1
 10
297.93168652291382
 20
4122.4843491009651
 30
0.0
 11
297.93168652291382
 21
4123.9843491009651
 31
0.0
  0
LINE
  5
422C
  8
2
 10
317.731686522914
 20
4075.01048370432
 30
0.0
 11
317.731686522914
 21
4790.3765177217319
 31
0.0
  0
DIMENSION
  5
4265
  8
3
  2
*D4
 10
2456.478409697474
 20
4856.5907537781432
 30
0.0
 11
2136.478409697474
 21
4886.5907537781432
 31
0.0
 70
     0
 13
1816.478409697474
 23
4714.4279390689126
 33
0.0
 14
2456.478409697474
 24
4714.4279390689126
 34
0.0
1001
ACAD
1000
DSTYLE
1002
{
1070
   287
1070
     5
1070
   287
1070
     5
1070
    40
1040
15.0
1070
   279
1070
     2
1070
   289
1070
     3
1002
}
  0
DIMENSION
  5
4272
  8
3
  2
*D5
 10
964.73168652291406
 20
4952.0703723068036
 30
0.0
 11
629.73168652291406
 21
4982.0703723068054
 31
0.0
 70
     0
 13
294.731686522914
 23
4457.4843491009651
 33
0.0
 14
964.73168652291406
 24
4457.4843491009651
 34
0.0
1001
ACAD
1000
DSTYLE
1002
{
1070
   287
1070
     5
1070
   287
1070
     5
1070
    40
1040
15.0
1070
   279
1070
     2
1070
   289
1070
     3
1002
}
  0
DIMENSION
  5
427F
  8
3
  2
*D6
 10
941.73168652291406
 20
4834.119974881015
 30
0.0
 11
629.73168652291406
 21
4864.119974881015
 31
0.0
 70
     0
 13
317.731686522914
 23
4790.3765177217319
 33
0.0
 14
941.73168652291406
 24
4790.3765177217319
 34
0.0
1001
ACAD
1000
DSTYLE
1002
{
1070
   287
1070
     5
1070
   287
1070
     5
1070
    40
1040
15.0
1070
   279
1070
     2
1070
   289
1070
     3
1002
}
  0
DIMENSION
  5
428C
  8
3
  2
*D7
 10
964.73168652291406
 20
4834.119974881015
 30
0.0
 11
1036.4514876597379
 21
4870.3752254895498
 31
0.0
 70
   128
 13
941.73168652291406
 23
4790.3765177217319
 33
0.0
 14
964.73168652291406
 24
4457.4843491009651
 34
0.0
1001
ACAD
1000
DSTYLE
1002
{
1070
   287
1070
     5
1070
   287
1070
     5
1070
    40
1040
15.0
1070
   279
1070
     2
1070
   289
1070
     3
1002
}
  0
DIMENSION
  5
429B
  8
3
  2
*D8
 10
294.731686522914
 20
4834.119974881015
 30
0.0
 11
225.51583479675531
 21
4870.3752254895498
 31
0.0
 70
   128
 13
317.731686522914
 23
4790.3765177217319
 33
0.0
 14
294.731686522914
 24
4457.4843491009651
 34
0.0
1001
ACAD
1000
DSTYLE
1002
{
1070
   287
1070
     5
1070
   287
1070
     5
1070
    40
1040
15.0
1070
   279
1070
     2
1070
   289
1070
     3
1002
}
  0
ENDSEC
  0
EOF
