  0
SECTION
  2
HEADER
  9
$ACADVER
  1
AC1009
  9
$INSBASE
 10
0.0
 20
0.0
 30
0.0
  9
$EXTMIN
 10
0.0
 20
0.0
 30
0.0
  9
$EXTMAX
 10
3150.0
 20
4425.0
 30
0.0
  9
$LIMMIN
 10
0.0
 20
0.0
  9
$LIMMAX
 10
297.0
 20
210.0
  9
$ORTHOMODE
 70
     0
  9
$REGENMODE
 70
     1
  9
$FILLMODE
 70
     0
  9
$QTEXTMODE
 70
     0
  9
$MIRRTEXT
 70
     1
  9
$DRAGMODE
 70
     2
  9
$LTSCALE
 40
100.0
  9
$OSMODE
 70
    37
  9
$ATTMODE
 70
     1
  9
$TEXTSIZE
 40
180.0
  9
$TRACEWID
 40
0.05
  9
$TEXTSTYLE
  7
STANDARD
  9
$CLAYER
  8
1
  9
$CELTYPE
  6
BYLAYER
  9
$CECOLOR
 62
   256
  9
$DIMSCALE
 40
15.0
  9
$DIMASZ
 40
2.0
  9
$DIMEXO
 40
0.5
  9
$DIMDLI
 40
10.0
  9
$DIMRND
 40
0.0
  9
$DIMDLE
 40
0.0
  9
$DIMEXE
 40
1.0
  9
$DIMTP
 40
1.0
  9
$DIMTM
 40
1.0
  9
$DIMTXT
 40
3.0
  9
$DIMCEN
 40
0.0
  9
$DIMTSZ
 40
0.0
  9
$DIMTOL
 70
     0
  9
$DIMLIM
 70
     0
  9
$DIMTIH
 70
     0
  9
$DIMTOH
 70
     0
  9
$DIMSE1
 70
     0
  9
$DIMSE2
 70
     0
  9
$DIMTAD
 70
     1
  9
$DIMZIN
 70
     8
  9
$DIMBLK
  1

  9
$DIMASO
 70
     1
  9
$DIMSHO
 70
     1
  9
$DIMPOST
  1

  9
$DIMAPOST
  1

  9
$DIMALT
 70
     0
  9
$DIMALTD
 70
     2
  9
$DIMALTF
 40
0.039
  9
$DIMLFAC
 40
1.0
  9
$DIMTOFL
 70
     1
  9
$DIMTVP
 40
0.0
  9
$DIMTIX
 70
     0
  9
$DIMSOXD
 70
     0
  9
$DIMSAH
 70
     1
  9
$DIMBLK1
  1
OPEN
  9
$DIMBLK2
  1
OPEN
  9
$DIMSTYLE
  2
IGA
  9
$DIMCLRD
 70
     0
  9
$DIMCLRE
 70
     0
  9
$DIMCLRT
 70
     0
  9
$DIMTFAC
 40
10.0
  9
$DIMGAP
 40
1.0
  9
$LUNITS
 70
     2
  9
$LUPREC
 70
     3
  9
$SKETCHINC
 40
0.1
  9
$FILLETRAD
 40
50.0
  9
$AUNITS
 70
     0
  9
$AUPREC
 70
     0
  9
$MENU
  1
acad
  9
$ELEVATION
 40
0.0
  9
$PELEVATION
 40
0.0
  9
$THICKNESS
 40
0.0
  9
$LIMCHECK
 70
     0
  9
$BLIPMODE
 70
     0
  9
$CHAMFERA
 40
0.5
  9
$CHAMFERB
 40
0.5
  9
$SKPOLY
 70
     0
  9
$TDCREATE
 40
2452683.4968092591
  9
$TDUPDATE
 40
2454953.6308586448
  9
$TDINDWG
 40
0.0587109954
  9
$TDUSRTIMER
 40
0.0587109954
  9
$USRTIMER
 70
     1
  9
$ANGBASE
 50
0.0
  9
$ANGDIR
 70
     0
  9
$PDMODE
 70
     0
  9
$PDSIZE
 40
0.0
  9
$PLINEWID
 40
0.0
  9
$COORDS
 70
     1
  9
$SPLFRAME
 70
     0
  9
$SPLINETYPE
 70
     6
  9
$SPLINESEGS
 70
     8
  9
$ATTDIA
 70
     0
  9
$ATTREQ
 70
     1
  9
$HANDLING
 70
 10241
  9
$HANDSEED
  5
857A
  9
$SURFTAB1
 70
     6
  9
$SURFTAB2
 70
     6
  9
$SURFTYPE
 70
     6
  9
$SURFU
 70
     6
  9
$SURFV
 70
     6
  9
$UCSNAME
  2

  9
$UCSORG
 10
0.0
 20
0.0
 30
0.0
  9
$UCSXDIR
 10
1.0
 20
0.0
 30
0.0
  9
$UCSYDIR
 10
0.0
 20
1.0
 30
0.0
  9
$PUCSNAME
  2

  9
$PUCSORG
 10
0.0
 20
0.0
 30
0.0
  9
$PUCSXDIR
 10
1.0
 20
0.0
 30
0.0
  9
$PUCSYDIR
 10
0.0
 20
1.0
 30
0.0
  9
$USERI1
 70
     0
  9
$USERI2
 70
     0
  9
$USERI3
 70
     0
  9
$USERI4
 70
     0
  9
$USERI5
 70
     0
  9
$USERR1
 40
0.0
  9
$USERR2
 40
0.0
  9
$USERR3
 40
0.0
  9
$USERR4
 40
0.0
  9
$USERR5
 40
0.0
  9
$WORLDVIEW
 70
     1
  9
$SHADEDGE
 70
     3
  9
$SHADEDIF
 70
    70
  9
$TILEMODE
 70
     1
  9
$MAXACTVP
 70
    16
  9
$PLIMCHECK
 70
     0
  9
$PEXTMIN
 10
1.0000000000000000E+020
 20
1.0000000000000000E+020
 30
1.0000000000000000E+020
  9
$PEXTMAX
 10
-1.0000000000000000E+020
 20
-1.0000000000000000E+020
 30
-1.0000000000000000E+020
  9
$PLIMMIN
 10
0.0
 20
0.0
  9
$PLIMMAX
 10
12.0
 20
9.0
  9
$UNITMODE
 70
     0
  9
$VISRETAIN
 70
     0
  9
$PLINEGEN
 70
     0
  9
$PSLTSCALE
 70
     1
  0
ENDSEC
  0
SECTION
  2
TABLES
  0
TABLE
  2
VPORT
 70
     2
  0
VPORT
  2
*ACTIVE
 70
     0
 10
0.0
 20
0.0
 11
1.0
 21
1.0
 12
3020.3362335397492
 22
516.81158446287191
 13
0.0
 23
0.0
 14
10.0
 24
10.0
 15
10.0
 25
10.0
 16
0.0
 26
0.0
 36
1.0
 17
0.0
 27
0.0
 37
0.0
 40
1345.9891955530759
 41
3.1666666666666661
 42
50.0
 43
0.0
 44
0.0
 50
0.0
 51
0.0
 71
     0
 72
   100
 73
     1
 74
     0
 75
     0
 76
     0
 77
     0
 78
     0
  0
ENDTAB
  0
TABLE
  2
LTYPE
 70
     2
  0
LTYPE
  2
CONTINUOUS
 70
     0
  3
Solid line
 72
    65
 73
     0
 40
0.0
  0
LTYPE
  2
CENTER
 70
     0
  3
____ _ ____ _ ____ _ ____ _ ____ _ ____ _ ____ 
 72
    65
 73
     4
 40
2.0
 49
1.25
 49
-0.25
 49
0.25
 49
-0.25
  0
ENDTAB
  0
TABLE
  2
LAYER
 70
     6
  0
LAYER
  2
0
 70
     0
 62
     7
  6
CONTINUOUS
  0
LAYER
  2
3
 70
     0
 62
     2
  6
CONTINUOUS
  0
LAYER
  2
2
 70
     0
 62
     3
  6
CENTER
  0
LAYER
  2
1
 70
     0
 62
     4
  6
CONTINUOUS
  0
LAYER
  2
4
 70
     0
 62
     7
  6
CONTINUOUS
  0
LAYER
  2
DEFPOINTS
 70
     0
 62
     7
  6
CONTINUOUS
  0
ENDTAB
  0
TABLE
  2
STYLE
 70
     1
  0
STYLE
  2
STANDARD
 70
     0
 40
0.0
 41
1.0
 50
0.0
 71
     0
 42
180.0
  3
simplex.shx
  4
extfont.shx
  0
ENDTAB
  0
TABLE
  2
VIEW
 70
     0
  0
ENDTAB
  0
TABLE
  2
UCS
 70
     0
  0
ENDTAB
  0
TABLE
  2
APPID
 70
     1
  0
APPID
  2
ACAD
 70
     0
  0
ENDTAB
  0
TABLE
  2
DIMSTYLE
 70
     1
  0
DIMSTYLE
  2
IGA
 70
     0
  3

  4

  5

  6
OPEN
  7
OPEN
 40
2.0
 41
2.0
 42
0.5
 43
10.0
 44
1.0
 45
0.0
 46
0.0
 47
1.0
 48
1.0
140
3.0
141
0.0
142
0.0
143
0.03937
144
1.0
145
0.0
146
10.0
147
1.0
 71
     0
 72
     0
 73
     0
 74
     0
 75
     0
 76
     0
 77
     1
 78
     8
170
     0
171
     2
172
     0
173
     1
174
     0
175
     0
176
     0
177
     0
178
     0
  0
ENDTAB
  0
ENDSEC
  0
SECTION
  2
BLOCKS
  0
BLOCK
  8
0
  2
$MODEL_SPACE
 70
     0
 10
0.0
 20
0.0
 30
0.0
  3
$MODEL_SPACE
  1

  0
ENDBLK
  5
1B
  8
0
  0
BLOCK
 67
     1
  8
0
  2
$PAPER_SPACE
 70
     0
 10
0.0
 20
0.0
 30
0.0
  3
$PAPER_SPACE
  1

  0
ENDBLK
  5
18
 67
     1
  8
0
  0
BLOCK
  8
0
  2
_OPEN
 70
     0
 10
0.0
 20
0.0
 30
0.0
  3
_OPEN
  1

  0
LINE
  5
7CF4
  8
0
  6
BYBLOCK
 62
     0
 10
-1.0
 20
0.1666666666666666
 30
0.0
 11
0.0
 21
0.0
 31
0.0
  0
LINE
  5
7CF5
  8
0
  6
BYBLOCK
 62
     0
 10
0.0
 20
0.0
 30
0.0
 11
-1.0
 21
-0.1666666666666666
 31
0.0
  0
LINE
  5
7CF6
  8
0
  6
BYBLOCK
 62
     0
 10
0.0
 20
0.0
 30
0.0
 11
-1.0
 21
0.0
 31
0.0
  0
ENDBLK
  5
7CF7
  8
0
  0
BLOCK
  8
0
  2
*D1
 70
     1
 10
0.0
 20
0.0
 30
0.0
  3
*D1
  1

  0
LINE
  5
8526
  8
3
 62
     0
 10
591.36841144252594
 20
2073.121273223438
 30
0.0
 11
591.36841144252594
 21
2535.83365273657
 31
0.0
  0
LINE
  5
8527
  8
3
 62
     0
 10
1201.3684114425259
 20
2073.121273223438
 30
0.0
 11
1201.3684114425259
 21
2535.83365273657
 31
0.0
  0
LINE
  5
8528
  8
3
 62
     0
 10
621.36841144252594
 20
2520.83365273657
 30
0.0
 11
1171.3684114425259
 21
2520.83365273657
 31
0.0
  0
INSERT
  5
8529
  8
3
 62
     0
  2
_OPEN
 10
591.36841144252594
 20
2520.83365273657
 30
0.0
 41
30.0
 42
30.0
 43
30.0
 50
180.0
  0
INSERT
  5
852A
  8
3
 62
     0
  2
_OPEN
 10
1201.3684114425259
 20
2520.83365273657
 30
0.0
 41
30.0
 42
30.0
 43
30.0
  0
TEXT
  8
3
  40
45
  5
8572
  62
0
  72
0
  71
0
 10
806.368
 20
2478.68
 30
0.000000
  1
610
  0
POINT
  5
852C
  8
DEFPOINTS
 62
     0
 10
591.36841144252594
 20
2065.621273223438
 30
0.0
  0
POINT
  5
852D
  8
DEFPOINTS
 62
     0
 10
1201.3684114425259
 20
2065.621273223438
 30
0.0
  0
POINT
  5
852E
  8
DEFPOINTS
 62
     0
 10
1201.3684114425259
 20
2520.83365273657
 30
0.0
  0
ENDBLK
  5
7E7A
  8
0
  0
BLOCK
  8
0
  2
*D2
 70
     1
 10
0.0
 20
0.0
 30
0.0
  3
*D2
  1

  0
LINE
  5
852F
  8
3
 62
     0
 10
553.86841144252594
 20
2035.6212732234369
 30
0.0
 11
353.35246047168431
 21
2035.621273223438
 31
0.0
  0
LINE
  5
8530
  8
3
 62
     0
 10
553.86841144252594
 20
1535.621273223438
 30
0.0
 11
353.3524604716842
 21
1535.621273223438
 31
0.0
  0
LINE
  5
8531
  8
3
 62
     0
 10
368.35246047168431
 20
2005.621273223438
 30
0.0
 11
368.3524604716842
 21
1565.621273223438
 31
0.0
  0
INSERT
  5
8532
  8
3
 62
     0
  2
_OPEN
 10
368.35246047168431
 20
2035.621273223438
 30
0.0
 41
30.0
 42
30.0
 43
30.0
 50
90.0
  0
INSERT
  5
8533
  8
3
 62
     0
  2
_OPEN
 10
368.3524604716842
 20
1535.621273223438
 30
0.0
 41
30.0
 42
30.0
 43
30.0
 50
270.0
  0
TEXT
  8
3
  40
45
  5
8573
  62
0
  72
0
  71
0
 10
240.852
 20
1705.83
 30
0.000000
  1
φ500
  0
POINT
  5
8535
  8
DEFPOINTS
 62
     0
 10
561.36841144252594
 20
2035.6212732234369
 30
0.0
  0
POINT
  5
8536
  8
DEFPOINTS
 62
     0
 10
561.36841144252594
 20
1535.621273223438
 30
0.0
  0
POINT
  5
8537
  8
DEFPOINTS
 62
     0
 10
368.3524604716842
 20
1535.621273223438
 30
0.0
  0
ENDBLK
  5
7D78
  8
0
  0
BLOCK
  8
0
  2
*D3
 70
     1
 10
0.0
 20
0.0
 30
0.0
  3
*D3
  1

  0
LINE
  5
8538
  8
3
 62
     0
 10
2079.4074196966458
 20
1785.6212732234369
 30
0.0
 11
1928.5417471541259
 21
1785.6212732234369
 31
0.0
  0
LINE
  5
8539
  8
3
 62
     0
 10
2152.4074196966458
 20
1455.621273223438
 30
0.0
 11
1928.5417471541259
 21
1455.621273223438
 31
0.0
  0
LINE
  5
853A
  8
3
 62
     0
 10
1943.5417471541259
 20
1755.621273223438
 30
0.0
 11
1943.5417471541259
 21
1485.621273223438
 31
0.0
  0
INSERT
  5
853B
  8
3
 62
     0
  2
_OPEN
 10
1943.5417471541259
 20
1785.6212732234369
 30
0.0
 41
30.0
 42
30.0
 43
30.0
 50
90.0
  0
INSERT
  5
853C
  8
3
 62
     0
  2
_OPEN
 10
1943.5417471541259
 20
1455.621273223438
 30
0.0
 41
30.0
 42
30.0
 43
30.0
 50
270.0
  0
TEXT
  8
3
  40
45
  5
8574
  62
0
  72
0
  71
0
 10
1816.04
 20
1540.97
 30
0.000000
  1
330
  0
POINT
  5
853E
  8
DEFPOINTS
 62
     0
 10
2086.9074196966458
 20
1785.6212732234369
 30
0.0
  0
POINT
  5
853F
  8
DEFPOINTS
 62
     0
 10
2159.9074196966458
 20
1455.621273223438
 30
0.0
  0
POINT
  5
8540
  8
DEFPOINTS
 62
     0
 10
1943.5417471541259
 20
1455.621273223438
 30
0.0
  0
ENDBLK
  5
7E94
  8
0
  0
BLOCK
  8
0
  2
*D4
 70
     1
 10
0.0
 20
0.0
 30
0.0
  3
*D4
  1

  0
LINE
  5
81DA
  8
3
 62
     0
 10
2062.4074196966471
 20
1419.6212732234369
 30
0.0
 11
1928.5417471541259
 21
1419.6212732234369
 31
0.0
  0
LINE
  5
81DB
  8
3
 62
     0
 10
1943.5417471541259
 20
1485.621273223438
 30
0.0
 11
1943.5417471541259
 21
1515.6212732234369
 31
0.0
  0
LINE
  5
81DC
  8
3
 62
     0
 10
1943.5417471541259
 20
1389.6212732234369
 30
0.0
 11
1943.5417471541259
 21
1359.6212732234369
 31
0.0
  0
TEXT
  5
81DD
  8
1
 62
     0
 10
1886.756032868411
 20
1386.2043726490349
 30
0.0
 40
45.0
  1
(36)
 50
90.0
  0
LINE
  5
81DE
  8
3
 62
     0
 10
1943.5417471541259
 20
1455.621273223438
 30
0.0
 11
1943.5417471541259
 21
1419.6212732234369
 31
0.0
  0
INSERT
  5
81DF
  8
3
 62
     0
  2
_OPEN
 10
1943.5417471541259
 20
1455.621273223438
 30
0.0
 41
30.0
 42
30.0
 43
30.0
 50
270.0
  0
INSERT
  5
81E0
  8
3
 62
     0
  2
_DOT
 10
1943.5417471541259
 20
1419.6212732234369
 30
0.0
 41
30.0
 42
30.0
 43
30.0
 50
90.0
  0
POINT
  5
81E1
  8
DEFPOINTS
 62
     0
 10
2159.9074196966458
 20
1455.621273223438
 30
0.0
  0
POINT
  5
81E2
  8
DEFPOINTS
 62
     0
 10
2069.9074196966471
 20
1419.6212732234369
 30
0.0
  0
POINT
  5
81E3
  8
DEFPOINTS
 62
     0
 10
1943.5417471541259
 20
1419.6212732234369
 30
0.0
  0
ENDBLK
  5
7EFE
  8
0
  0
BLOCK
  8
0
  2
*D5
 70
     1
 10
0.0
 20
0.0
 30
0.0
  3
*D5
  1

  0
LINE
  5
8541
  8
3
 62
     0
 10
2062.4074196966471
 20
1419.6212732234369
 30
0.0
 11
1928.5417471541259
 21
1419.6212732234369
 31
0.0
  0
LINE
  5
8542
  8
3
 62
     0
 10
2063.968002326943
 20
1379.6212732234369
 30
0.0
 11
1928.5417471541259
 21
1379.6212732234369
 31
0.0
  0
LINE
  5
8543
  8
3
 62
     0
 10
1943.5417471541259
 20
1449.6212732234369
 30
0.0
 11
1943.5417471541259
 21
1479.6212732234369
 31
0.0
  0
LINE
  5
8544
  8
3
 62
     0
 10
1943.5417471541259
 20
1349.6212732234369
 30
0.0
 11
1943.5417471541259
 21
1216.7641303662949
 31
0.0
  0
LINE
  5
8545
  8
3
 62
     0
 10
1943.5417471541259
 20
1419.6212732234369
 30
0.0
 11
1943.5417471541259
 21
1379.6212732234369
 31
0.0
  0
INSERT
  5
8546
  8
3
 62
     0
  2
_DOT
 10
1943.5417471541259
 20
1419.6212732234369
 30
0.0
 41
30.0
 42
30.0
 43
30.0
 50
270.0
  0
INSERT
  5
8547
  8
3
 62
     0
  2
_OPEN
 10
1943.5417471541259
 20
1379.6212732234369
 30
0.0
 41
30.0
 42
30.0
 43
30.0
 50
90.0
  0
TEXT
  8
3
  40
45
  5
8575
  62
0
  72
0
  71
0
 10
1816.04
 20
1188.54
 30
0.000000
  1
40
  0
POINT
  5
8549
  8
DEFPOINTS
 62
     0
 10
2069.9074196966471
 20
1419.6212732234369
 30
0.0
  0
POINT
  5
854A
  8
DEFPOINTS
 62
     0
 10
2071.468002326942
 20
1379.6212732234369
 30
0.0
  0
POINT
  5
854B
  8
DEFPOINTS
 62
     0
 10
1943.5417471541259
 20
1379.6212732234369
 30
0.0
  0
ENDBLK
  5
7F0B
  8
0
  0
BLOCK
  8
0
  2
_DOT
 70
     0
 10
0.0
 20
0.0
 30
0.0
  3
_DOT
  1

  0
LINE
  5
7E18
  8
0
  6
BYBLOCK
 62
     0
 10
0.0
 20
0.0
 30
0.0
 11
-1.0
 21
-0.0000000000000284
 31
0.0
  0
POLYLINE
  5
7E19
  8
0
  6
BYBLOCK
 62
     0
 66
     1
 10
0.0
 20
0.0
 30
0.0
 70
     1
 40
0.1666666666666666
 41
0.1666666666666666
  0
VERTEX
  5
854C
  8
0
  6
BYBLOCK
 62
     0
 10
-0.0833333333333286
 20
-0.0000000000000284
 30
0.0
 42
1.0
  0
VERTEX
  5
854D
  8
0
  6
BYBLOCK
 62
     0
 10
0.0833333333333286
 20
-0.0000000000000284
 30
0.0
 42
1.0
  0
SEQEND
  5
854E
  8
0
  6
BYBLOCK
 62
     0
  0
ENDBLK
  5
7DFE
  8
0
  0
BLOCK
  8
0
  2
*D7
 70
     1
 10
0.0
 20
0.0
 30
0.0
  3
*D7
  1

  0
LINE
  5
854F
  8
3
 62
     0
 10
2104.9074196966471
 20
1793.121273223438
 30
0.0
 11
2104.9074196966471
 21
2531.7451791682829
 31
0.0
  0
LINE
  5
8550
  8
3
 62
     0
 10
2664.9074196966458
 20
1793.121273223438
 30
0.0
 11
2664.9074196966458
 21
2531.7451791682829
 31
0.0
  0
LINE
  5
8551
  8
3
 62
     0
 10
2134.9074196966458
 20
2516.7451791682829
 30
0.0
 11
2634.9074196966458
 21
2516.7451791682829
 31
0.0
  0
INSERT
  5
8552
  8
3
 62
     0
  2
_OPEN
 10
2104.9074196966471
 20
2516.7451791682829
 30
0.0
 41
30.0
 42
30.0
 43
30.0
 50
180.0
  0
INSERT
  5
8553
  8
3
 62
     0
  2
_OPEN
 10
2664.9074196966458
 20
2516.7451791682829
 30
0.0
 41
30.0
 42
30.0
 43
30.0
  0
TEXT
  8
3
  40
45
  5
8576
  62
0
  72
0
  71
0
 10
2293.34
 20
2474.60
 30
0.000000
  1
560
  0
POINT
  5
8555
  8
DEFPOINTS
 62
     0
 10
2104.9074196966471
 20
1785.6212732234369
 30
0.0
  0
POINT
  5
8556
  8
DEFPOINTS
 62
     0
 10
2664.9074196966458
 20
1785.6212732234369
 30
0.0
  0
POINT
  5
8557
  8
DEFPOINTS
 62
     0
 10
2664.9074196966458
 20
2516.7451791682829
 30
0.0
  0
ENDBLK
  5
7E85
  8
0
  0
BLOCK
  8
0
  2
*D8
 70
     1
 10
0.0
 20
0.0
 30
0.0
  3
*D8
  1

  0
LINE
  5
8558
  8
3
 62
     0
 10
551.36841144252594
 20
1372.121273223438
 30
0.0
 11
551.36841144252594
 21
1217.368531391106
 31
0.0
  0
LINE
  5
8559
  8
3
 62
     0
 10
1241.3684114425259
 20
1372.121273223438
 30
0.0
 11
1241.3684114425259
 21
1217.368531391106
 31
0.0
  0
LINE
  5
855A
  8
3
 62
     0
 10
581.36841144252594
 20
1232.368531391106
 30
0.0
 11
1211.3684114425259
 21
1232.368531391106
 31
0.0
  0
INSERT
  5
855B
  8
3
 62
     0
  2
_OPEN
 10
551.36841144252594
 20
1232.368531391106
 30
0.0
 41
30.0
 42
30.0
 43
30.0
 50
180.0
  0
INSERT
  5
855C
  8
3
 62
     0
  2
_OPEN
 10
1241.3684114425259
 20
1232.368531391106
 30
0.0
 41
30.0
 42
30.0
 43
30.0
  0
TEXT
  8
3
  40
45
  5
8577
  62
0
  72
0
  71
0
 10
775.413
 20
1190.22
 30
0.000000
  1
690
  0
POINT
  5
855E
  8
DEFPOINTS
 62
     0
 10
551.36841144252594
 20
1379.621273223438
 30
0.0
  0
POINT
  5
855F
  8
DEFPOINTS
 62
     0
 10
1241.3684114425259
 20
1379.621273223438
 30
0.0
  0
POINT
  5
8560
  8
DEFPOINTS
 62
     0
 10
1241.3684114425259
 20
1232.368531391106
 30
0.0
  0
ENDBLK
  5
7E6F
  8
0
  0
BLOCK
  8
0
  2
*D9
 70
     1
 10
0.0
 20
0.0
 30
0.0
  3
*D9
  1

  0
LINE
  5
8561
  8
3
 62
     0
 10
2069.9074196966471
 20
1372.121273223438
 30
0.0
 11
2069.9074196966471
 21
1215.460255182197
 31
0.0
  0
LINE
  5
8562
  8
3
 62
     0
 10
2699.9074196966471
 20
1372.1212732234369
 30
0.0
 11
2699.9074196966471
 21
1215.460255182197
 31
0.0
  0
LINE
  5
8563
  8
3
 62
     0
 10
2099.9074196966471
 20
1230.460255182197
 30
0.0
 11
2669.9074196966471
 21
1230.460255182197
 31
0.0
  0
INSERT
  5
8564
  8
3
 62
     0
  2
_OPEN
 10
2069.9074196966471
 20
1230.460255182197
 30
0.0
 41
30.0
 42
30.0
 43
30.0
 50
180.0
  0
INSERT
  5
8565
  8
3
 62
     0
  2
_OPEN
 10
2699.9074196966471
 20
1230.460255182197
 30
0.0
 41
30.0
 42
30.0
 43
30.0
  0
TEXT
  8
3
  40
45
  5
8578
  62
0
  72
0
  71
0
 10
2296.80
 20
1188.31
 30
0.000000
  1
630
  0
POINT
  5
8567
  8
DEFPOINTS
 62
     0
 10
2069.9074196966471
 20
1379.621273223438
 30
0.0
  0
POINT
  5
8568
  8
DEFPOINTS
 62
     0
 10
2699.9074196966471
 20
1379.6212732234369
 30
0.0
  0
POINT
  5
8569
  8
DEFPOINTS
 62
     0
 10
2699.9074196966471
 20
1230.460255182197
 30
0.0
  0
ENDBLK
  5
7ED4
  8
0
  0
BLOCK
  8
0
  2
*D10
 70
     1
 10
0.0
 20
0.0
 30
0.0
  3
*D10
  1

  0
LINE
  5
856A
  8
3
 62
     0
 10
2377.4074196966458
 20
2416.3615341282789
 30
0.0
 11
1928.5417471541259
 21
2416.3615341282789
 31
0.0
  0
LINE
  5
856B
  8
3
 62
     0
 10
1943.5417471541259
 20
1815.6212732234369
 30
0.0
 11
1943.5417471541259
 21
2386.3615341282789
 31
0.0
  0
INSERT
  5
856C
  8
3
 62
     0
  2
_OPEN
 10
1943.5417471541259
 20
1785.6212732234369
 30
0.0
 41
30.0
 42
30.0
 43
30.0
 50
270.0
  0
INSERT
  5
856D
  8
3
 62
     0
  2
_OPEN
 10
1943.5417471541259
 20
2416.3615341282789
 30
0.0
 41
30.0
 42
30.0
 43
30.0
 50
90.0
  0
TEXT
  8
3
  40
45
  5
8579
  62
0
  72
0
  71
0
 10
1816.04
 20
2021.34
 30
0.000000
  1
MAX.710
  0
POINT
  5
856F
  8
DEFPOINTS
 62
     0
 10
2086.9074196966458
 20
1785.6212732234369
 30
0.0
  0
POINT
  5
8570
  8
DEFPOINTS
 62
     0
 10
2384.9074196966458
 20
2416.3615341282789
 30
0.0
  0
POINT
  5
8571
  8
DEFPOINTS
 62
     0
 10
1943.5417471541259
 20
2416.3615341282789
 30
0.0
  0
ENDBLK
  5
7EF4
  8
0
  0
ENDSEC
  0
SECTION
  2
ENTITIES
  0
LINE
  5
7B6E
  8
1
 10
591.36841144252594
 20
1535.621273223438
 30
0.0
 11
1201.3684114425259
 21
1535.621273223438
 31
0.0
  0
LINE
  5
7B6F
  8
1
 10
591.36841144252594
 20
2035.6212732234369
 30
0.0
 11
1201.3684114425259
 21
2035.6212732234369
 31
0.0
  0
LINE
  5
7B70
  8
2
 10
535.65030182736689
 20
1785.6212732234369
 30
0.0
 11
1258.584964402542
 21
1785.6212732234369
 31
0.0
  0
LINE
  5
7B71
  8
1
 10
591.36841144252594
 20
2065.621273223438
 30
0.0
 11
591.36841144252594
 21
1505.621273223438
 31
0.0
  0
LINE
  5
7B72
  8
1
 10
594.56841144252621
 20
2065.621273223438
 30
0.0
 11
594.56841144252621
 21
1505.621273223438
 31
0.0
  0
LINE
  5
7B73
  8
2
 10
577.06684042869836
 20
1520.621273223438
 30
0.0
 11
610.07599238062846
 21
1520.621273223438
 31
0.0
  0
LINE
  5
7B74
  8
1
 10
594.56841144252621
 20
1505.621273223438
 30
0.0
 11
591.36841144252594
 21
1505.621273223438
 31
0.0
  0
LINE
  5
7B75
  8
1
 10
577.06684042869836
 20
2050.6212732234371
 30
0.0
 11
610.07599238062846
 21
2050.621273223438
 31
0.0
  0
LINE
  5
7B76
  8
1
 10
594.56841144252621
 20
2065.621273223438
 30
0.0
 11
591.36841144252594
 21
2065.621273223438
 31
0.0
  0
LINE
  5
7B77
  8
1
 10
1184.1482694463889
 20
2050.621273223438
 30
0.0
 11
1217.1574213983199
 21
2050.621273223438
 31
0.0
  0
LINE
  5
7B78
  8
2
 10
1184.1482694463889
 20
1520.621273223438
 30
0.0
 11
1217.1574213983199
 21
1520.621273223438
 31
0.0
  0
LINE
  5
7B79
  8
1
 10
1201.3684114425259
 20
2065.621273223438
 30
0.0
 11
1201.3684114425259
 21
1505.621273223438
 31
0.0
  0
LINE
  5
7B7A
  8
1
 10
1231.3684114425259
 20
1534.621273223438
 30
0.0
 11
1231.3684114425259
 21
2036.621273223438
 31
0.0
  0
LINE
  5
7B7B
  8
1
 10
1204.368411442525
 20
2063.621273223438
 30
0.0
 11
1204.368411442525
 21
1507.621273223438
 31
0.0
  0
LINE
  5
7B7C
  8
1
 10
1198.168411442525
 20
2065.621273223438
 30
0.0
 11
1198.168411442525
 21
1505.621273223438
 31
0.0
  0
LINE
  5
7B7D
  8
1
 10
1201.3684114425259
 20
2065.621273223438
 30
0.0
 11
1201.3684114425259
 21
1505.621273223438
 31
0.0
  0
LINE
  5
7B7E
  8
1
 10
1198.168411442525
 20
1505.621273223438
 30
0.0
 11
1201.3684114425259
 21
1505.621273223438
 31
0.0
  0
LINE
  5
7B7F
  8
1
 10
1201.3684114425259
 20
1505.621273223438
 30
0.0
 11
1202.3684114425259
 21
1505.621273223438
 31
0.0
  0
ARC
  5
7B80
  8
1
 10
1202.3684114425259
 20
1507.621273223438
 30
0.0
 40
2.0
 50
270.0
 51
0.0
  0
LINE
  5
7B81
  8
1
 10
1231.3684114425259
 20
1535.621273223438
 30
0.0
 11
1204.368411442525
 21
1535.621273223438
 31
0.0
  0
LINE
  5
7B82
  8
1
 10
1208.3684114425259
 20
1532.621273223438
 30
0.0
 11
1229.3684114425259
 21
1532.621273223438
 31
0.0
  0
ARC
  5
7B83
  8
1
 10
1208.3684114425259
 20
1528.621273223438
 30
0.0
 40
4.0
 50
90.0
 51
180.0
  0
ARC
  5
7B84
  8
1
 10
1229.3684114425259
 20
1534.621273223438
 30
0.0
 40
2.0
 50
270.0
 51
0.0
  0
LINE
  5
7B86
  8
1
 10
1198.168411442525
 20
2065.621273223438
 30
0.0
 11
1201.3684114425259
 21
2065.621273223438
 31
0.0
  0
LINE
  5
7B87
  8
1
 10
1208.3684114425259
 20
2038.621273223438
 30
0.0
 11
1229.3684114425259
 21
2038.621273223438
 31
0.0
  0
LINE
  5
7B88
  8
1
 10
1231.3684114425259
 20
2035.6212732234369
 30
0.0
 11
1204.368411442525
 21
2035.6212732234369
 31
0.0
  0
ARC
  5
7B89
  8
1
 10
1208.3684114425259
 20
2042.621273223438
 30
0.0
 40
4.0
 50
180.0
 51
270.0
  0
ARC
  5
7B8A
  8
1
 10
1229.3684114425259
 20
2036.621273223438
 30
0.0
 40
2.0
 50
0.0
 51
90.0
  0
LINE
  5
7B8B
  8
1
 10
1201.3684114425259
 20
2065.621273223438
 30
0.0
 11
1202.3684114425259
 21
2065.621273223438
 31
0.0
  0
ARC
  5
7B8C
  8
1
 10
1202.3684114425259
 20
2063.621273223438
 30
0.0
 40
2.0
 50
0.0
 51
90.0
  0
LINE
  5
7B8D
  8
1
 10
938.66670552035441
 20
2081.6784714202449
 30
0.0
 11
938.66670552035441
 21
2090.4073159134032
 31
0.0
  0
LINE
  5
7B8E
  8
1
 10
945.01755848143966
 20
2081.6784714202458
 30
0.0
 11
945.01755848143966
 21
2090.4073159134032
 31
0.0
  0
LINE
  5
7B8F
  8
1
 10
964.07011736469747
 20
2090.4073159134032
 30
0.0
 11
964.07011736469747
 21
2081.6784714202458
 31
0.0
  0
LINE
  5
7B90
  8
1
 10
957.71926440361131
 20
2081.6784714202458
 30
0.0
 11
957.71926440361131
 21
2090.4073159134032
 31
0.0
  0
LINE
  5
7B91
  8
2
 10
951.36841144252594
 20
2163.4648858052628
 30
0.0
 11
951.36841144252594
 21
1976.91924763051
 31
0.0
  0
LINE
  5
7B92
  8
1
 10
2572.4074196966458
 20
2035.4643192565591
 30
0.0
 11
2572.4074196966449
 21
2118.8022688497308
 31
0.0
  0
LINE
  5
7B93
  8
1
 10
2566.4074196966471
 20
2046.3615341282789
 30
0.0
 11
2566.4074196966449
 21
2106.3615341282789
 31
0.0
  0
LINE
  5
7B94
  8
1
 10
2578.4074196966471
 20
2046.3615341282789
 30
0.0
 11
2578.4074196966449
 21
2106.3615341282789
 31
0.0
  0
LINE
  5
7B95
  8
1
 10
2589.9074196966458
 20
1976.343584451045
 30
0.0
 11
2589.9074196966458
 21
2136.3615341282789
 31
0.0
  0
LINE
  5
7B96
  8
1
 10
2549.9074196966458
 20
2011.8401937407109
 30
0.0
 11
2549.9074196966458
 21
2136.3615341282789
 31
0.0
  0
LINE
  5
7B97
  8
1
 10
2554.4074196966458
 20
2008.4883860956611
 30
0.0
 11
2554.4074196966458
 21
2136.3615341282789
 31
0.0
  0
LINE
  5
7B98
  8
1
 10
2589.9074196966458
 20
2061.3296075423959
 30
0.0
 11
2589.9074196966458
 21
2096.329607542395
 31
0.0
  0
LINE
  5
7B99
  8
2
 10
2086.9074196966458
 20
1785.6212732234369
 30
0.0
 11
2682.9074196966458
 21
1785.6212732234369
 31
0.0
  0
CIRCLE
  5
7B9A
  8
1
 10
2384.9074196966458
 20
1785.6212732234369
 30
0.0
 40
280.0
  0
CIRCLE
  5
7B9B
  8
1
 10
2384.9074196966458
 20
1785.6212732234369
 30
0.0
 40
250.0
  0
LINE
  5
7B9C
  8
2
 10
2384.9074196966458
 20
1487.621273223438
 30
0.0
 11
2384.9074196966458
 21
2443.0590726184751
 31
0.0
  0
POINT
  5
7B9D
  8
1
 10
2086.9074196966458
 20
1785.6212732234369
 30
0.0
  0
POINT
  5
7B9E
  8
1
 10
2493.3492874547501
 20
2010.877485828405
 30
0.0
  0
ARC
  5
7B9F
  8
1
 10
2572.4074196966449
 20
2046.3615341282789
 30
0.0
 40
6.0
 50
180.0
 51
0.0
  0
POINT
  5
7BA0
  8
1
 10
2682.9074196966458
 20
1785.6212732234369
 30
0.0
  0
LINE
  5
7BA1
  8
1
 10
943.36841144252594
 20
2080.4073159134032
 30
0.0
 11
943.36841144252594
 21
1986.3615341282789
 31
0.0
  0
LINE
  5
7BA2
  8
1
 10
959.36841144252605
 20
2080.4073159134032
 30
0.0
 11
959.36841144252605
 21
1986.3615341282789
 31
0.0
  0
ARC
  5
7BA3
  8
1
 10
951.36841144252514
 20
2096.6401433936189
 30
0.0
 40
16.253767611608801
 50
247.00000000000239
 51
293.0000000000004
  0
POLYLINE
  5
7BA4
  8
1
 66
     1
 10
0.0
 20
0.0
 30
0.0
  0
VERTEX
  5
851A
  8
1
 10
961.86841144252605
 20
2080.4073159134032
 30
0.0
  0
VERTEX
  5
851B
  8
1
 10
940.86841144252594
 20
2080.4073159134032
 30
0.0
  0
SEQEND
  5
851C
  8
1
  0
LINE
  5
7BA8
  8
1
 10
961.86841144252605
 20
2080.4073159134032
 30
0.0
 11
964.07011736469747
 21
2081.6784714202458
 31
0.0
  0
ARC
  5
7BA9
  8
1
 10
960.89469088415433
 20
2084.8538979007881
 30
0.0
 40
4.4907311951024482
 50
224.99999999999901
 51
314.99999999999898
  0
ARC
  5
7BAA
  8
1
 10
941.84213200089653
 20
2084.8538979007881
 30
0.0
 40
4.4907311951024482
 50
225.00000000000091
 51
315.00000000000091
  0
LINE
  5
7BAB
  8
1
 10
940.86841144252594
 20
2080.4073159134032
 30
0.0
 11
938.66670552035328
 21
2081.6784714202458
 31
0.0
  0
LINE
  5
7BAC
  8
1
 10
2549.9074196966458
 20
2136.3615341282789
 30
0.0
 11
2589.9074196966458
 21
2136.3615341282789
 31
0.0
  0
ARC
  5
7BAD
  8
1
 10
2572.4074196966449
 20
2106.3615341282789
 30
0.0
 40
6.0
 50
0.0
 51
180.0
  0
LINE
  5
7BAE
  8
1
 10
943.36841144252594
 20
2155.6615341282791
 30
0.0
 11
943.36841144252594
 21
2106.3615341282789
 31
0.0
  0
LINE
  5
7BAF
  8
1
 10
959.36841144252605
 20
2155.6615341282791
 30
0.0
 11
959.36841144252605
 21
2106.3615341282789
 31
0.0
  0
POLYLINE
  5
7BB0
  8
1
 66
     1
 10
0.0
 20
0.0
 30
0.0
  0
VERTEX
  5
851D
  8
1
 10
961.86841144252605
 20
2106.3615341282789
 30
0.0
  0
VERTEX
  5
851E
  8
1
 10
940.86841144252594
 20
2106.3615341282789
 30
0.0
  0
SEQEND
  5
851F
  8
1
  0
ARC
  5
7BB4
  8
1
 10
951.36841144252514
 20
2090.1287066480631
 30
0.0
 40
16.253767611608801
 50
66.999999999999602
 51
112.9999999999975
  0
ARC
  5
7BB5
  8
1
 10
960.89469088415433
 20
2101.914952140894
 30
0.0
 40
4.4907311951024482
 50
45.000000000001023
 51
135.00000000000099
  0
LINE
  5
7BB6
  8
1
 10
961.86841144252605
 20
2106.3615341282789
 30
0.0
 11
964.07011736469747
 21
2105.0903786214371
 31
0.0
  0
LINE
  5
7BB7
  8
1
 10
957.71926440361131
 20
2105.0903786214371
 30
0.0
 11
957.71926440361131
 21
2096.3615341282789
 31
0.0
  0
LINE
  5
7BB8
  8
1
 10
964.07011736469747
 20
2096.3615341282789
 30
0.0
 11
964.07011736469747
 21
2105.0903786214371
 31
0.0
  0
LINE
  5
7BB9
  8
1
 10
940.86841144252594
 20
2106.3615341282789
 30
0.0
 11
938.66670552035328
 21
2105.0903786214371
 31
0.0
  0
LINE
  5
7BBA
  8
1
 10
945.01755848143966
 20
2105.0903786214371
 30
0.0
 11
945.01755848143966
 21
2096.3615341282789
 31
0.0
  0
ARC
  5
7BBB
  8
1
 10
941.84213200089653
 20
2101.914952140894
 30
0.0
 40
4.4907311951024482
 50
44.999999999999027
 51
134.99999999999901
  0
LINE
  5
7BBC
  8
1
 10
938.66670552035441
 20
2105.0903786214371
 30
0.0
 11
938.66670552035441
 21
2096.3615341282789
 31
0.0
  0
LINE
  5
7BBD
  8
1
 10
944.36841144252594
 20
2156.6615341282791
 30
0.0
 11
958.36841144252605
 21
2156.6615341282791
 31
0.0
  0
LINE
  5
7BBE
  8
1
 10
943.36841144252594
 20
2155.6615341282791
 30
0.0
 11
959.36841144252605
 21
2155.6615341282791
 31
0.0
  0
LINE
  5
7BBF
  8
1
 10
959.36841144252605
 20
2155.6615341282791
 30
0.0
 11
958.36841144252605
 21
2156.6615341282791
 31
0.0
  0
LINE
  5
7BC0
  8
1
 10
944.36841144252594
 20
2156.6615341282791
 30
0.0
 11
943.36841144252594
 21
2155.6615341282791
 31
0.0
  0
LINE
  5
7BC1
  8
1
 10
2219.9074196966471
 20
2096.3615341282789
 30
0.0
 11
2549.9074196966458
 21
2096.3615341282789
 31
0.0
  0
LINE
  5
7BC2
  8
1
 10
2219.9074196966471
 20
2061.3615341282789
 30
0.0
 11
2549.9074196966458
 21
2061.3615341282789
 31
0.0
  0
LINE
  5
7BC3
  8
1
 10
2219.9074196966471
 20
2091.8615341282789
 30
0.0
 11
2549.9074196966458
 21
2091.8615341282789
 31
0.0
  0
LINE
  5
7BC4
  8
1
 10
2215.4074196966471
 20
2008.4883860956611
 30
0.0
 11
2215.4074196966471
 21
2136.3615341282789
 31
0.0
  0
LINE
  5
7BC5
  8
1
 10
2219.9074196966471
 20
2011.8401937407109
 30
0.0
 11
2219.9074196966471
 21
2136.3615341282789
 31
0.0
  0
LINE
  5
7BC6
  8
1
 10
2179.9074196966471
 20
1976.343584451045
 30
0.0
 11
2179.9074196966471
 21
2136.3615341282789
 31
0.0
  0
LINE
  5
7BC7
  8
1
 10
2191.4074196966458
 20
2046.3615341282789
 30
0.0
 11
2191.4074196966471
 21
2106.3615341282789
 31
0.0
  0
LINE
  5
7BC8
  8
1
 10
2203.4074196966471
 20
2046.3615341282789
 30
0.0
 11
2203.4074196966471
 21
2106.3615341282789
 31
0.0
  0
LINE
  5
7BC9
  8
1
 10
2197.4074196966458
 20
2035.4643192565591
 30
0.0
 11
2197.4074196966471
 21
2118.8022688497308
 31
0.0
  0
ARC
  5
7BCA
  8
1
 10
2197.4074196966471
 20
2046.3615341282789
 30
0.0
 40
6.0
 50
180.0
 51
0.0
  0
LINE
  5
7BCB
  8
1
 10
2179.9074196966458
 20
2061.3296075423959
 30
0.0
 11
2179.9074196966458
 21
2096.329607542395
 31
0.0
  0
LINE
  5
7BCC
  8
1
 10
2219.9074196966458
 20
2136.3615341282789
 30
0.0
 11
2179.9074196966458
 21
2136.3615341282789
 31
0.0
  0
ARC
  5
7BCD
  8
1
 10
2197.4074196966471
 20
2106.3615341282789
 30
0.0
 40
6.0
 50
0.0
 51
180.0
  0
LINE
  5
7BCE
  8
1
 10
951.36841144252594
 20
1986.3615341282789
 30
0.0
 11
951.36841144252594
 21
2136.3615341282789
 31
0.0
  0
LINE
  5
7BCF
  8
1
 10
655.01755848143966
 20
2105.0903786214371
 30
0.0
 11
655.01755848143966
 21
2096.3615341282789
 31
0.0
  0
LINE
  5
7BD0
  8
1
 10
648.66670552035418
 20
2105.0903786214371
 30
0.0
 11
648.66670552035418
 21
2096.3615341282789
 31
0.0
  0
LINE
  5
7BD1
  8
1
 10
667.71926440361131
 20
2105.0903786214371
 30
0.0
 11
667.71926440361131
 21
2096.3615341282789
 31
0.0
  0
LINE
  5
7BD2
  8
1
 10
674.07011736469747
 20
2096.3615341282789
 30
0.0
 11
674.07011736469747
 21
2105.0903786214371
 31
0.0
  0
LINE
  5
7BD3
  8
2
 10
661.36841144252594
 20
2163.4648858052628
 30
0.0
 11
661.36841144252594
 21
1976.91924763051
 31
0.0
  0
ARC
  5
7BD4
  8
1
 10
661.36841144252503
 20
2096.6401433936189
 30
0.0
 40
16.253767611608801
 50
247.00000000000239
 51
293.0000000000004
  0
POLYLINE
  5
7BD5
  8
1
 66
     1
 10
0.0
 20
0.0
 30
0.0
  0
VERTEX
  5
8520
  8
1
 10
671.86841144252594
 20
2080.4073159134032
 30
0.0
  0
VERTEX
  5
8521
  8
1
 10
650.86841144252594
 20
2080.4073159134032
 30
0.0
  0
SEQEND
  5
8522
  8
1
  0
LINE
  5
7BD9
  8
1
 10
669.36841144252594
 20
2080.4073159134032
 30
0.0
 11
669.36841144252594
 21
1986.3615341282789
 31
0.0
  0
LINE
  5
7BDA
  8
1
 10
671.86841144252594
 20
2080.4073159134032
 30
0.0
 11
674.07011736469747
 21
2081.6784714202458
 31
0.0
  0
ARC
  5
7BDB
  8
1
 10
670.89469088415444
 20
2084.8538979007881
 30
0.0
 40
4.4907311951024482
 50
224.99999999999901
 51
314.99999999999898
  0
LINE
  5
7BDC
  8
1
 10
674.07011736469747
 20
2090.4073159134032
 30
0.0
 11
674.07011736469747
 21
2081.6784714202458
 31
0.0
  0
LINE
  5
7BDD
  8
1
 10
667.71926440361131
 20
2081.6784714202458
 30
0.0
 11
667.71926440361131
 21
2090.4073159134032
 31
0.0
  0
LINE
  5
7BDE
  8
1
 10
653.36841144252594
 20
2080.4073159134032
 30
0.0
 11
653.36841144252594
 21
1986.3615341282789
 31
0.0
  0
ARC
  5
7BDF
  8
1
 10
651.84213200089653
 20
2084.8538979007881
 30
0.0
 40
4.4907311951024482
 50
225.00000000000091
 51
315.00000000000091
  0
LINE
  5
7BE0
  8
1
 10
650.86841144252594
 20
2080.4073159134032
 30
0.0
 11
648.66670552035328
 21
2081.6784714202458
 31
0.0
  0
LINE
  5
7BE1
  8
1
 10
648.66670552035418
 20
2081.6784714202449
 30
0.0
 11
648.66670552035418
 21
2090.4073159134032
 31
0.0
  0
LINE
  5
7BE2
  8
1
 10
655.01755848143966
 20
2081.6784714202458
 30
0.0
 11
655.01755848143966
 21
2090.4073159134032
 31
0.0
  0
LINE
  5
7BE3
  8
1
 10
654.36841144252594
 20
2156.6615341282791
 30
0.0
 11
668.36841144252594
 21
2156.6615341282791
 31
0.0
  0
LINE
  5
7BE4
  8
1
 10
653.36841144252594
 20
2155.6615341282791
 30
0.0
 11
669.36841144252594
 21
2155.6615341282791
 31
0.0
  0
POLYLINE
  5
7BE5
  8
1
 66
     1
 10
0.0
 20
0.0
 30
0.0
  0
VERTEX
  5
8523
  8
1
 10
671.86841144252594
 20
2106.3615341282789
 30
0.0
  0
VERTEX
  5
8524
  8
1
 10
650.86841144252594
 20
2106.3615341282789
 30
0.0
  0
SEQEND
  5
8525
  8
1
  0
ARC
  5
7BE9
  8
1
 10
661.36841144252503
 20
2090.1287066480631
 30
0.0
 40
16.253767611608801
 50
66.999999999999602
 51
112.9999999999975
  0
LINE
  5
7BEA
  8
1
 10
669.36841144252594
 20
2155.6615341282791
 30
0.0
 11
669.36841144252594
 21
2106.3615341282789
 31
0.0
  0
ARC
  5
7BEB
  8
1
 10
670.89469088415444
 20
2101.914952140894
 30
0.0
 40
4.4907311951024482
 50
45.000000000001023
 51
135.00000000000099
  0
LINE
  5
7BEC
  8
1
 10
671.86841144252594
 20
2106.3615341282789
 30
0.0
 11
674.07011736469747
 21
2105.0903786214371
 31
0.0
  0
LINE
  5
7BED
  8
1
 10
669.36841144252594
 20
2155.6615341282791
 30
0.0
 11
668.36841144252594
 21
2156.6615341282791
 31
0.0
  0
LINE
  5
7BEE
  8
1
 10
653.36841144252594
 20
2155.6615341282791
 30
0.0
 11
653.36841144252594
 21
2106.3615341282789
 31
0.0
  0
LINE
  5
7BEF
  8
1
 10
650.86841144252594
 20
2106.3615341282789
 30
0.0
 11
648.66670552035328
 21
2105.0903786214371
 31
0.0
  0
ARC
  5
7BF0
  8
1
 10
651.84213200089653
 20
2101.914952140894
 30
0.0
 40
4.4907311951024482
 50
44.999999999999027
 51
134.99999999999901
  0
LINE
  5
7BF1
  8
1
 10
654.36841144252594
 20
2156.6615341282791
 30
0.0
 11
653.36841144252594
 21
2155.6615341282791
 31
0.0
  0
LINE
  5
7BF2
  8
1
 10
1001.368411442525
 20
1986.3615341282789
 30
0.0
 11
1001.368411442525
 21
2136.3615341282789
 31
0.0
  0
LINE
  5
7BF3
  8
1
 10
1139.368411442525
 20
1986.3615341282789
 30
0.0
 11
1056.368411442525
 21
2136.3615341282789
 31
0.0
  0
LINE
  5
7BF4
  8
1
 10
1005.868411442525
 20
1986.3615341282789
 30
0.0
 11
1005.868411442525
 21
2136.3615341282789
 31
0.0
  0
LINE
  5
7BF5
  8
1
 10
1001.3684114425261
 20
2061.3615341282789
 30
0.0
 11
995.36841144252548
 21
2061.3615341282789
 31
0.0
  0
LINE
  5
7BF6
  8
1
 10
995.36841144252548
 20
2061.3615341282789
 30
0.0
 11
995.36841144252594
 21
2090.3615341282789
 31
0.0
  0
LINE
  5
7BF7
  8
1
 10
1001.368411442525
 20
2136.3615341282789
 30
0.0
 11
1056.368411442525
 21
2136.3615341282789
 31
0.0
  0
LINE
  5
7BF8
  8
1
 10
1001.3684114425261
 20
2096.3615341282789
 30
0.0
 11
611.36841144252548
 21
2096.3615341282789
 31
0.0
  0
LINE
  5
7BF9
  8
1
 10
995.36841144252594
 20
2090.3615341282789
 30
0.0
 11
617.36841144252503
 21
2090.3615341282789
 31
0.0
  0
LINE
  5
7BFA
  8
1
 10
611.36841144252503
 20
2061.3615341282789
 30
0.0
 11
611.36841144252548
 21
2096.3615341282789
 31
0.0
  0
LINE
  5
7BFB
  8
1
 10
617.36841144252446
 20
2061.3615341282789
 30
0.0
 11
617.36841144252446
 21
2090.3615341282789
 31
0.0
  0
LINE
  5
7BFC
  8
1
 10
951.36841144252537
 20
2163.4648858052628
 30
0.0
 11
951.36841144252537
 21
1976.91924763051
 31
0.0
  0
LINE
  5
7BFD
  8
1
 10
1171.368411442525
 20
1986.3615341282789
 30
0.0
 11
621.36841144252537
 21
1986.3615341282789
 31
0.0
  0
LINE
  5
7BFE
  8
1
 10
1171.368411442525
 20
1933.3615341282789
 30
0.0
 11
621.36841144252537
 21
1933.3615341282789
 31
0.0
  0
LINE
  5
7BFF
  8
1
 10
1171.368411442525
 20
1986.3615341282789
 30
0.0
 11
1171.368411442525
 21
1933.3615341282789
 31
0.0
  0
LINE
  5
7C00
  8
1
 10
621.36841144252537
 20
1986.3615341282789
 30
0.0
 11
621.36841144252537
 21
1933.3615341282789
 31
0.0
  0
LINE
  5
7C01
  8
1
 10
611.36841144252503
 20
2061.3615341282789
 30
0.0
 11
617.36841144252446
 21
2061.3615341282789
 31
0.0
  0
LINE
  5
7C02
  8
1
 10
661.36841144252548
 20
2163.4648858052628
 30
0.0
 11
661.36841144252548
 21
1976.91924763051
 31
0.0
  0
LINE
  5
7C03
  8
1
 10
588.36841144252594
 20
2063.621273223438
 30
0.0
 11
588.36841144252594
 21
1507.621273223438
 31
0.0
  0
LINE
  5
7C04
  8
1
 10
561.36841144252594
 20
1534.621273223438
 30
0.0
 11
561.36841144252594
 21
2036.621273223438
 31
0.0
  0
LINE
  5
7C05
  8
1
 10
591.36841144252594
 20
2065.621273223438
 30
0.0
 11
591.36841144252594
 21
1505.621273223438
 31
0.0
  0
ARC
  5
7C06
  8
1
 10
590.36841144252594
 20
1507.621273223438
 30
0.0
 40
2.0
 50
180.0
 51
270.0
  0
LINE
  5
7C07
  8
1
 10
591.36841144252594
 20
1505.621273223438
 30
0.0
 11
590.36841144252594
 21
1505.621273223438
 31
0.0
  0
LINE
  5
7C08
  8
1
 10
584.36841144252594
 20
1532.621273223438
 30
0.0
 11
563.36841144252594
 21
1532.621273223438
 31
0.0
  0
LINE
  5
7C09
  8
1
 10
561.36841144252594
 20
1535.621273223438
 30
0.0
 11
588.36841144252594
 21
1535.621273223438
 31
0.0
  0
ARC
  5
7C0A
  8
1
 10
584.36841144252594
 20
1528.621273223438
 30
0.0
 40
4.0
 50
0.0
 51
90.0
  0
ARC
  5
7C0B
  8
1
 10
563.36841144252594
 20
1534.621273223438
 30
0.0
 40
2.0
 50
180.0
 51
270.0
  0
LINE
  5
7C0D
  8
1
 10
561.36841144252594
 20
2035.6212732234369
 30
0.0
 11
588.36841144252594
 21
2035.6212732234369
 31
0.0
  0
LINE
  5
7C0E
  8
1
 10
584.36841144252594
 20
2038.621273223438
 30
0.0
 11
563.36841144252594
 21
2038.621273223438
 31
0.0
  0
ARC
  5
7C0F
  8
1
 10
584.36841144252594
 20
2042.621273223438
 30
0.0
 40
4.0
 50
270.0
 51
0.0
  0
ARC
  5
7C10
  8
1
 10
563.36841144252594
 20
2036.621273223438
 30
0.0
 40
2.0
 50
90.0
 51
180.0
  0
ARC
  5
7C11
  8
1
 10
590.36841144252594
 20
2063.621273223438
 30
0.0
 40
2.0
 50
90.0
 51
180.0
  0
LINE
  5
7C12
  8
1
 10
591.36841144252594
 20
2065.621273223438
 30
0.0
 11
590.36841144252594
 21
2065.621273223438
 31
0.0
  0
LINE
  5
7C13
  8
1
 10
2159.9074196966458
 20
1455.621273223438
 30
0.0
 11
2609.9074196966458
 21
1455.621273223438
 31
0.0
  0
LINE
  5
7C15
  8
1
 10
654.56841144252564
 20
1460.121273223438
 30
0.0
 11
654.56841144252564
 21
1455.621273223438
 31
0.0
  0
LINE
  5
7C16
  8
1
 10
594.56841144252564
 20
1615.6212732234369
 30
0.0
 11
594.56841144252564
 21
1455.621273223438
 31
0.0
  0
LINE
  5
7C17
  8
1
 10
599.06841144252564
 20
1615.6212732234369
 30
0.0
 11
599.06841144252564
 21
1460.121273223438
 31
0.0
  0
LINE
  5
7C18
  8
1
 10
654.56841144252564
 20
1460.121273223438
 30
0.0
 11
599.06841144252564
 21
1460.121273223438
 31
0.0
  0
LINE
  5
7C19
  8
1
 10
594.56841144252564
 20
1615.6212732234369
 30
0.0
 11
599.06841144252564
 21
1615.6212732234369
 31
0.0
  0
LINE
  5
7C1A
  8
1
 10
594.56841144252564
 20
1605.6212732234369
 30
0.0
 11
599.06841144252564
 21
1605.6212732234369
 31
0.0
  0
LINE
  5
7C1C
  8
1
 10
1138.1684114425259
 20
1460.121273223438
 30
0.0
 11
1138.1684114425259
 21
1455.621273223438
 31
0.0
  0
LINE
  5
7C1D
  8
1
 10
1198.1684114425259
 20
1615.6212732234369
 30
0.0
 11
1198.1684114425259
 21
1455.621273223438
 31
0.0
  0
LINE
  5
7C1E
  8
1
 10
1138.1684114425259
 20
1460.121273223438
 30
0.0
 11
1193.6684114425259
 21
1460.121273223438
 31
0.0
  0
LINE
  5
7C1F
  8
1
 10
1193.6684114425259
 20
1615.6212732234369
 30
0.0
 11
1193.6684114425259
 21
1460.121273223438
 31
0.0
  0
LINE
  5
7C20
  8
1
 10
1198.1684114425259
 20
1615.6212732234369
 30
0.0
 11
1193.6684114425259
 21
1615.6212732234369
 31
0.0
  0
LINE
  5
7C21
  8
1
 10
1198.1684114425259
 20
1605.6212732234369
 30
0.0
 11
1193.6684114425259
 21
1605.6212732234369
 31
0.0
  0
LINE
  5
7C23
  8
1
 10
2159.9074196966458
 20
1605.621273223436
 30
0.0
 11
2159.9074196966458
 21
1455.621273223438
 31
0.0
  0
LINE
  5
7C24
  8
1
 10
2164.508969970535
 20
1612.9234928140561
 30
0.0
 11
2159.9074196966458
 21
1605.621273223438
 31
0.0
  0
LINE
  5
7C26
  8
1
 10
2609.9074196966458
 20
1605.621273223438
 30
0.0
 11
2609.9074196966458
 21
1455.621273223438
 31
0.0
  0
LINE
  5
7C27
  8
1
 10
2605.305869422758
 20
1612.923492814057
 30
0.0
 11
2609.9074196966458
 21
1605.621273223438
 31
0.0
  0
LINE
  5
7C2A
  8
1
 10
1241.3684114425259
 20
1379.621273223438
 30
0.0
 11
551.36841144252594
 21
1379.621273223438
 31
0.0
  0
LINE
  5
7C2C
  8
1
 10
2699.9074196966471
 20
1379.6212732234369
 30
0.0
 11
2069.9074196966471
 21
1379.621273223438
 31
0.0
  0
LINE
  5
7C33
  8
1
 10
1241.3684114425259
 20
1419.6212732234369
 30
0.0
 11
551.36841144252594
 21
1419.6212732234369
 31
0.0
  0
LINE
  5
7C37
  8
1
 10
2699.9074196966471
 20
1419.621273223438
 30
0.0
 11
2069.9074196966471
 21
1419.621273223438
 31
0.0
  0
LINE
  5
7C50
  8
1
 10
2529.9074196966471
 20
2391.032446239903
 30
0.0
 11
2239.9074196966458
 21
2391.032446239903
 31
0.0
  0
LINE
  5
7C51
  8
1
 10
2239.9074196966458
 20
1989.2753917676009
 30
0.0
 11
2239.9074196966458
 21
2388.8382616390518
 31
0.0
  0
LINE
  5
7C52
  8
1
 10
2529.9074196966471
 20
1989.2753917676
 30
0.0
 11
2529.9074196966471
 21
2388.8382616390518
 31
0.0
  0
LINE
  5
7C53
  8
1
 10
1160.8995116714791
 20
2388.8382616390518
 30
0.0
 11
1020.899511671479
 21
2388.8382616390518
 31
0.0
  0
LINE
  5
7C54
  8
1
 10
1020.899511671479
 20
2388.8382616390518
 30
0.0
 11
1020.899511671479
 21
2035.6212732234369
 31
0.0
  0
LINE
  5
7C55
  8
1
 10
1160.8995116714791
 20
2388.8382616390518
 30
0.0
 11
1160.8995116714791
 21
2038.621273223438
 31
0.0
  0
LINE
  5
7C56
  8
1
 10
1111.7811977675681
 20
2329.9615341282788
 30
0.0
 11
1111.7811977675619
 21
1710.621273223438
 31
0.0
  0
LINE
  5
7C57
  8
1
 10
1041.7811977675649
 20
2329.9615341282788
 30
0.0
 11
1111.7811977675681
 21
2329.9615341282788
 31
0.0
  0
LINE
  5
7C58
  8
1
 10
1041.7811977675649
 20
2329.9615341282788
 30
0.0
 11
1041.7811977675649
 21
1710.621273223438
 31
0.0
  0
LINE
  5
7C59
  8
1
 10
1041.7811977675649
 20
2126.761534128279
 30
0.0
 11
1111.781197767566
 21
2126.761534128279
 31
0.0
  0
LINE
  5
7C5A
  8
1
 10
1041.7811977675649
 20
1860.6212732234369
 30
0.0
 11
1111.7811977675631
 21
1860.621273223438
 31
0.0
  0
LINE
  5
7C5B
  8
1
 10
1041.7811977675649
 20
1710.621273223438
 30
0.0
 11
1111.7811977675619
 21
1710.621273223438
 31
0.0
  0
CIRCLE
  5
7C5C
  8
1
 10
2384.9074196966458
 20
1785.6212732234369
 30
0.0
 40
75.0
  0
LINE
  5
7C5D
  8
2
 10
626.36841144252594
 20
1401.621273223438
 30
0.0
 11
626.36841144252594
 21
1474.9729389311931
 31
0.0
  0
LINE
  5
7C5E
  8
2
 10
1166.3684114425259
 20
1401.621273223438
 30
0.0
 11
1166.3684114425259
 21
1474.9729389311931
 31
0.0
  0
LINE
  5
7C5F
  8
2
 10
2184.9074196966458
 20
1401.6212732234369
 30
0.0
 11
2184.9074196966458
 21
1474.9729389311931
 31
0.0
  0
LINE
  5
7C60
  8
2
 10
2584.9074196966458
 20
1401.6212732234369
 30
0.0
 11
2584.9074196966458
 21
1474.9729389311931
 31
0.0
  0
LINE
  5
7C61
  8
1
 10
993.90291758598676
 20
2350.5068187696779
 30
0.0
 11
948.77717548748035
 21
2350.5068187696779
 31
0.0
  0
LINE
  5
7C62
  8
1
 10
993.90291758598585
 20
2113.3014672539889
 30
0.0
 11
937.94699738383952
 21
2113.3014672539889
 31
0.0
  0
LINE
  5
7C63
  8
2
 10
615.60685349887615
 20
2228.3615341282789
 30
0.0
 11
1193.7744861384961
 21
2228.3615341282789
 31
0.0
  0
LINE
  5
7C64
  8
1
 10
948.77717548748035
 20
2350.5068187696779
 30
0.0
 11
948.77717548748035
 21
2113.3014672539889
 31
0.0
  0
LINE
  5
7C65
  8
1
 10
841.75119405227906
 20
2121.3615341282798
 30
0.0
 11
841.75119405227906
 21
2158.4258203417198
 31
0.0
  0
LINE
  5
7C66
  8
1
 10
863.81120148285481
 20
2158.4258203417198
 30
0.0
 11
863.81120148285481
 21
2121.3615341282798
 31
0.0
  0
LINE
  5
7C67
  8
2
 10
852.78119776756637
 20
2401.9263891928499
 30
0.0
 11
852.78119776756637
 21
2063.0616721620208
 31
0.0
  0
LINE
  5
7C68
  8
1
 10
642.78119776756648
 20
2107.0534900991952
 30
0.0
 11
642.78119776756648
 21
2350.5362071110949
 31
0.0
  0
LINE
  5
7C69
  8
1
 10
759.02648982098708
 20
2154.8158720947022
 30
0.0
 11
759.02648982098708
 21
2370.3615341282789
 31
0.0
  0
LINE
  5
7C6A
  8
1
 10
714.18329900330355
 20
2370.361534128278
 30
0.0
 11
714.18329900330355
 21
2100.2392838711362
 31
0.0
  0
LINE
  5
7C6B
  8
1
 10
741.64524271552625
 20
2111.4964931304798
 30
0.0
 11
765.28119776756637
 21
2100.2392838711362
 31
0.0
  0
LINE
  5
7C6C
  8
1
 10
741.64524271552625
 20
2138.5711049831189
 30
0.0
 11
759.02648982098708
 21
2154.8158720947022
 31
0.0
  0
LINE
  5
7C6D
  8
1
 10
642.78119776756648
 20
2107.0534900991952
 30
0.0
 11
714.18329900330355
 21
2100.2392838711362
 31
0.0
  0
LINE
  5
7C6E
  8
1
 10
741.64524271552625
 20
2100.2392838711362
 30
0.0
 11
741.64524271552625
 21
2138.5711049831189
 31
0.0
  0
LINE
  5
7C6F
  8
1
 10
714.18329900330355
 20
2100.2392838711362
 30
0.0
 11
741.64524271552625
 21
2100.2392838711362
 31
0.0
  0
ARC
  5
7C70
  8
1
 10
873.81120148285481
 20
2121.3615341282798
 30
0.0
 40
10.0
 50
180.0
 51
270.0
  0
LINE
  5
7C71
  8
1
 10
940.28119776756637
 20
2096.3615341282789
 30
0.0
 11
765.28119776756637
 21
2096.3615341282789
 31
0.0
  0
LINE
  5
7C72
  8
2
 10
782.78119776756648
 20
2151.9103479688852
 30
0.0
 11
782.78119776756648
 21
2065.1279204365992
 31
0.0
  0
LINE
  5
7C73
  8
1
 10
765.28119776756637
 20
2111.3615341282789
 30
0.0
 11
831.75119405227895
 21
2111.3615341282798
 31
0.0
  0
LINE
  5
7C74
  8
1
 10
765.28119776756637
 20
2096.3615341282789
 30
0.0
 11
765.28119776756637
 21
2111.3615341282789
 31
0.0
  0
ARC
  5
7C75
  8
1
 10
831.75119405227895
 20
2121.3615341282798
 30
0.0
 40
10.0
 50
270.0
 51
0.0
  0
LINE
  5
7C76
  8
2
 10
922.78119776756648
 20
2151.9103479688852
 30
0.0
 11
922.78119776756648
 21
2065.1279204365992
 31
0.0
  0
LINE
  5
7C77
  8
1
 10
873.81120148285481
 20
2111.3615341282798
 30
0.0
 11
940.28119776756637
 21
2111.3615341282789
 31
0.0
  0
LINE
  5
7C78
  8
1
 10
940.28119776756637
 20
2111.3615341282789
 30
0.0
 11
940.28119776756637
 21
2096.3615341282789
 31
0.0
  0
LINE
  5
7C79
  8
1
 10
759.02648982098708
 20
2370.3615341282789
 30
0.0
 11
714.18329900330355
 21
2370.3615341282789
 31
0.0
  0
LINE
  5
7C7A
  8
1
 10
714.18329900330355
 20
2370.3615341282789
 30
0.0
 11
642.78119776756648
 21
2350.5362071110949
 31
0.0
  0
LINE
  5
7C7B
  8
1
 10
916.28119776756637
 20
2211.4842015651611
 30
0.0
 11
916.28119776756637
 21
2334.516037850437
 31
0.0
  0
LINE
  5
7C7C
  8
1
 10
906.28119776756637
 20
2211.4842015651611
 30
0.0
 11
906.28119776756637
 21
2334.516037850437
 31
0.0
  0
LINE
  5
7C7D
  8
1
 10
789.28119776756637
 20
2334.516037850437
 30
0.0
 11
789.28119776756637
 21
2211.4842015651611
 31
0.0
  0
LINE
  5
7C7E
  8
1
 10
799.28119776756648
 20
2334.516037850437
 30
0.0
 11
799.28119776756648
 21
2211.4842015651611
 31
0.0
  0
LINE
  5
7C7F
  8
1
 10
799.28119776756648
 20
2201.4842015651611
 30
0.0
 11
906.28119776756637
 21
2201.4842015651611
 31
0.0
  0
LINE
  5
7C80
  8
1
 10
799.28119776756648
 20
2211.4842015651611
 30
0.0
 11
906.28119776756637
 21
2211.4842015651611
 31
0.0
  0
ARC
  5
7C81
  8
1
 10
799.28119776756648
 20
2211.4842015651611
 30
0.0
 40
10.0
 50
180.0
 51
270.0
  0
ARC
  5
7C82
  8
1
 10
906.28119776756637
 20
2211.4842015651611
 30
0.0
 40
10.0
 50
270.0
 51
0.0
  0
LINE
  5
7C83
  8
1
 10
906.28119776756637
 20
2344.516037850437
 30
0.0
 11
799.28119776756648
 21
2344.516037850437
 31
0.0
  0
LINE
  5
7C84
  8
1
 10
906.28119776756637
 20
2334.516037850437
 30
0.0
 11
799.28119776756648
 21
2334.516037850437
 31
0.0
  0
LINE
  5
7C85
  8
1
 10
784.59269591115299
 20
2370.3615341282789
 30
0.0
 11
925.31178959625777
 21
2370.3615341282789
 31
0.0
  0
LINE
  5
7C86
  8
1
 10
925.31178959625777
 20
2370.3615341282789
 30
0.0
 11
768.05163824068859
 21
2370.3615341282789
 31
0.0
  0
LINE
  5
7C87
  8
1
 10
845.93432039305844
 20
2416.3615341282789
 30
0.0
 11
845.93432039305844
 21
2375.6698333457939
 31
0.0
  0
LINE
  5
7C88
  8
1
 10
859.62807514207555
 20
2416.3615341282789
 30
0.0
 11
859.62807514207555
 21
2375.6698333457939
 31
0.0
  0
LINE
  5
7C89
  8
1
 10
768.05163824068859
 20
2370.3615341282789
 30
0.0
 11
759.02648982098708
 21
2350.3731807213699
 31
0.0
  0
ARC
  5
7C8A
  8
1
 10
799.28119776756648
 20
2334.516037850437
 30
0.0
 40
10.0
 50
90.0
 51
180.0
  0
LINE
  5
7C8B
  8
1
 10
864.88271509412596
 20
2370.3615341282798
 30
0.0
 11
864.88271509412596
 21
2375.6698333457939
 31
0.0
  0
LINE
  5
7C8C
  8
1
 10
840.6796804410078
 20
2370.3615341282798
 30
0.0
 11
840.6796804410078
 21
2375.6698333457939
 31
0.0
  0
LINE
  5
7C8D
  8
1
 10
840.6796804410078
 20
2375.6698333457939
 30
0.0
 11
864.88271509412596
 21
2375.6698333457939
 31
0.0
  0
LINE
  5
7C8E
  8
1
 10
859.62807514207555
 20
2416.3615341282789
 30
0.0
 11
845.93432039305844
 21
2416.3615341282789
 31
0.0
  0
ARC
  5
7C8F
  8
1
 10
906.28119776756637
 20
2334.516037850437
 30
0.0
 40
10.0
 50
0.0
 51
90.0
  0
LINE
  5
7C90
  8
1
 10
948.77717548748035
 20
2343.3163106170591
 30
0.0
 11
925.31178959625777
 21
2370.3615341282789
 31
0.0
  0
LINE
  5
7C91
  8
1
 10
993.90291758598676
 20
2350.5068187696779
 30
0.0
 11
993.90291758598676
 21
2113.3014672539889
 31
0.0
  0
LINE
  5
7C92
  8
1
 10
1091.7811977675669
 20
2247.3615341282789
 30
0.0
 11
1091.7811977675669
 21
2209.3615341282789
 31
0.0
  0
LINE
  5
7C93
  8
1
 10
1004.781197767566
 20
2170.14408514568
 30
0.0
 11
1004.781197767566
 21
2286.5789831108782
 31
0.0
  0
LINE
  5
7C94
  8
1
 10
1011.7811977675671
 20
2199.9402251824331
 30
0.0
 11
1011.781197767566
 21
2256.7828430741251
 31
0.0
  0
LINE
  5
7C95
  8
1
 10
1091.7811977675669
 20
2209.3615341282798
 30
0.0
 11
1011.7811977675671
 21
2209.3615341282798
 31
0.0
  0
LINE
  5
7C96
  8
1
 10
1011.781197767566
 20
2199.9402251824331
 30
0.0
 11
1004.781197767566
 21
2199.9402251824331
 31
0.0
  0
LINE
  5
7C97
  8
1
 10
993.90291758598676
 20
2170.14408514568
 30
0.0
 11
1004.781197767566
 21
2170.14408514568
 31
0.0
  0
LINE
  5
7C98
  8
1
 10
1091.7811977675669
 20
2247.3615341282789
 30
0.0
 11
1011.7811977675671
 21
2247.3615341282798
 31
0.0
  0
LINE
  5
7C99
  8
1
 10
1011.781197767566
 20
2256.7828430741251
 30
0.0
 11
1004.781197767566
 21
2256.7828430741251
 31
0.0
  0
LINE
  5
7C9A
  8
1
 10
993.90291758598676
 20
2286.5789831108782
 30
0.0
 11
1004.781197767566
 21
2286.5789831108782
 31
0.0
  0
CIRCLE
  5
7C9B
  8
1
 10
2384.9074196966458
 20
2228.3615341282789
 30
0.0
 40
75.0
  0
LINE
  5
7C9C
  8
1
 10
2459.9074196966458
 20
2228.3615341282789
 30
0.0
 11
2459.9074196966458
 21
1785.6212732234369
 31
0.0
  0
LINE
  5
7C9D
  8
1
 10
2309.9074196966458
 20
2228.3615341282789
 30
0.0
 11
2309.9074196966458
 21
1785.6212732234369
 31
0.0
  0
LINE
  5
7C9E
  8
2
 10
2537.4074196966471
 20
2228.3615341282789
 30
0.0
 11
2226.3074196966459
 21
2228.3615341282789
 31
0.0
  0
LINE
  5
7C9F
  8
1
 10
2448.3066481588439
 20
2100.741834119241
 30
0.0
 11
2321.508191234444
 21
2100.741834119241
 31
0.0
  0
ARC
  5
7CA0
  8
1
 10
2384.9074196966458
 20
2228.3615341282789
 30
0.0
 40
143.0
 50
296.41738025990082
 51
243.58261974009909
  0
CIRCLE
  5
7CA1
  8
1
 10
2384.9074196966458
 20
2228.3615341282789
 30
0.0
 40
121.3080440290846
  0
LINE
  5
7CA3
  8
1
 10
2514.9074196966458
 20
2096.3615341282789
 30
0.0
 11
2464.9074196966458
 21
2096.3615341282789
 31
0.0
  0
LINE
  5
7CA4
  8
1
 10
2514.9074196966458
 20
2111.3615341282789
 30
0.0
 11
2466.2539008743811
 21
2111.3615341282789
 31
0.0
  0
LINE
  5
7CA5
  8
2
 10
2492.9074196966458
 20
2075.8615341282789
 30
0.0
 11
2492.9074196966458
 21
2144.0571448875421
 31
0.0
  0
LINE
  5
7CA6
  8
1
 10
2514.9074196966458
 20
2096.3615341282789
 30
0.0
 11
2514.9074196966458
 21
2111.3615341282789
 31
0.0
  0
LINE
  5
7CA7
  8
1
 10
2514.9074196966458
 20
2111.3615341282789
 30
0.0
 11
2500.8781421167891
 21
2145.5542787616751
 31
0.0
  0
LINE
  5
7CA8
  8
1
 10
2464.9074196966458
 20
2110.4367699775721
 30
0.0
 11
2464.9074196966458
 21
2096.3615341282789
 31
0.0
  0
CIRCLE
  5
7CA9
  8
1
 10
2384.9074196966458
 20
2396.1115341282789
 30
0.0
 40
12.75
  0
CIRCLE
  5
7CAA
  8
1
 10
2384.9074196966458
 20
2396.1115341282789
 30
0.0
 40
20.249999999999989
  0
LINE
  5
7CAB
  8
1
 10
2389.665248624061
 20
2376.4284052129619
 30
0.0
 11
2389.665248624061
 21
2370.2818042234881
 31
0.0
  0
LINE
  5
7CAC
  8
1
 10
2380.1495907692329
 20
2376.4284052129619
 30
0.0
 11
2380.1495907692329
 21
2370.2818042234881
 31
0.0
  0
LINE
  5
7CAD
  8
2
 10
2276.9074196966458
 20
2075.8615341282789
 30
0.0
 11
2276.9074196966458
 21
2144.0571448875421
 31
0.0
  0
LINE
  5
7CAE
  8
1
 10
2254.9074196966458
 20
2111.3615341282789
 30
0.0
 11
2303.5609385189109
 21
2111.3615341282789
 31
0.0
  0
LINE
  5
7CAF
  8
1
 10
2254.9074196966471
 20
2096.3615341282789
 30
0.0
 11
2304.9074196966458
 21
2096.3615341282789
 31
0.0
  0
LINE
  5
7CB0
  8
1
 10
2304.9074196966458
 20
2110.4367699775721
 30
0.0
 11
2304.9074196966458
 21
2096.3615341282789
 31
0.0
  0
LINE
  5
7CB1
  8
1
 10
2254.9074196966458
 20
2096.3615341282789
 30
0.0
 11
2254.9074196966458
 21
2111.3615341282789
 31
0.0
  0
LINE
  5
7CB2
  8
1
 10
2254.9074196966458
 20
2111.3615341282789
 30
0.0
 11
2268.9366972765042
 21
2145.5542787616751
 31
0.0
  0
LINE
  5
7CB3
  8
1
 10
2179.0668066148178
 20
2321.7402124422028
 30
0.0
 11
2172.9074196966471
 21
2228.3615341282789
 31
0.0
  0
LINE
  5
7CB4
  8
1
 10
2236.3074196966481
 20
2213.3615341282789
 30
0.0
 11
2236.3074196966468
 21
2329.7002025539241
 31
0.0
  0
LINE
  5
7CB5
  8
1
 10
2227.3553441740728
 20
2344.516037850437
 30
0.0
 11
2171.3424580291271
 21
2203.4442178212371
 31
0.0
  0
LINE
  5
7CB6
  8
1
 10
2231.9551633309438
 20
2342.556021594361
 30
0.0
 11
2175.942277185999
 21
2201.484201565162
 31
0.0
  0
LINE
  5
7CB7
  8
1
 10
2231.3074196966481
 20
2208.3615341282789
 30
0.0
 11
2179.3018055110542
 21
2208.3615341282789
 31
0.0
  0
LINE
  5
7CB8
  8
1
 10
2236.3074196966481
 20
2221.1578472142128
 30
0.0
 11
2243.0902596106962
 21
2221.1578472142128
 31
0.0
  0
ARC
  5
7CB9
  8
1
 10
2231.3074196966481
 20
2213.3615341282789
 30
0.0
 40
5.0
 50
270.0
 51
359.99999999999972
  0
LINE
  5
7CBA
  8
1
 10
2171.3424580291271
 20
2203.4442178212371
 30
0.0
 11
2175.9422771859981
 21
2201.484201565162
 31
0.0
  0
ARC
  5
7CBB
  8
1
 10
2227.9470199099242
 20
2228.136301481049
 30
0.0
 40
55.040061059039289
 50
179.76553594120759
 51
197.3163745518037
  0
LINE
  5
7CBC
  8
1
 10
2227.3553441740728
 20
2344.516037850437
 30
0.0
 11
2231.9551633309438
 21
2342.556021594361
 31
0.0
  0
LINE
  5
7CBD
  8
1
 10
2228.8359925610762
 20
2334.7002025539241
 30
0.0
 11
2231.3074196966468
 21
2334.7002025539241
 31
0.0
  0
LINE
  5
7CBE
  8
1
 10
2236.3074196966468
 20
2325.4003895883779
 30
0.0
 11
2281.7615408299798
 21
2325.9572700639392
 31
0.0
  0
ARC
  5
7CBF
  8
1
 10
2231.3074196966468
 20
2329.7002025539241
 30
0.0
 40
5.0
 50
0.0000000000008142
 51
90.0
  0
LINE
  5
7CC0
  8
1
 10
2224.5363588492551
 20
2337.9003668528931
 30
0.0
 11
2189.0668066148178
 21
2331.7402124422019
 31
0.0
  0
ARC
  5
7CC1
  8
1
 10
2189.0668066148169
 20
2321.7402124422028
 30
0.0
 40
10.0
 50
90.0
 51
180.0
  0
LINE
  5
7CC2
  8
1
 10
611.36841144252594
 20
1910.6212732234369
 30
0.0
 11
611.36841144252594
 21
1660.6212732234369
 31
0.0
  0
LINE
  5
7CC3
  8
1
 10
711.36841144252594
 20
1910.621273223438
 30
0.0
 11
711.36841144252594
 21
1660.6212732234369
 31
0.0
  0
LINE
  5
7CC4
  8
1
 10
636.36841144252594
 20
2032.6212732234369
 30
0.0
 11
686.36841144252594
 21
2032.621273223438
 31
0.0
  0
LINE
  5
7CC5
  8
1
 10
611.36841144252594
 20
1910.6212732234369
 30
0.0
 11
711.36841144252594
 21
1910.6212732234369
 31
0.0
  0
LINE
  5
7CC6
  8
1
 10
611.36841144252594
 20
1660.6212732234369
 30
0.0
 11
711.36841144252594
 21
1660.6212732234369
 31
0.0
  0
LINE
  5
7CC7
  8
1
 10
611.36841144252594
 20
1900.621273223438
 30
0.0
 11
711.36841144252594
 21
1900.621273223438
 31
0.0
  0
LINE
  5
7CC8
  8
1
 10
611.36841144252594
 20
1670.621273223438
 30
0.0
 11
711.36841144252594
 21
1670.621273223438
 31
0.0
  0
LINE
  5
7CC9
  8
1
 10
636.36841144252594
 20
2032.6212732234369
 30
0.0
 11
611.36841144252594
 21
1910.6212732234369
 31
0.0
  0
LINE
  5
7CCA
  8
1
 10
686.36841144252594
 20
2032.621273223438
 30
0.0
 11
711.36841144252594
 21
1910.6212732234369
 31
0.0
  0
LINE
  5
7CCB
  8
1
 10
686.36841144252594
 20
1538.621273223438
 30
0.0
 11
711.36841144252594
 21
1660.6212732234369
 31
0.0
  0
LINE
  5
7CCC
  8
1
 10
636.36841144252594
 20
1538.621273223438
 30
0.0
 11
611.36841144252594
 21
1660.6212732234369
 31
0.0
  0
LINE
  5
7CCD
  8
1
 10
636.36841144252594
 20
1538.621273223438
 30
0.0
 11
686.36841144252594
 21
1538.621273223438
 31
0.0
  0
LINE
  5
7CCE
  8
1
 10
636.36841144252594
 20
1900.621273223438
 30
0.0
 11
636.36841144252594
 21
1670.621273223438
 31
0.0
  0
LINE
  5
7CCF
  8
1
 10
646.36841144252594
 20
1900.621273223438
 30
0.0
 11
646.36841144252594
 21
1670.621273223438
 31
0.0
  0
LINE
  5
7CD0
  8
1
 10
594.56841144252564
 20
1455.621273223438
 30
0.0
 11
654.56841144252564
 21
1455.621273223438
 31
0.0
  0
LINE
  5
7CD1
  8
1
 10
1138.1684114425259
 20
1455.621273223438
 30
0.0
 11
1198.1684114425259
 21
1455.621273223438
 31
0.0
  0
LINE
  5
7CD2
  8
4
 10
2775.0
 20
750.0
 30
0.0
 11
2775.0
 21
450.0
 31
0.0
  0
LINE
  5
7CD3
  8
4
 10
1725.0
 20
750.0
 30
0.0
 11
1725.0
 21
450.0
 31
0.0
  0
LINE
  5
7CD4
  8
4
 10
975.0
 20
750.0
 30
0.0
 11
975.0
 21
450.0
 31
0.0
  0
LINE
  5
7CD7
  8
4
 10
975.0
 20
450.0
 30
0.0
 11
2775.0
 21
450.0
 31
0.0
  0
LINE
  5
7CD8
  8
4
 10
975.0
 20
600.0
 30
0.0
 11
2775.0
 21
600.0
 31
0.0
  0
TEXT
  5
7CD9
  8
4
 10
1032.753121270352
 20
647.31453879991932
 30
0.0
 40
75.0
  1
機器名称
  0
TEXT
  5
7CDA
  8
4
 10
1029.3871590371959
 20
482.46773509801642
 30
0.0
 40
75.0
  1
機器型番
  0
TEXT
  5
7CDB
  8
4
 10
1766.5181182314971
 20
633.85765343635285
 30
0.0
 40
75.0
  1
ミツヤ軸流ファン
  0
TEXT
  5
7CDC
  8
4
 10
1779.9817433782209
 20
475.739376419915
 30
0.0
 40
75.0
  1
AP＃500-2
  0
TEXT
  5
7CDE
  8
4
 10
1243.6233997162919
 20
3575.1432619987731
 30
0.0
 40
80.999999999999986
  1
天井吊防振ベット
  0
TEXT
  5
7CDF
  8
4
 10
474.25138999416959
 20
3800.8214642989469
 30
0.0
 40
108.0
  1
ベルト駆動式横形軸流ファン
  0
LINE
  5
7CE0
  8
4
 10
375.0
 20
3704.1131313972069
 30
0.0
 11
2775.0
 21
3704.1131313972069
 31
0.0
  0
LINE
  5
7CE1
  8
4
 10
375.0
 20
4004.1131313972069
 30
0.0
 11
2775.0
 21
4004.1131313972069
 31
0.0
  0
LINE
  5
7CE2
  8
4
 10
975.0
 20
750.0
 30
0.0
 11
2775.0
 21
750.0
 31
0.0
  0
LINE
  5
7CE3
  8
4
 10
375.0
 20
4004.1131313972069
 30
0.0
 11
375.0
 21
3704.1131313972069
 31
0.0
  0
TEXT
  5
7CE4
  8
4
 10
441.3398345891037
 20
3573.4792163195152
 30
0.0
 40
80.999999999999986
  1
左回転後方吐出
  0
TEXT
  5
7CE5
  8
4
 10
2203.4543388739339
 20
4059.0916222429628
 30
0.0
 40
84.000000000000014
  1
No.
  0
TEXT
  5
7CE6
  8
4
 10
1966.944093900019
 20
3575.1432619987731
 30
0.0
 40
80.999999999999986
  1
縮尺：1/15
  0
LINE
  5
7CE7
  8
4
 10
2775.0
 20
4004.1131313972069
 30
0.0
 11
2775.0
 21
3704.1131313972069
 31
0.0
  0
LINE
  5
7CE8
  8
4
 10
3150.0
 20
4425.0
 30
0.0
 11
3150.0
 21
4425.0
 31
0.0
  0
LINE
  5
7CE9
  8
4
 10
2160.9261335397969
 20
4021.895374688102
 30
0.0
 11
2160.9261335397969
 21
4179.9783923246277
 31
0.0
  0
LINE
  5
7CEA
  8
4
 10
2160.9261335397969
 20
4179.9783923246277
 30
0.0
 11
2775.0
 21
4179.9783923246277
 31
0.0
  0
LINE
  5
7CEB
  8
4
 10
2775.0
 20
4179.9783923246277
 30
0.0
 11
2775.0
 21
4021.895374688102
 31
0.0
  0
LINE
  5
7CEC
  8
4
 10
2775.0
 20
4021.895374688102
 30
0.0
 11
2160.9261335397969
 21
4021.895374688102
 31
0.0
  0
LINE
  5
7CED
  8
4
 10
0.0
 20
0.0
 30
0.0
 11
0.0
 21
4425.0
 31
0.0
  0
LINE
  5
7CEE
  8
4
 10
0.0
 20
4425.0
 30
0.0
 11
3150.0
 21
4425.0
 31
0.0
  0
LINE
  5
7CEF
  8
4
 10
3150.0
 20
4425.0
 30
0.0
 11
3150.0
 21
0.0
 31
0.0
  0
LINE
  5
7CF0
  8
4
 10
3150.0
 20
0.0
 30
0.0
 11
0.0
 21
0.0
 31
0.0
  0
DIMENSION
  5
7D37
  8
3
  2
*D1
 10
1201.3684114425259
 20
2520.83365273657
 30
0.0
 11
896.36841144252594
 21
2558.33365273657
 31
0.0
 70
     0
 13
591.36841144252594
 23
2065.621273223438
 33
0.0
 14
1201.3684114425259
 24
2065.621273223438
 34
0.0
1001
ACAD
1000
DSTYLE
1002
{
1070
   287
1070
     3
1070
   287
1070
     3
1070
   287
1070
     3
1070
   287
1070
     3
1070
   287
1070
     3
1070
   287
1070
     3
1070
   287
1070
     3
1070
   287
1070
     3
1070
    40
1040
15.0
1070
   143
1040
0.039
1070
   172
1070
     1
1070
   271
1070
     0
1070
   279
1070
     0
1070
   288
1070
     1
1002
}
  0
DIMENSION
  5
7D6D
  8
3
  2
*D2
 10
368.3524604716842
 20
1535.621273223438
 30
0.0
 11
368.35246047168403
 21
1785.482821186753
 31
0.0
 70
   128
 13
561.36841144252594
 23
2035.6212732234369
 33
0.0
 14
561.36841144252594
 24
1535.621273223438
 34
0.0
 50
90.0
1001
ACAD
1000
DSTYLE
1002
{
1070
   287
1070
     3
1070
   287
1070
     3
1070
   287
1070
     3
1070
   287
1070
     3
1070
   287
1070
     3
1070
   287
1070
     3
1070
   287
1070
     3
1070
   287
1070
     3
1070
     3
1000
φ<>
1070
    40
1040
15.0
1070
   143
1040
0.039
1070
   172
1070
     1
1070
   271
1070
     0
1070
   279
1070
     0
1070
   288
1070
     1
1002
}
  0
DIMENSION
  5
7D91
  8
3
  2
*D3
 10
1943.5417471541259
 20
1455.621273223438
 30
0.0
 11
1906.041747154125
 21
1620.621273223438
 31
0.0
 70
     0
 13
2086.9074196966458
 23
1785.6212732234369
 33
0.0
 14
2159.9074196966458
 24
1455.621273223438
 34
0.0
 50
90.0
1001
ACAD
1000
DSTYLE
1002
{
1070
   287
1070
     3
1070
   287
1070
     3
1070
   287
1070
     3
1070
   287
1070
     3
1070
   287
1070
     3
1070
   287
1070
     3
1070
   287
1070
     3
1070
   287
1070
     3
1070
    40
1040
15.0
1070
   143
1040
0.039
1070
   172
1070
     1
1070
   271
1070
     0
1070
   279
1070
     0
1070
   288
1070
     1
1002
}
  0
DIMENSION
  5
7DA1
  8
3
  2
*D4
 10
1943.5417471541259
 20
1419.6212732234369
 30
0.0
 11
1871.756032868411
 21
1451.561515506178
 31
0.0
 70
   128
  1
(<>)
 13
2159.9074196966458
 23
1455.621273223438
 33
0.0
 14
2069.9074196966471
 24
1419.6212732234369
 34
0.0
 50
90.0
1001
ACAD
1000
DSTYLE
1002
{
1070
   288
1070
     1
1070
   172
1070
     1
1070
    75
1070
     1
1070
    40
1040
15.0
1070
   271
1070
     0
1070
     7
1000
_DOT
1070
   143
1040
0.039
1002
}
  0
DIMENSION
  5
7DB1
  8
3
  2
*D5
 10
1943.5417471541259
 20
1379.6212732234369
 30
0.0
 11
1906.041747154125
 21
1268.192701794866
 31
0.0
 70
     0
 13
2069.9074196966471
 23
1419.6212732234369
 33
0.0
 14
2071.468002326942
 24
1379.6212732234369
 34
0.0
 50
90.0
1001
ACAD
1000
DSTYLE
1002
{
1070
   287
1070
     3
1070
   287
1070
     3
1070
   287
1070
     3
1070
   287
1070
     3
1070
   287
1070
     3
1070
   287
1070
     3
1070
   287
1070
     3
1070
   287
1070
     3
1070
    40
1040
15.0
1070
   143
1040
0.039
1070
   172
1070
     1
1070
   271
1070
     0
1070
   279
1070
     0
1070
   288
1070
     1
1070
     6
1000
DOT
1002
}
  0
DIMENSION
  5
7E29
  8
3
  2
*D7
 10
2664.9074196966458
 20
2516.7451791682829
 30
0.0
 11
2383.3421753032599
 21
2516.7451791682829
 31
0.0
 70
   128
 13
2104.9074196966471
 23
1785.6212732234369
 33
0.0
 14
2664.9074196966458
 24
1785.6212732234369
 34
0.0
1001
ACAD
1000
DSTYLE
1002
{
1070
   287
1070
     3
1070
   287
1070
     3
1070
   287
1070
     3
1070
   287
1070
     3
1070
   287
1070
     3
1070
   287
1070
     3
1070
   287
1070
     3
1070
   287
1070
     3
1070
    40
1040
15.0
1070
   143
1040
0.039
1070
   172
1070
     1
1070
   271
1070
     0
1070
   279
1070
     0
1070
   288
1070
     1
1002
}
  0
LINE
  5
7E53
  8
1
 10
1241.3684114425259
 20
1419.6212732234369
 30
0.0
 11
1241.3684114425259
 21
1379.621273223438
 31
0.0
  0
LINE
  5
7E54
  8
1
 10
551.36841144252594
 20
1419.621273223438
 30
0.0
 11
551.36841144252594
 21
1379.621273223438
 31
0.0
  0
LINE
  5
7E56
  8
2
 10
569.36841144252594
 20
1397.7700892994301
 30
0.0
 11
569.36841144252594
 21
1361.0767532889729
 31
0.0
  0
LINE
  5
7E57
  8
2
 10
1223.3684114425259
 20
1362.292751069215
 30
0.0
 11
1223.3684114425259
 21
1397.7700892994301
 31
0.0
  0
DIMENSION
  5
7E64
  8
3
  2
*D8
 10
1241.3684114425259
 20
1232.368531391106
 30
0.0
 11
865.41311034354828
 21
1232.368531391106
 31
0.0
 70
   128
 13
551.36841144252594
 23
1379.621273223438
 33
0.0
 14
1241.3684114425259
 24
1379.621273223438
 34
0.0
1001
ACAD
1000
DSTYLE
1002
{
1070
   287
1070
     3
1070
   287
1070
     3
1070
   287
1070
     3
1070
   287
1070
     3
1070
   287
1070
     3
1070
   287
1070
     3
1070
   287
1070
     3
1070
   287
1070
     3
1070
    40
1040
15.0
1070
   143
1040
0.039
1070
   172
1070
     1
1070
   271
1070
     0
1070
   279
1070
     0
1070
   288
1070
     1
1002
}
  0
LINE
  5
7E86
  8
1
 10
2699.9074196966471
 20
1379.621273223438
 30
0.0
 11
2699.9074196966471
 21
1419.621273223438
 31
0.0
  0
LINE
  5
7E87
  8
1
 10
2069.9074196966471
 20
1379.621273223438
 30
0.0
 11
2069.9074196966471
 21
1419.621273223438
 31
0.0
  0
LINE
  5
7E88
  8
2
 10
2094.9074196966471
 20
1349.6749774633529
 30
0.0
 11
2094.9074196966471
 21
1740.5303666121849
 31
0.0
  0
LINE
  5
7E89
  8
2
 10
2674.9074196966471
 20
1349.6749774633529
 30
0.0
 11
2674.9074196966471
 21
1761.9750027760711
 31
0.0
  0
DIMENSION
  5
7EC9
  8
3
  2
*D9
 10
2699.9074196966471
 20
1230.460255182197
 30
0.0
 11
2386.8015153935039
 21
1230.460255182197
 31
0.0
 70
   128
 13
2069.9074196966471
 23
1379.621273223438
 33
0.0
 14
2699.9074196966471
 24
1379.6212732234369
 34
0.0
1001
ACAD
1000
DSTYLE
1002
{
1070
   287
1070
     3
1070
   287
1070
     3
1070
   287
1070
     3
1070
   287
1070
     3
1070
   287
1070
     3
1070
   287
1070
     3
1070
   287
1070
     3
1070
   287
1070
     3
1070
    40
1040
15.0
1070
   143
1040
0.039
1070
   172
1070
     1
1070
   271
1070
     0
1070
   279
1070
     0
1070
   288
1070
     1
1002
}
  0
DIMENSION
  5
7EE0
  8
3
  2
*D10
 10
1943.5417471541259
 20
2416.3615341282789
 30
0.0
 11
1906.041747154125
 21
2100.9914036758591
 31
0.0
 70
     0
  1
MAX.710
 13
2086.9074196966458
 23
1785.6212732234369
 33
0.0
 14
2384.9074196966458
 24
2416.3615341282789
 34
0.0
 50
90.0
1001
ACAD
1000
DSTYLE
1002
{
1070
   287
1070
     4
1070
   287
1070
     4
1070
   287
1070
     4
1070
   287
1070
     4
1070
   287
1070
     4
1070
   287
1070
     4
1070
   287
1070
     4
1070
   287
1070
     4
1070
    40
1040
15.0
1070
    75
1070
     1
1070
   143
1040
0.039
1070
   172
1070
     1
1070
   271
1070
     0
1070
   279
1070
     1
1070
   288
1070
     1
1002
}
  0
ENDSEC
  0
EOF
