  0
SECTION
  2
HEADER
  9
$ACADVER
  1
AC1009
  9
$INSBASE
 10
0.0
 20
0.0
 30
0.0
  9
$EXTMIN
 10
0.0
 20
0.0
 30
0.0
  9
$EXTMAX
 10
3150.0
 20
4425.0
 30
0.0
  9
$LIMMIN
 10
0.0
 20
0.0
  9
$LIMMAX
 10
297.0
 20
210.0
  9
$ORTHOMODE
 70
     0
  9
$REGENMODE
 70
     1
  9
$FILLMODE
 70
     0
  9
$QTEXTMODE
 70
     0
  9
$MIRRTEXT
 70
     1
  9
$DRAGMODE
 70
     2
  9
$LTSCALE
 40
100.0
  9
$OSMODE
 70
    37
  9
$ATTMODE
 70
     1
  9
$TEXTSIZE
 40
180.0
  9
$TRACEWID
 40
0.05
  9
$TEXTSTYLE
  7
STANDARD
  9
$CLAYER
  8
1
  9
$CELTYPE
  6
BYLAYER
  9
$CECOLOR
 62
   256
  9
$DIMSCALE
 40
15.0
  9
$DIMASZ
 40
2.0
  9
$DIMEXO
 40
0.5
  9
$DIMDLI
 40
10.0
  9
$DIMRND
 40
0.0
  9
$DIMDLE
 40
0.0
  9
$DIMEXE
 40
1.0
  9
$DIMTP
 40
1.0
  9
$DIMTM
 40
1.0
  9
$DIMTXT
 40
3.0
  9
$DIMCEN
 40
0.0
  9
$DIMTSZ
 40
0.0
  9
$DIMTOL
 70
     0
  9
$DIMLIM
 70
     0
  9
$DIMTIH
 70
     0
  9
$DIMTOH
 70
     0
  9
$DIMSE1
 70
     0
  9
$DIMSE2
 70
     0
  9
$DIMTAD
 70
     1
  9
$DIMZIN
 70
     8
  9
$DIMBLK
  1

  9
$DIMASO
 70
     1
  9
$DIMSHO
 70
     1
  9
$DIMPOST
  1

  9
$DIMAPOST
  1

  9
$DIMALT
 70
     0
  9
$DIMALTD
 70
     2
  9
$DIMALTF
 40
0.039
  9
$DIMLFAC
 40
1.0
  9
$DIMTOFL
 70
     1
  9
$DIMTVP
 40
0.0
  9
$DIMTIX
 70
     0
  9
$DIMSOXD
 70
     0
  9
$DIMSAH
 70
     1
  9
$DIMBLK1
  1
OPEN
  9
$DIMBLK2
  1
OPEN
  9
$DIMSTYLE
  2
IGA
  9
$DIMCLRD
 70
     0
  9
$DIMCLRE
 70
     0
  9
$DIMCLRT
 70
     0
  9
$DIMTFAC
 40
10.0
  9
$DIMGAP
 40
1.0
  9
$LUNITS
 70
     2
  9
$LUPREC
 70
     3
  9
$SKETCHINC
 40
0.1
  9
$FILLETRAD
 40
50.0
  9
$AUNITS
 70
     0
  9
$AUPREC
 70
     0
  9
$MENU
  1
acad
  9
$ELEVATION
 40
0.0
  9
$PELEVATION
 40
0.0
  9
$THICKNESS
 40
0.0
  9
$LIMCHECK
 70
     0
  9
$BLIPMODE
 70
     0
  9
$CHAMFERA
 40
0.5
  9
$CHAMFERB
 40
0.5
  9
$SKPOLY
 70
     0
  9
$TDCREATE
 40
2452683.4968092591
  9
$TDUPDATE
 40
2454953.6247540498
  9
$TDINDWG
 40
0.0598564815
  9
$TDUSRTIMER
 40
0.0598564815
  9
$USRTIMER
 70
     1
  9
$ANGBASE
 50
0.0
  9
$ANGDIR
 70
     0
  9
$PDMODE
 70
     0
  9
$PDSIZE
 40
0.0
  9
$PLINEWID
 40
0.0
  9
$COORDS
 70
     1
  9
$SPLFRAME
 70
     0
  9
$SPLINETYPE
 70
     6
  9
$SPLINESEGS
 70
     8
  9
$ATTDIA
 70
     0
  9
$ATTREQ
 70
     1
  9
$HANDLING
 70
 10241
  9
$HANDSEED
  5
859D
  9
$SURFTAB1
 70
     6
  9
$SURFTAB2
 70
     6
  9
$SURFTYPE
 70
     6
  9
$SURFU
 70
     6
  9
$SURFV
 70
     6
  9
$UCSNAME
  2

  9
$UCSORG
 10
0.0
 20
0.0
 30
0.0
  9
$UCSXDIR
 10
1.0
 20
0.0
 30
0.0
  9
$UCSYDIR
 10
0.0
 20
1.0
 30
0.0
  9
$PUCSNAME
  2

  9
$PUCSORG
 10
0.0
 20
0.0
 30
0.0
  9
$PUCSXDIR
 10
1.0
 20
0.0
 30
0.0
  9
$PUCSYDIR
 10
0.0
 20
1.0
 30
0.0
  9
$USERI1
 70
     0
  9
$USERI2
 70
     0
  9
$USERI3
 70
     0
  9
$USERI4
 70
     0
  9
$USERI5
 70
     0
  9
$USERR1
 40
0.0
  9
$USERR2
 40
0.0
  9
$USERR3
 40
0.0
  9
$USERR4
 40
0.0
  9
$USERR5
 40
0.0
  9
$WORLDVIEW
 70
     1
  9
$SHADEDGE
 70
     3
  9
$SHADEDIF
 70
    70
  9
$TILEMODE
 70
     1
  9
$MAXACTVP
 70
    16
  9
$PLIMCHECK
 70
     0
  9
$PEXTMIN
 10
1.0000000000000000E+020
 20
1.0000000000000000E+020
 30
1.0000000000000000E+020
  9
$PEXTMAX
 10
-1.0000000000000000E+020
 20
-1.0000000000000000E+020
 30
-1.0000000000000000E+020
  9
$PLIMMIN
 10
0.0
 20
0.0
  9
$PLIMMAX
 10
12.0
 20
9.0
  9
$UNITMODE
 70
     0
  9
$VISRETAIN
 70
     0
  9
$PLINEGEN
 70
     0
  9
$PSLTSCALE
 70
     1
  0
ENDSEC
  0
SECTION
  2
TABLES
  0
TABLE
  2
VPORT
 70
     2
  0
VPORT
  2
*ACTIVE
 70
     0
 10
0.0
 20
0.0
 11
1.0
 21
1.0
 12
2998.3240963227531
 22
536.81720875615065
 13
0.0
 23
0.0
 14
10.0
 24
10.0
 15
10.0
 25
10.0
 16
0.0
 26
0.0
 36
1.0
 17
0.0
 27
0.0
 37
0.0
 40
1382.6503796128079
 41
3.1666666666666661
 42
50.0
 43
0.0
 44
0.0
 50
0.0
 51
0.0
 71
     0
 72
   100
 73
     1
 74
     0
 75
     0
 76
     0
 77
     0
 78
     0
  0
ENDTAB
  0
TABLE
  2
LTYPE
 70
     2
  0
LTYPE
  2
CONTINUOUS
 70
     0
  3
Solid line
 72
    65
 73
     0
 40
0.0
  0
LTYPE
  2
CENTER
 70
     0
  3
____ _ ____ _ ____ _ ____ _ ____ _ ____ _ ____ 
 72
    65
 73
     4
 40
2.0
 49
1.25
 49
-0.25
 49
0.25
 49
-0.25
  0
ENDTAB
  0
TABLE
  2
LAYER
 70
     6
  0
LAYER
  2
0
 70
     0
 62
     7
  6
CONTINUOUS
  0
LAYER
  2
3
 70
     0
 62
     2
  6
CONTINUOUS
  0
LAYER
  2
2
 70
     0
 62
     3
  6
CENTER
  0
LAYER
  2
1
 70
     0
 62
     4
  6
CONTINUOUS
  0
LAYER
  2
4
 70
     0
 62
     7
  6
CONTINUOUS
  0
LAYER
  2
DEFPOINTS
 70
     0
 62
     7
  6
CONTINUOUS
  0
ENDTAB
  0
TABLE
  2
STYLE
 70
     1
  0
STYLE
  2
STANDARD
 70
     0
 40
0.0
 41
1.0
 50
0.0
 71
     0
 42
180.0
  3
simplex.shx
  4
extfont.shx
  0
ENDTAB
  0
TABLE
  2
VIEW
 70
     0
  0
ENDTAB
  0
TABLE
  2
UCS
 70
     0
  0
ENDTAB
  0
TABLE
  2
APPID
 70
     1
  0
APPID
  2
ACAD
 70
     0
  0
ENDTAB
  0
TABLE
  2
DIMSTYLE
 70
     1
  0
DIMSTYLE
  2
IGA
 70
     0
  3

  4

  5

  6
OPEN
  7
OPEN
 40
2.0
 41
2.0
 42
0.5
 43
10.0
 44
1.0
 45
0.0
 46
0.0
 47
1.0
 48
1.0
140
3.0
141
0.0
142
0.0
143
0.03937
144
1.0
145
0.0
146
10.0
147
1.0
 71
     0
 72
     0
 73
     0
 74
     0
 75
     0
 76
     0
 77
     1
 78
     8
170
     0
171
     2
172
     0
173
     1
174
     0
175
     0
176
     0
177
     0
178
     0
  0
ENDTAB
  0
ENDSEC
  0
SECTION
  2
BLOCKS
  0
BLOCK
  8
0
  2
$MODEL_SPACE
 70
     0
 10
0.0
 20
0.0
 30
0.0
  3
$MODEL_SPACE
  1

  0
ENDBLK
  5
1B
  8
0
  0
BLOCK
 67
     1
  8
0
  2
$PAPER_SPACE
 70
     0
 10
0.0
 20
0.0
 30
0.0
  3
$PAPER_SPACE
  1

  0
ENDBLK
  5
18
 67
     1
  8
0
  0
BLOCK
  8
0
  2
_OPEN
 70
     0
 10
0.0
 20
0.0
 30
0.0
  3
_OPEN
  1

  0
LINE
  5
7CF4
  8
0
  6
BYBLOCK
 62
     0
 10
-1.0
 20
0.1666666666666666
 30
0.0
 11
0.0
 21
0.0
 31
0.0
  0
LINE
  5
7CF5
  8
0
  6
BYBLOCK
 62
     0
 10
0.0
 20
0.0
 30
0.0
 11
-1.0
 21
-0.1666666666666666
 31
0.0
  0
LINE
  5
7CF6
  8
0
  6
BYBLOCK
 62
     0
 10
0.0
 20
0.0
 30
0.0
 11
-1.0
 21
0.0
 31
0.0
  0
ENDBLK
  5
7CF7
  8
0
  0
BLOCK
  8
0
  2
*D1
 70
     1
 10
0.0
 20
0.0
 30
0.0
  3
*D1
  1

  0
LINE
  5
8552
  8
3
 62
     0
 10
591.36841144252594
 20
2431.133870289053
 30
0.0
 11
591.36841144252594
 21
2737.7918540112419
 31
0.0
  0
LINE
  5
8553
  8
3
 62
     0
 10
1201.3684114425259
 20
2431.133870289053
 30
0.0
 11
1201.3684114425259
 21
2737.7918540112419
 31
0.0
  0
LINE
  5
8554
  8
3
 62
     0
 10
621.36841144252594
 20
2722.7918540112419
 30
0.0
 11
1171.3684114425259
 21
2722.7918540112419
 31
0.0
  0
INSERT
  5
8555
  8
3
 62
     0
  2
_OPEN
 10
591.36841144252594
 20
2722.7918540112419
 30
0.0
 41
30.0
 42
30.0
 43
30.0
 50
180.0
  0
INSERT
  5
8556
  8
3
 62
     0
  2
_OPEN
 10
1201.3684114425259
 20
2722.7918540112419
 30
0.0
 41
30.0
 42
30.0
 43
30.0
  0
TEXT
  8
3
  40
45
  5
8596
  62
0
  72
0
  71
0
 10
806.368
 20
2680.64
 30
0.000000
  1
610
  0
POINT
  5
8558
  8
DEFPOINTS
 62
     0
 10
591.36841144252594
 20
2423.633870289053
 30
0.0
  0
POINT
  5
8559
  8
DEFPOINTS
 62
     0
 10
1201.3684114425259
 20
2423.633870289053
 30
0.0
  0
POINT
  5
855A
  8
DEFPOINTS
 62
     0
 10
1201.3684114425259
 20
2722.7918540112419
 30
0.0
  0
ENDBLK
  5
7E7A
  8
0
  0
BLOCK
  8
0
  2
*D2
 70
     1
 10
0.0
 20
0.0
 30
0.0
  3
*D2
  1

  0
LINE
  5
855B
  8
3
 62
     0
 10
553.86841144252594
 20
2393.633870289053
 30
0.0
 11
353.35246047168442
 21
2393.633870289053
 31
0.0
  0
LINE
  5
855C
  8
3
 62
     0
 10
553.86841144252594
 20
1893.633870289053
 30
0.0
 11
353.35246047168431
 21
1893.633870289053
 31
0.0
  0
LINE
  5
855D
  8
3
 62
     0
 10
368.35246047168442
 20
2363.633870289053
 30
0.0
 11
368.35246047168431
 21
1923.633870289053
 31
0.0
  0
INSERT
  5
855E
  8
3
 62
     0
  2
_OPEN
 10
368.35246047168442
 20
2393.633870289053
 30
0.0
 41
30.0
 42
30.0
 43
30.0
 50
90.0
  0
INSERT
  5
855F
  8
3
 62
     0
  2
_OPEN
 10
368.35246047168431
 20
1893.633870289053
 30
0.0
 41
30.0
 42
30.0
 43
30.0
 50
270.0
  0
TEXT
  8
3
  40
45
  5
8597
  62
0
  72
0
  71
0
 10
240.852
 20
2063.85
 30
0.000000
  1
φ500
  0
POINT
  5
8561
  8
DEFPOINTS
 62
     0
 10
561.36841144252594
 20
2393.633870289053
 30
0.0
  0
POINT
  5
8562
  8
DEFPOINTS
 62
     0
 10
561.36841144252594
 20
1893.633870289053
 30
0.0
  0
POINT
  5
8563
  8
DEFPOINTS
 62
     0
 10
368.35246047168431
 20
1893.633870289053
 30
0.0
  0
ENDBLK
  5
7D78
  8
0
  0
BLOCK
  8
0
  2
*D3
 70
     1
 10
0.0
 20
0.0
 30
0.0
  3
*D3
  1

  0
LINE
  5
8564
  8
3
 62
     0
 10
2079.4074196966458
 20
2143.633870289053
 30
0.0
 11
1928.5417471541259
 21
2143.633870289053
 31
0.0
  0
LINE
  5
8565
  8
3
 62
     0
 10
2152.4074196966458
 20
1813.633870289053
 30
0.0
 11
1928.5417471541259
 21
1813.633870289053
 31
0.0
  0
LINE
  5
8566
  8
3
 62
     0
 10
1943.5417471541259
 20
2113.633870289053
 30
0.0
 11
1943.5417471541259
 21
1843.633870289053
 31
0.0
  0
INSERT
  5
8567
  8
3
 62
     0
  2
_OPEN
 10
1943.5417471541259
 20
2143.633870289053
 30
0.0
 41
30.0
 42
30.0
 43
30.0
 50
90.0
  0
INSERT
  5
8568
  8
3
 62
     0
  2
_OPEN
 10
1943.5417471541259
 20
1813.633870289053
 30
0.0
 41
30.0
 42
30.0
 43
30.0
 50
270.0
  0
TEXT
  8
3
  40
45
  5
8598
  62
0
  72
0
  71
0
 10
1816.04
 20
1898.98
 30
0.000000
  1
330
  0
POINT
  5
856A
  8
DEFPOINTS
 62
     0
 10
2086.9074196966458
 20
2143.633870289053
 30
0.0
  0
POINT
  5
856B
  8
DEFPOINTS
 62
     0
 10
2159.9074196966458
 20
1813.633870289053
 30
0.0
  0
POINT
  5
856C
  8
DEFPOINTS
 62
     0
 10
1943.5417471541259
 20
1813.633870289053
 30
0.0
  0
ENDBLK
  5
7E94
  8
0
  0
BLOCK
  8
0
  2
*D4
 70
     1
 10
0.0
 20
0.0
 30
0.0
  3
*D4
  1

  0
LINE
  5
83B5
  8
3
 62
     0
 10
2062.4074196966471
 20
1777.6338702890521
 30
0.0
 11
1928.5417471541259
 21
1777.6338702890521
 31
0.0
  0
LINE
  5
83B6
  8
3
 62
     0
 10
1943.5417471541259
 20
1843.633870289053
 30
0.0
 11
1943.5417471541259
 21
1873.633870289053
 31
0.0
  0
LINE
  5
83B7
  8
3
 62
     0
 10
1943.5417471541259
 20
1747.6338702890521
 30
0.0
 11
1943.5417471541259
 21
1717.633870289053
 31
0.0
  0
TEXT
  5
83B8
  8
1
 62
     0
 10
1886.756032868411
 20
1744.216969714651
 30
0.0
 40
45.0
  1
(36)
 50
90.0
  0
LINE
  5
83B9
  8
3
 62
     0
 10
1943.5417471541259
 20
1813.633870289053
 30
0.0
 11
1943.5417471541259
 21
1777.6338702890521
 31
0.0
  0
INSERT
  5
83BA
  8
3
 62
     0
  2
_OPEN
 10
1943.5417471541259
 20
1813.633870289053
 30
0.0
 41
30.0
 42
30.0
 43
30.0
 50
270.0
  0
INSERT
  5
83BB
  8
3
 62
     0
  2
_DOT
 10
1943.5417471541259
 20
1777.6338702890521
 30
0.0
 41
30.0
 42
30.0
 43
30.0
 50
90.0
  0
POINT
  5
83BC
  8
DEFPOINTS
 62
     0
 10
2159.9074196966458
 20
1813.633870289053
 30
0.0
  0
POINT
  5
83BD
  8
DEFPOINTS
 62
     0
 10
2069.9074196966471
 20
1777.6338702890521
 30
0.0
  0
POINT
  5
83BE
  8
DEFPOINTS
 62
     0
 10
1943.5417471541259
 20
1777.6338702890521
 30
0.0
  0
ENDBLK
  5
7EFE
  8
0
  0
BLOCK
  8
0
  2
*D5
 70
     1
 10
0.0
 20
0.0
 30
0.0
  3
*D5
  1

  0
LINE
  5
856D
  8
3
 62
     0
 10
2062.4074196966471
 20
1777.6338702890521
 30
0.0
 11
1928.5417471541259
 21
1777.6338702890521
 31
0.0
  0
LINE
  5
856E
  8
3
 62
     0
 10
2063.968002326943
 20
1737.633870289053
 30
0.0
 11
1928.5417471541259
 21
1737.633870289053
 31
0.0
  0
LINE
  5
856F
  8
3
 62
     0
 10
1943.5417471541259
 20
1807.6338702890521
 30
0.0
 11
1943.5417471541259
 21
1837.6338702890521
 31
0.0
  0
LINE
  5
8570
  8
3
 62
     0
 10
1943.5417471541259
 20
1707.633870289053
 30
0.0
 11
1943.5417471541259
 21
1574.7767274319101
 31
0.0
  0
LINE
  5
8571
  8
3
 62
     0
 10
1943.5417471541259
 20
1777.6338702890521
 30
0.0
 11
1943.5417471541259
 21
1737.633870289053
 31
0.0
  0
INSERT
  5
8572
  8
3
 62
     0
  2
_DOT
 10
1943.5417471541259
 20
1777.6338702890521
 30
0.0
 41
30.0
 42
30.0
 43
30.0
 50
270.0
  0
INSERT
  5
8573
  8
3
 62
     0
  2
_OPEN
 10
1943.5417471541259
 20
1737.633870289053
 30
0.0
 41
30.0
 42
30.0
 43
30.0
 50
90.0
  0
TEXT
  8
3
  40
45
  5
8599
  62
0
  72
0
  71
0
 10
1816.04
 20
1546.56
 30
0.000000
  1
40
  0
POINT
  5
8575
  8
DEFPOINTS
 62
     0
 10
2069.9074196966471
 20
1777.6338702890521
 30
0.0
  0
POINT
  5
8576
  8
DEFPOINTS
 62
     0
 10
2071.468002326942
 20
1737.633870289053
 30
0.0
  0
POINT
  5
8577
  8
DEFPOINTS
 62
     0
 10
1943.5417471541259
 20
1737.633870289053
 30
0.0
  0
ENDBLK
  5
7F0B
  8
0
  0
BLOCK
  8
0
  2
_DOT
 70
     0
 10
0.0
 20
0.0
 30
0.0
  3
_DOT
  1

  0
LINE
  5
7E18
  8
0
  6
BYBLOCK
 62
     0
 10
0.0
 20
0.0
 30
0.0
 11
-1.0
 21
-0.0000000000000284
 31
0.0
  0
POLYLINE
  5
7E19
  8
0
  6
BYBLOCK
 62
     0
 66
     1
 10
0.0
 20
0.0
 30
0.0
 70
     1
 40
0.1666666666666666
 41
0.1666666666666666
  0
VERTEX
  5
8578
  8
0
  6
BYBLOCK
 62
     0
 10
-0.0833333333333286
 20
-0.0000000000000284
 30
0.0
 42
1.0
  0
VERTEX
  5
8579
  8
0
  6
BYBLOCK
 62
     0
 10
0.0833333333333286
 20
-0.0000000000000284
 30
0.0
 42
1.0
  0
SEQEND
  5
857A
  8
0
  6
BYBLOCK
 62
     0
  0
ENDBLK
  5
7DFE
  8
0
  0
BLOCK
  8
0
  2
*D7
 70
     1
 10
0.0
 20
0.0
 30
0.0
  3
*D7
  1

  0
LINE
  5
857B
  8
3
 62
     0
 10
2104.9074196966471
 20
2151.133870289053
 30
0.0
 11
2104.9074196966471
 21
2728.3611131467442
 31
0.0
  0
LINE
  5
857C
  8
3
 62
     0
 10
2664.9074196966458
 20
2151.133870289053
 30
0.0
 11
2664.9074196966458
 21
2728.3611131467442
 31
0.0
  0
LINE
  5
857D
  8
3
 62
     0
 10
2134.9074196966458
 20
2713.3611131467442
 30
0.0
 11
2634.9074196966458
 21
2713.3611131467442
 31
0.0
  0
INSERT
  5
857E
  8
3
 62
     0
  2
_OPEN
 10
2104.9074196966471
 20
2713.3611131467442
 30
0.0
 41
30.0
 42
30.0
 43
30.0
 50
180.0
  0
INSERT
  5
857F
  8
3
 62
     0
  2
_OPEN
 10
2664.9074196966458
 20
2713.3611131467442
 30
0.0
 41
30.0
 42
30.0
 43
30.0
  0
TEXT
  8
3
  40
45
  5
859A
  62
0
  72
0
  71
0
 10
2293.34
 20
2671.21
 30
0.000000
  1
560
  0
POINT
  5
8581
  8
DEFPOINTS
 62
     0
 10
2104.9074196966471
 20
2143.633870289053
 30
0.0
  0
POINT
  5
8582
  8
DEFPOINTS
 62
     0
 10
2664.9074196966458
 20
2143.633870289053
 30
0.0
  0
POINT
  5
8583
  8
DEFPOINTS
 62
     0
 10
2664.9074196966458
 20
2713.3611131467442
 30
0.0
  0
ENDBLK
  5
7E85
  8
0
  0
BLOCK
  8
0
  2
*D8
 70
     1
 10
0.0
 20
0.0
 30
0.0
  3
*D8
  1

  0
LINE
  5
8584
  8
3
 62
     0
 10
551.36841144252594
 20
1730.133870289053
 30
0.0
 11
551.36841144252594
 21
1575.3811284567209
 31
0.0
  0
LINE
  5
8585
  8
3
 62
     0
 10
1241.3684114425259
 20
1730.133870289053
 30
0.0
 11
1241.3684114425259
 21
1575.3811284567209
 31
0.0
  0
LINE
  5
8586
  8
3
 62
     0
 10
581.36841144252594
 20
1590.3811284567209
 30
0.0
 11
1211.3684114425259
 21
1590.3811284567209
 31
0.0
  0
INSERT
  5
8587
  8
3
 62
     0
  2
_OPEN
 10
551.36841144252594
 20
1590.3811284567209
 30
0.0
 41
30.0
 42
30.0
 43
30.0
 50
180.0
  0
INSERT
  5
8588
  8
3
 62
     0
  2
_OPEN
 10
1241.3684114425259
 20
1590.3811284567209
 30
0.0
 41
30.0
 42
30.0
 43
30.0
  0
TEXT
  8
3
  40
45
  5
859B
  62
0
  72
0
  71
0
 10
775.413
 20
1548.23
 30
0.000000
  1
690
  0
POINT
  5
858A
  8
DEFPOINTS
 62
     0
 10
551.36841144252594
 20
1737.633870289053
 30
0.0
  0
POINT
  5
858B
  8
DEFPOINTS
 62
     0
 10
1241.3684114425259
 20
1737.633870289053
 30
0.0
  0
POINT
  5
858C
  8
DEFPOINTS
 62
     0
 10
1241.3684114425259
 20
1590.3811284567209
 30
0.0
  0
ENDBLK
  5
7E6F
  8
0
  0
BLOCK
  8
0
  2
*D9
 70
     1
 10
0.0
 20
0.0
 30
0.0
  3
*D9
  1

  0
LINE
  5
858D
  8
3
 62
     0
 10
2069.9074196966471
 20
1730.133870289053
 30
0.0
 11
2069.9074196966471
 21
1573.4728522478119
 31
0.0
  0
LINE
  5
858E
  8
3
 62
     0
 10
2699.9074196966471
 20
1730.133870289053
 30
0.0
 11
2699.9074196966471
 21
1573.4728522478119
 31
0.0
  0
LINE
  5
858F
  8
3
 62
     0
 10
2099.9074196966471
 20
1588.4728522478119
 30
0.0
 11
2669.9074196966471
 21
1588.4728522478119
 31
0.0
  0
INSERT
  5
8590
  8
3
 62
     0
  2
_OPEN
 10
2069.9074196966471
 20
1588.4728522478119
 30
0.0
 41
30.0
 42
30.0
 43
30.0
 50
180.0
  0
INSERT
  5
8591
  8
3
 62
     0
  2
_OPEN
 10
2699.9074196966471
 20
1588.4728522478119
 30
0.0
 41
30.0
 42
30.0
 43
30.0
  0
TEXT
  8
3
  40
45
  5
859C
  62
0
  72
0
  71
0
 10
2296.80
 20
1546.32
 30
0.000000
  1
630
  0
POINT
  5
8593
  8
DEFPOINTS
 62
     0
 10
2069.9074196966471
 20
1737.633870289053
 30
0.0
  0
POINT
  5
8594
  8
DEFPOINTS
 62
     0
 10
2699.9074196966471
 20
1737.633870289053
 30
0.0
  0
POINT
  5
8595
  8
DEFPOINTS
 62
     0
 10
2699.9074196966471
 20
1588.4728522478119
 30
0.0
  0
ENDBLK
  5
7ED4
  8
0
  0
ENDSEC
  0
SECTION
  2
ENTITIES
  0
LINE
  5
7B6E
  8
1
 10
591.36841144252594
 20
1893.633870289053
 30
0.0
 11
1201.3684114425259
 21
1893.633870289053
 31
0.0
  0
LINE
  5
7B6F
  8
1
 10
591.36841144252594
 20
2393.633870289053
 30
0.0
 11
1201.3684114425259
 21
2393.633870289053
 31
0.0
  0
LINE
  5
7B70
  8
2
 10
535.65030182736689
 20
2143.633870289053
 30
0.0
 11
1258.584964402542
 21
2143.633870289053
 31
0.0
  0
LINE
  5
7B71
  8
1
 10
591.36841144252594
 20
2423.633870289053
 30
0.0
 11
591.36841144252594
 21
1863.633870289053
 31
0.0
  0
LINE
  5
7B72
  8
1
 10
594.56841144252621
 20
2423.633870289053
 30
0.0
 11
594.56841144252621
 21
1863.633870289053
 31
0.0
  0
LINE
  5
7B73
  8
2
 10
577.06684042869836
 20
1878.633870289053
 30
0.0
 11
610.07599238062846
 21
1878.633870289053
 31
0.0
  0
LINE
  5
7B74
  8
1
 10
594.56841144252621
 20
1863.633870289053
 30
0.0
 11
591.36841144252594
 21
1863.633870289053
 31
0.0
  0
LINE
  5
7B75
  8
1
 10
577.06684042869836
 20
2408.633870289053
 30
0.0
 11
610.07599238062846
 21
2408.633870289053
 31
0.0
  0
LINE
  5
7B76
  8
1
 10
594.56841144252621
 20
2423.633870289053
 30
0.0
 11
591.36841144252594
 21
2423.633870289053
 31
0.0
  0
LINE
  5
7B77
  8
1
 10
1184.1482694463889
 20
2408.633870289053
 30
0.0
 11
1217.1574213983199
 21
2408.633870289053
 31
0.0
  0
LINE
  5
7B78
  8
2
 10
1184.1482694463889
 20
1878.633870289053
 30
0.0
 11
1217.1574213983199
 21
1878.633870289053
 31
0.0
  0
LINE
  5
7B79
  8
1
 10
1201.3684114425259
 20
2423.633870289053
 30
0.0
 11
1201.3684114425259
 21
1863.633870289053
 31
0.0
  0
LINE
  5
7B7A
  8
1
 10
1231.3684114425259
 20
1892.633870289053
 30
0.0
 11
1231.3684114425259
 21
2394.633870289053
 31
0.0
  0
LINE
  5
7B7B
  8
1
 10
1204.368411442525
 20
2421.633870289053
 30
0.0
 11
1204.368411442525
 21
1865.633870289053
 31
0.0
  0
LINE
  5
7B7C
  8
1
 10
1198.168411442525
 20
2423.633870289053
 30
0.0
 11
1198.168411442525
 21
1863.633870289053
 31
0.0
  0
LINE
  5
7B7D
  8
1
 10
1201.3684114425259
 20
2423.633870289053
 30
0.0
 11
1201.3684114425259
 21
1863.633870289053
 31
0.0
  0
LINE
  5
7B7E
  8
1
 10
1198.168411442525
 20
1863.633870289053
 30
0.0
 11
1201.3684114425259
 21
1863.633870289053
 31
0.0
  0
LINE
  5
7B7F
  8
1
 10
1201.3684114425259
 20
1863.633870289053
 30
0.0
 11
1202.3684114425259
 21
1863.633870289053
 31
0.0
  0
ARC
  5
7B80
  8
1
 10
1202.3684114425259
 20
1865.633870289053
 30
0.0
 40
2.0
 50
270.0
 51
0.0
  0
LINE
  5
7B81
  8
1
 10
1231.3684114425259
 20
1893.633870289053
 30
0.0
 11
1204.368411442525
 21
1893.633870289053
 31
0.0
  0
LINE
  5
7B82
  8
1
 10
1208.3684114425259
 20
1890.633870289053
 30
0.0
 11
1229.3684114425259
 21
1890.633870289053
 31
0.0
  0
ARC
  5
7B83
  8
1
 10
1208.3684114425259
 20
1886.633870289053
 30
0.0
 40
4.0
 50
90.0
 51
180.0
  0
ARC
  5
7B84
  8
1
 10
1229.3684114425259
 20
1892.633870289053
 30
0.0
 40
2.0
 50
270.0
 51
0.0
  0
LINE
  5
7B86
  8
1
 10
1198.168411442525
 20
2423.633870289053
 30
0.0
 11
1201.3684114425259
 21
2423.633870289053
 31
0.0
  0
LINE
  5
7B87
  8
1
 10
1208.3684114425259
 20
2396.633870289053
 30
0.0
 11
1229.3684114425259
 21
2396.633870289053
 31
0.0
  0
LINE
  5
7B88
  8
1
 10
1231.3684114425259
 20
2393.633870289053
 30
0.0
 11
1204.368411442525
 21
2393.633870289053
 31
0.0
  0
ARC
  5
7B89
  8
1
 10
1208.3684114425259
 20
2400.633870289053
 30
0.0
 40
4.0
 50
180.0
 51
270.0
  0
ARC
  5
7B8A
  8
1
 10
1229.3684114425259
 20
2394.633870289053
 30
0.0
 40
2.0
 50
0.0
 51
90.0
  0
LINE
  5
7B8B
  8
1
 10
1201.3684114425259
 20
2423.633870289053
 30
0.0
 11
1202.3684114425259
 21
2423.633870289053
 31
0.0
  0
ARC
  5
7B8C
  8
1
 10
1202.3684114425259
 20
2421.633870289053
 30
0.0
 40
2.0
 50
0.0
 51
90.0
  0
LINE
  5
7B99
  8
2
 10
2086.9074196966458
 20
2143.633870289053
 30
0.0
 11
2682.9074196966458
 21
2143.633870289053
 31
0.0
  0
CIRCLE
  5
7B9A
  8
1
 10
2384.9074196966458
 20
2143.633870289053
 30
0.0
 40
280.0
  0
CIRCLE
  5
7B9B
  8
1
 10
2384.9074196966458
 20
2143.633870289053
 30
0.0
 40
250.0
  0
LINE
  5
7B9C
  8
2
 10
2384.9074196966458
 20
1845.633870289053
 30
0.0
 11
2384.9074196966458
 21
2520.207123925376
 31
0.0
  0
POINT
  5
7B9D
  8
1
 10
2086.9074196966458
 20
2143.633870289053
 30
0.0
  0
POINT
  5
7BA0
  8
1
 10
2682.9074196966458
 20
2143.633870289053
 30
0.0
  0
LINE
  5
7C03
  8
1
 10
588.36841144252594
 20
2421.633870289053
 30
0.0
 11
588.36841144252594
 21
1865.633870289053
 31
0.0
  0
LINE
  5
7C04
  8
1
 10
561.36841144252594
 20
1892.633870289053
 30
0.0
 11
561.36841144252594
 21
2394.633870289053
 31
0.0
  0
LINE
  5
7C05
  8
1
 10
591.36841144252594
 20
2423.633870289053
 30
0.0
 11
591.36841144252594
 21
1863.633870289053
 31
0.0
  0
ARC
  5
7C06
  8
1
 10
590.36841144252594
 20
1865.633870289053
 30
0.0
 40
2.0
 50
180.0
 51
270.0
  0
LINE
  5
7C07
  8
1
 10
591.36841144252594
 20
1863.633870289053
 30
0.0
 11
590.36841144252594
 21
1863.633870289053
 31
0.0
  0
LINE
  5
7C08
  8
1
 10
584.36841144252594
 20
1890.633870289053
 30
0.0
 11
563.36841144252594
 21
1890.633870289053
 31
0.0
  0
LINE
  5
7C09
  8
1
 10
561.36841144252594
 20
1893.633870289053
 30
0.0
 11
588.36841144252594
 21
1893.633870289053
 31
0.0
  0
ARC
  5
7C0A
  8
1
 10
584.36841144252594
 20
1886.633870289053
 30
0.0
 40
4.0
 50
0.0
 51
90.0
  0
ARC
  5
7C0B
  8
1
 10
563.36841144252594
 20
1892.633870289053
 30
0.0
 40
2.0
 50
180.0
 51
270.0
  0
LINE
  5
7C0D
  8
1
 10
561.36841144252594
 20
2393.633870289053
 30
0.0
 11
588.36841144252594
 21
2393.633870289053
 31
0.0
  0
LINE
  5
7C0E
  8
1
 10
584.36841144252594
 20
2396.633870289053
 30
0.0
 11
563.36841144252594
 21
2396.633870289053
 31
0.0
  0
ARC
  5
7C0F
  8
1
 10
584.36841144252594
 20
2400.633870289053
 30
0.0
 40
4.0
 50
270.0
 51
0.0
  0
ARC
  5
7C10
  8
1
 10
563.36841144252594
 20
2394.633870289053
 30
0.0
 40
2.0
 50
90.0
 51
180.0
  0
ARC
  5
7C11
  8
1
 10
590.36841144252594
 20
2421.633870289053
 30
0.0
 40
2.0
 50
90.0
 51
180.0
  0
LINE
  5
7C12
  8
1
 10
591.36841144252594
 20
2423.633870289053
 30
0.0
 11
590.36841144252594
 21
2423.633870289053
 31
0.0
  0
LINE
  5
7C13
  8
1
 10
2159.9074196966458
 20
1813.633870289053
 30
0.0
 11
2609.9074196966458
 21
1813.633870289053
 31
0.0
  0
LINE
  5
7C15
  8
1
 10
654.56841144252564
 20
1818.133870289053
 30
0.0
 11
654.56841144252564
 21
1813.6338702890539
 31
0.0
  0
LINE
  5
7C16
  8
1
 10
594.56841144252564
 20
1973.6338702890521
 30
0.0
 11
594.56841144252564
 21
1813.633870289053
 31
0.0
  0
LINE
  5
7C17
  8
1
 10
599.06841144252564
 20
1973.6338702890521
 30
0.0
 11
599.06841144252564
 21
1818.133870289053
 31
0.0
  0
LINE
  5
7C18
  8
1
 10
654.56841144252564
 20
1818.133870289053
 30
0.0
 11
599.06841144252564
 21
1818.133870289053
 31
0.0
  0
LINE
  5
7C19
  8
1
 10
594.56841144252564
 20
1973.6338702890521
 30
0.0
 11
599.06841144252564
 21
1973.6338702890521
 31
0.0
  0
LINE
  5
7C1A
  8
1
 10
594.56841144252564
 20
1963.633870289053
 30
0.0
 11
599.06841144252564
 21
1963.6338702890521
 31
0.0
  0
LINE
  5
7C1C
  8
1
 10
1138.1684114425259
 20
1818.133870289053
 30
0.0
 11
1138.1684114425259
 21
1813.6338702890539
 31
0.0
  0
LINE
  5
7C1D
  8
1
 10
1198.1684114425259
 20
1973.6338702890521
 30
0.0
 11
1198.1684114425259
 21
1813.633870289053
 31
0.0
  0
LINE
  5
7C1E
  8
1
 10
1138.1684114425259
 20
1818.133870289053
 30
0.0
 11
1193.6684114425259
 21
1818.133870289053
 31
0.0
  0
LINE
  5
7C1F
  8
1
 10
1193.6684114425259
 20
1973.6338702890521
 30
0.0
 11
1193.6684114425259
 21
1818.133870289053
 31
0.0
  0
LINE
  5
7C20
  8
1
 10
1198.1684114425259
 20
1973.6338702890521
 30
0.0
 11
1193.6684114425259
 21
1973.6338702890521
 31
0.0
  0
LINE
  5
7C21
  8
1
 10
1198.1684114425259
 20
1963.633870289053
 30
0.0
 11
1193.6684114425259
 21
1963.6338702890521
 31
0.0
  0
LINE
  5
7C23
  8
1
 10
2159.9074196966458
 20
1963.6338702890521
 30
0.0
 11
2159.9074196966458
 21
1813.633870289053
 31
0.0
  0
LINE
  5
7C24
  8
1
 10
2164.508969970535
 20
1970.936089879672
 30
0.0
 11
2159.9074196966458
 21
1963.633870289053
 31
0.0
  0
LINE
  5
7C26
  8
1
 10
2609.9074196966458
 20
1963.633870289053
 30
0.0
 11
2609.9074196966458
 21
1813.633870289053
 31
0.0
  0
LINE
  5
7C27
  8
1
 10
2605.305869422758
 20
1970.936089879672
 30
0.0
 11
2609.9074196966458
 21
1963.633870289053
 31
0.0
  0
LINE
  5
7C2A
  8
1
 10
1241.3684114425259
 20
1737.633870289053
 30
0.0
 11
551.36841144252594
 21
1737.633870289053
 31
0.0
  0
LINE
  5
7C2C
  8
1
 10
2699.9074196966471
 20
1737.633870289053
 30
0.0
 11
2069.9074196966471
 21
1737.633870289053
 31
0.0
  0
LINE
  5
7C33
  8
1
 10
1241.3684114425259
 20
1777.633870289053
 30
0.0
 11
551.36841144252594
 21
1777.633870289053
 31
0.0
  0
LINE
  5
7C37
  8
1
 10
2699.9074196966471
 20
1777.633870289053
 30
0.0
 11
2069.9074196966471
 21
1777.633870289053
 31
0.0
  0
LINE
  5
7C5D
  8
2
 10
626.36841144252594
 20
1759.633870289053
 30
0.0
 11
626.36841144252594
 21
1832.9855359968089
 31
0.0
  0
LINE
  5
7C5E
  8
2
 10
1166.3684114425259
 20
1759.633870289053
 30
0.0
 11
1166.3684114425259
 21
1832.9855359968089
 31
0.0
  0
LINE
  5
7C5F
  8
2
 10
2184.9074196966458
 20
1759.633870289053
 30
0.0
 11
2184.9074196966458
 21
1832.985535996808
 31
0.0
  0
LINE
  5
7C60
  8
2
 10
2584.9074196966458
 20
1759.633870289053
 30
0.0
 11
2584.9074196966458
 21
1832.985535996808
 31
0.0
  0
LINE
  5
7CC2
  8
1
 10
611.36841144252594
 20
2268.633870289053
 30
0.0
 11
611.36841144252594
 21
2018.633870289053
 31
0.0
  0
LINE
  5
7CC3
  8
1
 10
711.36841144252594
 20
2268.6338702890539
 30
0.0
 11
711.36841144252594
 21
2018.633870289053
 31
0.0
  0
LINE
  5
7CC4
  8
1
 10
636.36841144252594
 20
2390.633870289053
 30
0.0
 11
686.36841144252594
 21
2390.633870289053
 31
0.0
  0
LINE
  5
7CC5
  8
1
 10
611.36841144252594
 20
2268.633870289053
 30
0.0
 11
711.36841144252594
 21
2268.633870289053
 31
0.0
  0
LINE
  5
7CC6
  8
1
 10
611.36841144252594
 20
2018.633870289053
 30
0.0
 11
711.36841144252594
 21
2018.633870289053
 31
0.0
  0
LINE
  5
7CC7
  8
1
 10
611.36841144252594
 20
2258.633870289053
 30
0.0
 11
711.36841144252594
 21
2258.633870289053
 31
0.0
  0
LINE
  5
7CC8
  8
1
 10
611.36841144252594
 20
2028.633870289053
 30
0.0
 11
711.36841144252594
 21
2028.633870289053
 31
0.0
  0
LINE
  5
7CC9
  8
1
 10
636.36841144252594
 20
2390.633870289053
 30
0.0
 11
611.36841144252594
 21
2268.633870289053
 31
0.0
  0
LINE
  5
7CCA
  8
1
 10
686.36841144252594
 20
2390.633870289053
 30
0.0
 11
711.36841144252594
 21
2268.633870289053
 31
0.0
  0
LINE
  5
7CCB
  8
1
 10
686.36841144252594
 20
1896.633870289053
 30
0.0
 11
711.36841144252594
 21
2018.633870289053
 31
0.0
  0
LINE
  5
7CCC
  8
1
 10
636.36841144252594
 20
1896.633870289053
 30
0.0
 11
611.36841144252594
 21
2018.633870289053
 31
0.0
  0
LINE
  5
7CCD
  8
1
 10
636.36841144252594
 20
1896.633870289053
 30
0.0
 11
686.36841144252594
 21
1896.633870289053
 31
0.0
  0
LINE
  5
7CCE
  8
1
 10
636.36841144252594
 20
2258.633870289053
 30
0.0
 11
636.36841144252594
 21
2028.633870289053
 31
0.0
  0
LINE
  5
7CCF
  8
1
 10
646.36841144252594
 20
2258.633870289053
 30
0.0
 11
646.36841144252594
 21
2028.633870289053
 31
0.0
  0
LINE
  5
7CD0
  8
1
 10
594.56841144252564
 20
1813.633870289053
 30
0.0
 11
654.56841144252564
 21
1813.633870289053
 31
0.0
  0
LINE
  5
7CD1
  8
1
 10
1138.1684114425259
 20
1813.633870289053
 30
0.0
 11
1198.1684114425259
 21
1813.633870289053
 31
0.0
  0
LINE
  5
7CD2
  8
4
 10
2775.0
 20
750.0
 30
0.0
 11
2775.0
 21
450.0
 31
0.0
  0
LINE
  5
7CD3
  8
4
 10
1725.0
 20
750.0
 30
0.0
 11
1725.0
 21
450.0
 31
0.0
  0
LINE
  5
7CD4
  8
4
 10
975.0
 20
750.0
 30
0.0
 11
975.0
 21
450.0
 31
0.0
  0
LINE
  5
7CD7
  8
4
 10
975.0
 20
450.0
 30
0.0
 11
2775.0
 21
450.0
 31
0.0
  0
LINE
  5
7CD8
  8
4
 10
975.0
 20
600.0
 30
0.0
 11
2775.0
 21
600.0
 31
0.0
  0
TEXT
  5
7CD9
  8
4
 10
1032.753121270352
 20
647.31453879991932
 30
0.0
 40
75.0
  1
機器名称
  0
TEXT
  5
7CDA
  8
4
 10
1029.3871590371959
 20
482.46773509801642
 30
0.0
 40
75.0
  1
機器型番
  0
TEXT
  5
7CDB
  8
4
 10
1766.5181182314971
 20
633.85765343635285
 30
0.0
 40
75.0
  1
ミツヤ軸流ファン
  0
TEXT
  5
7CDC
  8
4
 10
1779.9817433782209
 20
475.739376419915
 30
0.0
 40
75.0
  1
AP＃500-1
  0
TEXT
  5
7CDE
  8
4
 10
1243.6233997162919
 20
3575.1432619987731
 30
0.0
 40
80.999999999999986
  1
床置防振ベット
  0
TEXT
  5
7CDF
  8
4
 10
474.25138999416959
 20
3800.8214642989469
 30
0.0
 40
108.0
  1
電動機直動式横形軸流ファン
  0
LINE
  5
7CE0
  8
4
 10
375.0
 20
3704.1131313972069
 30
0.0
 11
2775.0
 21
3704.1131313972069
 31
0.0
  0
LINE
  5
7CE1
  8
4
 10
375.0
 20
4004.1131313972069
 30
0.0
 11
2775.0
 21
4004.1131313972069
 31
0.0
  0
LINE
  5
7CE2
  8
4
 10
975.0
 20
750.0
 30
0.0
 11
2775.0
 21
750.0
 31
0.0
  0
LINE
  5
7CE3
  8
4
 10
375.0
 20
4004.1131313972069
 30
0.0
 11
375.0
 21
3704.1131313972069
 31
0.0
  0
TEXT
  5
7CE4
  8
4
 10
441.3398345891037
 20
3573.4792163195152
 30
0.0
 40
80.999999999999986
  1
左回転後方吐出
  0
TEXT
  5
7CE5
  8
4
 10
2203.4543388739339
 20
4059.0916222429628
 30
0.0
 40
84.000000000000014
  1
No.
  0
TEXT
  5
7CE6
  8
4
 10
1966.944093900019
 20
3575.1432619987731
 30
0.0
 40
80.999999999999986
  1
縮尺：1/15
  0
LINE
  5
7CE7
  8
4
 10
2775.0
 20
4004.1131313972069
 30
0.0
 11
2775.0
 21
3704.1131313972069
 31
0.0
  0
LINE
  5
7CE8
  8
4
 10
3150.0
 20
4425.0
 30
0.0
 11
3150.0
 21
4425.0
 31
0.0
  0
LINE
  5
7CE9
  8
4
 10
2160.9261335397969
 20
4021.895374688102
 30
0.0
 11
2160.9261335397969
 21
4179.9783923246277
 31
0.0
  0
LINE
  5
7CEA
  8
4
 10
2160.9261335397969
 20
4179.9783923246277
 30
0.0
 11
2775.0
 21
4179.9783923246277
 31
0.0
  0
LINE
  5
7CEB
  8
4
 10
2775.0
 20
4179.9783923246277
 30
0.0
 11
2775.0
 21
4021.895374688102
 31
0.0
  0
LINE
  5
7CEC
  8
4
 10
2775.0
 20
4021.895374688102
 30
0.0
 11
2160.9261335397969
 21
4021.895374688102
 31
0.0
  0
LINE
  5
7CED
  8
4
 10
0.0
 20
0.0
 30
0.0
 11
0.0
 21
4425.0
 31
0.0
  0
LINE
  5
7CEE
  8
4
 10
0.0
 20
4425.0
 30
0.0
 11
3150.0
 21
4425.0
 31
0.0
  0
LINE
  5
7CEF
  8
4
 10
3150.0
 20
4425.0
 30
0.0
 11
3150.0
 21
0.0
 31
0.0
  0
LINE
  5
7CF0
  8
4
 10
3150.0
 20
0.0
 30
0.0
 11
0.0
 21
0.0
 31
0.0
  0
DIMENSION
  5
7D37
  8
3
  2
*D1
 10
1201.3684114425259
 20
2722.7918540112419
 30
0.0
 11
896.36841144252594
 21
2760.2918540112419
 31
0.0
 70
     0
 13
591.36841144252594
 23
2423.633870289053
 33
0.0
 14
1201.3684114425259
 24
2423.633870289053
 34
0.0
1001
ACAD
1000
DSTYLE
1002
{
1070
   287
1070
     3
1070
   287
1070
     3
1070
   287
1070
     3
1070
   287
1070
     3
1070
   287
1070
     3
1070
   287
1070
     3
1070
   287
1070
     3
1070
    40
1040
15.0
1070
   143
1040
0.039
1070
   172
1070
     1
1070
   271
1070
     0
1070
   279
1070
     0
1070
   288
1070
     1
1002
}
  0
DIMENSION
  5
7D6D
  8
3
  2
*D2
 10
368.35246047168431
 20
1893.633870289053
 30
0.0
 11
368.35246047168403
 21
2143.4954182523679
 31
0.0
 70
   128
 13
561.36841144252594
 23
2393.633870289053
 33
0.0
 14
561.36841144252594
 24
1893.633870289053
 34
0.0
 50
90.0
1001
ACAD
1000
DSTYLE
1002
{
1070
   287
1070
     3
1070
   287
1070
     3
1070
   287
1070
     3
1070
   287
1070
     3
1070
   287
1070
     3
1070
   287
1070
     3
1070
   287
1070
     3
1070
     3
1000
φ<>
1070
    40
1040
15.0
1070
   143
1040
0.039
1070
   172
1070
     1
1070
   271
1070
     0
1070
   279
1070
     0
1070
   288
1070
     1
1002
}
  0
DIMENSION
  5
7D91
  8
3
  2
*D3
 10
1943.5417471541259
 20
1813.633870289053
 30
0.0
 11
1906.041747154125
 21
1978.633870289053
 31
0.0
 70
     0
 13
2086.9074196966458
 23
2143.633870289053
 33
0.0
 14
2159.9074196966458
 24
1813.633870289053
 34
0.0
 50
90.0
1001
ACAD
1000
DSTYLE
1002
{
1070
   287
1070
     3
1070
   287
1070
     3
1070
   287
1070
     3
1070
   287
1070
     3
1070
   287
1070
     3
1070
   287
1070
     3
1070
   287
1070
     3
1070
    40
1040
15.0
1070
   143
1040
0.039
1070
   172
1070
     1
1070
   271
1070
     0
1070
   279
1070
     0
1070
   288
1070
     1
1002
}
  0
DIMENSION
  5
7DA1
  8
3
  2
*D4
 10
1943.5417471541259
 20
1777.6338702890521
 30
0.0
 11
1871.756032868411
 21
1809.5741125717941
 31
0.0
 70
   128
  1
(<>)
 13
2159.9074196966458
 23
1813.633870289053
 33
0.0
 14
2069.9074196966471
 24
1777.6338702890521
 34
0.0
 50
90.0
1001
ACAD
1000
DSTYLE
1002
{
1070
   288
1070
     1
1070
   172
1070
     1
1070
    75
1070
     1
1070
    40
1040
15.0
1070
   271
1070
     0
1070
     7
1000
_DOT
1070
   143
1040
0.039
1002
}
  0
DIMENSION
  5
7DB1
  8
3
  2
*D5
 10
1943.5417471541259
 20
1737.633870289053
 30
0.0
 11
1906.041747154125
 21
1626.2052988604819
 31
0.0
 70
     0
 13
2069.9074196966471
 23
1777.6338702890521
 33
0.0
 14
2071.468002326942
 24
1737.633870289053
 34
0.0
 50
90.0
1001
ACAD
1000
DSTYLE
1002
{
1070
   287
1070
     3
1070
   287
1070
     3
1070
   287
1070
     3
1070
   287
1070
     3
1070
   287
1070
     3
1070
   287
1070
     3
1070
   287
1070
     3
1070
    40
1040
15.0
1070
   143
1040
0.039
1070
   172
1070
     1
1070
   271
1070
     0
1070
   279
1070
     0
1070
   288
1070
     1
1070
     6
1000
DOT
1002
}
  0
DIMENSION
  5
7E29
  8
3
  2
*D7
 10
2664.9074196966458
 20
2713.3611131467442
 30
0.0
 11
2383.3421753032599
 21
2713.3611131467442
 31
0.0
 70
   128
 13
2104.9074196966471
 23
2143.633870289053
 33
0.0
 14
2664.9074196966458
 24
2143.633870289053
 34
0.0
1001
ACAD
1000
DSTYLE
1002
{
1070
   287
1070
     3
1070
   287
1070
     3
1070
   287
1070
     3
1070
   287
1070
     3
1070
   287
1070
     3
1070
   287
1070
     3
1070
   287
1070
     3
1070
    40
1040
15.0
1070
   143
1040
0.039
1070
   172
1070
     1
1070
   271
1070
     0
1070
   279
1070
     0
1070
   288
1070
     1
1002
}
  0
LINE
  5
7E53
  8
1
 10
1241.3684114425259
 20
1777.633870289053
 30
0.0
 11
1241.3684114425259
 21
1737.633870289053
 31
0.0
  0
LINE
  5
7E54
  8
1
 10
551.36841144252594
 20
1777.633870289053
 30
0.0
 11
551.36841144252594
 21
1737.633870289053
 31
0.0
  0
LINE
  5
7E56
  8
2
 10
569.36841144252594
 20
1755.7826863650459
 30
0.0
 11
569.36841144252594
 21
1719.0893503545881
 31
0.0
  0
LINE
  5
7E57
  8
2
 10
1223.3684114425259
 20
1720.30534813483
 30
0.0
 11
1223.3684114425259
 21
1755.7826863650459
 31
0.0
  0
DIMENSION
  5
7E64
  8
3
  2
*D8
 10
1241.3684114425259
 20
1590.3811284567209
 30
0.0
 11
865.41311034354828
 21
1590.3811284567209
 31
0.0
 70
   128
 13
551.36841144252594
 23
1737.633870289053
 33
0.0
 14
1241.3684114425259
 24
1737.633870289053
 34
0.0
1001
ACAD
1000
DSTYLE
1002
{
1070
   287
1070
     3
1070
   287
1070
     3
1070
   287
1070
     3
1070
   287
1070
     3
1070
   287
1070
     3
1070
   287
1070
     3
1070
   287
1070
     3
1070
    40
1040
15.0
1070
   143
1040
0.039
1070
   172
1070
     1
1070
   271
1070
     0
1070
   279
1070
     0
1070
   288
1070
     1
1002
}
  0
LINE
  5
7E86
  8
1
 10
2699.9074196966471
 20
1737.633870289053
 30
0.0
 11
2699.9074196966471
 21
1777.633870289053
 31
0.0
  0
LINE
  5
7E87
  8
1
 10
2069.9074196966471
 20
1737.633870289053
 30
0.0
 11
2069.9074196966471
 21
1777.633870289053
 31
0.0
  0
LINE
  5
7E88
  8
2
 10
2094.9074196966471
 20
1707.687574528969
 30
0.0
 11
2094.9074196966471
 21
1755.7826863650459
 31
0.0
  0
LINE
  5
7E89
  8
2
 10
2674.9074196966471
 20
1707.687574528969
 30
0.0
 11
2674.9074196966471
 21
1755.7826863650459
 31
0.0
  0
DIMENSION
  5
7EC9
  8
3
  2
*D9
 10
2699.9074196966471
 20
1588.4728522478119
 30
0.0
 11
2386.8015153935039
 21
1588.4728522478119
 31
0.0
 70
   128
 13
2069.9074196966471
 23
1737.633870289053
 33
0.0
 14
2699.9074196966471
 24
1737.633870289053
 34
0.0
1001
ACAD
1000
DSTYLE
1002
{
1070
   287
1070
     3
1070
   287
1070
     3
1070
   287
1070
     3
1070
   287
1070
     3
1070
   287
1070
     3
1070
   287
1070
     3
1070
   287
1070
     3
1070
    40
1040
15.0
1070
   143
1040
0.039
1070
   172
1070
     1
1070
   271
1070
     0
1070
   279
1070
     0
1070
   288
1070
     1
1002
}
  0
ENDSEC
  0
EOF
