  0
SECTION
  2
HEADER
  9
$ACADVER
  1
AC1009
  9
$INSBASE
 10
0.0
 20
0.0
 30
0.0
  9
$EXTMIN
 10
0.0
 20
0.0
 30
0.0
  9
$EXTMAX
 10
2520.0
 20
3540.0
 30
0.0
  9
$LIMMIN
 10
0.0
 20
0.0
  9
$LIMMAX
 10
297.0
 20
210.0
  9
$ORTHOMODE
 70
     0
  9
$REGENMODE
 70
     1
  9
$FILLMODE
 70
     0
  9
$QTEXTMODE
 70
     0
  9
$MIRRTEXT
 70
     1
  9
$DRAGMODE
 70
     2
  9
$LTSCALE
 40
100.0
  9
$OSMODE
 70
    37
  9
$ATTMODE
 70
     1
  9
$TEXTSIZE
 40
180.0
  9
$TRACEWID
 40
0.05
  9
$TEXTSTYLE
  7
STANDARD
  9
$CLAYER
  8
3
  9
$CELTYPE
  6
BYLAYER
  9
$CECOLOR
 62
   256
  9
$DIMSCALE
 40
12.0
  9
$DIMASZ
 40
2.0
  9
$DIMEXO
 40
0.5
  9
$DIMDLI
 40
10.0
  9
$DIMRND
 40
0.0
  9
$DIMDLE
 40
0.0
  9
$DIMEXE
 40
1.0
  9
$DIMTP
 40
1.0
  9
$DIMTM
 40
1.0
  9
$DIMTXT
 40
3.0
  9
$DIMCEN
 40
0.0
  9
$DIMTSZ
 40
0.0
  9
$DIMTOL
 70
     0
  9
$DIMLIM
 70
     0
  9
$DIMTIH
 70
     0
  9
$DIMTOH
 70
     0
  9
$DIMSE1
 70
     0
  9
$DIMSE2
 70
     0
  9
$DIMTAD
 70
     1
  9
$DIMZIN
 70
     8
  9
$DIMBLK
  1

  9
$DIMASO
 70
     1
  9
$DIMSHO
 70
     1
  9
$DIMPOST
  1

  9
$DIMAPOST
  1

  9
$DIMALT
 70
     0
  9
$DIMALTD
 70
     2
  9
$DIMALTF
 40
0.039
  9
$DIMLFAC
 40
1.0
  9
$DIMTOFL
 70
     1
  9
$DIMTVP
 40
0.0
  9
$DIMTIX
 70
     0
  9
$DIMSOXD
 70
     0
  9
$DIMSAH
 70
     1
  9
$DIMBLK1
  1
OPEN
  9
$DIMBLK2
  1
OPEN
  9
$DIMSTYLE
  2
IGA
  9
$DIMCLRD
 70
     0
  9
$DIMCLRE
 70
     0
  9
$DIMCLRT
 70
     0
  9
$DIMTFAC
 40
10.0
  9
$DIMGAP
 40
1.0
  9
$LUNITS
 70
     2
  9
$LUPREC
 70
     3
  9
$SKETCHINC
 40
0.1
  9
$FILLETRAD
 40
50.0
  9
$AUNITS
 70
     0
  9
$AUPREC
 70
     0
  9
$MENU
  1
acad
  9
$ELEVATION
 40
0.0
  9
$PELEVATION
 40
0.0
  9
$THICKNESS
 40
0.0
  9
$LIMCHECK
 70
     0
  9
$BLIPMODE
 70
     0
  9
$CHAMFERA
 40
0.5
  9
$CHAMFERB
 40
0.5
  9
$SKPOLY
 70
     0
  9
$TDCREATE
 40
2452832.4581446759
  9
$TDUPDATE
 40
2454953.6307568289
  9
$TDINDWG
 40
0.0307436227
  9
$TDUSRTIMER
 40
0.0307436227
  9
$USRTIMER
 70
     1
  9
$ANGBASE
 50
0.0
  9
$ANGDIR
 70
     0
  9
$PDMODE
 70
     0
  9
$PDSIZE
 40
0.0
  9
$PLINEWID
 40
0.0
  9
$COORDS
 70
     1
  9
$SPLFRAME
 70
     0
  9
$SPLINETYPE
 70
     6
  9
$SPLINESEGS
 70
     8
  9
$ATTDIA
 70
     0
  9
$ATTREQ
 70
     1
  9
$HANDLING
 70
 10241
  9
$HANDSEED
  5
85E9
  9
$SURFTAB1
 70
     6
  9
$SURFTAB2
 70
     6
  9
$SURFTYPE
 70
     6
  9
$SURFU
 70
     6
  9
$SURFV
 70
     6
  9
$UCSNAME
  2

  9
$UCSORG
 10
0.0
 20
0.0
 30
0.0
  9
$UCSXDIR
 10
1.0
 20
0.0
 30
0.0
  9
$UCSYDIR
 10
0.0
 20
1.0
 30
0.0
  9
$PUCSNAME
  2

  9
$PUCSORG
 10
0.0
 20
0.0
 30
0.0
  9
$PUCSXDIR
 10
1.0
 20
0.0
 30
0.0
  9
$PUCSYDIR
 10
0.0
 20
1.0
 30
0.0
  9
$USERI1
 70
     0
  9
$USERI2
 70
     0
  9
$USERI3
 70
     0
  9
$USERI4
 70
     0
  9
$USERI5
 70
     0
  9
$USERR1
 40
0.0
  9
$USERR2
 40
0.0
  9
$USERR3
 40
0.0
  9
$USERR4
 40
0.0
  9
$USERR5
 40
0.0
  9
$WORLDVIEW
 70
     1
  9
$SHADEDGE
 70
     3
  9
$SHADEDIF
 70
    70
  9
$TILEMODE
 70
     1
  9
$MAXACTVP
 70
    16
  9
$PLIMCHECK
 70
     0
  9
$PEXTMIN
 10
1.0000000000000000E+020
 20
1.0000000000000000E+020
 30
1.0000000000000000E+020
  9
$PEXTMAX
 10
-1.0000000000000000E+020
 20
-1.0000000000000000E+020
 30
-1.0000000000000000E+020
  9
$PLIMMIN
 10
0.0
 20
0.0
  9
$PLIMMAX
 10
12.0
 20
9.0
  9
$UNITMODE
 70
     0
  9
$VISRETAIN
 70
     0
  9
$PLINEGEN
 70
     0
  9
$PSLTSCALE
 70
     1
  0
ENDSEC
  0
SECTION
  2
TABLES
  0
TABLE
  2
VPORT
 70
     2
  0
VPORT
  2
*ACTIVE
 70
     0
 10
0.0
 20
0.0
 11
1.0
 21
1.0
 12
2351.9511601965742
 22
412.16845341389848
 13
0.0
 23
0.0
 14
10.0
 24
10.0
 15
10.0
 25
10.0
 16
0.0
 26
0.0
 36
1.0
 17
0.0
 27
0.0
 37
0.0
 40
1046.080197611825
 41
3.1666666666666661
 42
50.0
 43
0.0
 44
0.0
 50
0.0
 51
0.0
 71
     0
 72
   100
 73
     1
 74
     0
 75
     0
 76
     0
 77
     0
 78
     0
  0
ENDTAB
  0
TABLE
  2
LTYPE
 70
     2
  0
LTYPE
  2
CONTINUOUS
 70
     0
  3
Solid line
 72
    65
 73
     0
 40
0.0
  0
LTYPE
  2
CENTER
 70
     0
  3
____ _ ____ _ ____ _ ____ _ ____ _ ____ _ ____ 
 72
    65
 73
     4
 40
2.0
 49
1.25
 49
-0.25
 49
0.25
 49
-0.25
  0
ENDTAB
  0
TABLE
  2
LAYER
 70
     6
  0
LAYER
  2
0
 70
     0
 62
     7
  6
CONTINUOUS
  0
LAYER
  2
3
 70
     0
 62
     2
  6
CONTINUOUS
  0
LAYER
  2
2
 70
     0
 62
     3
  6
CENTER
  0
LAYER
  2
1
 70
     0
 62
     4
  6
CONTINUOUS
  0
LAYER
  2
4
 70
     0
 62
     7
  6
CONTINUOUS
  0
LAYER
  2
DEFPOINTS
 70
     0
 62
     7
  6
CONTINUOUS
  0
ENDTAB
  0
TABLE
  2
STYLE
 70
     1
  0
STYLE
  2
STANDARD
 70
     0
 40
0.0
 41
1.0
 50
0.0
 71
     0
 42
180.0
  3
simplex.shx
  4
extfont.shx
  0
ENDTAB
  0
TABLE
  2
VIEW
 70
     0
  0
ENDTAB
  0
TABLE
  2
UCS
 70
     0
  0
ENDTAB
  0
TABLE
  2
APPID
 70
     1
  0
APPID
  2
ACAD
 70
     0
  0
ENDTAB
  0
TABLE
  2
DIMSTYLE
 70
     1
  0
DIMSTYLE
  2
IGA
 70
     0
  3

  4

  5

  6
OPEN
  7
OPEN
 40
2.0
 41
2.0
 42
0.5
 43
10.0
 44
1.0
 45
0.0
 46
0.0
 47
1.0
 48
1.0
140
3.0
141
0.0
142
0.0
143
0.03937
144
1.0
145
0.0
146
10.0
147
1.0
 71
     0
 72
     0
 73
     0
 74
     0
 75
     0
 76
     0
 77
     1
 78
     8
170
     0
171
     2
172
     0
173
     1
174
     0
175
     0
176
     0
177
     0
178
     0
  0
ENDTAB
  0
ENDSEC
  0
SECTION
  2
BLOCKS
  0
BLOCK
  8
0
  2
$MODEL_SPACE
 70
     0
 10
0.0
 20
0.0
 30
0.0
  3
$MODEL_SPACE
  1

  0
ENDBLK
  5
1B
  8
0
  0
BLOCK
 67
     1
  8
0
  2
$PAPER_SPACE
 70
     0
 10
0.0
 20
0.0
 30
0.0
  3
$PAPER_SPACE
  1

  0
ENDBLK
  5
18
 67
     1
  8
0
  0
BLOCK
  8
0
  2
_OPEN
 70
     0
 10
0.0
 20
0.0
 30
0.0
  3
_OPEN
  1

  0
LINE
  5
7D39
  8
0
  6
BYBLOCK
 62
     0
 10
-1.0
 20
0.1666666666666666
 30
0.0
 11
0.0
 21
0.0
 31
0.0
  0
LINE
  5
7D3A
  8
0
  6
BYBLOCK
 62
     0
 10
0.0
 20
0.0
 30
0.0
 11
-1.0
 21
-0.1666666666666666
 31
0.0
  0
LINE
  5
7D3B
  8
0
  6
BYBLOCK
 62
     0
 10
0.0
 20
0.0
 30
0.0
 11
-1.0
 21
0.0
 31
0.0
  0
ENDBLK
  5
7D3C
  8
0
  0
BLOCK
  8
0
  2
*D1
 70
     1
 10
0.0
 20
0.0
 30
0.0
  3
*D1
  1

  0
LINE
  5
858E
  8
3
 62
     0
 10
428.90806281062709
 20
1325.1826641221769
 30
0.0
 11
428.90806281062709
 21
1195.57009013795
 31
0.0
  0
LINE
  5
858F
  8
3
 62
     0
 10
1118.9080628106269
 20
1325.1826641221769
 30
0.0
 11
1118.9080628106269
 21
1195.57009013795
 31
0.0
  0
LINE
  5
8590
  8
3
 62
     0
 10
452.90806281062709
 20
1207.57009013795
 30
0.0
 11
1094.9080628106269
 21
1207.57009013795
 31
0.0
  0
INSERT
  5
8591
  8
3
 62
     0
  2
_OPEN
 10
428.90806281062709
 20
1207.57009013795
 30
0.0
 41
24.0
 42
24.0
 43
24.0
 50
180.0
  0
INSERT
  5
8592
  8
3
 62
     0
  2
_OPEN
 10
1118.9080628106269
 20
1207.57009013795
 30
0.0
 41
24.0
 42
24.0
 43
24.0
  0
TEXT
  8
3
  40
36
  5
85E0
  62
0
  72
0
  71
0
 10
666.313
 20
1173.85
 30
0.000000
  1
690
  0
POINT
  5
8594
  8
DEFPOINTS
 62
     0
 10
428.90806281062709
 20
1331.1826641221769
 30
0.0
  0
POINT
  5
8595
  8
DEFPOINTS
 62
     0
 10
1118.9080628106269
 20
1331.1826641221769
 30
0.0
  0
POINT
  5
8596
  8
DEFPOINTS
 62
     0
 10
1118.9080628106269
 20
1207.57009013795
 30
0.0
  0
ENDBLK
  5
7D55
  8
0
  0
BLOCK
  8
0
  2
*D2
 70
     1
 10
0.0
 20
0.0
 30
0.0
  3
*D2
  1

  0
LINE
  5
8597
  8
3
 62
     0
 10
1538.3630619245121
 20
1325.1826641221769
 30
0.0
 11
1538.3630619245121
 21
1195.57009013795
 31
0.0
  0
LINE
  5
8598
  8
3
 62
     0
 10
2118.3630619245132
 20
1325.1826641221769
 30
0.0
 11
2118.3630619245132
 21
1195.57009013795
 31
0.0
  0
LINE
  5
8599
  8
3
 62
     0
 10
1562.363061924513
 20
1207.57009013795
 30
0.0
 11
2094.3630619245118
 21
1207.57009013795
 31
0.0
  0
INSERT
  5
859A
  8
3
 62
     0
  2
_OPEN
 10
1538.3630619245121
 20
1207.57009013795
 30
0.0
 41
24.0
 42
24.0
 43
24.0
 50
180.0
  0
INSERT
  5
859B
  8
3
 62
     0
  2
_OPEN
 10
2118.3630619245132
 20
1207.57009013795
 30
0.0
 41
24.0
 42
24.0
 43
24.0
  0
TEXT
  8
3
  40
36
  5
85E1
  62
0
  72
0
  71
0
 10
1752.26
 20
1173.85
 30
0.000000
  1
580
  0
POINT
  5
859D
  8
DEFPOINTS
 62
     0
 10
1538.3630619245121
 20
1331.1826641221769
 30
0.0
  0
POINT
  5
859E
  8
DEFPOINTS
 62
     0
 10
2118.3630619245132
 20
1331.1826641221769
 30
0.0
  0
POINT
  5
859F
  8
DEFPOINTS
 62
     0
 10
2118.3630619245132
 20
1207.57009013795
 30
0.0
  0
ENDBLK
  5
7D61
  8
0
  0
BLOCK
  8
0
  2
*D3
 70
     1
 10
0.0
 20
0.0
 30
0.0
  3
*D3
  1

  0
LINE
  5
85A0
  8
3
 62
     0
 10
1493.7662994897159
 20
1766.1826641221769
 30
0.0
 11
1426.1948484036041
 21
1766.1826641221769
 31
0.0
  0
LINE
  5
85A1
  8
3
 62
     0
 10
1622.3630619245121
 20
1466.1826641221769
 30
0.0
 11
1426.1948484036029
 21
1466.1826641221769
 31
0.0
  0
LINE
  5
85A2
  8
3
 62
     0
 10
1438.1948484036041
 20
1742.1826641221769
 30
0.0
 11
1438.1948484036041
 21
1490.1826641221769
 31
0.0
  0
INSERT
  5
85A3
  8
3
 62
     0
  2
_OPEN
 10
1438.1948484036041
 20
1766.1826641221769
 30
0.0
 41
24.0
 42
24.0
 43
24.0
 50
90.0
  0
INSERT
  5
85A4
  8
3
 62
     0
  2
_OPEN
 10
1438.1948484036041
 20
1466.1826641221769
 30
0.0
 41
24.0
 42
24.0
 43
24.0
 50
270.0
  0
TEXT
  8
3
  40
36
  5
85E2
  62
0
  72
0
  71
0
 10
1336.19
 20
1544.96
 30
0.000000
  1
300
  0
POINT
  5
85A6
  8
DEFPOINTS
 62
     0
 10
1499.7662994897159
 20
1766.1826641221769
 30
0.0
  0
POINT
  5
85A7
  8
DEFPOINTS
 62
     0
 10
1628.3630619245121
 20
1466.1826641221769
 30
0.0
  0
POINT
  5
85A8
  8
DEFPOINTS
 62
     0
 10
1438.1948484036041
 20
1466.1826641221769
 30
0.0
  0
ENDBLK
  5
7DBB
  8
0
  0
BLOCK
  8
0
  2
*D4
 70
     1
 10
0.0
 20
0.0
 30
0.0
  3
*D4
  1

  0
LINE
  5
7DF3
  8
0
  6
BYBLOCK
 62
     0
 10
1532.363061924513
 20
1371.1826641221769
 30
0.0
 11
1426.1948484036029
 21
1371.1826641221769
 31
0.0
  0
LINE
  5
7DF4
  8
0
  6
BYBLOCK
 62
     0
 10
1438.1948484036041
 20
1442.1826641221769
 30
0.0
 11
1438.1948484036041
 21
1395.1826641221769
 31
0.0
  0
TEXT
  5
7DF5
  8
3
 62
     0
 10
1392.766276975032
 20
1366.3969498364629
 30
0.0
 40
36.0
  1
(95)
 50
90.0
  0
INSERT
  5
7DF6
  8
0
  6
BYBLOCK
 62
     0
  2
_OPEN
 10
1438.1948484036041
 20
1466.1826641221769
 30
0.0
 41
24.0
 42
24.0
 43
24.0
 50
90.0
  0
INSERT
  5
7DF7
  8
0
  6
BYBLOCK
 62
     0
  2
_OPEN
 10
1438.1948484036041
 20
1371.1826641221769
 30
0.0
 41
24.0
 42
24.0
 43
24.0
 50
270.0
  0
POINT
  5
7DF8
  8
DEFPOINTS
  6
BYBLOCK
 62
     0
 10
1628.3630619245121
 20
1466.1826641221769
 30
0.0
  0
POINT
  5
7DF9
  8
DEFPOINTS
  6
BYBLOCK
 62
     0
 10
1538.363061924513
 20
1371.1826641221769
 30
0.0
  0
POINT
  5
7DFA
  8
DEFPOINTS
  6
BYBLOCK
 62
     0
 10
1438.1948484036041
 20
1371.1826641221769
 30
0.0
  0
ENDBLK
  5
7DFB
  8
0
  0
BLOCK
  8
0
  2
*D5
 70
     1
 10
0.0
 20
0.0
 30
0.0
  3
*D5
  1

  0
LINE
  5
85A9
  8
3
 62
     0
 10
1532.363061924513
 20
1371.1826641221769
 30
0.0
 11
1426.1948484036029
 21
1371.1826641221769
 31
0.0
  0
LINE
  5
85AA
  8
3
 62
     0
 10
1532.3630619245121
 20
1331.1826641221769
 30
0.0
 11
1426.1948484036029
 21
1331.1826641221769
 31
0.0
  0
LINE
  5
85AB
  8
3
 62
     0
 10
1438.1948484036041
 20
1395.1826641221769
 30
0.0
 11
1438.1948484036041
 21
1419.1826641221769
 31
0.0
  0
LINE
  5
85AC
  8
3
 62
     0
 10
1438.1948484036041
 20
1307.1826641221769
 30
0.0
 11
1438.1948484036041
 21
1200.8969498364629
 31
0.0
  0
LINE
  5
85AD
  8
3
 62
     0
 10
1438.1948484036041
 20
1371.1826641221769
 30
0.0
 11
1438.1948484036041
 21
1331.1826641221769
 31
0.0
  0
INSERT
  5
85AE
  8
3
 62
     0
  2
_OPEN
 10
1438.1948484036041
 20
1371.1826641221769
 30
0.0
 41
24.0
 42
24.0
 43
24.0
 50
270.0
  0
INSERT
  5
85AF
  8
3
 62
     0
  2
_OPEN
 10
1438.1948484036041
 20
1331.1826641221769
 30
0.0
 41
24.0
 42
24.0
 43
24.0
 50
90.0
  0
TEXT
  8
3
  40
36
  5
85E3
  62
0
  72
0
  71
0
 10
1336.19
 20
1178.32
 30
0.000000
  1
40
  0
POINT
  5
85B1
  8
DEFPOINTS
 62
     0
 10
1538.363061924513
 20
1371.1826641221769
 30
0.0
  0
POINT
  5
85B2
  8
DEFPOINTS
 62
     0
 10
1538.3630619245121
 20
1331.1826641221769
 30
0.0
  0
POINT
  5
85B3
  8
DEFPOINTS
 62
     0
 10
1438.1948484036041
 20
1331.1826641221769
 30
0.0
  0
ENDBLK
  5
7DE7
  8
0
  0
BLOCK
  8
0
  2
*D6
 70
     1
 10
0.0
 20
0.0
 30
0.0
  3
*D6
  1

  0
LINE
  5
85B4
  8
3
 62
     0
 10
1803.3630619245121
 20
2300.5314112824708
 30
0.0
 11
1426.1948484036029
 21
2300.5314112824708
 31
0.0
  0
LINE
  5
85B5
  8
3
 62
     0
 10
1438.1948484036041
 20
1790.1826641221769
 30
0.0
 11
1438.1948484036041
 21
2276.5314112824722
 31
0.0
  0
INSERT
  5
85B6
  8
3
 62
     0
  2
_OPEN
 10
1438.1948484036041
 20
1766.1826641221769
 30
0.0
 41
24.0
 42
24.0
 43
24.0
 50
270.0
  0
INSERT
  5
85B7
  8
3
 62
     0
  2
_OPEN
 10
1438.1948484036041
 20
2300.5314112824708
 30
0.0
 41
24.0
 42
24.0
 43
24.0
 50
90.0
  0
TEXT
  8
3
  40
36
  5
85E4
  62
0
  72
0
  71
0
 10
1336.19
 20
1969.64
 30
0.000000
  1
MAX.670
  0
POINT
  5
85B9
  8
DEFPOINTS
 62
     0
 10
1499.7662994897159
 20
1766.1826641221769
 30
0.0
  0
POINT
  5
85BA
  8
DEFPOINTS
 62
     0
 10
1809.3630619245121
 20
2300.5314112824708
 30
0.0
  0
POINT
  5
85BB
  8
DEFPOINTS
 62
     0
 10
1438.1948484036041
 20
2300.5314112824708
 30
0.0
  0
ENDBLK
  5
7E11
  8
0
  0
BLOCK
  8
0
  2
*D7
 70
     1
 10
0.0
 20
0.0
 30
0.0
  3
*D7
  1

  0
LINE
  5
85BC
  8
3
 62
     0
 10
1578.363061924513
 20
1772.1826641221769
 30
0.0
 11
1578.363061924513
 21
2408.9787861518371
 31
0.0
  0
LINE
  5
85BD
  8
3
 62
     0
 10
2078.3630619245118
 20
1772.1826641221769
 30
0.0
 11
2078.3630619245118
 21
2408.9787861518371
 31
0.0
  0
LINE
  5
85BE
  8
3
 62
     0
 10
1602.363061924513
 20
2396.9787861518371
 30
0.0
 11
2054.3630619245132
 21
2396.9787861518371
 31
0.0
  0
INSERT
  5
85BF
  8
3
 62
     0
  2
_OPEN
 10
1578.363061924513
 20
2396.9787861518371
 30
0.0
 41
24.0
 42
24.0
 43
24.0
 50
180.0
  0
INSERT
  5
85C0
  8
3
 62
     0
  2
_OPEN
 10
2078.3630619245118
 20
2396.9787861518371
 30
0.0
 41
24.0
 42
24.0
 43
24.0
  0
TEXT
  8
3
  40
36
  5
85E5
  62
0
  72
0
  71
0
 10
1756.14
 20
2363.26
 30
0.000000
  1
500
  0
POINT
  5
85C2
  8
DEFPOINTS
 62
     0
 10
1578.363061924513
 20
1766.1826641221769
 30
0.0
  0
POINT
  5
85C3
  8
DEFPOINTS
 62
     0
 10
2078.3630619245118
 20
1766.1826641221769
 30
0.0
  0
POINT
  5
85C4
  8
DEFPOINTS
 62
     0
 10
2078.3630619245118
 20
2396.9787861518371
 30
0.0
  0
ENDBLK
  5
7E1D
  8
0
  0
BLOCK
  8
0
  2
*D8
 70
     1
 10
0.0
 20
0.0
 30
0.0
  3
*D8
  1

  0
LINE
  5
85C5
  8
3
 62
     0
 10
468.90806281062709
 20
2022.1826641221769
 30
0.0
 11
468.90806281062709
 21
2408.6873005793318
 31
0.0
  0
LINE
  5
85C6
  8
3
 62
     0
 10
1078.9080628106269
 20
2022.1826641221769
 30
0.0
 11
1078.9080628106269
 21
2408.6873005793318
 31
0.0
  0
LINE
  5
85C7
  8
3
 62
     0
 10
492.90806281062709
 20
2396.6873005793318
 30
0.0
 11
1054.9080628106269
 21
2396.6873005793318
 31
0.0
  0
INSERT
  5
85C8
  8
3
 62
     0
  2
_OPEN
 10
468.90806281062709
 20
2396.6873005793318
 30
0.0
 41
24.0
 42
24.0
 43
24.0
 50
180.0
  0
INSERT
  5
85C9
  8
3
 62
     0
  2
_OPEN
 10
1078.9080628106269
 20
2396.6873005793318
 30
0.0
 41
24.0
 42
24.0
 43
24.0
  0
TEXT
  8
3
  40
36
  5
85E6
  62
0
  72
0
  71
0
 10
703.920
 20
2362.97
 30
0.000000
  1
610
  0
POINT
  5
85CB
  8
DEFPOINTS
 62
     0
 10
468.90806281062709
 20
2016.1826641221769
 30
0.0
  0
POINT
  5
85CC
  8
DEFPOINTS
 62
     0
 10
1078.9080628106269
 20
2016.1826641221769
 30
0.0
  0
POINT
  5
85CD
  8
DEFPOINTS
 62
     0
 10
1078.9080628106269
 20
2396.6873005793318
 30
0.0
  0
ENDBLK
  5
7E6B
  8
0
  0
BLOCK
  8
0
  2
*D9
 70
     1
 10
0.0
 20
0.0
 30
0.0
  3
*D9
  1

  0
LINE
  5
85CE
  8
3
 62
     0
 10
437.90806281062709
 20
1991.1826641221769
 30
0.0
 11
348.87922330749308
 21
1991.1826641221769
 31
0.0
  0
LINE
  5
85CF
  8
3
 62
     0
 10
437.90806281062709
 20
1541.1826641221769
 30
0.0
 11
348.87922330749302
 21
1541.1826641221769
 31
0.0
  0
LINE
  5
85D0
  8
3
 62
     0
 10
360.87922330749308
 20
1967.1826641221769
 30
0.0
 11
360.87922330749302
 21
1565.1826641221769
 31
0.0
  0
INSERT
  5
85D1
  8
3
 62
     0
  2
_OPEN
 10
360.87922330749308
 20
1991.1826641221769
 30
0.0
 41
24.0
 42
24.0
 43
24.0
 50
90.0
  0
INSERT
  5
85D2
  8
3
 62
     0
  2
_OPEN
 10
360.87922330749302
 20
1541.1826641221769
 30
0.0
 41
24.0
 42
24.0
 43
24.0
 50
270.0
  0
TEXT
  8
3
  40
36
  5
85E7
  62
0
  72
0
  71
0
 10
258.879
 20
1699.66
 30
0.000000
  1
φ450
  0
POINT
  5
85D4
  8
DEFPOINTS
 62
     0
 10
443.90806281062709
 20
1991.1826641221769
 30
0.0
  0
POINT
  5
85D5
  8
DEFPOINTS
 62
     0
 10
443.90806281062709
 20
1541.1826641221769
 30
0.0
  0
POINT
  5
85D6
  8
DEFPOINTS
 62
     0
 10
360.87922330749302
 20
1541.1826641221769
 30
0.0
  0
ENDBLK
  5
7E5B
  8
0
  0
BLOCK
  8
0
  2
*D10
 70
     1
 10
0.0
 20
0.0
 30
0.0
  3
*D10
  1

  0
LINE
  5
85D7
  8
3
 62
     0
 10
1109.9080628106269
 20
1991.1826641221769
 30
0.0
 11
1220.7210890945901
 21
1991.1826641221769
 31
0.0
  0
LINE
  5
85D8
  8
3
 62
     0
 10
1109.9080628106269
 20
1541.1826641221769
 30
0.0
 11
1220.7210890945901
 21
1541.1826641221769
 31
0.0
  0
LINE
  5
85D9
  8
3
 62
     0
 10
1208.7210890945901
 20
1967.1826641221769
 30
0.0
 11
1208.7210890945901
 21
1565.1826641221769
 31
0.0
  0
INSERT
  5
85DA
  8
3
 62
     0
  2
_OPEN
 10
1208.7210890945901
 20
1991.1826641221769
 30
0.0
 41
24.0
 42
24.0
 43
24.0
 50
90.0
  0
INSERT
  5
85DB
  8
3
 62
     0
  2
_OPEN
 10
1208.7210890945901
 20
1541.1826641221769
 30
0.0
 41
24.0
 42
24.0
 43
24.0
 50
270.0
  0
TEXT
  8
3
  40
36
  5
85E8
  62
0
  72
0
  71
0
 10
1106.72
 20
1707.91
 30
0.000000
  1
φ450
  0
POINT
  5
85DD
  8
DEFPOINTS
 62
     0
 10
1103.9080628106269
 20
1991.1826641221769
 30
0.0
  0
POINT
  5
85DE
  8
DEFPOINTS
 62
     0
 10
1103.9080628106269
 20
1541.1826641221769
 30
0.0
  0
POINT
  5
85DF
  8
DEFPOINTS
 62
     0
 10
1208.7210890945901
 20
1541.1826641221769
 30
0.0
  0
ENDBLK
  5
7E50
  8
0
  0
ENDSEC
  0
SECTION
  2
ENTITIES
  0
LINE
  5
7B90
  8
1
 10
2118.3630619245132
 20
1331.1826641221769
 30
0.0
 11
1538.3630619245121
 21
1331.1826641221769
 31
0.0
  0
CIRCLE
  5
7B91
  8
1
 10
1828.3630619245121
 20
1766.1826641221769
 30
0.0
 40
250.0
  0
LINE
  5
7B92
  8
2
 10
1499.7662994897159
 20
1766.1826641221769
 30
0.0
 11
2155.4149915283751
 21
1766.1826641221769
 31
0.0
  0
LINE
  5
7B93
  8
1
 10
1118.9080628106269
 20
1371.1826641221769
 30
0.0
 11
428.90806281062709
 21
1371.1826641221769
 31
0.0
  0
LINE
  5
7B94
  8
1
 10
1118.9080628106269
 20
1331.1826641221769
 30
0.0
 11
428.90806281062709
 21
1331.1826641221769
 31
0.0
  0
LINE
  5
7B95
  8
2
 10
988.90806281062703
 20
2164.6670112824709
 30
0.0
 11
582.90806281062714
 21
2164.6670112824718
 31
0.0
  0
LINE
  5
7B96
  8
1
 10
1048.9080628106269
 20
1954.667011282472
 30
0.0
 11
573.90806281062714
 21
1954.667011282472
 31
0.0
  0
LINE
  5
7B97
  8
1
 10
1048.9080628106269
 20
1891.8209942607141
 30
0.0
 11
573.90806281062714
 21
1891.8209942607141
 31
0.0
  0
LINE
  5
7B98
  8
1
 10
1103.9080628106269
 20
1541.1826641221769
 30
0.0
 11
443.90806281062709
 21
1541.1826641221769
 31
0.0
  0
LINE
  5
7B99
  8
1
 10
1103.9080628106269
 20
1991.1826641221769
 30
0.0
 11
443.90806281062709
 21
1991.1826641221769
 31
0.0
  0
LINE
  5
7B9A
  8
2
 10
1123.9080628106269
 20
1766.1826641221769
 30
0.0
 11
423.90806281062709
 21
1766.1826641221769
 31
0.0
  0
LINE
  5
7B9B
  8
1
 10
468.90806281062709
 20
2016.1826641221769
 30
0.0
 11
468.90806281062709
 21
1516.1826641221769
 31
0.0
  0
LINE
  5
7B9C
  8
1
 10
472.1080628106269
 20
2016.1826641221769
 30
0.0
 11
472.1080628106269
 21
1516.1826641221769
 31
0.0
  0
LINE
  5
7B9D
  8
1
 10
443.90806281062709
 20
1992.1826641221769
 30
0.0
 11
443.90806281062709
 21
1540.1826641221769
 31
0.0
  0
LINE
  5
7B9E
  8
1
 10
465.90806281062709
 20
2014.1826641221769
 30
0.0
 11
465.90806281062709
 21
1518.1826641221769
 31
0.0
  0
LINE
  5
7B9F
  8
1
 10
472.10806281062781
 20
1611.174893824417
 30
0.0
 11
472.10806281062781
 21
1466.1826641221769
 31
0.0
  0
LINE
  5
7BA0
  8
1
 10
476.60806281062781
 20
1611.174893824417
 30
0.0
 11
476.60806281062781
 21
1470.6826641221769
 31
0.0
  0
ARC
  5
7BA1
  8
1
 10
461.90806281062709
 20
1534.1826641221769
 30
0.0
 40
4.0
 50
0.0
 51
90.0
  0
LINE
  5
7BA2
  8
1
 10
532.10806281062787
 20
1466.1826641221769
 30
0.0
 11
472.10806281062781
 21
1466.1826641221769
 31
0.0
  0
LINE
  5
7BA3
  8
1
 10
532.10806281062787
 20
1470.6826641221769
 30
0.0
 11
476.60806281062781
 21
1470.6826641221769
 31
0.0
  0
LINE
  5
7BA4
  8
1
 10
481.90806281062709
 20
1371.1826641221769
 30
0.0
 11
528.90806281062714
 21
1371.1826641221769
 31
0.0
  0
LINE
  5
7BA5
  8
1
 10
492.10806281062702
 20
1526.1826641221769
 30
0.0
 11
445.90806281062709
 21
1526.1826641221769
 31
0.0
  0
LINE
  5
7BA6
  8
1
 10
468.90806281062709
 20
1516.1826641221769
 30
0.0
 11
472.1080628106269
 21
1516.1826641221769
 31
0.0
  0
ARC
  5
7BA7
  8
1
 10
467.90806281062709
 20
1518.1826641221769
 30
0.0
 40
2.0
 50
180.0
 51
270.0
  0
LINE
  5
7BA8
  8
1
 10
468.90806281062709
 20
1516.1826641221769
 30
0.0
 11
467.90806281062709
 21
1516.1826641221769
 31
0.0
  0
LINE
  5
7BA9
  8
1
 10
532.10806281062787
 20
1470.6826641221769
 30
0.0
 11
532.10806281062787
 21
1466.1826641221769
 31
0.0
  0
LINE
  5
7BAA
  8
2
 10
503.90806281062709
 20
1366.9846446444731
 30
0.0
 11
503.90806281062709
 21
1474.895537072289
 31
0.0
  0
LINE
  5
7BAB
  8
1
 10
461.90806281062709
 20
1538.1826641221769
 30
0.0
 11
445.90806281062709
 21
1538.1826641221769
 31
0.0
  0
ARC
  5
7BAC
  8
1
 10
445.90806281062709
 20
1540.1826641221769
 30
0.0
 40
2.0
 50
180.0
 51
270.0
  0
LINE
  5
7BAD
  8
1
 10
472.10806281062781
 20
1601.1826641221769
 30
0.0
 11
476.60806281062781
 21
1601.1826641221769
 31
0.0
  0
LINE
  5
7BAE
  8
1
 10
472.10806281062781
 20
1611.174893824417
 30
0.0
 11
476.60806281062781
 21
1611.174893824417
 31
0.0
  0
LINE
  5
7BAF
  8
1
 10
573.90806281062714
 20
1954.667011282472
 30
0.0
 11
573.90806281062714
 21
1891.8209942607141
 31
0.0
  0
LINE
  5
7BB0
  8
1
 10
492.10806281062702
 20
2006.1826641221769
 30
0.0
 11
445.90806281062709
 21
2006.1826641221769
 31
0.0
  0
LINE
  5
7BB1
  8
1
 10
461.90806281062709
 20
1994.1826641221769
 30
0.0
 11
445.90806281062709
 21
1994.1826641221769
 31
0.0
  0
ARC
  5
7BB2
  8
1
 10
445.90806281062709
 20
1992.1826641221769
 30
0.0
 40
2.0
 50
90.0
 51
180.0
  0
ARC
  5
7BB3
  8
1
 10
461.90806281062709
 20
1998.1826641221769
 30
0.0
 40
4.0
 50
270.0
 51
0.0
  0
LINE
  5
7BB4
  8
1
 10
468.90806281062709
 20
2016.1826641221769
 30
0.0
 11
472.1080628106269
 21
2016.1826641221769
 31
0.0
  0
LINE
  5
7BB5
  8
1
 10
468.90806281062709
 20
2016.1826641221769
 30
0.0
 11
467.90806281062709
 21
2016.1826641221769
 31
0.0
  0
ARC
  5
7BB6
  8
1
 10
467.90806281062709
 20
2014.1826641221769
 30
0.0
 40
2.0
 50
90.0
 51
180.0
  0
LINE
  5
7BB7
  8
1
 10
1081.9080628106269
 20
2014.1826641221769
 30
0.0
 11
1081.9080628106269
 21
1518.1826641221769
 31
0.0
  0
LINE
  5
7BB8
  8
1
 10
1103.9080628106269
 20
1992.1826641221769
 30
0.0
 11
1103.9080628106269
 21
1540.1826641221769
 31
0.0
  0
LINE
  5
7BB9
  8
1
 10
1075.7080628106271
 20
2016.1826641221769
 30
0.0
 11
1075.7080628106271
 21
1516.1826641221769
 31
0.0
  0
LINE
  5
7BBA
  8
1
 10
1078.9080628106269
 20
2016.1826641221769
 30
0.0
 11
1078.9080628106269
 21
1516.1826641221769
 31
0.0
  0
LINE
  5
7BBB
  8
1
 10
1075.7080628106271
 20
1611.174893824417
 30
0.0
 11
1075.708062810628
 21
1466.1826641221769
 31
0.0
  0
LINE
  5
7BBC
  8
1
 10
1071.2080628106271
 20
1611.174893824417
 30
0.0
 11
1071.2080628106271
 21
1470.6826641221769
 31
0.0
  0
ARC
  5
7BBD
  8
1
 10
1085.9080628106269
 20
1534.1826641221769
 30
0.0
 40
4.0
 50
90.0
 51
180.0
  0
LINE
  5
7BBE
  8
1
 10
1015.708062810628
 20
1466.1826641221769
 30
0.0
 11
1075.708062810628
 21
1466.1826641221769
 31
0.0
  0
LINE
  5
7BBF
  8
1
 10
1101.9080628106269
 20
1526.1826641221769
 30
0.0
 11
1055.708062810626
 21
1526.1826641221769
 31
0.0
  0
LINE
  5
7BC0
  8
1
 10
1015.708062810627
 20
1470.6826641221769
 30
0.0
 11
1015.708062810627
 21
1466.1826641221769
 31
0.0
  0
LINE
  5
7BC1
  8
2
 10
1043.9080628106269
 20
1365.9112297412701
 30
0.0
 11
1043.9080628106269
 21
1476.1569367365171
 31
0.0
  0
LINE
  5
7BC2
  8
1
 10
1015.708062810627
 20
1470.6826641221769
 30
0.0
 11
1071.2080628106271
 21
1470.6826641221769
 31
0.0
  0
LINE
  5
7BC3
  8
1
 10
1078.9080628106269
 20
1516.1826641221769
 30
0.0
 11
1079.9080628106269
 21
1516.1826641221769
 31
0.0
  0
ARC
  5
7BC4
  8
1
 10
1079.9080628106269
 20
1518.1826641221769
 30
0.0
 40
2.0
 50
270.0
 51
0.0
  0
LINE
  5
7BC5
  8
1
 10
1078.9080628106269
 20
1516.1826641221769
 30
0.0
 11
1075.7080628106271
 21
1516.1826641221769
 31
0.0
  0
LINE
  5
7BC6
  8
1
 10
1075.7080628106271
 20
1611.174893824417
 30
0.0
 11
1071.2080628106271
 21
1611.174893824417
 31
0.0
  0
LINE
  5
7BC7
  8
1
 10
1075.7080628106271
 20
1601.1826641221769
 30
0.0
 11
1071.2080628106271
 21
1601.1826641221769
 31
0.0
  0
LINE
  5
7BC8
  8
1
 10
1085.9080628106269
 20
1538.1826641221769
 30
0.0
 11
1101.9080628106269
 21
1538.1826641221769
 31
0.0
  0
ARC
  5
7BC9
  8
1
 10
1101.9080628106269
 20
1540.1826641221769
 30
0.0
 40
2.0
 50
270.0
 51
0.0
  0
LINE
  5
7BCA
  8
1
 10
1008.908062810627
 20
2318.064789397044
 30
0.0
 11
1008.908062810627
 21
1958.0647893970449
 31
0.0
  0
LINE
  5
7BCB
  8
1
 10
908.90806281062714
 20
2318.064789397044
 30
0.0
 11
908.90806281062714
 21
1958.0647893970449
 31
0.0
  0
LINE
  5
7BCC
  8
1
 10
973.90806281062714
 20
2239.6670112824718
 30
0.0
 11
973.90806281062714
 21
1716.1826641221769
 31
0.0
  0
LINE
  5
7BCD
  8
1
 10
923.90806281062657
 20
2239.6670112824718
 30
0.0
 11
923.90806281062714
 21
1716.1826641221769
 31
0.0
  0
LINE
  5
7BCE
  8
2
 10
688.90806281062714
 20
2079.6670112824718
 30
0.0
 11
688.90806281062714
 21
2264.6670112824718
 31
0.0
  0
LINE
  5
7BCF
  8
2
 10
862.90806281062714
 20
2114.6670112824718
 30
0.0
 11
862.90806281062714
 21
2264.6670112824718
 31
0.0
  0
LINE
  5
7BD0
  8
1
 10
827.40806281062714
 20
2134.4343112824708
 30
0.0
 11
827.40806281062714
 21
2225.655411282472
 31
0.0
  0
LINE
  5
7BD1
  8
1
 10
822.40806281062714
 20
2224.054711282472
 30
0.0
 11
822.40806281062714
 21
2134.0924112824709
 31
0.0
  0
LINE
  5
7BD2
  8
2
 10
775.90806281062714
 20
2323.6670112824709
 30
0.0
 11
775.90806281062714
 21
2044.6670112824711
 31
0.0
  0
LINE
  5
7BD3
  8
1
 10
897.90806281062714
 20
2264.6670112824718
 30
0.0
 11
897.90806281062714
 21
2079.6670112824718
 31
0.0
  0
LINE
  5
7BD4
  8
1
 10
724.40806281062714
 20
2134.4343112824708
 30
0.0
 11
724.40806281062714
 21
2225.655411282472
 31
0.0
  0
LINE
  5
7BD5
  8
1
 10
729.40806281062714
 20
2224.054711282472
 30
0.0
 11
729.40806281062714
 21
2134.0924112824709
 31
0.0
  0
LINE
  5
7BD6
  8
1
 10
602.90806281062714
 20
2079.6670112824709
 30
0.0
 11
602.90806281062714
 21
2264.6670112824718
 31
0.0
  0
LINE
  5
7BD7
  8
1
 10
948.90806281062714
 20
2104.6670112824709
 30
0.0
 11
1048.9080628106269
 21
1954.667011282472
 31
0.0
  0
LINE
  5
7BD8
  8
2
 10
858.90806281062714
 20
2130.6670112824718
 30
0.0
 11
858.90806281062714
 21
1938.667011282472
 31
0.0
  0
LINE
  5
7BD9
  8
2
 10
638.90806281062714
 20
2130.6670112824718
 30
0.0
 11
638.90806281062714
 21
1938.667011282472
 31
0.0
  0
LINE
  5
7BDA
  8
1
 10
973.90806281062714
 20
1716.1826641221769
 30
0.0
 11
923.90806281062714
 21
1716.1826641221769
 31
0.0
  0
LINE
  5
7BDB
  8
1
 10
973.90806281062714
 20
1816.1826641221769
 30
0.0
 11
923.90806281062714
 21
1816.1826641221769
 31
0.0
  0
LINE
  5
7BDC
  8
1
 10
892.90806281062714
 20
2058.6670112824709
 30
0.0
 11
604.90806281062714
 21
2058.6670112824709
 31
0.0
  0
LINE
  5
7BDD
  8
1
 10
898.90806281062714
 20
2064.6670112824709
 30
0.0
 11
598.90806281062714
 21
2064.6670112824709
 31
0.0
  0
ARC
  5
7BDE
  8
1
 10
785.60526281062675
 20
2131.0924112824709
 30
0.0
 40
3.0
 50
221.76049999999989
 51
270.0
  0
LINE
  5
7BDF
  8
1
 10
781.72326281062715
 20
2128.0924112824709
 30
0.0
 11
816.40806281062714
 21
2128.0924112824709
 31
0.0
  0
ARC
  5
7BE0
  8
1
 10
786.24396281062718
 20
2103.4077112824721
 30
0.0
 40
5.0
 50
90.0
 51
183.72210000000001
  0
ARC
  5
7BE1
  8
1
 10
790.41076281062715
 20
2085.5703112824708
 30
0.0
 40
8.0
 50
183.7226
 51
269.25599999999991
  0
LINE
  5
7BE2
  8
1
 10
736.40806281062714
 20
2122.4343112824708
 30
0.0
 11
815.40806281062714
 21
2122.4343112824708
 31
0.0
  0
LINE
  5
7BE3
  8
1
 10
736.40806281062714
 20
2125.520511282471
 30
0.0
 11
815.40806281062714
 21
2125.520511282471
 31
0.0
  0
LINE
  5
7BE4
  8
1
 10
652.76446927117786
 20
2064.6670112824709
 30
0.0
 11
652.76446927117786
 21
2076.738808052196
 31
0.0
  0
LINE
  5
7BE5
  8
1
 10
645.8362660409025
 20
2076.738808052196
 30
0.0
 11
645.8362660409025
 21
2064.6670112824709
 31
0.0
  0
LINE
  5
7BE6
  8
1
 10
631.97985958035179
 20
2076.738808052196
 30
0.0
 11
631.97985958035179
 21
2064.6670112824709
 31
0.0
  0
LINE
  5
7BE7
  8
1
 10
625.05165635007597
 20
2064.6670112824709
 30
0.0
 11
625.05165635007597
 21
2076.738808052196
 31
0.0
  0
LINE
  5
7BE8
  8
1
 10
691.90806281062714
 20
2064.6670112824709
 30
0.0
 11
691.90806281062714
 21
2074.692911282471
 31
0.0
  0
LINE
  5
7BE9
  8
1
 10
705.90806281062714
 20
2079.2244112824719
 30
0.0
 11
705.90806281062714
 21
2061.8526112824711
 31
0.0
  0
LINE
  5
7BEA
  8
1
 10
646.90806281062714
 20
2045.667011282472
 30
0.0
 11
646.90806281062714
 21
1954.667011282472
 31
0.0
  0
LINE
  5
7BEB
  8
1
 10
630.90806281062714
 20
2045.6670112824711
 30
0.0
 11
630.90806281062714
 21
1954.667011282472
 31
0.0
  0
ARC
  5
7BEC
  8
1
 10
638.90806281062714
 20
2071.9875193581588
 30
0.0
 40
26.32050807568676
 50
254.73851957513861
 51
285.26148042486119
  0
LINE
  5
7BED
  8
1
 10
649.30036765604063
 20
2045.6670112824711
 30
0.0
 11
628.51575796521365
 21
2045.6670112824711
 31
0.0
  0
LINE
  5
7BEE
  8
1
 10
625.05165635007597
 20
2058.6670112824709
 30
0.0
 11
625.05165635007597
 21
2046.5952145127469
 31
0.0
  0
ARC
  5
7BEF
  8
1
 10
628.51575796521365
 20
2052.5952145127471
 30
0.0
 40
6.9282032302754892
 50
239.9999999999996
 51
299.99999999999989
  0
LINE
  5
7BF0
  8
1
 10
631.97985958035179
 20
2046.5952145127469
 30
0.0
 11
631.97985958035179
 21
2058.6670112824709
 31
0.0
  0
LINE
  5
7BF1
  8
1
 10
604.90806281062714
 20
2029.6670112824711
 30
0.0
 11
598.90806281062714
 21
2029.6670112824711
 31
0.0
  0
LINE
  5
7BF2
  8
1
 10
604.90806281062714
 20
2058.6670112824709
 30
0.0
 11
604.90806281062714
 21
2029.6670112824711
 31
0.0
  0
LINE
  5
7BF3
  8
1
 10
598.90806281062714
 20
2064.6670112824709
 30
0.0
 11
598.90806281062714
 21
2029.6670112824711
 31
0.0
  0
ARC
  5
7BF4
  8
1
 10
649.30036765604063
 20
2052.5952145127471
 30
0.0
 40
6.9282032302754892
 50
240.00000000000011
 51
300.00000000000028
  0
LINE
  5
7BF5
  8
1
 10
645.8362660409025
 20
2046.5952145127469
 30
0.0
 11
645.8362660409025
 21
2058.6670112824709
 31
0.0
  0
LINE
  5
7BF6
  8
1
 10
652.76446927117786
 20
2058.6670112824709
 30
0.0
 11
652.76446927117786
 21
2046.5952145127469
 31
0.0
  0
LINE
  5
7BF7
  8
1
 10
646.90806281062714
 20
2079.6670112824709
 30
0.0
 11
696.90806281062714
 21
2079.6670112824709
 31
0.0
  0
LINE
  5
7BF8
  8
1
 10
630.90806281062714
 20
2114.6670112824718
 30
0.0
 11
646.90806281062714
 21
2114.6670112824718
 31
0.0
  0
ARC
  5
7BF9
  8
1
 10
638.90806281062714
 20
2051.3465032067852
 30
0.0
 40
26.32050807568676
 50
74.738519575138611
 51
105.2614804248612
  0
LINE
  5
7BFA
  8
1
 10
628.51575796521365
 20
2077.6670112824709
 30
0.0
 11
649.30036765604018
 21
2077.6670112824718
 31
0.0
  0
LINE
  5
7BFB
  8
1
 10
630.90806281062714
 20
2114.6670112824718
 30
0.0
 11
630.90806281062714
 21
2077.6670112824718
 31
0.0
  0
ARC
  5
7BFC
  8
1
 10
628.51575796521365
 20
2070.738808052196
 30
0.0
 40
6.9282032302754892
 50
60.000000000000142
 51
120.0000000000003
  0
LINE
  5
7BFD
  8
1
 10
602.90806281062714
 20
2079.6670112824709
 30
0.0
 11
630.90806281062714
 21
2079.6670112824709
 31
0.0
  0
LINE
  5
7BFE
  8
1
 10
646.90806281062714
 20
2114.6670112824718
 30
0.0
 11
646.90806281062714
 21
2077.6670112824718
 31
0.0
  0
ARC
  5
7BFF
  8
1
 10
649.30036765604063
 20
2070.738808052196
 30
0.0
 40
6.9282032302754892
 50
59.999999999999623
 51
119.9999999999998
  0
LINE
  5
7C00
  8
1
 10
693.88206281062685
 20
2076.6927112824719
 30
0.0
 11
761.509162810627
 21
2077.5710112824722
 31
0.0
  0
LINE
  5
7C01
  8
1
 10
735.40806281062714
 20
2128.0924112824709
 30
0.0
 11
770.16756281062681
 21
2128.0924112824709
 31
0.0
  0
ARC
  5
7C02
  8
1
 10
735.40806281062714
 20
2134.0924112824709
 30
0.0
 40
6.0
 50
180.0
 51
270.0
  0
ARC
  5
7C03
  8
1
 10
736.40806281062714
 20
2137.5205112824719
 30
0.0
 40
12.0
 50
180.0
 51
270.0
  0
ARC
  5
7C04
  8
1
 10
736.40806281062714
 20
2134.4343112824708
 30
0.0
 40
12.0
 50
180.0
 51
270.0
  0
ARC
  5
7C05
  8
1
 10
694.90806281062714
 20
2090.6150112824712
 30
0.0
 40
2.0
 50
359.99829999999992
 51
90.0
  0
ARC
  5
7C06
  8
1
 10
693.90806281062714
 20
2074.6928112824712
 30
0.0
 40
2.0
 50
90.744900000000001
 51
179.99819999999991
  0
LINE
  5
7C07
  8
1
 10
696.90806281062714
 20
2076.7668112824708
 30
0.0
 11
696.90806281062714
 21
2090.6150112824712
 31
0.0
  0
ARC
  5
7C08
  8
1
 10
781.64856281062703
 20
2131.0924112824709
 30
0.0
 40
3.0
 50
224.14519999999999
 51
270.0
  0
ARC
  5
7C09
  8
1
 10
770.16756281062681
 20
2131.0924112824709
 30
0.0
 40
3.0
 50
270.0
 51
315.85480000000001
  0
ARC
  5
7C0A
  8
1
 10
775.90806281062714
 20
2125.520511282471
 30
0.0
 40
5.0
 50
44.146400000000007
 51
135.85359999999989
  0
LINE
  5
7C0B
  8
1
 10
782.42766281062666
 20
2085.0509112824711
 30
0.0
 11
781.25446281062659
 21
2103.0831112824708
 31
0.0
  0
LINE
  5
7C0C
  8
1
 10
769.38846281062661
 20
2085.0509112824711
 30
0.0
 11
770.56166281062679
 21
2103.0831112824708
 31
0.0
  0
ARC
  5
7C0D
  8
1
 10
766.21086281062662
 20
2131.0924112824709
 30
0.0
 40
3.0
 50
270.0
 51
318.23939999999999
  0
ARC
  5
7C0E
  8
1
 10
761.40536281062714
 20
2085.5703112824708
 30
0.0
 40
8.0
 50
270.74400000000003
 51
356.2774
  0
ARC
  5
7C0F
  8
1
 10
765.57216281062699
 20
2103.4077112824721
 30
0.0
 40
5.0
 50
356.27789999999999
 51
90.0
  0
ARC
  5
7C10
  8
1
 10
775.90806281062714
 20
2122.4343112824708
 30
0.0
 40
10.0
 50
41.759900000000002
 51
138.24010000000001
  0
LINE
  5
7C11
  8
1
 10
865.8362660409025
 20
2076.738808052196
 30
0.0
 11
865.8362660409025
 21
2064.6670112824709
 31
0.0
  0
LINE
  5
7C12
  8
1
 10
872.76446927117786
 20
2064.6670112824709
 30
0.0
 11
872.76446927117786
 21
2076.738808052196
 31
0.0
  0
LINE
  5
7C13
  8
1
 10
845.05165635007586
 20
2064.6670112824709
 30
0.0
 11
845.05165635007586
 21
2076.738808052196
 31
0.0
  0
LINE
  5
7C14
  8
1
 10
851.97985958035179
 20
2076.738808052196
 30
0.0
 11
851.97985958035179
 21
2064.6670112824709
 31
0.0
  0
LINE
  5
7C15
  8
1
 10
904.90806281062714
 20
2104.6670112824709
 30
0.0
 11
904.90806281062714
 21
1954.667011282472
 31
0.0
  0
LINE
  5
7C16
  8
1
 10
898.90806281062714
 20
2104.6670112824709
 30
0.0
 11
898.90806281062714
 21
1954.667011282472
 31
0.0
  0
LINE
  5
7C17
  8
1
 10
845.90806281062714
 20
2079.2244112824719
 30
0.0
 11
845.90806281062714
 21
2061.8526112824711
 31
0.0
  0
LINE
  5
7C18
  8
1
 10
850.90806281062714
 20
2045.6670112824711
 30
0.0
 11
850.90806281062714
 21
1954.667011282472
 31
0.0
  0
LINE
  5
7C19
  8
1
 10
866.90806281062714
 20
2045.667011282472
 30
0.0
 11
866.90806281062714
 21
1954.667011282472
 31
0.0
  0
ARC
  5
7C1A
  8
1
 10
869.30036765604063
 20
2052.5952145127471
 30
0.0
 40
6.9282032302754892
 50
240.00000000000011
 51
300.00000000000028
  0
ARC
  5
7C1B
  8
1
 10
848.51575796521365
 20
2052.5952145127471
 30
0.0
 40
6.9282032302754892
 50
239.9999999999996
 51
299.99999999999989
  0
LINE
  5
7C1C
  8
1
 10
869.30036765604063
 20
2045.6670112824711
 30
0.0
 11
848.51575796521365
 21
2045.6670112824711
 31
0.0
  0
ARC
  5
7C1D
  8
1
 10
858.90806281062714
 20
2071.9875193581588
 30
0.0
 40
26.32050807568676
 50
254.73851957513861
 51
285.26148042486119
  0
LINE
  5
7C1E
  8
1
 10
872.76446927117786
 20
2058.6670112824709
 30
0.0
 11
872.76446927117786
 21
2046.5952145127469
 31
0.0
  0
LINE
  5
7C1F
  8
1
 10
865.8362660409025
 20
2046.5952145127469
 30
0.0
 11
865.8362660409025
 21
2058.6670112824709
 31
0.0
  0
LINE
  5
7C20
  8
1
 10
851.97985958035179
 20
2046.5952145127469
 30
0.0
 11
851.97985958035179
 21
2058.6670112824709
 31
0.0
  0
LINE
  5
7C21
  8
1
 10
845.05165635007586
 20
2058.6670112824709
 30
0.0
 11
845.05165635007586
 21
2046.5952145127469
 31
0.0
  0
LINE
  5
7C22
  8
1
 10
892.90806281062714
 20
2058.6670112824709
 30
0.0
 11
892.90806281062714
 21
2029.6670112824711
 31
0.0
  0
LINE
  5
7C23
  8
1
 10
898.90806281062714
 20
2029.6670112824711
 30
0.0
 11
892.90806281062714
 21
2029.6670112824711
 31
0.0
  0
LINE
  5
7C24
  8
1
 10
866.90806281062714
 20
2079.6670112824718
 30
0.0
 11
897.90806281062714
 21
2079.6670112824718
 31
0.0
  0
LINE
  5
7C25
  8
1
 10
845.26541325080916
 20
2076.8572440645721
 30
0.0
 11
790.30696281062683
 21
2077.5710112824722
 31
0.0
  0
ARC
  5
7C26
  8
1
 10
816.40806281062714
 20
2134.0924112824709
 30
0.0
 40
6.0
 50
270.0
 51
0.0
  0
ARC
  5
7C27
  8
1
 10
815.40806281062714
 20
2134.4343112824708
 30
0.0
 40
12.0
 50
270.0
 51
0.0
  0
ARC
  5
7C28
  8
1
 10
815.40806281062714
 20
2137.5205112824719
 30
0.0
 40
12.0
 50
270.0
 51
0.0
  0
LINE
  5
7C29
  8
1
 10
850.90806281062714
 20
2114.6670112824718
 30
0.0
 11
866.90806281062714
 21
2114.6670112824718
 31
0.0
  0
ARC
  5
7C2A
  8
1
 10
869.30036765604063
 20
2070.738808052196
 30
0.0
 40
6.9282032302754892
 50
59.999999999999623
 51
119.9999999999998
  0
ARC
  5
7C2B
  8
1
 10
848.51575796521365
 20
2070.738808052196
 30
0.0
 40
6.9282032302754892
 50
60.000000000000142
 51
120.0000000000003
  0
LINE
  5
7C2C
  8
1
 10
848.51575796521365
 20
2077.6670112824709
 30
0.0
 11
869.30036765604007
 21
2077.6670112824718
 31
0.0
  0
ARC
  5
7C2D
  8
1
 10
858.90806281062714
 20
2051.3465032067852
 30
0.0
 40
26.32050807568676
 50
74.738519575138611
 51
105.2614804248612
  0
LINE
  5
7C2E
  8
1
 10
850.90806281062714
 20
2114.6670112824718
 30
0.0
 11
850.90806281062714
 21
2077.6670112824718
 31
0.0
  0
LINE
  5
7C2F
  8
1
 10
866.90806281062714
 20
2114.6670112824718
 30
0.0
 11
866.90806281062714
 21
2077.6670112824718
 31
0.0
  0
LINE
  5
7C30
  8
1
 10
903.90806281062714
 20
2124.6670112824709
 30
0.0
 11
903.90806281062714
 21
2204.6670112824718
 31
0.0
  0
LINE
  5
7C31
  8
1
 10
973.90806281062714
 20
2089.6670112824709
 30
0.0
 11
923.90806281062714
 21
2089.6670112824709
 31
0.0
  0
LINE
  5
7C32
  8
1
 10
948.90806281062714
 20
2104.6670112824709
 30
0.0
 11
898.90806281062714
 21
2104.6670112824709
 31
0.0
  0
LINE
  5
7C33
  8
1
 10
897.90806281062714
 20
2124.6670112824709
 30
0.0
 11
903.90806281062714
 21
2124.6670112824709
 31
0.0
  0
LINE
  5
7C34
  8
1
 10
908.90806281062714
 20
2178.6670112824718
 30
0.0
 11
968.90806281062714
 21
2178.6670112824718
 31
0.0
  0
LINE
  5
7C35
  8
1
 10
908.90806281062714
 20
2150.6670112824709
 30
0.0
 11
968.90806281062714
 21
2150.6670112824709
 31
0.0
  0
LINE
  5
7C36
  8
1
 10
897.90806281062714
 20
2204.6670112824718
 30
0.0
 11
903.90806281062714
 21
2204.6670112824718
 31
0.0
  0
LINE
  5
7C37
  8
1
 10
903.90806281062714
 20
2179.2670112824708
 30
0.0
 11
908.90806281062714
 21
2179.2670112824708
 31
0.0
  0
LINE
  5
7C38
  8
1
 10
903.90806281062714
 20
2150.0671112824712
 30
0.0
 11
908.90806281062714
 21
2150.0671112824712
 31
0.0
  0
LINE
  5
7C39
  8
1
 10
908.90806281062714
 20
2179.2670112824708
 30
0.0
 11
908.90806281062714
 21
2150.0671112824712
 31
0.0
  0
LINE
  5
7C3A
  8
1
 10
968.90806281062714
 20
2150.6670112824709
 30
0.0
 11
968.90806281062714
 21
2178.6670112824718
 31
0.0
  0
LINE
  5
7C3B
  8
1
 10
1048.9080628106269
 20
1954.667011282472
 30
0.0
 11
1048.9080628106269
 21
1891.8209942607141
 31
0.0
  0
LINE
  5
7C3C
  8
1
 10
1101.9080628106269
 20
2006.1826641221769
 30
0.0
 11
1055.708062810626
 21
2006.1826641221769
 31
0.0
  0
ARC
  5
7C3D
  8
1
 10
1101.9080628106269
 20
1992.1826641221769
 30
0.0
 40
2.0
 50
0.0
 51
90.0
  0
ARC
  5
7C3E
  8
1
 10
1085.9080628106269
 20
1998.1826641221769
 30
0.0
 40
4.0
 50
180.0
 51
270.0
  0
LINE
  5
7C3F
  8
1
 10
1085.9080628106269
 20
1994.1826641221769
 30
0.0
 11
1101.9080628106269
 21
1994.1826641221769
 31
0.0
  0
ARC
  5
7C40
  8
1
 10
1079.9080628106269
 20
2014.1826641221769
 30
0.0
 40
2.0
 50
0.0
 51
90.0
  0
LINE
  5
7C41
  8
1
 10
1078.9080628106269
 20
2016.1826641221769
 30
0.0
 11
1079.9080628106269
 21
2016.1826641221769
 31
0.0
  0
LINE
  5
7C42
  8
1
 10
1078.9080628106269
 20
2016.1826641221769
 30
0.0
 11
1075.7080628106271
 21
2016.1826641221769
 31
0.0
  0
LINE
  5
7C43
  8
1
 10
1008.908062810627
 20
2318.064789397044
 30
0.0
 11
908.90806281062714
 21
2318.064789397044
 31
0.0
  0
ARC
  5
7C44
  8
1
 10
775.90806281062714
 20
2286.6670112824709
 30
0.0
 40
17.0
 50
287.17439999999988
 51
0.0
  0
LINE
  5
7C45
  8
1
 10
897.90806281062714
 20
2264.6670112824718
 30
0.0
 11
602.90806281062714
 21
2264.6670112824718
 31
0.0
  0
LINE
  5
7C46
  8
1
 10
736.40806281062714
 20
2237.655411282472
 30
0.0
 11
815.40806281062714
 21
2237.655411282472
 31
0.0
  0
LINE
  5
7C47
  8
1
 10
739.40806281062714
 20
2234.054711282472
 30
0.0
 11
812.40806281062714
 21
2234.054711282472
 31
0.0
  0
CIRCLE
  5
7C48
  8
1
 10
775.90806281062714
 20
2286.6670112824709
 30
0.0
 40
10.0
  0
ARC
  5
7C49
  8
1
 10
775.90806281062714
 20
2286.6670112824709
 30
0.0
 40
17.0
 50
0.0
 51
252.82560000000001
  0
ARC
  5
7C4A
  8
1
 10
739.40806281062714
 20
2224.054711282472
 30
0.0
 40
10.0
 50
90.0
 51
180.0
  0
ARC
  5
7C4B
  8
1
 10
736.40806281062714
 20
2225.655411282472
 30
0.0
 40
12.0
 50
90.0
 51
180.0
  0
LINE
  5
7C4C
  8
1
 10
780.90806281062714
 20
2270.3674112824719
 30
0.0
 11
780.90806281062714
 21
2264.6670112824718
 31
0.0
  0
LINE
  5
7C4D
  8
1
 10
770.90806281062714
 20
2270.3674112824719
 30
0.0
 11
770.90806281062714
 21
2264.6670112824718
 31
0.0
  0
ARC
  5
7C4E
  8
1
 10
812.40806281062714
 20
2224.054711282472
 30
0.0
 40
10.0
 50
0.0
 51
90.0
  0
ARC
  5
7C4F
  8
1
 10
815.40806281062714
 20
2225.655411282472
 30
0.0
 40
12.0
 50
0.0
 51
90.0
  0
LINE
  5
7C50
  8
1
 10
973.90806281062714
 20
2239.6670112824718
 30
0.0
 11
923.90806281062657
 21
2239.6670112824718
 31
0.0
  0
CIRCLE
  5
7C53
  8
1
 10
1828.3630619245121
 20
1766.1826641221769
 30
0.0
 40
225.0
  0
LINE
  5
7C54
  8
2
 10
1828.3630619245121
 20
2338.0647893970449
 30
0.0
 11
1828.3630619245121
 21
1298.6224079524959
 31
0.0
  0
LINE
  5
7C55
  8
1
 10
1628.3630619245121
 20
1466.1826641221769
 30
0.0
 11
2028.3630619245121
 21
1466.1826641221769
 31
0.0
  0
LINE
  5
7C56
  8
1
 10
2118.3630619245132
 20
1371.1826641221769
 30
0.0
 11
1538.3630619245121
 21
1371.1826641221769
 31
0.0
  0
LINE
  5
7C57
  8
1
 10
1628.3630619245121
 20
1601.1826641221769
 30
0.0
 11
1628.3630619245121
 21
1466.1826641221769
 31
0.0
  0
LINE
  5
7C5A
  8
2
 10
1648.3630619245121
 20
1476.207995728377
 30
0.0
 11
1648.3630619245121
 21
1363.4135355865369
 31
0.0
  0
LINE
  5
7C5B
  8
1
 10
1628.3630619245121
 20
1601.1826641221769
 30
0.0
 11
1634.1751814333061
 21
1608.7308712764529
 31
0.0
  0
LINE
  5
7C60
  8
1
 10
2028.3630619245121
 20
1601.1826641221769
 30
0.0
 11
2028.3630619245121
 21
1466.1826641221769
 31
0.0
  0
LINE
  5
7C61
  8
2
 10
2008.3630619245121
 20
1476.8124310182179
 30
0.0
 11
2008.3630619245121
 21
1363.4135355865369
 31
0.0
  0
LINE
  5
7C62
  8
1
 10
2028.3630619245121
 20
1601.1826641221769
 30
0.0
 11
2022.5509424157201
 21
1608.7308712764541
 31
0.0
  0
LINE
  5
7C65
  8
1
 10
1710.863061924513
 20
2318.064789397044
 30
0.0
 11
1710.863061924513
 21
1958.0647893970449
 31
0.0
  0
LINE
  5
7C66
  8
1
 10
1945.8630619245121
 20
2318.064789397044
 30
0.0
 11
1945.8630619245121
 21
1958.0647893970449
 31
0.0
  0
CIRCLE
  5
7C67
  8
1
 10
1828.3630619245121
 20
2164.6670112824718
 30
0.0
 40
75.0
  0
LINE
  5
7C68
  8
1
 10
1724.3630619245121
 20
2144.6670112824718
 30
0.0
 11
1724.3630619245121
 21
2224.6670112824718
 31
0.0
  0
LINE
  5
7C69
  8
1
 10
1723.363061924513
 20
2140.6670112824718
 30
0.0
 11
1723.363061924513
 21
2227.6670112824718
 31
0.0
  0
LINE
  5
7C6A
  8
1
 10
1673.0885619245121
 20
2222.0707112824721
 30
0.0
 11
1668.623361924512
 21
2132.4366112824719
 31
0.0
  0
LINE
  5
7C6B
  8
1
 10
1718.8584619245121
 20
2237.2507112824719
 30
0.0
 11
1673.1773619245121
 21
2123.0480112824721
 31
0.0
  0
LINE
  5
7C6C
  8
1
 10
1714.401761924513
 20
2236.8793112824719
 30
0.0
 11
1670.206261924513
 21
2126.390611282472
 31
0.0
  0
ARC
  5
7C6D
  8
1
 10
1828.3630619245121
 20
2164.6670112824718
 30
0.0
 40
100.8
 50
285.78239985620951
 51
254.21760014379041
  0
LINE
  5
7C6E
  8
1
 10
1683.3630619245121
 20
2058.6670112824718
 30
0.0
 11
1973.3630619245121
 21
2058.6670112824718
 31
0.0
  0
LINE
  5
7C6F
  8
1
 10
1683.3630619245121
 20
2029.667011282472
 30
0.0
 11
1973.3630619245121
 21
2029.667011282472
 31
0.0
  0
LINE
  5
7C70
  8
1
 10
1683.3630619245121
 20
2064.6670112824718
 30
0.0
 11
1973.3630619245121
 21
2064.6670112824718
 31
0.0
  0
LINE
  5
7C78
  8
1
 10
1903.2153155841911
 20
2159.9616821688901
 30
0.0
 11
1878.2645643642979
 21
1763.0457780464551
 31
0.0
  0
LINE
  5
7C79
  8
1
 10
1753.5108082648339
 20
2159.9616821688901
 30
0.0
 11
1778.4615594847271
 21
1763.0457780464551
 31
0.0
  0
LINE
  5
7C7A
  8
1
 10
1637.8630619245121
 20
1950.167011282472
 30
0.0
 11
1637.8630619245121
 21
1928.076919733672
 31
0.0
  0
LINE
  5
7C7B
  8
1
 10
1633.3630619245121
 20
1954.667011282472
 30
0.0
 11
1633.3630619245121
 21
1922.627542593797
 31
0.0
  0
CIRCLE
  5
7C91
  8
1
 10
1828.3630619245121
 20
1766.1826641221769
 30
0.0
 40
50.0
  0
LINE
  5
7CA4
  8
2
 10
1707.5630619245121
 20
2164.6670112824718
 30
0.0
 11
1949.1630619245129
 21
2164.6670112824718
 31
0.0
  0
LINE
  5
7CA5
  8
1
 10
1774.6164619245119
 20
2078.920511282472
 30
0.0
 11
1768.3630619245121
 21
2072.6670112824718
 31
0.0
  0
LINE
  5
7CA6
  8
1
 10
1728.3630619245121
 20
2064.6670112824718
 30
0.0
 11
1728.3630619245121
 21
2074.6670112824718
 31
0.0
  0
LINE
  5
7CA7
  8
1
 10
1748.3630619245121
 20
2078.047511282472
 30
0.0
 11
1748.3630619245121
 21
2060.700411282472
 31
0.0
  0
LINE
  5
7CA8
  8
1
 10
1768.3630619245121
 20
2064.6670112824718
 30
0.0
 11
1768.3630619245121
 21
2074.6670112824718
 31
0.0
  0
LINE
  5
7CA9
  8
1
 10
1683.3630619245121
 20
2104.6670112824718
 30
0.0
 11
1683.3630619245121
 21
1969.83678266634
 31
0.0
  0
LINE
  5
7CAA
  8
1
 10
1643.3630619245121
 20
2104.6670112824718
 30
0.0
 11
1643.3630619245121
 21
1954.667011282472
 31
0.0
  0
LINE
  5
7CAB
  8
1
 10
1677.363061924513
 20
2104.6670112824718
 30
0.0
 11
1677.363061924513
 21
1965.4287431300211
 31
0.0
  0
LINE
  5
7CAC
  8
1
 10
1654.8630619245121
 20
2074.6670112824718
 30
0.0
 11
1654.8630619245121
 21
2014.667011282472
 31
0.0
  0
LINE
  5
7CAD
  8
1
 10
1666.8630619245121
 20
2074.6670112824718
 30
0.0
 11
1666.8630619245121
 21
2014.667011282472
 31
0.0
  0
LINE
  5
7CAE
  8
2
 10
1660.8630619245121
 20
2086.6670112824731
 30
0.0
 11
1660.8630619245121
 21
2002.667011282472
 31
0.0
  0
LINE
  5
7CAF
  8
1
 10
1664.126492076146
 20
1954.667011282472
 30
0.0
 11
1633.3630619245121
 21
1954.667011282472
 31
0.0
  0
LINE
  5
7CB0
  8
1
 10
1659.1006620833191
 20
1950.167011282472
 30
0.0
 11
1637.8630619245121
 21
1950.167011282472
 31
0.0
  0
ARC
  5
7CB1
  8
1
 10
1660.8630619245121
 20
2014.667011282472
 30
0.0
 40
6.0
 50
180.0
 51
0.0
  0
LINE
  5
7CB4
  8
1
 10
1728.3630619245121
 20
2064.6670112824718
 30
0.0
 11
1768.3630619245121
 21
2064.6670112824718
 31
0.0
  0
LINE
  5
7CB5
  8
1
 10
1683.3630619245121
 20
2104.6670112824718
 30
0.0
 11
1643.3630619245121
 21
2104.6670112824718
 31
0.0
  0
LINE
  5
7CB6
  8
1
 10
1671.3203619245121
 20
2129.1760112824718
 30
0.0
 11
1670.505561924512
 21
2129.5019112824721
 31
0.0
  0
LINE
  5
7CB7
  8
1
 10
1673.1773619245121
 20
2123.0480112824721
 30
0.0
 11
1671.3203619245121
 21
2123.7908112824721
 31
0.0
  0
ARC
  5
7CB8
  8
1
 10
1672.0631619245121
 20
2125.647811282472
 30
0.0
 40
2.0
 50
158.19790000000009
 51
248.19789999999989
  0
ARC
  5
7CB9
  8
1
 10
1671.619661924512
 20
2132.2873112824718
 30
0.0
 40
3.0
 50
177.14760000000001
 51
248.19789999999989
  0
ARC
  5
7CBA
  8
1
 10
1660.8630619245121
 20
2074.6670112824718
 30
0.0
 40
6.0
 50
0.0
 51
180.0
  0
ARC
  5
7CBB
  8
1
 10
1715.3630619245121
 20
2140.6670112824718
 30
0.0
 40
8.0
 50
270.0
 51
0.0
  0
LINE
  5
7CBC
  8
1
 10
1677.0249619245119
 20
2132.6670112824718
 30
0.0
 11
1715.3630619245121
 21
2132.6670112824718
 31
0.0
  0
ARC
  5
7CBD
  8
1
 10
1766.3630619245121
 20
2074.6670112824718
 30
0.0
 40
2.0
 50
0.0
 51
90.0
  0
ARC
  5
7CBE
  8
1
 10
1759.8066619245119
 20
2079.6670112824718
 30
0.0
 40
3.0
 50
270.0
 51
315.0
  0
LINE
  5
7CBF
  8
1
 10
1730.3630619245121
 20
2076.6670112824718
 30
0.0
 11
1766.3630619245121
 21
2076.6670112824718
 31
0.0
  0
LINE
  5
7CC0
  8
1
 10
1767.780961924512
 20
2083.398711282472
 30
0.0
 11
1761.9280619245119
 21
2077.545711282472
 31
0.0
  0
LINE
  5
7CC1
  8
1
 10
1729.453861924512
 20
2076.7065112824721
 30
0.0
 11
1745.572561924512
 21
2106.8408112824718
 31
0.0
  0
ARC
  5
7CC2
  8
1
 10
1730.3630619245121
 20
2074.6670112824718
 30
0.0
 40
2.0
 50
90.0
 51
180.0
  0
LINE
  5
7CC3
  8
1
 10
1723.363061924513
 20
2144.6670112824718
 30
0.0
 11
1729.383161924512
 21
2144.6670112824718
 31
0.0
  0
LINE
  5
7CC4
  8
1
 10
1888.3630619245121
 20
2064.6670112824718
 30
0.0
 11
1888.3630619245121
 21
2074.6670112824718
 31
0.0
  0
LINE
  5
7CC5
  8
1
 10
1881.813461924512
 20
2079.2167112824718
 30
0.0
 11
1888.3630619245121
 21
2072.6670112824718
 31
0.0
  0
LINE
  5
7CC6
  8
1
 10
1908.3630619245121
 20
2078.047511282472
 30
0.0
 11
1908.3630619245121
 21
2060.700411282472
 31
0.0
  0
LINE
  5
7CC7
  8
1
 10
1928.3630619245121
 20
2064.6670112824718
 30
0.0
 11
1928.3630619245121
 21
2074.6670112824718
 31
0.0
  0
LINE
  5
7CC8
  8
1
 10
1800.9470082332889
 20
2067.6670112824718
 30
0.0
 11
1855.779115615735
 21
2067.6670112824718
 31
0.0
  0
LINE
  5
7CCB
  8
1
 10
1928.3630619245121
 20
2064.6670112824718
 30
0.0
 11
1888.3630619245121
 21
2064.6670112824718
 31
0.0
  0
CIRCLE
  5
7CCC
  8
1
 10
1828.3630619245121
 20
2164.6670112824718
 30
0.0
 40
14.0
  0
LINE
  5
7CCD
  8
1
 10
1927.4708619245121
 20
2076.3351112824721
 30
0.0
 11
1911.0700619245119
 21
2106.9971112824719
 31
0.0
  0
LINE
  5
7CCE
  8
1
 10
1926.3630619245121
 20
2076.6670112824718
 30
0.0
 11
1890.3630619245121
 21
2076.6670112824718
 31
0.0
  0
ARC
  5
7CCF
  8
1
 10
1896.919461924512
 20
2079.6670112824718
 30
0.0
 40
3.0
 50
225.0
 51
270.0
  0
ARC
  5
7CD0
  8
1
 10
1890.3630619245121
 20
2074.6670112824718
 30
0.0
 40
2.0
 50
90.0
 51
180.0
  0
LINE
  5
7CD1
  8
1
 10
1888.5655619245119
 20
2083.7782112824721
 30
0.0
 11
1894.798061924512
 21
2077.545711282472
 31
0.0
  0
ARC
  5
7CD2
  8
1
 10
1926.3630619245121
 20
2074.6670112824718
 30
0.0
 40
2.0
 50
0.0
 51
90.0
  0
LINE
  5
7CD5
  8
1
 10
2018.8630619245121
 20
1950.167011282472
 30
0.0
 11
2018.8630619245121
 21
1928.076919733671
 31
0.0
  0
LINE
  5
7CD6
  8
1
 10
2023.3630619245121
 20
1954.667011282472
 30
0.0
 11
2023.3630619245121
 21
1922.627542593797
 31
0.0
  0
LINE
  5
7CDB
  8
1
 10
1989.863061924513
 20
2074.6670112824718
 30
0.0
 11
1989.863061924513
 21
2014.667011282472
 31
0.0
  0
LINE
  5
7CDC
  8
1
 10
2001.8630619245121
 20
2074.6670112824718
 30
0.0
 11
2001.8630619245121
 21
2014.667011282472
 31
0.0
  0
LINE
  5
7CDD
  8
2
 10
1995.8630619245121
 20
2086.6670112824731
 30
0.0
 11
1995.8630619245121
 21
2002.667011282472
 31
0.0
  0
LINE
  5
7CDE
  8
1
 10
1979.3630619245121
 20
2104.6670112824718
 30
0.0
 11
1979.3630619245121
 21
1965.4287431300211
 31
0.0
  0
LINE
  5
7CDF
  8
1
 10
1973.3630619245121
 20
2104.6670112824718
 30
0.0
 11
1973.3630619245121
 21
1969.83678266634
 31
0.0
  0
LINE
  5
7CE0
  8
1
 10
2013.363061924513
 20
2104.6670112824718
 30
0.0
 11
2013.363061924513
 21
1954.667011282472
 31
0.0
  0
LINE
  5
7CE1
  8
1
 10
1992.5996317728791
 20
1954.667011282472
 30
0.0
 11
2023.3630619245121
 21
1954.667011282472
 31
0.0
  0
LINE
  5
7CE2
  8
1
 10
1997.625461765705
 20
1950.167011282472
 30
0.0
 11
2018.8630619245121
 21
1950.167011282472
 31
0.0
  0
ARC
  5
7CE3
  8
1
 10
1995.8630619245121
 20
2014.667011282472
 30
0.0
 40
6.0
 50
180.0
 51
0.0
  0
LINE
  5
7CE4
  8
1
 10
1973.3630619245121
 20
2104.6670112824718
 30
0.0
 11
2013.363061924513
 21
2104.6670112824718
 31
0.0
  0
ARC
  5
7CE5
  8
1
 10
1995.8630619245121
 20
2074.6670112824718
 30
0.0
 40
6.0
 50
0.0
 51
180.0
  0
LINE
  5
7CE6
  8
1
 10
1710.863061924513
 20
2318.064789397044
 30
0.0
 11
1945.8630619245121
 21
2318.064789397044
 31
0.0
  0
ARC
  5
7CE7
  8
1
 10
1683.076161924512
 20
2221.5731112824719
 30
0.0
 40
10.0
 50
95.71050000000001
 51
177.14799999999991
  0
LINE
  5
7CE8
  8
1
 10
1723.363061924513
 20
2224.6670112824718
 30
0.0
 11
1727.363061924513
 21
2224.6670112824718
 31
0.0
  0
ARC
  5
7CE9
  8
1
 10
1718.3630619245121
 20
2227.6670112824718
 30
0.0
 40
5.0
 50
0.0
 51
90.0
  0
ARC
  5
7CEA
  8
1
 10
1716.2586619245119
 20
2236.1365112824719
 30
0.0
 40
2.0
 50
68.199399999999983
 51
158.1983000000001
  0
LINE
  5
7CEB
  8
1
 10
1718.8584619245121
 20
2237.2507112824719
 30
0.0
 11
1717.0014619245119
 21
2237.9935112824719
 31
0.0
  0
LINE
  5
7CEC
  8
1
 10
1717.0249619245119
 20
2232.6670112824718
 30
0.0
 11
1718.3630619245121
 21
2232.6670112824718
 31
0.0
  0
LINE
  5
7CED
  8
1
 10
1713.5168619245121
 20
2234.6670112824718
 30
0.0
 11
1682.0811619245119
 21
2231.5235112824721
 31
0.0
  0
LINE
  5
7CEE
  8
1
 10
1750.020761924512
 20
2235.2325112824719
 30
0.0
 11
1753.998861924513
 21
2232.7156112824719
 31
0.0
  0
LINE
  5
7CEF
  8
1
 10
1727.363061924513
 20
2224.6670112824718
 30
0.0
 11
1750.020761924512
 21
2235.2325112824719
 31
0.0
  0
LINE
  5
7CF0
  8
1
 10
1809.3630619245121
 20
2274.4777112824718
 30
0.0
 11
1809.3630619245121
 21
2300.5314112824708
 31
0.0
  0
LINE
  5
7CF1
  8
1
 10
1815.3630619245121
 20
2300.5314112824708
 30
0.0
 11
1815.3630619245121
 21
2275.0641112824719
 31
0.0
  0
ARC
  5
7CF2
  8
1
 10
1803.3630619245121
 20
2262.6670112824718
 30
0.0
 40
2.0
 50
90.0
 51
203.24219999999929
  0
LINE
  5
7CF3
  8
1
 10
1807.8630619245121
 20
2264.6670112824718
 30
0.0
 11
1807.8630619245121
 21
2271.0955112824722
 31
0.0
  0
ARC
  5
7CF4
  8
1
 10
1810.8630619245121
 20
2271.0955112824722
 30
0.0
 40
3.0
 50
138.59039999999999
 51
180.0
  0
ARC
  5
7CF5
  8
1
 10
1806.3630619245121
 20
2275.0641112824719
 30
0.0
 40
3.0
 50
318.59039999999987
 51
0.0
  0
ARC
  5
7CF6
  8
1
 10
1813.8630619245121
 20
2271.0955112824722
 30
0.0
 40
3.0
 50
0.0
 51
41.409600000000012
  0
LINE
  5
7CF7
  8
1
 10
1816.863061924513
 20
2264.6670112824718
 30
0.0
 11
1816.863061924513
 21
2271.0955112824722
 31
0.0
  0
ARC
  5
7CF8
  8
1
 10
1818.363061924513
 20
2275.0641112824719
 30
0.0
 40
3.0
 50
180.0
 51
221.40960000000001
  0
LINE
  5
7CF9
  8
1
 10
1815.7797619245121
 20
2264.6670112824718
 30
0.0
 11
1803.3630619245121
 21
2264.6670112824718
 31
0.0
  0
ARC
  5
7CFA
  8
1
 10
1812.3630619245121
 20
2300.5314112824708
 30
0.0
 40
3.0
 50
89.999399999999994
 51
180.0
  0
ARC
  5
7CFB
  8
1
 10
1812.3630619245121
 20
2300.5314112824708
 30
0.0
 40
3.0
 50
0.0
 51
90.0
  0
LINE
  5
7CFC
  8
1
 10
478.90806281062709
 20
1766.1826641221769
 30
0.0
 11
588.90806281062714
 21
1766.1826641221769
 31
0.0
  0
LINE
  5
7CFD
  8
1
 10
488.90806281062709
 20
1878.6826641221769
 30
0.0
 11
488.90806281062709
 21
1653.6826641221769
 31
0.0
  0
LINE
  5
7CFE
  8
1
 10
578.90806281062714
 20
1878.6826641221769
 30
0.0
 11
578.90806281062714
 21
1653.6826641221769
 31
0.0
  0
LINE
  5
7CFF
  8
1
 10
508.90806281062709
 20
1988.1826641221769
 30
0.0
 11
558.90806281062714
 21
1988.1826641221769
 31
0.0
  0
LINE
  5
7D00
  8
1
 10
508.90806281062709
 20
1868.6826641221769
 30
0.0
 11
508.90806281062657
 21
1663.6826641221769
 31
0.0
  0
LINE
  5
7D01
  8
1
 10
518.90806281062714
 20
1868.6826641221769
 30
0.0
 11
518.90806281062714
 21
1663.6826641221769
 31
0.0
  0
LINE
  5
7D02
  8
1
 10
488.90806281062709
 20
1878.6826641221769
 30
0.0
 11
578.90806281062714
 21
1878.6826641221769
 31
0.0
  0
LINE
  5
7D03
  8
1
 10
488.90806281062709
 20
1653.6826641221769
 30
0.0
 11
578.90806281062714
 21
1653.6826641221769
 31
0.0
  0
LINE
  5
7D04
  8
1
 10
488.90806281062709
 20
1663.6826641221769
 30
0.0
 11
578.90806281062714
 21
1663.6826641221769
 31
0.0
  0
LINE
  5
7D05
  8
1
 10
488.90806281062709
 20
1868.6826641221769
 30
0.0
 11
578.90806281062714
 21
1868.6826641221769
 31
0.0
  0
LINE
  5
7D06
  8
1
 10
488.90806281062709
 20
1878.6826641221769
 30
0.0
 11
508.90806281062709
 21
1988.1826641221769
 31
0.0
  0
LINE
  5
7D07
  8
1
 10
558.90806281062714
 20
1988.1826641221769
 30
0.0
 11
578.90806281062714
 21
1878.6826641221769
 31
0.0
  0
LINE
  5
7D08
  8
1
 10
558.90806281062714
 20
1544.1826641221769
 30
0.0
 11
578.90806281062714
 21
1653.6826641221769
 31
0.0
  0
LINE
  5
7D09
  8
1
 10
488.90806281062709
 20
1653.6826641221769
 30
0.0
 11
508.90806281062709
 21
1544.1826641221769
 31
0.0
  0
LINE
  5
7D0A
  8
1
 10
508.90806281062709
 20
1544.1826641221769
 30
0.0
 11
558.90806281062714
 21
1544.1826641221769
 31
0.0
  0
LINE
  5
7D0F
  8
1
 10
1118.9080628106269
 20
1371.1826641221769
 30
0.0
 11
1118.9080628106269
 21
1331.1826641221769
 31
0.0
  0
LINE
  5
7D10
  8
1
 10
428.90806281062709
 20
1371.1826641221769
 30
0.0
 11
428.90806281062709
 21
1331.1826641221769
 31
0.0
  0
LINE
  5
7D11
  8
2
 10
1100.9080628106269
 20
1347.578072767471
 30
0.0
 11
1100.9080628106269
 21
1307.9085678384549
 31
0.0
  0
LINE
  5
7D12
  8
2
 10
446.90806281062709
 20
1347.578072767471
 30
0.0
 11
446.90806281062709
 21
1310.7387715661159
 31
0.0
  0
LINE
  5
7D13
  8
1
 10
2118.3630619245132
 20
1371.1826641221769
 30
0.0
 11
2118.3630619245132
 21
1331.1826641221769
 31
0.0
  0
LINE
  5
7D14
  8
1
 10
1538.363061924513
 20
1371.1826641221769
 30
0.0
 11
1538.3630619245121
 21
1331.1826641221769
 31
0.0
  0
LINE
  5
7D15
  8
2
 10
1563.363061924513
 20
1347.5780727674701
 30
0.0
 11
1563.3630619245121
 21
1289.5698757141381
 31
0.0
  0
LINE
  5
7D16
  8
2
 10
2093.3630619245132
 20
1347.5780727674701
 30
0.0
 11
2093.3630619245118
 21
1289.5698757141381
 31
0.0
  0
LINE
  5
7D18
  8
4
 10
2220.0
 20
600.0
 30
0.0
 11
2220.0
 21
360.0
 31
0.0
  0
LINE
  5
7D19
  8
4
 10
1380.0
 20
600.0
 30
0.0
 11
1380.0
 21
360.0
 31
0.0
  0
LINE
  5
7D1A
  8
4
 10
780.0
 20
600.0
 30
0.0
 11
780.0
 21
360.0
 31
0.0
  0
LINE
  5
7D1D
  8
4
 10
780.0
 20
360.0
 30
0.0
 11
2220.0
 21
360.0
 31
0.0
  0
LINE
  5
7D1E
  8
4
 10
780.0
 20
480.0
 30
0.0
 11
2220.0
 21
480.0
 31
0.0
  0
TEXT
  5
7D1F
  8
4
 10
826.20249701628188
 20
517.85163103993546
 30
0.0
 40
60.0
  1
機器名称
  0
TEXT
  5
7D20
  8
4
 10
823.509727229757
 20
385.97418807841308
 30
0.0
 40
60.0
  1
機器型番
  0
TEXT
  5
7D21
  8
4
 10
1413.2144945851969
 20
507.08612274908222
 30
0.0
 40
60.0
  1
ミツヤ軸流ファン
  0
TEXT
  5
7D22
  8
4
 10
1423.9853947025761
 20
380.59150113593199
 30
0.0
 40
60.0
  1
AP#450-2
  0
TEXT
  5
7D24
  8
4
 10
979.79672916461448
 20
2860.1146095990189
 30
0.0
 40
64.799999999999997
  1
床置防振ベット
  0
TEXT
  5
7D25
  8
4
 10
379.40111199533561
 20
3040.6571714391571
 30
0.0
 40
86.400000000000006
  1
ベルト駆動式横形軸流ファン
  0
LINE
  5
7D26
  8
4
 10
300.0
 20
2963.2905051177659
 30
0.0
 11
2220.0
 21
2963.2905051177659
 31
0.0
  0
LINE
  5
7D27
  8
4
 10
300.0
 20
3203.290505117765
 30
0.0
 11
2220.0
 21
3203.290505117765
 31
0.0
  0
LINE
  5
7D28
  8
4
 10
780.0
 20
600.0
 30
0.0
 11
2220.0
 21
600.0
 31
0.0
  0
LINE
  5
7D29
  8
4
 10
300.0
 20
3203.290505117765
 30
0.0
 11
300.0
 21
2963.2905051177659
 31
0.0
  0
TEXT
  5
7D2A
  8
4
 10
350.8199275887327
 20
2858.7833730556122
 30
0.0
 40
64.799999999999997
  1
左回転後方吐出
  0
TEXT
  5
7D2B
  8
4
 10
1762.763471099147
 20
3247.2732977943701
 30
0.0
 40
67.200000000000003
  1
No.
  0
TEXT
  5
7D2C
  8
4
 10
1717.1075619138021
 20
2860.1146095990189
 30
0.0
 40
64.799999999999997
  1
縮尺：1/12
  0
LINE
  5
7D2D
  8
4
 10
2220.0
 20
3203.290505117765
 30
0.0
 11
2220.0
 21
2963.2905051177659
 31
0.0
  0
LINE
  5
7D2E
  8
4
 10
2520.0
 20
3540.0
 30
0.0
 11
2520.0
 21
3540.0
 31
0.0
  0
LINE
  5
7D2F
  8
4
 10
1728.740906831837
 20
3217.5162997504808
 30
0.0
 11
1728.740906831837
 21
3343.9827138597029
 31
0.0
  0
LINE
  5
7D30
  8
4
 10
1728.740906831837
 20
3343.9827138597029
 30
0.0
 11
2220.0
 21
3343.9827138597029
 31
0.0
  0
LINE
  5
7D31
  8
4
 10
2220.0
 20
3343.9827138597029
 30
0.0
 11
2220.0
 21
3217.5162997504808
 31
0.0
  0
LINE
  5
7D32
  8
4
 10
2220.0
 20
3217.5162997504808
 30
0.0
 11
1728.740906831837
 21
3217.5162997504808
 31
0.0
  0
LINE
  5
7D33
  8
4
 10
0.0
 20
0.0
 30
0.0
 11
0.0
 21
3540.0
 31
0.0
  0
LINE
  5
7D34
  8
4
 10
0.0
 20
3540.0
 30
0.0
 11
2520.0
 21
3540.0
 31
0.0
  0
LINE
  5
7D35
  8
4
 10
2520.0
 20
3540.0
 30
0.0
 11
2520.0
 21
0.0
 31
0.0
  0
LINE
  5
7D36
  8
4
 10
2520.0
 20
0.0
 30
0.0
 11
0.0
 21
0.0
 31
0.0
  0
DIMENSION
  5
7D4A
  8
3
  2
*D1
 10
1118.9080628106269
 20
1207.57009013795
 30
0.0
 11
738.31254494704979
 21
1207.57009013795
 31
0.0
 70
   128
 13
428.90806281062709
 23
1331.1826641221769
 33
0.0
 14
1118.9080628106269
 24
1331.1826641221769
 34
0.0
1001
ACAD
1000
DSTYLE
1002
{
1070
   287
1070
     3
1070
   287
1070
     3
1070
   287
1070
     3
1070
   287
1070
     3
1070
   287
1070
     3
1070
    40
1040
12.0
1070
   143
1040
0.039
1070
   172
1070
     1
1070
   271
1070
     0
1070
   279
1070
     0
1070
   288
1070
     1
1002
}
  0
DIMENSION
  5
7D62
  8
3
  2
*D2
 10
2118.3630619245132
 20
1207.57009013795
 30
0.0
 11
1824.261060436871
 21
1207.57009013795
 31
0.0
 70
   128
 13
1538.3630619245121
 23
1331.1826641221769
 33
0.0
 14
2118.3630619245132
 24
1331.1826641221769
 34
0.0
1001
ACAD
1000
DSTYLE
1002
{
1070
   287
1070
     3
1070
   287
1070
     3
1070
   287
1070
     3
1070
   287
1070
     3
1070
   287
1070
     3
1070
    40
1040
12.0
1070
   143
1040
0.039
1070
   172
1070
     1
1070
   271
1070
     0
1070
   279
1070
     0
1070
   288
1070
     1
1002
}
  0
DIMENSION
  5
7DBC
  8
3
  2
*D3
 10
1438.1948484036041
 20
1466.1826641221769
 30
0.0
 11
1438.1948484036041
 21
1608.679393114222
 31
0.0
 70
   128
 13
1499.7662994897159
 23
1766.1826641221769
 33
0.0
 14
1628.3630619245121
 24
1466.1826641221769
 34
0.0
 50
90.0
1001
ACAD
1000
DSTYLE
1002
{
1070
   287
1070
     3
1070
   287
1070
     3
1070
   287
1070
     3
1070
   287
1070
     3
1070
   287
1070
     3
1070
    40
1040
12.0
1070
   143
1040
0.039
1070
   172
1070
     1
1070
   271
1070
     0
1070
   279
1070
     0
1070
   288
1070
     1
1002
}
  0
DIMENSION
  5
7DCA
  8
3
  2
*D4
 10
1438.1948484036041
 20
1371.1826641221769
 30
0.0
 11
1380.766276975032
 21
1418.6826641221769
 31
0.0
 70
     0
  1
(<>)
 13
1628.3630619245121
 23
1466.1826641221769
 33
0.0
 14
1538.363061924513
 24
1371.1826641221769
 34
0.0
 50
90.0
1001
ACAD
1000
DSTYLE
1002
{
1070
   288
1070
     1
1070
   172
1070
     1
1070
    75
1070
     1
1070
    40
1040
12.0
1070
   271
1070
     0
1070
   143
1040
0.039
1002
}
  0
DIMENSION
  5
7DDA
  8
3
  2
*D5
 10
1438.1948484036041
 20
1331.1826641221769
 30
0.0
 11
1408.1948484036029
 21
1242.03980697932
 31
0.0
 70
     0
 13
1538.363061924513
 23
1371.1826641221769
 33
0.0
 14
1538.3630619245121
 24
1331.1826641221769
 34
0.0
 50
90.0
1001
ACAD
1000
DSTYLE
1002
{
1070
   287
1070
     3
1070
   287
1070
     3
1070
   287
1070
     3
1070
   287
1070
     3
1070
   287
1070
     3
1070
    40
1040
12.0
1070
   143
1040
0.039
1070
   172
1070
     1
1070
   271
1070
     0
1070
   279
1070
     0
1070
   288
1070
     1
1002
}
  0
DIMENSION
  5
7E07
  8
3
  2
*D6
 10
1438.1948484036041
 20
2300.5314112824708
 30
0.0
 11
1408.1948484036029
 21
2033.357037702325
 31
0.0
 70
     0
  1
MAX.670
 13
1499.7662994897159
 23
1766.1826641221769
 33
0.0
 14
1809.3630619245121
 24
2300.5314112824708
 34
0.0
 50
90.0
1001
ACAD
1000
DSTYLE
1002
{
1070
   287
1070
     4
1070
   287
1070
     4
1070
   287
1070
     4
1070
   287
1070
     4
1070
   287
1070
     4
1070
    40
1040
12.0
1070
    75
1070
     1
1070
   143
1040
0.039
1070
   172
1070
     1
1070
   271
1070
     0
1070
   279
1070
     1
1070
   288
1070
     1
1002
}
  0
DIMENSION
  5
7E1E
  8
3
  2
*D7
 10
2078.3630619245118
 20
2396.9787861518371
 30
0.0
 11
1828.1412171641421
 21
2396.9787861518371
 31
0.0
 70
   128
 13
1578.363061924513
 23
1766.1826641221769
 33
0.0
 14
2078.3630619245118
 24
1766.1826641221769
 34
0.0
1001
ACAD
1000
DSTYLE
1002
{
1070
   287
1070
     3
1070
   287
1070
     3
1070
   287
1070
     3
1070
   287
1070
     3
1070
   287
1070
     3
1070
    40
1040
12.0
1070
   143
1040
0.039
1070
   172
1070
     1
1070
   271
1070
     0
1070
   279
1070
     0
1070
   288
1070
     1
1002
}
  0
DIMENSION
  5
7E2B
  8
3
  2
*D8
 10
1078.9080628106269
 20
2396.6873005793318
 30
0.0
 11
775.91973012492235
 21
2396.6873005793318
 31
0.0
 70
   128
 13
468.90806281062709
 23
2016.1826641221769
 33
0.0
 14
1078.9080628106269
 24
2016.1826641221769
 34
0.0
1001
ACAD
1000
DSTYLE
1002
{
1070
   287
1070
     3
1070
   287
1070
     3
1070
   287
1070
     3
1070
   287
1070
     3
1070
   287
1070
     3
1070
    40
1040
12.0
1070
   143
1040
0.039
1070
   172
1070
     1
1070
   271
1070
     0
1070
   279
1070
     0
1070
   288
1070
     1
1002
}
  0
DIMENSION
  5
7E38
  8
3
  2
*D9
 10
360.87922330749302
 20
1541.1826641221769
 30
0.0
 11
360.87922330749279
 21
1763.3831785976711
 31
0.0
 70
   128
 13
443.90806281062709
 23
1991.1826641221769
 33
0.0
 14
443.90806281062709
 24
1541.1826641221769
 34
0.0
 50
90.0
1001
ACAD
1000
DSTYLE
1002
{
1070
   287
1070
     3
1070
   287
1070
     3
1070
   287
1070
     3
1070
   287
1070
     3
1070
   287
1070
     3
1070
     3
1000
φ<>
1070
    40
1040
12.0
1070
   143
1040
0.039
1070
   172
1070
     1
1070
   271
1070
     0
1070
   279
1070
     0
1070
   288
1070
     1
1002
}
  0
DIMENSION
  5
7E45
  8
3
  2
*D10
 10
1208.7210890945901
 20
1541.1826641221769
 30
0.0
 11
1208.7210890945901
 21
1771.63256235107
 31
0.0
 70
   128
 13
1103.9080628106269
 23
1991.1826641221769
 33
0.0
 14
1103.9080628106269
 24
1541.1826641221769
 34
0.0
 50
90.0
1001
ACAD
1000
DSTYLE
1002
{
1070
   287
1070
     3
1070
   287
1070
     3
1070
   287
1070
     3
1070
   287
1070
     3
1070
   287
1070
     3
1070
     3
1000
φ<>
1070
    40
1040
12.0
1070
   143
1040
0.039
1070
   172
1070
     1
1070
   271
1070
     0
1070
   279
1070
     0
1070
   288
1070
     1
1002
}
  0
ENDSEC
  0
EOF
