  0
SECTION
  2
HEADER
  9
$ACADVER
  1
AC1009
  9
$INSBASE
 10
0.0
 20
0.0
 30
0.0
  9
$EXTMIN
 10
0.0
 20
0.0
 30
0.0
  9
$EXTMAX
 10
2520.0
 20
3540.0
 30
0.0
  9
$LIMMIN
 10
0.0
 20
0.0
  9
$LIMMAX
 10
297.0
 20
210.0
  9
$ORTHOMODE
 70
     0
  9
$REGENMODE
 70
     1
  9
$FILLMODE
 70
     0
  9
$QTEXTMODE
 70
     0
  9
$MIRRTEXT
 70
     1
  9
$DRAGMODE
 70
     2
  9
$LTSCALE
 40
100.0
  9
$OSMODE
 70
    37
  9
$ATTMODE
 70
     1
  9
$TEXTSIZE
 40
180.0
  9
$TRACEWID
 40
0.05
  9
$TEXTSTYLE
  7
STANDARD
  9
$CLAYER
  8
3
  9
$CELTYPE
  6
BYLAYER
  9
$CECOLOR
 62
   256
  9
$DIMSCALE
 40
12.0
  9
$DIMASZ
 40
2.0
  9
$DIMEXO
 40
0.5
  9
$DIMDLI
 40
10.0
  9
$DIMRND
 40
0.0
  9
$DIMDLE
 40
0.0
  9
$DIMEXE
 40
1.0
  9
$DIMTP
 40
1.0
  9
$DIMTM
 40
1.0
  9
$DIMTXT
 40
3.0
  9
$DIMCEN
 40
0.0
  9
$DIMTSZ
 40
0.0
  9
$DIMTOL
 70
     0
  9
$DIMLIM
 70
     0
  9
$DIMTIH
 70
     0
  9
$DIMTOH
 70
     0
  9
$DIMSE1
 70
     0
  9
$DIMSE2
 70
     0
  9
$DIMTAD
 70
     1
  9
$DIMZIN
 70
     8
  9
$DIMBLK
  1

  9
$DIMASO
 70
     1
  9
$DIMSHO
 70
     1
  9
$DIMPOST
  1

  9
$DIMAPOST
  1

  9
$DIMALT
 70
     0
  9
$DIMALTD
 70
     2
  9
$DIMALTF
 40
0.039
  9
$DIMLFAC
 40
1.0
  9
$DIMTOFL
 70
     1
  9
$DIMTVP
 40
0.0
  9
$DIMTIX
 70
     0
  9
$DIMSOXD
 70
     0
  9
$DIMSAH
 70
     1
  9
$DIMBLK1
  1
OPEN
  9
$DIMBLK2
  1
OPEN
  9
$DIMSTYLE
  2
IGA
  9
$DIMCLRD
 70
     0
  9
$DIMCLRE
 70
     0
  9
$DIMCLRT
 70
     0
  9
$DIMTFAC
 40
10.0
  9
$DIMGAP
 40
1.0
  9
$LUNITS
 70
     2
  9
$LUPREC
 70
     3
  9
$SKETCHINC
 40
0.1
  9
$FILLETRAD
 40
50.0
  9
$AUNITS
 70
     0
  9
$AUPREC
 70
     0
  9
$MENU
  1
acad
  9
$ELEVATION
 40
0.0
  9
$PELEVATION
 40
0.0
  9
$THICKNESS
 40
0.0
  9
$LIMCHECK
 70
     0
  9
$BLIPMODE
 70
     0
  9
$CHAMFERA
 40
0.5
  9
$CHAMFERB
 40
0.5
  9
$SKPOLY
 70
     0
  9
$TDCREATE
 40
2452832.4581446759
  9
$TDUPDATE
 40
2454953.6304993052
  9
$TDINDWG
 40
0.0456841319
  9
$TDUSRTIMER
 40
0.0456841319
  9
$USRTIMER
 70
     1
  9
$ANGBASE
 50
0.0
  9
$ANGDIR
 70
     0
  9
$PDMODE
 70
     0
  9
$PDSIZE
 40
0.0
  9
$PLINEWID
 40
0.0
  9
$COORDS
 70
     1
  9
$SPLFRAME
 70
     0
  9
$SPLINETYPE
 70
     6
  9
$SPLINESEGS
 70
     8
  9
$ATTDIA
 70
     0
  9
$ATTREQ
 70
     1
  9
$HANDLING
 70
 10241
  9
$HANDSEED
  5
8D1E
  9
$SURFTAB1
 70
     6
  9
$SURFTAB2
 70
     6
  9
$SURFTYPE
 70
     6
  9
$SURFU
 70
     6
  9
$SURFV
 70
     6
  9
$UCSNAME
  2

  9
$UCSORG
 10
0.0
 20
0.0
 30
0.0
  9
$UCSXDIR
 10
1.0
 20
0.0
 30
0.0
  9
$UCSYDIR
 10
0.0
 20
1.0
 30
0.0
  9
$PUCSNAME
  2

  9
$PUCSORG
 10
0.0
 20
0.0
 30
0.0
  9
$PUCSXDIR
 10
1.0
 20
0.0
 30
0.0
  9
$PUCSYDIR
 10
0.0
 20
1.0
 30
0.0
  9
$USERI1
 70
     0
  9
$USERI2
 70
     0
  9
$USERI3
 70
     0
  9
$USERI4
 70
     0
  9
$USERI5
 70
     0
  9
$USERR1
 40
0.0
  9
$USERR2
 40
0.0
  9
$USERR3
 40
0.0
  9
$USERR4
 40
0.0
  9
$USERR5
 40
0.0
  9
$WORLDVIEW
 70
     1
  9
$SHADEDGE
 70
     3
  9
$SHADEDIF
 70
    70
  9
$TILEMODE
 70
     1
  9
$MAXACTVP
 70
    16
  9
$PLIMCHECK
 70
     0
  9
$PEXTMIN
 10
1.0000000000000000E+020
 20
1.0000000000000000E+020
 30
1.0000000000000000E+020
  9
$PEXTMAX
 10
-1.0000000000000000E+020
 20
-1.0000000000000000E+020
 30
-1.0000000000000000E+020
  9
$PLIMMIN
 10
0.0
 20
0.0
  9
$PLIMMAX
 10
12.0
 20
9.0
  9
$UNITMODE
 70
     0
  9
$VISRETAIN
 70
     0
  9
$PLINEGEN
 70
     0
  9
$PSLTSCALE
 70
     1
  0
ENDSEC
  0
SECTION
  2
TABLES
  0
TABLE
  2
VPORT
 70
     2
  0
VPORT
  2
*ACTIVE
 70
     0
 10
0.0
 20
0.0
 11
1.0
 21
1.0
 12
2342.2158222891908
 22
426.1708662209121
 13
0.0
 23
0.0
 14
10.0
 24
10.0
 15
10.0
 25
10.0
 16
0.0
 26
0.0
 36
1.0
 17
0.0
 27
0.0
 37
0.0
 40
1009.815388398491
 41
3.1666666666666661
 42
50.0
 43
0.0
 44
0.0
 50
0.0
 51
0.0
 71
     0
 72
   100
 73
     1
 74
     0
 75
     0
 76
     0
 77
     0
 78
     0
  0
ENDTAB
  0
TABLE
  2
LTYPE
 70
     2
  0
LTYPE
  2
CONTINUOUS
 70
     0
  3
Solid line
 72
    65
 73
     0
 40
0.0
  0
LTYPE
  2
CENTER
 70
     0
  3
____ _ ____ _ ____ _ ____ _ ____ _ ____ _ ____ 
 72
    65
 73
     4
 40
2.0
 49
1.25
 49
-0.25
 49
0.25
 49
-0.25
  0
ENDTAB
  0
TABLE
  2
LAYER
 70
     6
  0
LAYER
  2
0
 70
     0
 62
     7
  6
CONTINUOUS
  0
LAYER
  2
3
 70
     0
 62
     2
  6
CONTINUOUS
  0
LAYER
  2
2
 70
     0
 62
     3
  6
CENTER
  0
LAYER
  2
1
 70
     0
 62
     4
  6
CONTINUOUS
  0
LAYER
  2
4
 70
     0
 62
     7
  6
CONTINUOUS
  0
LAYER
  2
DEFPOINTS
 70
     0
 62
     7
  6
CONTINUOUS
  0
ENDTAB
  0
TABLE
  2
STYLE
 70
     1
  0
STYLE
  2
STANDARD
 70
     0
 40
0.0
 41
1.0
 50
0.0
 71
     0
 42
180.0
  3
simplex.shx
  4
extfont.shx
  0
ENDTAB
  0
TABLE
  2
VIEW
 70
     0
  0
ENDTAB
  0
TABLE
  2
UCS
 70
     0
  0
ENDTAB
  0
TABLE
  2
APPID
 70
     1
  0
APPID
  2
ACAD
 70
     0
  0
ENDTAB
  0
TABLE
  2
DIMSTYLE
 70
     2
  0
DIMSTYLE
  2
IGA
 70
     0
  3

  4

  5

  6
OPEN
  7
OPEN
 40
2.0
 41
2.0
 42
0.5
 43
10.0
 44
1.0
 45
0.0
 46
0.0
 47
1.0
 48
1.0
140
3.0
141
0.0
142
0.0
143
0.03937
144
1.0
145
0.0
146
10.0
147
1.0
 71
     0
 72
     0
 73
     0
 74
     0
 75
     0
 76
     0
 77
     1
 78
     8
170
     0
171
     2
172
     0
173
     1
174
     0
175
     0
176
     0
177
     0
178
     0
  0
DIMSTYLE
  2
STANDARD
 70
     0
  3

  4

  5

  6

  7

 40
1.0
 41
0.18
 42
0.0625
 43
0.38
 44
0.18
 45
0.0
 46
0.0
 47
0.0
 48
0.0
140
0.18
141
0.09
142
0.0
143
25.399999999999999
144
1.0
145
0.0
146
1.0
147
0.09
 71
     0
 72
     0
 73
     1
 74
     1
 75
     0
 76
     0
 77
     0
 78
     0
170
     0
171
     2
172
     0
173
     0
174
     0
175
     0
176
     0
177
     0
178
     0
  0
ENDTAB
  0
ENDSEC
  0
SECTION
  2
BLOCKS
  0
BLOCK
  8
0
  2
$MODEL_SPACE
 70
     0
 10
0.0
 20
0.0
 30
0.0
  3
$MODEL_SPACE
  1

  0
ENDBLK
  5
1B
  8
0
  0
BLOCK
 67
     1
  8
0
  2
$PAPER_SPACE
 70
     0
 10
0.0
 20
0.0
 30
0.0
  3
$PAPER_SPACE
  1

  0
ENDBLK
  5
18
 67
     1
  8
0
  0
BLOCK
  8
0
  2
_OPEN
 70
     0
 10
0.0
 20
0.0
 30
0.0
  3
_OPEN
  1

  0
LINE
  5
7D39
  8
0
  6
BYBLOCK
 62
     0
 10
-1.0
 20
0.1666666666666666
 30
0.0
 11
0.0
 21
0.0
 31
0.0
  0
LINE
  5
7D3A
  8
0
  6
BYBLOCK
 62
     0
 10
0.0
 20
0.0
 30
0.0
 11
-1.0
 21
-0.1666666666666666
 31
0.0
  0
LINE
  5
7D3B
  8
0
  6
BYBLOCK
 62
     0
 10
0.0
 20
0.0
 30
0.0
 11
-1.0
 21
0.0
 31
0.0
  0
ENDBLK
  5
7D3C
  8
0
  0
BLOCK
  8
0
  2
*D1
 70
     1
 10
0.0
 20
0.0
 30
0.0
  3
*D1
  1

  0
LINE
  5
8CB8
  8
3
 62
     0
 10
1493.7662994897159
 20
1766.1826641221769
 30
0.0
 11
1426.1948484036029
 21
1766.1826641221769
 31
0.0
  0
LINE
  5
8CB9
  8
3
 62
     0
 10
1803.3630619245121
 20
2300.5314112824708
 30
0.0
 11
1426.1948484036029
 21
2300.5314112824708
 31
0.0
  0
LINE
  5
8CBA
  8
3
 62
     0
 10
1438.1948484036041
 20
1790.1826641221769
 30
0.0
 11
1438.1948484036041
 21
2276.5314112824722
 31
0.0
  0
INSERT
  5
8CBB
  8
3
 62
     0
  2
_OPEN
 10
1438.1948484036041
 20
1766.1826641221769
 30
0.0
 41
24.0
 42
24.0
 43
24.0
 50
270.0
  0
INSERT
  5
8CBC
  8
3
 62
     0
  2
_OPEN
 10
1438.1948484036041
 20
2300.5314112824708
 30
0.0
 41
24.0
 42
24.0
 43
24.0
 50
90.0
  0
TEXT
  8
3
  40
36
  5
8D16
  62
0
  72
0
  71
0
 10
1336.19
 20
1969.64
 30
0.000000
  1
MAX.670
  0
POINT
  5
8CBE
  8
DEFPOINTS
 62
     0
 10
1499.7662994897159
 20
1766.1826641221769
 30
0.0
  0
POINT
  5
8CBF
  8
DEFPOINTS
 62
     0
 10
1809.3630619245121
 20
2300.5314112824708
 30
0.0
  0
POINT
  5
8CC0
  8
DEFPOINTS
 62
     0
 10
1438.1948484036041
 20
2300.5314112824708
 30
0.0
  0
ENDBLK
  5
7E11
  8
0
  0
BLOCK
  8
0
  2
*D2
 70
     1
 10
0.0
 20
0.0
 30
0.0
  3
*D2
  1

  0
LINE
  5
8CC1
  8
3
 62
     0
 10
437.90806281062709
 20
1991.1826641221769
 30
0.0
 11
348.87922330749308
 21
1991.1826641221769
 31
0.0
  0
LINE
  5
8CC2
  8
3
 62
     0
 10
437.90806281062709
 20
1541.1826641221769
 30
0.0
 11
348.87922330749302
 21
1541.1826641221769
 31
0.0
  0
LINE
  5
8CC3
  8
3
 62
     0
 10
360.87922330749308
 20
1967.1826641221769
 30
0.0
 11
360.87922330749302
 21
1565.1826641221769
 31
0.0
  0
INSERT
  5
8CC4
  8
3
 62
     0
  2
_OPEN
 10
360.87922330749308
 20
1991.1826641221769
 30
0.0
 41
24.0
 42
24.0
 43
24.0
 50
90.0
  0
INSERT
  5
8CC5
  8
3
 62
     0
  2
_OPEN
 10
360.87922330749302
 20
1541.1826641221769
 30
0.0
 41
24.0
 42
24.0
 43
24.0
 50
270.0
  0
TEXT
  8
3
  40
36
  5
8D17
  62
0
  72
0
  71
0
 10
258.879
 20
1699.66
 30
0.000000
  1
φ450
  0
POINT
  5
8CC7
  8
DEFPOINTS
 62
     0
 10
443.90806281062709
 20
1991.1826641221769
 30
0.0
  0
POINT
  5
8CC8
  8
DEFPOINTS
 62
     0
 10
443.90806281062709
 20
1541.1826641221769
 30
0.0
  0
POINT
  5
8CC9
  8
DEFPOINTS
 62
     0
 10
360.87922330749302
 20
1541.1826641221769
 30
0.0
  0
ENDBLK
  5
7E5B
  8
0
  0
BLOCK
  8
0
  2
*D3
 70
     1
 10
0.0
 20
0.0
 30
0.0
  3
*D3
  1

  0
LINE
  5
8CCA
  8
3
 62
     0
 10
1109.9080628106269
 20
1991.1826641221769
 30
0.0
 11
1220.7210890945901
 21
1991.1826641221769
 31
0.0
  0
LINE
  5
8CCB
  8
3
 62
     0
 10
1109.9080628106269
 20
1541.1826641221769
 30
0.0
 11
1220.7210890945901
 21
1541.1826641221769
 31
0.0
  0
LINE
  5
8CCC
  8
3
 62
     0
 10
1208.7210890945901
 20
1967.1826641221769
 30
0.0
 11
1208.7210890945901
 21
1565.1826641221769
 31
0.0
  0
INSERT
  5
8CCD
  8
3
 62
     0
  2
_OPEN
 10
1208.7210890945901
 20
1991.1826641221769
 30
0.0
 41
24.0
 42
24.0
 43
24.0
 50
90.0
  0
INSERT
  5
8CCE
  8
3
 62
     0
  2
_OPEN
 10
1208.7210890945901
 20
1541.1826641221769
 30
0.0
 41
24.0
 42
24.0
 43
24.0
 50
270.0
  0
TEXT
  8
3
  40
36
  5
8D18
  62
0
  72
0
  71
0
 10
1106.72
 20
1707.91
 30
0.000000
  1
φ450
  0
POINT
  5
8CD0
  8
DEFPOINTS
 62
     0
 10
1103.9080628106269
 20
1991.1826641221769
 30
0.0
  0
POINT
  5
8CD1
  8
DEFPOINTS
 62
     0
 10
1103.9080628106269
 20
1541.1826641221769
 30
0.0
  0
POINT
  5
8CD2
  8
DEFPOINTS
 62
     0
 10
1208.7210890945901
 20
1541.1826641221769
 30
0.0
  0
ENDBLK
  5
7E50
  8
0
  0
BLOCK
  8
0
  2
*D4
 70
     1
 10
0.0
 20
0.0
 30
0.0
  3
*D4
  1

  0
LINE
  5
8165
  8
3
 62
     0
 10
591.36841144252594
 20
2073.121273223438
 30
0.0
 11
591.36841144252594
 21
2535.83365273657
 31
0.0
  0
LINE
  5
8166
  8
3
 62
     0
 10
1201.3684114425259
 20
2073.121273223438
 30
0.0
 11
1201.3684114425259
 21
2535.83365273657
 31
0.0
  0
LINE
  5
8167
  8
3
 62
     0
 10
621.36841144252594
 20
2520.83365273657
 30
0.0
 11
1171.3684114425259
 21
2520.83365273657
 31
0.0
  0
INSERT
  5
8168
  8
3
 62
     0
  2
_OPEN
 10
591.36841144252594
 20
2520.83365273657
 30
0.0
 41
30.0
 42
30.0
 43
30.0
 50
180.0
  0
INSERT
  5
8169
  8
3
 62
     0
  2
_OPEN
 10
1201.3684114425259
 20
2520.83365273657
 30
0.0
 41
30.0
 42
30.0
 43
30.0
  0
TEXT
  5
816A
  8
3
 62
     0
 10
842.79698287109738
 20
2535.83365273657
 30
0.0
 40
45.0
  1
610
  0
POINT
  5
816B
  8
DEFPOINTS
 62
     0
 10
591.36841144252594
 20
2065.621273223438
 30
0.0
  0
POINT
  5
816C
  8
DEFPOINTS
 62
     0
 10
1201.3684114425259
 20
2065.621273223438
 30
0.0
  0
POINT
  5
816D
  8
DEFPOINTS
 62
     0
 10
1201.3684114425259
 20
2520.83365273657
 30
0.0
  0
ENDBLK
  5
816F
  8
0
  0
BLOCK
  8
0
  2
*D5
 70
     1
 10
0.0
 20
0.0
 30
0.0
  3
*D5
  1

  0
LINE
  5
8171
  8
3
 62
     0
 10
553.86841144252594
 20
2035.6212732234369
 30
0.0
 11
353.35246047168431
 21
2035.621273223438
 31
0.0
  0
LINE
  5
8172
  8
3
 62
     0
 10
553.86841144252594
 20
1535.621273223438
 30
0.0
 11
353.3524604716842
 21
1535.621273223438
 31
0.0
  0
LINE
  5
8173
  8
3
 62
     0
 10
368.35246047168431
 20
2005.621273223438
 30
0.0
 11
368.3524604716842
 21
1565.621273223438
 31
0.0
  0
INSERT
  5
8174
  8
3
 62
     0
  2
_OPEN
 10
368.35246047168431
 20
2035.621273223438
 30
0.0
 41
30.0
 42
30.0
 43
30.0
 50
90.0
  0
INSERT
  5
8175
  8
3
 62
     0
  2
_OPEN
 10
368.3524604716842
 20
1535.621273223438
 30
0.0
 41
30.0
 42
30.0
 43
30.0
 50
270.0
  0
TEXT
  5
8176
  8
3
 62
     0
 10
353.35246047168403
 20
1705.1256783296101
 30
0.0
 40
45.0
  1
φ500
 50
90.0
  0
POINT
  5
8177
  8
DEFPOINTS
 62
     0
 10
561.36841144252594
 20
2035.6212732234369
 30
0.0
  0
POINT
  5
8178
  8
DEFPOINTS
 62
     0
 10
561.36841144252594
 20
1535.621273223438
 30
0.0
  0
POINT
  5
8179
  8
DEFPOINTS
 62
     0
 10
368.3524604716842
 20
1535.621273223438
 30
0.0
  0
ENDBLK
  5
817B
  8
0
  0
BLOCK
  8
0
  2
*D6
 70
     1
 10
0.0
 20
0.0
 30
0.0
  3
*D6
  1

  0
LINE
  5
817D
  8
3
 62
     0
 10
2079.4074196966458
 20
1785.6212732234369
 30
0.0
 11
1928.5417471541259
 21
1785.6212732234369
 31
0.0
  0
LINE
  5
817E
  8
3
 62
     0
 10
2152.4074196966458
 20
1455.621273223438
 30
0.0
 11
1928.5417471541259
 21
1455.621273223438
 31
0.0
  0
LINE
  5
817F
  8
3
 62
     0
 10
1943.5417471541259
 20
1755.621273223438
 30
0.0
 11
1943.5417471541259
 21
1485.621273223438
 31
0.0
  0
INSERT
  5
8180
  8
3
 62
     0
  2
_OPEN
 10
1943.5417471541259
 20
1785.6212732234369
 30
0.0
 41
30.0
 42
30.0
 43
30.0
 50
90.0
  0
INSERT
  5
8181
  8
3
 62
     0
  2
_OPEN
 10
1943.5417471541259
 20
1455.621273223438
 30
0.0
 41
30.0
 42
30.0
 43
30.0
 50
270.0
  0
TEXT
  5
8182
  8
3
 62
     0
 10
1928.5417471541259
 20
1562.7641303662949
 30
0.0
 40
45.0
  1
330
 50
90.0
  0
POINT
  5
8183
  8
DEFPOINTS
 62
     0
 10
2086.9074196966458
 20
1785.6212732234369
 30
0.0
  0
POINT
  5
8184
  8
DEFPOINTS
 62
     0
 10
2159.9074196966458
 20
1455.621273223438
 30
0.0
  0
POINT
  5
8185
  8
DEFPOINTS
 62
     0
 10
1943.5417471541259
 20
1455.621273223438
 30
0.0
  0
ENDBLK
  5
8187
  8
0
  0
BLOCK
  8
0
  2
*D7
 70
     1
 10
0.0
 20
0.0
 30
0.0
  3
*D7
  1

  0
LINE
  5
8189
  8
0
  6
BYBLOCK
 62
     0
 10
2062.4074196966471
 20
1360.6212732234369
 30
0.0
 11
1928.5417471541259
 21
1360.6212732234369
 31
0.0
  0
LINE
  5
818A
  8
0
  6
BYBLOCK
 62
     0
 10
1943.5417471541259
 20
1425.621273223438
 30
0.0
 11
1943.5417471541259
 21
1390.6212732234369
 31
0.0
  0
TEXT
  5
818B
  8
3
 62
     0
 10
1886.756032868411
 20
1386.2043726490349
 30
0.0
 40
45.0
  1
(95)
 50
90.0
  0
INSERT
  5
818C
  8
0
  6
BYBLOCK
 62
     0
  2
_OPEN
 10
1943.5417471541259
 20
1455.621273223438
 30
0.0
 41
30.0
 42
30.0
 43
30.0
 50
90.0
  0
INSERT
  5
818D
  8
0
  6
BYBLOCK
 62
     0
  2
_DOT
 10
1943.5417471541259
 20
1360.6212732234369
 30
0.0
 41
30.0
 42
30.0
 43
30.0
 50
270.0
  0
POINT
  5
818E
  8
DEFPOINTS
  6
BYBLOCK
 62
     0
 10
2159.9074196966458
 20
1455.621273223438
 30
0.0
  0
POINT
  5
818F
  8
DEFPOINTS
  6
BYBLOCK
 62
     0
 10
2069.9074196966471
 20
1360.6212732234369
 30
0.0
  0
POINT
  5
8190
  8
DEFPOINTS
  6
BYBLOCK
 62
     0
 10
1943.5417471541259
 20
1360.6212732234369
 30
0.0
  0
ENDBLK
  5
8192
  8
0
  0
BLOCK
  8
0
  2
*D8
 70
     1
 10
0.0
 20
0.0
 30
0.0
  3
*D8
  1

  0
LINE
  5
8194
  8
3
 62
     0
 10
2062.4074196966471
 20
1360.6212732234369
 30
0.0
 11
1928.5417471541259
 21
1360.6212732234369
 31
0.0
  0
LINE
  5
8195
  8
3
 62
     0
 10
2063.968002326943
 20
1320.6212732234369
 30
0.0
 11
1928.5417471541259
 21
1320.6212732234369
 31
0.0
  0
LINE
  5
8196
  8
3
 62
     0
 10
1943.5417471541259
 20
1390.6212732234369
 30
0.0
 11
1943.5417471541259
 21
1420.6212732234369
 31
0.0
  0
LINE
  5
8197
  8
3
 62
     0
 10
1943.5417471541259
 20
1290.6212732234369
 30
0.0
 11
1943.5417471541259
 21
1157.764130366294
 31
0.0
  0
LINE
  5
8198
  8
3
 62
     0
 10
1943.5417471541259
 20
1360.6212732234369
 30
0.0
 11
1943.5417471541259
 21
1320.6212732234369
 31
0.0
  0
INSERT
  5
8199
  8
3
 62
     0
  2
_DOT
 10
1943.5417471541259
 20
1360.6212732234369
 30
0.0
 41
30.0
 42
30.0
 43
30.0
 50
270.0
  0
INSERT
  5
819A
  8
3
 62
     0
  2
_OPEN
 10
1943.5417471541259
 20
1320.6212732234369
 30
0.0
 41
30.0
 42
30.0
 43
30.0
 50
90.0
  0
TEXT
  5
819B
  8
3
 62
     0
 10
1928.5417471541259
 20
1172.7641303662949
 30
0.0
 40
45.0
  1
40
 50
90.0
  0
POINT
  5
819C
  8
DEFPOINTS
 62
     0
 10
2069.9074196966471
 20
1360.6212732234369
 30
0.0
  0
POINT
  5
819D
  8
DEFPOINTS
 62
     0
 10
2071.468002326942
 20
1320.6212732234369
 30
0.0
  0
POINT
  5
819E
  8
DEFPOINTS
 62
     0
 10
1943.5417471541259
 20
1320.6212732234369
 30
0.0
  0
ENDBLK
  5
81A0
  8
0
  0
BLOCK
  8
0
  2
_DOT
 70
     0
 10
0.0
 20
0.0
 30
0.0
  3
_DOT
  1

  0
LINE
  5
81A2
  8
0
  6
BYBLOCK
 62
     0
 10
0.0
 20
0.0
 30
0.0
 11
-1.0
 21
-0.0000000000000284
 31
0.0
  0
POLYLINE
  5
81A3
  8
0
  6
BYBLOCK
 62
     0
 66
     1
 10
0.0
 20
0.0
 30
0.0
 70
     1
 40
0.1666666666666666
 41
0.1666666666666666
  0
VERTEX
  5
8CD3
  8
0
  6
BYBLOCK
 62
     0
 10
-0.0833333333333286
 20
-0.0000000000000284
 30
0.0
 42
1.0
  0
VERTEX
  5
8CD4
  8
0
  6
BYBLOCK
 62
     0
 10
0.0833333333333286
 20
-0.0000000000000284
 30
0.0
 42
1.0
  0
SEQEND
  5
8CD5
  8
0
  6
BYBLOCK
 62
     0
  0
ENDBLK
  5
81A5
  8
0
  0
BLOCK
  8
0
  2
*D10
 70
     1
 10
0.0
 20
0.0
 30
0.0
  3
*D10
  1

  0
LINE
  5
81A7
  8
3
 62
     0
 10
2104.9074196966471
 20
1793.121273223438
 30
0.0
 11
2104.9074196966471
 21
2531.7451791682829
 31
0.0
  0
LINE
  5
81A8
  8
3
 62
     0
 10
2664.9074196966458
 20
1793.121273223438
 30
0.0
 11
2664.9074196966458
 21
2531.7451791682829
 31
0.0
  0
LINE
  5
81A9
  8
3
 62
     0
 10
2134.9074196966458
 20
2516.7451791682829
 30
0.0
 11
2634.9074196966458
 21
2516.7451791682829
 31
0.0
  0
INSERT
  5
81AA
  8
3
 62
     0
  2
_OPEN
 10
2104.9074196966471
 20
2516.7451791682829
 30
0.0
 41
30.0
 42
30.0
 43
30.0
 50
180.0
  0
INSERT
  5
81AB
  8
3
 62
     0
  2
_OPEN
 10
2664.9074196966458
 20
2516.7451791682829
 30
0.0
 41
30.0
 42
30.0
 43
30.0
  0
TEXT
  5
81AC
  8
3
 62
     0
 10
2325.4850324461172
 20
2531.7451791682829
 30
0.0
 40
45.0
  1
560
  0
POINT
  5
81AD
  8
DEFPOINTS
 62
     0
 10
2104.9074196966471
 20
1785.6212732234369
 30
0.0
  0
POINT
  5
81AE
  8
DEFPOINTS
 62
     0
 10
2664.9074196966458
 20
1785.6212732234369
 30
0.0
  0
POINT
  5
81AF
  8
DEFPOINTS
 62
     0
 10
2664.9074196966458
 20
2516.7451791682829
 30
0.0
  0
ENDBLK
  5
81B1
  8
0
  0
BLOCK
  8
0
  2
*D11
 70
     1
 10
0.0
 20
0.0
 30
0.0
  3
*D11
  1

  0
LINE
  5
81B3
  8
3
 62
     0
 10
551.36841144252594
 20
1313.121273223438
 30
0.0
 11
551.36841144252594
 21
1158.368531391106
 31
0.0
  0
LINE
  5
81B4
  8
3
 62
     0
 10
1241.3684114425259
 20
1313.121273223438
 30
0.0
 11
1241.3684114425259
 21
1158.368531391106
 31
0.0
  0
LINE
  5
81B5
  8
3
 62
     0
 10
581.36841144252594
 20
1173.368531391106
 30
0.0
 11
1211.3684114425259
 21
1173.368531391106
 31
0.0
  0
INSERT
  5
81B6
  8
3
 62
     0
  2
_OPEN
 10
551.36841144252594
 20
1173.368531391106
 30
0.0
 41
30.0
 42
30.0
 43
30.0
 50
180.0
  0
INSERT
  5
81B7
  8
3
 62
     0
  2
_OPEN
 10
1241.3684114425259
 20
1173.368531391106
 30
0.0
 41
30.0
 42
30.0
 43
30.0
  0
TEXT
  5
81B8
  8
3
 62
     0
 10
807.55596748640539
 20
1188.368531391106
 30
0.0
 40
45.0
  1
690
  0
POINT
  5
81B9
  8
DEFPOINTS
 62
     0
 10
551.36841144252594
 20
1320.621273223438
 30
0.0
  0
POINT
  5
81BA
  8
DEFPOINTS
 62
     0
 10
1241.3684114425259
 20
1320.621273223438
 30
0.0
  0
POINT
  5
81BB
  8
DEFPOINTS
 62
     0
 10
1241.3684114425259
 20
1173.368531391106
 30
0.0
  0
ENDBLK
  5
81BD
  8
0
  0
BLOCK
  8
0
  2
*D12
 70
     1
 10
0.0
 20
0.0
 30
0.0
  3
*D12
  1

  0
LINE
  5
81BF
  8
3
 62
     0
 10
2069.9074196966471
 20
1313.121273223438
 30
0.0
 11
2069.9074196966471
 21
1156.460255182197
 31
0.0
  0
LINE
  5
81C0
  8
3
 62
     0
 10
2699.9074196966471
 20
1313.1212732234369
 30
0.0
 11
2699.9074196966471
 21
1156.460255182197
 31
0.0
  0
LINE
  5
81C1
  8
3
 62
     0
 10
2099.9074196966471
 20
1171.460255182197
 30
0.0
 11
2669.9074196966471
 21
1171.460255182197
 31
0.0
  0
INSERT
  5
81C2
  8
3
 62
     0
  2
_OPEN
 10
2069.9074196966471
 20
1171.460255182197
 30
0.0
 41
30.0
 42
30.0
 43
30.0
 50
180.0
  0
INSERT
  5
81C3
  8
3
 62
     0
  2
_OPEN
 10
2699.9074196966471
 20
1171.460255182197
 30
0.0
 41
30.0
 42
30.0
 43
30.0
  0
TEXT
  5
81C4
  8
3
 62
     0
 10
2328.9443725363622
 20
1186.460255182197
 30
0.0
 40
45.0
  1
630
  0
POINT
  5
81C5
  8
DEFPOINTS
 62
     0
 10
2069.9074196966471
 20
1320.621273223438
 30
0.0
  0
POINT
  5
81C6
  8
DEFPOINTS
 62
     0
 10
2699.9074196966471
 20
1320.6212732234369
 30
0.0
  0
POINT
  5
81C7
  8
DEFPOINTS
 62
     0
 10
2699.9074196966471
 20
1171.460255182197
 30
0.0
  0
ENDBLK
  5
81C9
  8
0
  0
BLOCK
  8
0
  2
*D13
 70
     1
 10
0.0
 20
0.0
 30
0.0
  3
*D13
  1

  0
LINE
  5
81CB
  8
3
 62
     0
 10
2377.4074196966458
 20
2416.3615341282789
 30
0.0
 11
1928.5417471541259
 21
2416.3615341282789
 31
0.0
  0
LINE
  5
81CC
  8
3
 62
     0
 10
1943.5417471541259
 20
1815.6212732234369
 30
0.0
 11
1943.5417471541259
 21
2386.3615341282789
 31
0.0
  0
INSERT
  5
81CD
  8
3
 62
     0
  2
_OPEN
 10
1943.5417471541259
 20
1785.6212732234369
 30
0.0
 41
30.0
 42
30.0
 43
30.0
 50
270.0
  0
INSERT
  5
81CE
  8
3
 62
     0
  2
_OPEN
 10
1943.5417471541259
 20
2416.3615341282789
 30
0.0
 41
30.0
 42
30.0
 43
30.0
 50
90.0
  0
TEXT
  5
81CF
  8
3
 62
     0
 10
1928.5417471541259
 20
1965.9914036758589
 30
0.0
 40
45.0
  1
MAX.710
 50
90.0
  0
POINT
  5
81D0
  8
DEFPOINTS
 62
     0
 10
2086.9074196966458
 20
1785.6212732234369
 30
0.0
  0
POINT
  5
81D1
  8
DEFPOINTS
 62
     0
 10
2384.9074196966458
 20
2416.3615341282789
 30
0.0
  0
POINT
  5
81D2
  8
DEFPOINTS
 62
     0
 10
1943.5417471541259
 20
2416.3615341282789
 30
0.0
  0
ENDBLK
  5
81D4
  8
0
  0
BLOCK
  8
0
  2
AP052DP80
 70
     0
 10
0.0
 20
0.0
 30
0.0
  3
AP052DP80
  1

  0
LINE
  5
81D6
  8
1
 10
591.36841144252594
 20
1535.621273223438
 30
0.0
 11
1201.3684114425259
 21
1535.621273223438
 31
0.0
  0
LINE
  5
81D7
  8
1
 10
591.36841144252594
 20
2035.6212732234369
 30
0.0
 11
1201.3684114425259
 21
2035.6212732234369
 31
0.0
  0
LINE
  5
81D8
  8
2
 10
535.65030182736689
 20
1785.6212732234369
 30
0.0
 11
1258.584964402542
 21
1785.6212732234369
 31
0.0
  0
LINE
  5
81D9
  8
1
 10
591.36841144252594
 20
2065.621273223438
 30
0.0
 11
591.36841144252594
 21
1505.621273223438
 31
0.0
  0
LINE
  5
81DA
  8
1
 10
594.56841144252621
 20
2065.621273223438
 30
0.0
 11
594.56841144252621
 21
1505.621273223438
 31
0.0
  0
LINE
  5
81DB
  8
2
 10
577.06684042869836
 20
1520.621273223438
 30
0.0
 11
610.07599238062846
 21
1520.621273223438
 31
0.0
  0
LINE
  5
81DC
  8
1
 10
594.56841144252621
 20
1505.621273223438
 30
0.0
 11
591.36841144252594
 21
1505.621273223438
 31
0.0
  0
LINE
  5
81DD
  8
1
 10
577.06684042869836
 20
2050.6212732234371
 30
0.0
 11
610.07599238062846
 21
2050.621273223438
 31
0.0
  0
LINE
  5
81DE
  8
1
 10
594.56841144252621
 20
2065.621273223438
 30
0.0
 11
591.36841144252594
 21
2065.621273223438
 31
0.0
  0
LINE
  5
81DF
  8
1
 10
1184.1482694463889
 20
2050.621273223438
 30
0.0
 11
1217.1574213983199
 21
2050.621273223438
 31
0.0
  0
LINE
  5
81E0
  8
2
 10
1184.1482694463889
 20
1520.621273223438
 30
0.0
 11
1217.1574213983199
 21
1520.621273223438
 31
0.0
  0
LINE
  5
81E1
  8
1
 10
1201.3684114425259
 20
2065.621273223438
 30
0.0
 11
1201.3684114425259
 21
1505.621273223438
 31
0.0
  0
LINE
  5
81E2
  8
1
 10
1231.3684114425259
 20
1534.621273223438
 30
0.0
 11
1231.3684114425259
 21
2036.621273223438
 31
0.0
  0
LINE
  5
81E3
  8
1
 10
1204.368411442525
 20
2063.621273223438
 30
0.0
 11
1204.368411442525
 21
1507.621273223438
 31
0.0
  0
LINE
  5
81E4
  8
1
 10
1198.168411442525
 20
2065.621273223438
 30
0.0
 11
1198.168411442525
 21
1505.621273223438
 31
0.0
  0
LINE
  5
81E5
  8
1
 10
1201.3684114425259
 20
2065.621273223438
 30
0.0
 11
1201.3684114425259
 21
1505.621273223438
 31
0.0
  0
LINE
  5
81E6
  8
1
 10
1198.168411442525
 20
1505.621273223438
 30
0.0
 11
1201.3684114425259
 21
1505.621273223438
 31
0.0
  0
LINE
  5
81E7
  8
1
 10
1201.3684114425259
 20
1505.621273223438
 30
0.0
 11
1202.3684114425259
 21
1505.621273223438
 31
0.0
  0
ARC
  5
81E8
  8
1
 10
1202.3684114425259
 20
1507.621273223438
 30
0.0
 40
2.0
 50
270.0
 51
0.0
  0
LINE
  5
81E9
  8
1
 10
1231.3684114425259
 20
1535.621273223438
 30
0.0
 11
1204.368411442525
 21
1535.621273223438
 31
0.0
  0
LINE
  5
81EA
  8
1
 10
1208.3684114425259
 20
1532.621273223438
 30
0.0
 11
1229.3684114425259
 21
1532.621273223438
 31
0.0
  0
ARC
  5
81EB
  8
1
 10
1208.3684114425259
 20
1528.621273223438
 30
0.0
 40
4.0
 50
90.0
 51
180.0
  0
ARC
  5
81EC
  8
1
 10
1229.3684114425259
 20
1534.621273223438
 30
0.0
 40
2.0
 50
270.0
 51
0.0
  0
LINE
  5
81ED
  8
1
 10
1198.168411442525
 20
2065.621273223438
 30
0.0
 11
1201.3684114425259
 21
2065.621273223438
 31
0.0
  0
LINE
  5
81EE
  8
1
 10
1208.3684114425259
 20
2038.621273223438
 30
0.0
 11
1229.3684114425259
 21
2038.621273223438
 31
0.0
  0
LINE
  5
81EF
  8
1
 10
1231.3684114425259
 20
2035.6212732234369
 30
0.0
 11
1204.368411442525
 21
2035.6212732234369
 31
0.0
  0
ARC
  5
81F0
  8
1
 10
1208.3684114425259
 20
2042.621273223438
 30
0.0
 40
4.0
 50
180.0
 51
270.0
  0
ARC
  5
81F1
  8
1
 10
1229.3684114425259
 20
2036.621273223438
 30
0.0
 40
2.0
 50
0.0
 51
90.0
  0
LINE
  5
81F2
  8
1
 10
1201.3684114425259
 20
2065.621273223438
 30
0.0
 11
1202.3684114425259
 21
2065.621273223438
 31
0.0
  0
ARC
  5
81F3
  8
1
 10
1202.3684114425259
 20
2063.621273223438
 30
0.0
 40
2.0
 50
0.0
 51
90.0
  0
LINE
  5
81F4
  8
1
 10
938.66670552035441
 20
2081.6784714202449
 30
0.0
 11
938.66670552035441
 21
2090.4073159134032
 31
0.0
  0
LINE
  5
81F5
  8
1
 10
945.01755848143966
 20
2081.6784714202458
 30
0.0
 11
945.01755848143966
 21
2090.4073159134032
 31
0.0
  0
LINE
  5
81F6
  8
1
 10
964.07011736469747
 20
2090.4073159134032
 30
0.0
 11
964.07011736469747
 21
2081.6784714202458
 31
0.0
  0
LINE
  5
81F7
  8
1
 10
957.71926440361131
 20
2081.6784714202458
 30
0.0
 11
957.71926440361131
 21
2090.4073159134032
 31
0.0
  0
LINE
  5
81F8
  8
2
 10
951.36841144252594
 20
2163.4648858052628
 30
0.0
 11
951.36841144252594
 21
1976.91924763051
 31
0.0
  0
LINE
  5
81F9
  8
1
 10
2572.4074196966458
 20
2035.4643192565591
 30
0.0
 11
2572.4074196966449
 21
2118.8022688497308
 31
0.0
  0
LINE
  5
81FA
  8
1
 10
2566.4074196966471
 20
2046.3615341282789
 30
0.0
 11
2566.4074196966449
 21
2106.3615341282789
 31
0.0
  0
LINE
  5
81FB
  8
1
 10
2578.4074196966471
 20
2046.3615341282789
 30
0.0
 11
2578.4074196966449
 21
2106.3615341282789
 31
0.0
  0
LINE
  5
81FC
  8
1
 10
2589.9074196966458
 20
1976.343584451045
 30
0.0
 11
2589.9074196966458
 21
2136.3615341282789
 31
0.0
  0
LINE
  5
81FD
  8
1
 10
2549.9074196966458
 20
2011.8401937407109
 30
0.0
 11
2549.9074196966458
 21
2136.3615341282789
 31
0.0
  0
LINE
  5
81FE
  8
1
 10
2554.4074196966458
 20
2008.4883860956611
 30
0.0
 11
2554.4074196966458
 21
2136.3615341282789
 31
0.0
  0
LINE
  5
81FF
  8
1
 10
2589.9074196966458
 20
2061.3296075423959
 30
0.0
 11
2589.9074196966458
 21
2096.329607542395
 31
0.0
  0
LINE
  5
8200
  8
2
 10
2086.9074196966458
 20
1785.6212732234369
 30
0.0
 11
2682.9074196966458
 21
1785.6212732234369
 31
0.0
  0
CIRCLE
  5
8201
  8
1
 10
2384.9074196966458
 20
1785.6212732234369
 30
0.0
 40
280.0
  0
CIRCLE
  5
8202
  8
1
 10
2384.9074196966458
 20
1785.6212732234369
 30
0.0
 40
250.0
  0
LINE
  5
8203
  8
2
 10
2384.9074196966458
 20
1487.621273223438
 30
0.0
 11
2384.9074196966458
 21
2443.0590726184751
 31
0.0
  0
POINT
  5
8204
  8
1
 10
2086.9074196966458
 20
1785.6212732234369
 30
0.0
  0
POINT
  5
8205
  8
1
 10
2493.3492874547501
 20
2010.877485828405
 30
0.0
  0
ARC
  5
8206
  8
1
 10
2572.4074196966449
 20
2046.3615341282789
 30
0.0
 40
6.0
 50
180.0
 51
0.0
  0
POINT
  5
8207
  8
1
 10
2682.9074196966458
 20
1785.6212732234369
 30
0.0
  0
LINE
  5
8208
  8
1
 10
943.36841144252594
 20
2080.4073159134032
 30
0.0
 11
943.36841144252594
 21
1986.3615341282789
 31
0.0
  0
LINE
  5
8209
  8
1
 10
959.36841144252605
 20
2080.4073159134032
 30
0.0
 11
959.36841144252605
 21
1986.3615341282789
 31
0.0
  0
ARC
  5
820A
  8
1
 10
951.36841144252514
 20
2096.6401433936189
 30
0.0
 40
16.253767611608801
 50
247.00000000000239
 51
293.0000000000004
  0
POLYLINE
  5
820B
  8
1
 66
     1
 10
0.0
 20
0.0
 30
0.0
  0
VERTEX
  5
8CD6
  8
1
 10
961.86841144252605
 20
2080.4073159134032
 30
0.0
  0
VERTEX
  5
8CD7
  8
1
 10
940.86841144252594
 20
2080.4073159134032
 30
0.0
  0
SEQEND
  5
8CD8
  8
1
  0
LINE
  5
820C
  8
1
 10
961.86841144252605
 20
2080.4073159134032
 30
0.0
 11
964.07011736469747
 21
2081.6784714202458
 31
0.0
  0
ARC
  5
820D
  8
1
 10
960.89469088415433
 20
2084.8538979007881
 30
0.0
 40
4.4907311951024482
 50
224.99999999999901
 51
314.99999999999898
  0
ARC
  5
820E
  8
1
 10
941.84213200089653
 20
2084.8538979007881
 30
0.0
 40
4.4907311951024482
 50
225.00000000000091
 51
315.00000000000091
  0
LINE
  5
820F
  8
1
 10
940.86841144252594
 20
2080.4073159134032
 30
0.0
 11
938.66670552035328
 21
2081.6784714202458
 31
0.0
  0
LINE
  5
8210
  8
1
 10
2549.9074196966458
 20
2136.3615341282789
 30
0.0
 11
2589.9074196966458
 21
2136.3615341282789
 31
0.0
  0
ARC
  5
8211
  8
1
 10
2572.4074196966449
 20
2106.3615341282789
 30
0.0
 40
6.0
 50
0.0
 51
180.0
  0
LINE
  5
8212
  8
1
 10
943.36841144252594
 20
2155.6615341282791
 30
0.0
 11
943.36841144252594
 21
2106.3615341282789
 31
0.0
  0
LINE
  5
8213
  8
1
 10
959.36841144252605
 20
2155.6615341282791
 30
0.0
 11
959.36841144252605
 21
2106.3615341282789
 31
0.0
  0
POLYLINE
  5
8214
  8
1
 66
     1
 10
0.0
 20
0.0
 30
0.0
  0
VERTEX
  5
8CD9
  8
1
 10
961.86841144252605
 20
2106.3615341282789
 30
0.0
  0
VERTEX
  5
8CDA
  8
1
 10
940.86841144252594
 20
2106.3615341282789
 30
0.0
  0
SEQEND
  5
8CDB
  8
1
  0
ARC
  5
8215
  8
1
 10
951.36841144252514
 20
2090.1287066480631
 30
0.0
 40
16.253767611608801
 50
66.999999999999602
 51
112.9999999999975
  0
ARC
  5
8216
  8
1
 10
960.89469088415433
 20
2101.914952140894
 30
0.0
 40
4.4907311951024482
 50
45.000000000001023
 51
135.00000000000099
  0
LINE
  5
8217
  8
1
 10
961.86841144252605
 20
2106.3615341282789
 30
0.0
 11
964.07011736469747
 21
2105.0903786214371
 31
0.0
  0
LINE
  5
8218
  8
1
 10
957.71926440361131
 20
2105.0903786214371
 30
0.0
 11
957.71926440361131
 21
2096.3615341282789
 31
0.0
  0
LINE
  5
8219
  8
1
 10
964.07011736469747
 20
2096.3615341282789
 30
0.0
 11
964.07011736469747
 21
2105.0903786214371
 31
0.0
  0
LINE
  5
821A
  8
1
 10
940.86841144252594
 20
2106.3615341282789
 30
0.0
 11
938.66670552035328
 21
2105.0903786214371
 31
0.0
  0
LINE
  5
821B
  8
1
 10
945.01755848143966
 20
2105.0903786214371
 30
0.0
 11
945.01755848143966
 21
2096.3615341282789
 31
0.0
  0
ARC
  5
821C
  8
1
 10
941.84213200089653
 20
2101.914952140894
 30
0.0
 40
4.4907311951024482
 50
44.999999999999027
 51
134.99999999999901
  0
LINE
  5
821D
  8
1
 10
938.66670552035441
 20
2105.0903786214371
 30
0.0
 11
938.66670552035441
 21
2096.3615341282789
 31
0.0
  0
LINE
  5
821E
  8
1
 10
944.36841144252594
 20
2156.6615341282791
 30
0.0
 11
958.36841144252605
 21
2156.6615341282791
 31
0.0
  0
LINE
  5
821F
  8
1
 10
943.36841144252594
 20
2155.6615341282791
 30
0.0
 11
959.36841144252605
 21
2155.6615341282791
 31
0.0
  0
LINE
  5
8220
  8
1
 10
959.36841144252605
 20
2155.6615341282791
 30
0.0
 11
958.36841144252605
 21
2156.6615341282791
 31
0.0
  0
LINE
  5
8221
  8
1
 10
944.36841144252594
 20
2156.6615341282791
 30
0.0
 11
943.36841144252594
 21
2155.6615341282791
 31
0.0
  0
LINE
  5
8222
  8
1
 10
2219.9074196966471
 20
2096.3615341282789
 30
0.0
 11
2549.9074196966458
 21
2096.3615341282789
 31
0.0
  0
LINE
  5
8223
  8
1
 10
2219.9074196966471
 20
2061.3615341282789
 30
0.0
 11
2549.9074196966458
 21
2061.3615341282789
 31
0.0
  0
LINE
  5
8224
  8
1
 10
2219.9074196966471
 20
2091.8615341282789
 30
0.0
 11
2549.9074196966458
 21
2091.8615341282789
 31
0.0
  0
LINE
  5
8225
  8
1
 10
2215.4074196966471
 20
2008.4883860956611
 30
0.0
 11
2215.4074196966471
 21
2136.3615341282789
 31
0.0
  0
LINE
  5
8226
  8
1
 10
2219.9074196966471
 20
2011.8401937407109
 30
0.0
 11
2219.9074196966471
 21
2136.3615341282789
 31
0.0
  0
LINE
  5
8227
  8
1
 10
2179.9074196966471
 20
1976.343584451045
 30
0.0
 11
2179.9074196966471
 21
2136.3615341282789
 31
0.0
  0
LINE
  5
8228
  8
1
 10
2191.4074196966458
 20
2046.3615341282789
 30
0.0
 11
2191.4074196966471
 21
2106.3615341282789
 31
0.0
  0
LINE
  5
8229
  8
1
 10
2203.4074196966471
 20
2046.3615341282789
 30
0.0
 11
2203.4074196966471
 21
2106.3615341282789
 31
0.0
  0
LINE
  5
822A
  8
1
 10
2197.4074196966458
 20
2035.4643192565591
 30
0.0
 11
2197.4074196966471
 21
2118.8022688497308
 31
0.0
  0
ARC
  5
822B
  8
1
 10
2197.4074196966471
 20
2046.3615341282789
 30
0.0
 40
6.0
 50
180.0
 51
0.0
  0
LINE
  5
822C
  8
1
 10
2179.9074196966458
 20
2061.3296075423959
 30
0.0
 11
2179.9074196966458
 21
2096.329607542395
 31
0.0
  0
LINE
  5
822D
  8
1
 10
2219.9074196966458
 20
2136.3615341282789
 30
0.0
 11
2179.9074196966458
 21
2136.3615341282789
 31
0.0
  0
ARC
  5
822E
  8
1
 10
2197.4074196966471
 20
2106.3615341282789
 30
0.0
 40
6.0
 50
0.0
 51
180.0
  0
LINE
  5
822F
  8
1
 10
951.36841144252594
 20
1986.3615341282789
 30
0.0
 11
951.36841144252594
 21
2136.3615341282789
 31
0.0
  0
LINE
  5
8230
  8
1
 10
655.01755848143966
 20
2105.0903786214371
 30
0.0
 11
655.01755848143966
 21
2096.3615341282789
 31
0.0
  0
LINE
  5
8231
  8
1
 10
648.66670552035418
 20
2105.0903786214371
 30
0.0
 11
648.66670552035418
 21
2096.3615341282789
 31
0.0
  0
LINE
  5
8232
  8
1
 10
667.71926440361131
 20
2105.0903786214371
 30
0.0
 11
667.71926440361131
 21
2096.3615341282789
 31
0.0
  0
LINE
  5
8233
  8
1
 10
674.07011736469747
 20
2096.3615341282789
 30
0.0
 11
674.07011736469747
 21
2105.0903786214371
 31
0.0
  0
LINE
  5
8234
  8
2
 10
661.36841144252594
 20
2163.4648858052628
 30
0.0
 11
661.36841144252594
 21
1976.91924763051
 31
0.0
  0
ARC
  5
8235
  8
1
 10
661.36841144252503
 20
2096.6401433936189
 30
0.0
 40
16.253767611608801
 50
247.00000000000239
 51
293.0000000000004
  0
POLYLINE
  5
8236
  8
1
 66
     1
 10
0.0
 20
0.0
 30
0.0
  0
VERTEX
  5
8CDC
  8
1
 10
671.86841144252594
 20
2080.4073159134032
 30
0.0
  0
VERTEX
  5
8CDD
  8
1
 10
650.86841144252594
 20
2080.4073159134032
 30
0.0
  0
SEQEND
  5
8CDE
  8
1
  0
LINE
  5
8237
  8
1
 10
669.36841144252594
 20
2080.4073159134032
 30
0.0
 11
669.36841144252594
 21
1986.3615341282789
 31
0.0
  0
LINE
  5
8238
  8
1
 10
671.86841144252594
 20
2080.4073159134032
 30
0.0
 11
674.07011736469747
 21
2081.6784714202458
 31
0.0
  0
ARC
  5
8239
  8
1
 10
670.89469088415444
 20
2084.8538979007881
 30
0.0
 40
4.4907311951024482
 50
224.99999999999901
 51
314.99999999999898
  0
LINE
  5
823A
  8
1
 10
674.07011736469747
 20
2090.4073159134032
 30
0.0
 11
674.07011736469747
 21
2081.6784714202458
 31
0.0
  0
LINE
  5
823B
  8
1
 10
667.71926440361131
 20
2081.6784714202458
 30
0.0
 11
667.71926440361131
 21
2090.4073159134032
 31
0.0
  0
LINE
  5
823C
  8
1
 10
653.36841144252594
 20
2080.4073159134032
 30
0.0
 11
653.36841144252594
 21
1986.3615341282789
 31
0.0
  0
ARC
  5
823D
  8
1
 10
651.84213200089653
 20
2084.8538979007881
 30
0.0
 40
4.4907311951024482
 50
225.00000000000091
 51
315.00000000000091
  0
LINE
  5
823E
  8
1
 10
650.86841144252594
 20
2080.4073159134032
 30
0.0
 11
648.66670552035328
 21
2081.6784714202458
 31
0.0
  0
LINE
  5
823F
  8
1
 10
648.66670552035418
 20
2081.6784714202449
 30
0.0
 11
648.66670552035418
 21
2090.4073159134032
 31
0.0
  0
LINE
  5
8240
  8
1
 10
655.01755848143966
 20
2081.6784714202458
 30
0.0
 11
655.01755848143966
 21
2090.4073159134032
 31
0.0
  0
LINE
  5
8241
  8
1
 10
654.36841144252594
 20
2156.6615341282791
 30
0.0
 11
668.36841144252594
 21
2156.6615341282791
 31
0.0
  0
LINE
  5
8242
  8
1
 10
653.36841144252594
 20
2155.6615341282791
 30
0.0
 11
669.36841144252594
 21
2155.6615341282791
 31
0.0
  0
POLYLINE
  5
8243
  8
1
 66
     1
 10
0.0
 20
0.0
 30
0.0
  0
VERTEX
  5
8CDF
  8
1
 10
671.86841144252594
 20
2106.3615341282789
 30
0.0
  0
VERTEX
  5
8CE0
  8
1
 10
650.86841144252594
 20
2106.3615341282789
 30
0.0
  0
SEQEND
  5
8CE1
  8
1
  0
ARC
  5
8244
  8
1
 10
661.36841144252503
 20
2090.1287066480631
 30
0.0
 40
16.253767611608801
 50
66.999999999999602
 51
112.9999999999975
  0
LINE
  5
8245
  8
1
 10
669.36841144252594
 20
2155.6615341282791
 30
0.0
 11
669.36841144252594
 21
2106.3615341282789
 31
0.0
  0
ARC
  5
8246
  8
1
 10
670.89469088415444
 20
2101.914952140894
 30
0.0
 40
4.4907311951024482
 50
45.000000000001023
 51
135.00000000000099
  0
LINE
  5
8247
  8
1
 10
671.86841144252594
 20
2106.3615341282789
 30
0.0
 11
674.07011736469747
 21
2105.0903786214371
 31
0.0
  0
LINE
  5
8248
  8
1
 10
669.36841144252594
 20
2155.6615341282791
 30
0.0
 11
668.36841144252594
 21
2156.6615341282791
 31
0.0
  0
LINE
  5
8249
  8
1
 10
653.36841144252594
 20
2155.6615341282791
 30
0.0
 11
653.36841144252594
 21
2106.3615341282789
 31
0.0
  0
LINE
  5
824A
  8
1
 10
650.86841144252594
 20
2106.3615341282789
 30
0.0
 11
648.66670552035328
 21
2105.0903786214371
 31
0.0
  0
ARC
  5
824B
  8
1
 10
651.84213200089653
 20
2101.914952140894
 30
0.0
 40
4.4907311951024482
 50
44.999999999999027
 51
134.99999999999901
  0
LINE
  5
824C
  8
1
 10
654.36841144252594
 20
2156.6615341282791
 30
0.0
 11
653.36841144252594
 21
2155.6615341282791
 31
0.0
  0
LINE
  5
824D
  8
1
 10
1001.368411442525
 20
1986.3615341282789
 30
0.0
 11
1001.368411442525
 21
2136.3615341282789
 31
0.0
  0
LINE
  5
824E
  8
1
 10
1139.368411442525
 20
1986.3615341282789
 30
0.0
 11
1056.368411442525
 21
2136.3615341282789
 31
0.0
  0
LINE
  5
824F
  8
1
 10
1005.868411442525
 20
1986.3615341282789
 30
0.0
 11
1005.868411442525
 21
2136.3615341282789
 31
0.0
  0
LINE
  5
8250
  8
1
 10
1001.3684114425261
 20
2061.3615341282789
 30
0.0
 11
995.36841144252548
 21
2061.3615341282789
 31
0.0
  0
LINE
  5
8251
  8
1
 10
995.36841144252548
 20
2061.3615341282789
 30
0.0
 11
995.36841144252594
 21
2090.3615341282789
 31
0.0
  0
LINE
  5
8252
  8
1
 10
1001.368411442525
 20
2136.3615341282789
 30
0.0
 11
1056.368411442525
 21
2136.3615341282789
 31
0.0
  0
LINE
  5
8253
  8
1
 10
1001.3684114425261
 20
2096.3615341282789
 30
0.0
 11
611.36841144252548
 21
2096.3615341282789
 31
0.0
  0
LINE
  5
8254
  8
1
 10
995.36841144252594
 20
2090.3615341282789
 30
0.0
 11
617.36841144252503
 21
2090.3615341282789
 31
0.0
  0
LINE
  5
8255
  8
1
 10
611.36841144252503
 20
2061.3615341282789
 30
0.0
 11
611.36841144252548
 21
2096.3615341282789
 31
0.0
  0
LINE
  5
8256
  8
1
 10
617.36841144252446
 20
2061.3615341282789
 30
0.0
 11
617.36841144252446
 21
2090.3615341282789
 31
0.0
  0
LINE
  5
8257
  8
1
 10
951.36841144252537
 20
2163.4648858052628
 30
0.0
 11
951.36841144252537
 21
1976.91924763051
 31
0.0
  0
LINE
  5
8258
  8
1
 10
1171.368411442525
 20
1986.3615341282789
 30
0.0
 11
621.36841144252537
 21
1986.3615341282789
 31
0.0
  0
LINE
  5
8259
  8
1
 10
1171.368411442525
 20
1933.3615341282789
 30
0.0
 11
621.36841144252537
 21
1933.3615341282789
 31
0.0
  0
LINE
  5
825A
  8
1
 10
1171.368411442525
 20
1986.3615341282789
 30
0.0
 11
1171.368411442525
 21
1933.3615341282789
 31
0.0
  0
LINE
  5
825B
  8
1
 10
621.36841144252537
 20
1986.3615341282789
 30
0.0
 11
621.36841144252537
 21
1933.3615341282789
 31
0.0
  0
LINE
  5
825C
  8
1
 10
611.36841144252503
 20
2061.3615341282789
 30
0.0
 11
617.36841144252446
 21
2061.3615341282789
 31
0.0
  0
LINE
  5
825D
  8
1
 10
661.36841144252548
 20
2163.4648858052628
 30
0.0
 11
661.36841144252548
 21
1976.91924763051
 31
0.0
  0
LINE
  5
825E
  8
1
 10
588.36841144252594
 20
2063.621273223438
 30
0.0
 11
588.36841144252594
 21
1507.621273223438
 31
0.0
  0
LINE
  5
825F
  8
1
 10
561.36841144252594
 20
1534.621273223438
 30
0.0
 11
561.36841144252594
 21
2036.621273223438
 31
0.0
  0
LINE
  5
8260
  8
1
 10
591.36841144252594
 20
2065.621273223438
 30
0.0
 11
591.36841144252594
 21
1505.621273223438
 31
0.0
  0
ARC
  5
8261
  8
1
 10
590.36841144252594
 20
1507.621273223438
 30
0.0
 40
2.0
 50
180.0
 51
270.0
  0
LINE
  5
8262
  8
1
 10
591.36841144252594
 20
1505.621273223438
 30
0.0
 11
590.36841144252594
 21
1505.621273223438
 31
0.0
  0
LINE
  5
8263
  8
1
 10
584.36841144252594
 20
1532.621273223438
 30
0.0
 11
563.36841144252594
 21
1532.621273223438
 31
0.0
  0
LINE
  5
8264
  8
1
 10
561.36841144252594
 20
1535.621273223438
 30
0.0
 11
588.36841144252594
 21
1535.621273223438
 31
0.0
  0
ARC
  5
8265
  8
1
 10
584.36841144252594
 20
1528.621273223438
 30
0.0
 40
4.0
 50
0.0
 51
90.0
  0
ARC
  5
8266
  8
1
 10
563.36841144252594
 20
1534.621273223438
 30
0.0
 40
2.0
 50
180.0
 51
270.0
  0
LINE
  5
8267
  8
1
 10
561.36841144252594
 20
2035.6212732234369
 30
0.0
 11
588.36841144252594
 21
2035.6212732234369
 31
0.0
  0
LINE
  5
8268
  8
1
 10
584.36841144252594
 20
2038.621273223438
 30
0.0
 11
563.36841144252594
 21
2038.621273223438
 31
0.0
  0
ARC
  5
8269
  8
1
 10
584.36841144252594
 20
2042.621273223438
 30
0.0
 40
4.0
 50
270.0
 51
0.0
  0
ARC
  5
826A
  8
1
 10
563.36841144252594
 20
2036.621273223438
 30
0.0
 40
2.0
 50
90.0
 51
180.0
  0
ARC
  5
826B
  8
1
 10
590.36841144252594
 20
2063.621273223438
 30
0.0
 40
2.0
 50
90.0
 51
180.0
  0
LINE
  5
826C
  8
1
 10
591.36841144252594
 20
2065.621273223438
 30
0.0
 11
590.36841144252594
 21
2065.621273223438
 31
0.0
  0
LINE
  5
826D
  8
1
 10
2159.9074196966458
 20
1455.621273223438
 30
0.0
 11
2609.9074196966458
 21
1455.621273223438
 31
0.0
  0
LINE
  5
826E
  8
1
 10
654.56841144252564
 20
1460.121273223438
 30
0.0
 11
654.56841144252564
 21
1455.621273223438
 31
0.0
  0
LINE
  5
826F
  8
1
 10
594.56841144252564
 20
1615.6212732234369
 30
0.0
 11
594.56841144252564
 21
1455.621273223438
 31
0.0
  0
LINE
  5
8270
  8
1
 10
599.06841144252564
 20
1615.6212732234369
 30
0.0
 11
599.06841144252564
 21
1460.121273223438
 31
0.0
  0
LINE
  5
8271
  8
1
 10
654.56841144252564
 20
1460.121273223438
 30
0.0
 11
599.06841144252564
 21
1460.121273223438
 31
0.0
  0
LINE
  5
8272
  8
1
 10
594.56841144252564
 20
1615.6212732234369
 30
0.0
 11
599.06841144252564
 21
1615.6212732234369
 31
0.0
  0
LINE
  5
8273
  8
1
 10
594.56841144252564
 20
1605.6212732234369
 30
0.0
 11
599.06841144252564
 21
1605.6212732234369
 31
0.0
  0
LINE
  5
8274
  8
1
 10
1138.1684114425259
 20
1460.121273223438
 30
0.0
 11
1138.1684114425259
 21
1455.621273223438
 31
0.0
  0
LINE
  5
8275
  8
1
 10
1198.1684114425259
 20
1615.6212732234369
 30
0.0
 11
1198.1684114425259
 21
1455.621273223438
 31
0.0
  0
LINE
  5
8276
  8
1
 10
1138.1684114425259
 20
1460.121273223438
 30
0.0
 11
1193.6684114425259
 21
1460.121273223438
 31
0.0
  0
LINE
  5
8277
  8
1
 10
1193.6684114425259
 20
1615.6212732234369
 30
0.0
 11
1193.6684114425259
 21
1460.121273223438
 31
0.0
  0
LINE
  5
8278
  8
1
 10
1198.1684114425259
 20
1615.6212732234369
 30
0.0
 11
1193.6684114425259
 21
1615.6212732234369
 31
0.0
  0
LINE
  5
8279
  8
1
 10
1198.1684114425259
 20
1605.6212732234369
 30
0.0
 11
1193.6684114425259
 21
1605.6212732234369
 31
0.0
  0
LINE
  5
827A
  8
1
 10
2159.9074196966458
 20
1605.621273223436
 30
0.0
 11
2159.9074196966458
 21
1455.621273223438
 31
0.0
  0
LINE
  5
827B
  8
1
 10
2164.508969970535
 20
1612.9234928140561
 30
0.0
 11
2159.9074196966458
 21
1605.621273223438
 31
0.0
  0
LINE
  5
827C
  8
1
 10
2609.9074196966458
 20
1605.621273223438
 30
0.0
 11
2609.9074196966458
 21
1455.621273223438
 31
0.0
  0
LINE
  5
827D
  8
1
 10
2605.305869422758
 20
1612.923492814057
 30
0.0
 11
2609.9074196966458
 21
1605.621273223438
 31
0.0
  0
LINE
  5
827E
  8
1
 10
1241.3684114425259
 20
1320.621273223438
 30
0.0
 11
551.36841144252594
 21
1320.621273223438
 31
0.0
  0
LINE
  5
827F
  8
1
 10
2699.9074196966471
 20
1320.6212732234369
 30
0.0
 11
2069.9074196966471
 21
1320.621273223438
 31
0.0
  0
LINE
  5
8280
  8
1
 10
1241.3684114425259
 20
1360.6212732234369
 30
0.0
 11
551.36841144252594
 21
1360.6212732234369
 31
0.0
  0
LINE
  5
8281
  8
1
 10
2699.9074196966471
 20
1360.621273223438
 30
0.0
 11
2069.9074196966471
 21
1360.621273223438
 31
0.0
  0
LINE
  5
8282
  8
1
 10
2529.9074196966471
 20
2391.032446239903
 30
0.0
 11
2239.9074196966458
 21
2391.032446239903
 31
0.0
  0
LINE
  5
8283
  8
1
 10
2239.9074196966458
 20
1989.2753917676009
 30
0.0
 11
2239.9074196966458
 21
2388.8382616390518
 31
0.0
  0
LINE
  5
8284
  8
1
 10
2529.9074196966471
 20
1989.2753917676
 30
0.0
 11
2529.9074196966471
 21
2388.8382616390518
 31
0.0
  0
LINE
  5
8285
  8
1
 10
1160.8995116714791
 20
2388.8382616390518
 30
0.0
 11
1020.899511671479
 21
2388.8382616390518
 31
0.0
  0
LINE
  5
8286
  8
1
 10
1020.899511671479
 20
2388.8382616390518
 30
0.0
 11
1020.899511671479
 21
2035.6212732234369
 31
0.0
  0
LINE
  5
8287
  8
1
 10
1160.8995116714791
 20
2388.8382616390518
 30
0.0
 11
1160.8995116714791
 21
2038.621273223438
 31
0.0
  0
LINE
  5
8288
  8
1
 10
1111.7811977675681
 20
2329.9615341282788
 30
0.0
 11
1111.7811977675619
 21
1710.621273223438
 31
0.0
  0
LINE
  5
8289
  8
1
 10
1041.7811977675649
 20
2329.9615341282788
 30
0.0
 11
1111.7811977675681
 21
2329.9615341282788
 31
0.0
  0
LINE
  5
828A
  8
1
 10
1041.7811977675649
 20
2329.9615341282788
 30
0.0
 11
1041.7811977675649
 21
1710.621273223438
 31
0.0
  0
LINE
  5
828B
  8
1
 10
1041.7811977675649
 20
2126.761534128279
 30
0.0
 11
1111.781197767566
 21
2126.761534128279
 31
0.0
  0
LINE
  5
828C
  8
1
 10
1041.7811977675649
 20
1860.6212732234369
 30
0.0
 11
1111.7811977675631
 21
1860.621273223438
 31
0.0
  0
LINE
  5
828D
  8
1
 10
1041.7811977675649
 20
1710.621273223438
 30
0.0
 11
1111.7811977675619
 21
1710.621273223438
 31
0.0
  0
CIRCLE
  5
828E
  8
1
 10
2384.9074196966458
 20
1785.6212732234369
 30
0.0
 40
75.0
  0
LINE
  5
828F
  8
2
 10
626.36841144252594
 20
1342.621273223438
 30
0.0
 11
626.36841144252594
 21
1474.9729389311931
 31
0.0
  0
LINE
  5
8290
  8
2
 10
1166.3684114425259
 20
1342.621273223438
 30
0.0
 11
1166.3684114425259
 21
1474.9729389311931
 31
0.0
  0
LINE
  5
8291
  8
2
 10
2184.9074196966458
 20
1342.6212732234369
 30
0.0
 11
2184.9074196966458
 21
1474.9729389311931
 31
0.0
  0
LINE
  5
8292
  8
2
 10
2584.9074196966458
 20
1342.6212732234369
 30
0.0
 11
2584.9074196966458
 21
1474.9729389311931
 31
0.0
  0
LINE
  5
8293
  8
1
 10
993.90291758598676
 20
2350.5068187696779
 30
0.0
 11
948.77717548748035
 21
2350.5068187696779
 31
0.0
  0
LINE
  5
8294
  8
1
 10
993.90291758598585
 20
2113.3014672539889
 30
0.0
 11
937.94699738383952
 21
2113.3014672539889
 31
0.0
  0
LINE
  5
8295
  8
2
 10
615.60685349887615
 20
2228.3615341282789
 30
0.0
 11
1193.7744861384961
 21
2228.3615341282789
 31
0.0
  0
LINE
  5
8296
  8
1
 10
948.77717548748035
 20
2350.5068187696779
 30
0.0
 11
948.77717548748035
 21
2113.3014672539889
 31
0.0
  0
LINE
  5
8297
  8
1
 10
841.75119405227906
 20
2121.3615341282798
 30
0.0
 11
841.75119405227906
 21
2158.4258203417198
 31
0.0
  0
LINE
  5
8298
  8
1
 10
863.81120148285481
 20
2158.4258203417198
 30
0.0
 11
863.81120148285481
 21
2121.3615341282798
 31
0.0
  0
LINE
  5
8299
  8
2
 10
852.78119776756637
 20
2401.9263891928499
 30
0.0
 11
852.78119776756637
 21
2063.0616721620208
 31
0.0
  0
LINE
  5
829A
  8
1
 10
642.78119776756648
 20
2107.0534900991952
 30
0.0
 11
642.78119776756648
 21
2350.5362071110949
 31
0.0
  0
LINE
  5
829B
  8
1
 10
759.02648982098708
 20
2154.8158720947022
 30
0.0
 11
759.02648982098708
 21
2370.3615341282789
 31
0.0
  0
LINE
  5
829C
  8
1
 10
714.18329900330355
 20
2370.361534128278
 30
0.0
 11
714.18329900330355
 21
2100.2392838711362
 31
0.0
  0
LINE
  5
829D
  8
1
 10
741.64524271552625
 20
2111.4964931304798
 30
0.0
 11
765.28119776756637
 21
2100.2392838711362
 31
0.0
  0
LINE
  5
829E
  8
1
 10
741.64524271552625
 20
2138.5711049831189
 30
0.0
 11
759.02648982098708
 21
2154.8158720947022
 31
0.0
  0
LINE
  5
829F
  8
1
 10
642.78119776756648
 20
2107.0534900991952
 30
0.0
 11
714.18329900330355
 21
2100.2392838711362
 31
0.0
  0
LINE
  5
82A0
  8
1
 10
741.64524271552625
 20
2100.2392838711362
 30
0.0
 11
741.64524271552625
 21
2138.5711049831189
 31
0.0
  0
LINE
  5
82A1
  8
1
 10
714.18329900330355
 20
2100.2392838711362
 30
0.0
 11
741.64524271552625
 21
2100.2392838711362
 31
0.0
  0
ARC
  5
82A2
  8
1
 10
873.81120148285481
 20
2121.3615341282798
 30
0.0
 40
10.0
 50
180.0
 51
270.0
  0
LINE
  5
82A3
  8
1
 10
940.28119776756637
 20
2096.3615341282789
 30
0.0
 11
765.28119776756637
 21
2096.3615341282789
 31
0.0
  0
LINE
  5
82A4
  8
2
 10
782.78119776756648
 20
2151.9103479688852
 30
0.0
 11
782.78119776756648
 21
2065.1279204365992
 31
0.0
  0
LINE
  5
82A5
  8
1
 10
765.28119776756637
 20
2111.3615341282789
 30
0.0
 11
831.75119405227895
 21
2111.3615341282798
 31
0.0
  0
LINE
  5
82A6
  8
1
 10
765.28119776756637
 20
2096.3615341282789
 30
0.0
 11
765.28119776756637
 21
2111.3615341282789
 31
0.0
  0
ARC
  5
82A7
  8
1
 10
831.75119405227895
 20
2121.3615341282798
 30
0.0
 40
10.0
 50
270.0
 51
0.0
  0
LINE
  5
82A8
  8
2
 10
922.78119776756648
 20
2151.9103479688852
 30
0.0
 11
922.78119776756648
 21
2065.1279204365992
 31
0.0
  0
LINE
  5
82A9
  8
1
 10
873.81120148285481
 20
2111.3615341282798
 30
0.0
 11
940.28119776756637
 21
2111.3615341282789
 31
0.0
  0
LINE
  5
82AA
  8
1
 10
940.28119776756637
 20
2111.3615341282789
 30
0.0
 11
940.28119776756637
 21
2096.3615341282789
 31
0.0
  0
LINE
  5
82AB
  8
1
 10
759.02648982098708
 20
2370.3615341282789
 30
0.0
 11
714.18329900330355
 21
2370.3615341282789
 31
0.0
  0
LINE
  5
82AC
  8
1
 10
714.18329900330355
 20
2370.3615341282789
 30
0.0
 11
642.78119776756648
 21
2350.5362071110949
 31
0.0
  0
LINE
  5
82AD
  8
1
 10
916.28119776756637
 20
2211.4842015651611
 30
0.0
 11
916.28119776756637
 21
2334.516037850437
 31
0.0
  0
LINE
  5
82AE
  8
1
 10
906.28119776756637
 20
2211.4842015651611
 30
0.0
 11
906.28119776756637
 21
2334.516037850437
 31
0.0
  0
LINE
  5
82AF
  8
1
 10
789.28119776756637
 20
2334.516037850437
 30
0.0
 11
789.28119776756637
 21
2211.4842015651611
 31
0.0
  0
LINE
  5
82B0
  8
1
 10
799.28119776756648
 20
2334.516037850437
 30
0.0
 11
799.28119776756648
 21
2211.4842015651611
 31
0.0
  0
LINE
  5
82B1
  8
1
 10
799.28119776756648
 20
2201.4842015651611
 30
0.0
 11
906.28119776756637
 21
2201.4842015651611
 31
0.0
  0
LINE
  5
82B2
  8
1
 10
799.28119776756648
 20
2211.4842015651611
 30
0.0
 11
906.28119776756637
 21
2211.4842015651611
 31
0.0
  0
ARC
  5
82B3
  8
1
 10
799.28119776756648
 20
2211.4842015651611
 30
0.0
 40
10.0
 50
180.0
 51
270.0
  0
ARC
  5
82B4
  8
1
 10
906.28119776756637
 20
2211.4842015651611
 30
0.0
 40
10.0
 50
270.0
 51
0.0
  0
LINE
  5
82B5
  8
1
 10
906.28119776756637
 20
2344.516037850437
 30
0.0
 11
799.28119776756648
 21
2344.516037850437
 31
0.0
  0
LINE
  5
82B6
  8
1
 10
906.28119776756637
 20
2334.516037850437
 30
0.0
 11
799.28119776756648
 21
2334.516037850437
 31
0.0
  0
LINE
  5
82B7
  8
1
 10
784.59269591115299
 20
2370.3615341282789
 30
0.0
 11
925.31178959625777
 21
2370.3615341282789
 31
0.0
  0
LINE
  5
82B8
  8
1
 10
925.31178959625777
 20
2370.3615341282789
 30
0.0
 11
768.05163824068859
 21
2370.3615341282789
 31
0.0
  0
LINE
  5
82B9
  8
1
 10
845.93432039305844
 20
2416.3615341282789
 30
0.0
 11
845.93432039305844
 21
2375.6698333457939
 31
0.0
  0
LINE
  5
82BA
  8
1
 10
859.62807514207555
 20
2416.3615341282789
 30
0.0
 11
859.62807514207555
 21
2375.6698333457939
 31
0.0
  0
LINE
  5
82BB
  8
1
 10
768.05163824068859
 20
2370.3615341282789
 30
0.0
 11
759.02648982098708
 21
2350.3731807213699
 31
0.0
  0
ARC
  5
82BC
  8
1
 10
799.28119776756648
 20
2334.516037850437
 30
0.0
 40
10.0
 50
90.0
 51
180.0
  0
LINE
  5
82BD
  8
1
 10
864.88271509412596
 20
2370.3615341282798
 30
0.0
 11
864.88271509412596
 21
2375.6698333457939
 31
0.0
  0
LINE
  5
82BE
  8
1
 10
840.6796804410078
 20
2370.3615341282798
 30
0.0
 11
840.6796804410078
 21
2375.6698333457939
 31
0.0
  0
LINE
  5
82BF
  8
1
 10
840.6796804410078
 20
2375.6698333457939
 30
0.0
 11
864.88271509412596
 21
2375.6698333457939
 31
0.0
  0
LINE
  5
82C0
  8
1
 10
859.62807514207555
 20
2416.3615341282789
 30
0.0
 11
845.93432039305844
 21
2416.3615341282789
 31
0.0
  0
ARC
  5
82C1
  8
1
 10
906.28119776756637
 20
2334.516037850437
 30
0.0
 40
10.0
 50
0.0
 51
90.0
  0
LINE
  5
82C2
  8
1
 10
948.77717548748035
 20
2343.3163106170591
 30
0.0
 11
925.31178959625777
 21
2370.3615341282789
 31
0.0
  0
LINE
  5
82C3
  8
1
 10
993.90291758598676
 20
2350.5068187696779
 30
0.0
 11
993.90291758598676
 21
2113.3014672539889
 31
0.0
  0
LINE
  5
82C4
  8
1
 10
1091.7811977675669
 20
2247.3615341282789
 30
0.0
 11
1091.7811977675669
 21
2209.3615341282789
 31
0.0
  0
LINE
  5
82C5
  8
1
 10
1004.781197767566
 20
2170.14408514568
 30
0.0
 11
1004.781197767566
 21
2286.5789831108782
 31
0.0
  0
LINE
  5
82C6
  8
1
 10
1011.7811977675671
 20
2199.9402251824331
 30
0.0
 11
1011.781197767566
 21
2256.7828430741251
 31
0.0
  0
LINE
  5
82C7
  8
1
 10
1091.7811977675669
 20
2209.3615341282798
 30
0.0
 11
1011.7811977675671
 21
2209.3615341282798
 31
0.0
  0
LINE
  5
82C8
  8
1
 10
1011.781197767566
 20
2199.9402251824331
 30
0.0
 11
1004.781197767566
 21
2199.9402251824331
 31
0.0
  0
LINE
  5
82C9
  8
1
 10
993.90291758598676
 20
2170.14408514568
 30
0.0
 11
1004.781197767566
 21
2170.14408514568
 31
0.0
  0
LINE
  5
82CA
  8
1
 10
1091.7811977675669
 20
2247.3615341282789
 30
0.0
 11
1011.7811977675671
 21
2247.3615341282798
 31
0.0
  0
LINE
  5
82CB
  8
1
 10
1011.781197767566
 20
2256.7828430741251
 30
0.0
 11
1004.781197767566
 21
2256.7828430741251
 31
0.0
  0
LINE
  5
82CC
  8
1
 10
993.90291758598676
 20
2286.5789831108782
 30
0.0
 11
1004.781197767566
 21
2286.5789831108782
 31
0.0
  0
CIRCLE
  5
82CD
  8
1
 10
2384.9074196966458
 20
2228.3615341282789
 30
0.0
 40
75.0
  0
LINE
  5
82CE
  8
1
 10
2459.9074196966458
 20
2228.3615341282789
 30
0.0
 11
2459.9074196966458
 21
1785.6212732234369
 31
0.0
  0
LINE
  5
82CF
  8
1
 10
2309.9074196966458
 20
2228.3615341282789
 30
0.0
 11
2309.9074196966458
 21
1785.6212732234369
 31
0.0
  0
LINE
  5
82D0
  8
2
 10
2537.4074196966471
 20
2228.3615341282789
 30
0.0
 11
2226.3074196966459
 21
2228.3615341282789
 31
0.0
  0
LINE
  5
82D1
  8
1
 10
2448.3066481588439
 20
2100.741834119241
 30
0.0
 11
2321.508191234444
 21
2100.741834119241
 31
0.0
  0
ARC
  5
82D2
  8
1
 10
2384.9074196966458
 20
2228.3615341282789
 30
0.0
 40
143.0
 50
296.41738025990082
 51
243.58261974009909
  0
CIRCLE
  5
82D3
  8
1
 10
2384.9074196966458
 20
2228.3615341282789
 30
0.0
 40
121.3080440290846
  0
LINE
  5
82D4
  8
1
 10
2514.9074196966458
 20
2096.3615341282789
 30
0.0
 11
2464.9074196966458
 21
2096.3615341282789
 31
0.0
  0
LINE
  5
82D5
  8
1
 10
2514.9074196966458
 20
2111.3615341282789
 30
0.0
 11
2466.2539008743811
 21
2111.3615341282789
 31
0.0
  0
LINE
  5
82D6
  8
2
 10
2492.9074196966458
 20
2075.8615341282789
 30
0.0
 11
2492.9074196966458
 21
2144.0571448875421
 31
0.0
  0
LINE
  5
82D7
  8
1
 10
2514.9074196966458
 20
2096.3615341282789
 30
0.0
 11
2514.9074196966458
 21
2111.3615341282789
 31
0.0
  0
LINE
  5
82D8
  8
1
 10
2514.9074196966458
 20
2111.3615341282789
 30
0.0
 11
2500.8781421167891
 21
2145.5542787616751
 31
0.0
  0
LINE
  5
82D9
  8
1
 10
2464.9074196966458
 20
2110.4367699775721
 30
0.0
 11
2464.9074196966458
 21
2096.3615341282789
 31
0.0
  0
CIRCLE
  5
82DA
  8
1
 10
2384.9074196966458
 20
2396.1115341282789
 30
0.0
 40
12.75
  0
CIRCLE
  5
82DB
  8
1
 10
2384.9074196966458
 20
2396.1115341282789
 30
0.0
 40
20.249999999999989
  0
LINE
  5
82DC
  8
1
 10
2389.665248624061
 20
2376.4284052129619
 30
0.0
 11
2389.665248624061
 21
2370.2818042234881
 31
0.0
  0
LINE
  5
82DD
  8
1
 10
2380.1495907692329
 20
2376.4284052129619
 30
0.0
 11
2380.1495907692329
 21
2370.2818042234881
 31
0.0
  0
LINE
  5
82DE
  8
2
 10
2276.9074196966458
 20
2075.8615341282789
 30
0.0
 11
2276.9074196966458
 21
2144.0571448875421
 31
0.0
  0
LINE
  5
82DF
  8
1
 10
2254.9074196966458
 20
2111.3615341282789
 30
0.0
 11
2303.5609385189109
 21
2111.3615341282789
 31
0.0
  0
LINE
  5
82E0
  8
1
 10
2254.9074196966471
 20
2096.3615341282789
 30
0.0
 11
2304.9074196966458
 21
2096.3615341282789
 31
0.0
  0
LINE
  5
82E1
  8
1
 10
2304.9074196966458
 20
2110.4367699775721
 30
0.0
 11
2304.9074196966458
 21
2096.3615341282789
 31
0.0
  0
LINE
  5
82E2
  8
1
 10
2254.9074196966458
 20
2096.3615341282789
 30
0.0
 11
2254.9074196966458
 21
2111.3615341282789
 31
0.0
  0
LINE
  5
82E3
  8
1
 10
2254.9074196966458
 20
2111.3615341282789
 30
0.0
 11
2268.9366972765042
 21
2145.5542787616751
 31
0.0
  0
LINE
  5
82E4
  8
1
 10
2179.0668066148178
 20
2321.7402124422028
 30
0.0
 11
2172.9074196966471
 21
2228.3615341282789
 31
0.0
  0
LINE
  5
82E5
  8
1
 10
2236.3074196966481
 20
2213.3615341282789
 30
0.0
 11
2236.3074196966468
 21
2329.7002025539241
 31
0.0
  0
LINE
  5
82E6
  8
1
 10
2227.3553441740728
 20
2344.516037850437
 30
0.0
 11
2171.3424580291271
 21
2203.4442178212371
 31
0.0
  0
LINE
  5
82E7
  8
1
 10
2231.9551633309438
 20
2342.556021594361
 30
0.0
 11
2175.942277185999
 21
2201.484201565162
 31
0.0
  0
LINE
  5
82E8
  8
1
 10
2231.3074196966481
 20
2208.3615341282789
 30
0.0
 11
2179.3018055110542
 21
2208.3615341282789
 31
0.0
  0
LINE
  5
82E9
  8
1
 10
2236.3074196966481
 20
2221.1578472142128
 30
0.0
 11
2243.0902596106962
 21
2221.1578472142128
 31
0.0
  0
ARC
  5
82EA
  8
1
 10
2231.3074196966481
 20
2213.3615341282789
 30
0.0
 40
5.0
 50
270.0
 51
359.99999999999972
  0
LINE
  5
82EB
  8
1
 10
2171.3424580291271
 20
2203.4442178212371
 30
0.0
 11
2175.9422771859981
 21
2201.484201565162
 31
0.0
  0
ARC
  5
82EC
  8
1
 10
2227.9470199099242
 20
2228.136301481049
 30
0.0
 40
55.040061059039289
 50
179.76553594120759
 51
197.3163745518037
  0
LINE
  5
82ED
  8
1
 10
2227.3553441740728
 20
2344.516037850437
 30
0.0
 11
2231.9551633309438
 21
2342.556021594361
 31
0.0
  0
LINE
  5
82EE
  8
1
 10
2228.8359925610762
 20
2334.7002025539241
 30
0.0
 11
2231.3074196966468
 21
2334.7002025539241
 31
0.0
  0
LINE
  5
82EF
  8
1
 10
2236.3074196966468
 20
2325.4003895883779
 30
0.0
 11
2281.7615408299798
 21
2325.9572700639392
 31
0.0
  0
ARC
  5
82F0
  8
1
 10
2231.3074196966468
 20
2329.7002025539241
 30
0.0
 40
5.0
 50
0.0000000000008142
 51
90.0
  0
LINE
  5
82F1
  8
1
 10
2224.5363588492551
 20
2337.9003668528931
 30
0.0
 11
2189.0668066148178
 21
2331.7402124422019
 31
0.0
  0
ARC
  5
82F2
  8
1
 10
2189.0668066148169
 20
2321.7402124422028
 30
0.0
 40
10.0
 50
90.0
 51
180.0
  0
LINE
  5
82F3
  8
1
 10
611.36841144252594
 20
1910.6212732234369
 30
0.0
 11
611.36841144252594
 21
1660.6212732234369
 31
0.0
  0
LINE
  5
82F4
  8
1
 10
711.36841144252594
 20
1910.621273223438
 30
0.0
 11
711.36841144252594
 21
1660.6212732234369
 31
0.0
  0
LINE
  5
82F5
  8
1
 10
636.36841144252594
 20
2032.6212732234369
 30
0.0
 11
686.36841144252594
 21
2032.621273223438
 31
0.0
  0
LINE
  5
82F6
  8
1
 10
611.36841144252594
 20
1910.6212732234369
 30
0.0
 11
711.36841144252594
 21
1910.6212732234369
 31
0.0
  0
LINE
  5
82F7
  8
1
 10
611.36841144252594
 20
1660.6212732234369
 30
0.0
 11
711.36841144252594
 21
1660.6212732234369
 31
0.0
  0
LINE
  5
82F8
  8
1
 10
611.36841144252594
 20
1900.621273223438
 30
0.0
 11
711.36841144252594
 21
1900.621273223438
 31
0.0
  0
LINE
  5
82F9
  8
1
 10
611.36841144252594
 20
1670.621273223438
 30
0.0
 11
711.36841144252594
 21
1670.621273223438
 31
0.0
  0
LINE
  5
82FA
  8
1
 10
636.36841144252594
 20
2032.6212732234369
 30
0.0
 11
611.36841144252594
 21
1910.6212732234369
 31
0.0
  0
LINE
  5
82FB
  8
1
 10
686.36841144252594
 20
2032.621273223438
 30
0.0
 11
711.36841144252594
 21
1910.6212732234369
 31
0.0
  0
LINE
  5
82FC
  8
1
 10
686.36841144252594
 20
1538.621273223438
 30
0.0
 11
711.36841144252594
 21
1660.6212732234369
 31
0.0
  0
LINE
  5
82FD
  8
1
 10
636.36841144252594
 20
1538.621273223438
 30
0.0
 11
611.36841144252594
 21
1660.6212732234369
 31
0.0
  0
LINE
  5
82FE
  8
1
 10
636.36841144252594
 20
1538.621273223438
 30
0.0
 11
686.36841144252594
 21
1538.621273223438
 31
0.0
  0
LINE
  5
82FF
  8
1
 10
636.36841144252594
 20
1900.621273223438
 30
0.0
 11
636.36841144252594
 21
1670.621273223438
 31
0.0
  0
LINE
  5
8300
  8
1
 10
646.36841144252594
 20
1900.621273223438
 30
0.0
 11
646.36841144252594
 21
1670.621273223438
 31
0.0
  0
LINE
  5
8301
  8
1
 10
594.56841144252564
 20
1455.621273223438
 30
0.0
 11
654.56841144252564
 21
1455.621273223438
 31
0.0
  0
LINE
  5
8302
  8
1
 10
1138.1684114425259
 20
1455.621273223438
 30
0.0
 11
1198.1684114425259
 21
1455.621273223438
 31
0.0
  0
LINE
  5
8303
  8
4
 10
2775.0
 20
750.0
 30
0.0
 11
2775.0
 21
300.0
 31
0.0
  0
LINE
  5
8304
  8
4
 10
1725.0
 20
750.0
 30
0.0
 11
1725.0
 21
300.0
 31
0.0
  0
LINE
  5
8305
  8
4
 10
975.0
 20
750.0
 30
0.0
 11
975.0
 21
300.0
 31
0.0
  0
TEXT
  5
8306
  8
4
 10
1032.753121270352
 20
337.8063434451451
 30
0.0
 40
75.0
  1
ファイル名
  0
LINE
  5
8307
  8
4
 10
975.0
 20
300.0
 30
0.0
 11
2775.0
 21
300.0
 31
0.0
  0
LINE
  5
8308
  8
4
 10
975.0
 20
450.0
 30
0.0
 11
2775.0
 21
450.0
 31
0.0
  0
LINE
  5
8309
  8
4
 10
975.0
 20
600.0
 30
0.0
 11
2775.0
 21
600.0
 31
0.0
  0
TEXT
  5
830A
  8
4
 10
1032.753121270352
 20
647.31453879991932
 30
0.0
 40
75.0
  1
機器名称
  0
TEXT
  5
830B
  8
4
 10
1029.3871590371959
 20
482.46773509801642
 30
0.0
 40
75.0
  1
機器型番
  0
TEXT
  5
830C
  8
4
 10
1766.5181182314971
 20
633.85765343635285
 30
0.0
 40
75.0
  1
ミツヤ軸流ファン
  0
TEXT
  5
830D
  8
4
 10
1779.9817433782209
 20
475.739376419915
 30
0.0
 40
75.0
  1
AP#500-2
  0
TEXT
  5
830E
  8
4
 10
1773.2498189119631
 20
331.07781675967988
 30
0.0
 40
75.0
  1
AP052DP80.dxf
  0
TEXT
  5
830F
  8
4
 10
1243.6233997162919
 20
3575.1432619987731
 30
0.0
 40
80.999999999999986
  1
天吊防振ベット
  0
TEXT
  5
8310
  8
4
 10
474.25138999416959
 20
3800.8214642989469
 30
0.0
 40
108.0
  1
電動機直動式横形軸流ファン
  0
LINE
  5
8311
  8
4
 10
375.0
 20
3704.1131313972069
 30
0.0
 11
2775.0
 21
3704.1131313972069
 31
0.0
  0
LINE
  5
8312
  8
4
 10
375.0
 20
4004.1131313972069
 30
0.0
 11
2775.0
 21
4004.1131313972069
 31
0.0
  0
LINE
  5
8313
  8
4
 10
975.0
 20
750.0
 30
0.0
 11
2775.0
 21
750.0
 31
0.0
  0
LINE
  5
8314
  8
4
 10
375.0
 20
4004.1131313972069
 30
0.0
 11
375.0
 21
3704.1131313972069
 31
0.0
  0
TEXT
  5
8315
  8
4
 10
441.3398345891037
 20
3573.4792163195152
 30
0.0
 40
80.999999999999986
  1
左回転後方吐出
  0
TEXT
  5
8316
  8
4
 10
2203.4543388739339
 20
4059.0916222429628
 30
0.0
 40
84.000000000000014
  1
No.
  0
TEXT
  5
8317
  8
4
 10
1966.944093900019
 20
3575.1432619987731
 30
0.0
 40
80.999999999999986
  1
縮尺：1/15
  0
LINE
  5
8318
  8
4
 10
2775.0
 20
4004.1131313972069
 30
0.0
 11
2775.0
 21
3704.1131313972069
 31
0.0
  0
LINE
  5
8319
  8
4
 10
3150.0
 20
4425.0
 30
0.0
 11
3150.0
 21
4425.0
 31
0.0
  0
LINE
  5
831A
  8
4
 10
2160.9261335397969
 20
4021.895374688102
 30
0.0
 11
2160.9261335397969
 21
4179.9783923246277
 31
0.0
  0
LINE
  5
831B
  8
4
 10
2160.9261335397969
 20
4179.9783923246277
 30
0.0
 11
2775.0
 21
4179.9783923246277
 31
0.0
  0
LINE
  5
831C
  8
4
 10
2775.0
 20
4179.9783923246277
 30
0.0
 11
2775.0
 21
4021.895374688102
 31
0.0
  0
LINE
  5
831D
  8
4
 10
2775.0
 20
4021.895374688102
 30
0.0
 11
2160.9261335397969
 21
4021.895374688102
 31
0.0
  0
LINE
  5
831E
  8
4
 10
0.0
 20
0.0
 30
0.0
 11
0.0
 21
4425.0
 31
0.0
  0
LINE
  5
831F
  8
4
 10
0.0
 20
4425.0
 30
0.0
 11
3150.0
 21
4425.0
 31
0.0
  0
LINE
  5
8320
  8
4
 10
3150.0
 20
4425.0
 30
0.0
 11
3150.0
 21
0.0
 31
0.0
  0
LINE
  5
8321
  8
4
 10
3150.0
 20
0.0
 30
0.0
 11
0.0
 21
0.0
 31
0.0
  0
DIMENSION
  5
8322
  8
3
  2
*D4
 10
1201.3684114425259
 20
2520.83365273657
 30
0.0
 11
896.36841144252594
 21
2558.33365273657
 31
0.0
 70
     0
  3
IGA
 13
591.36841144252594
 23
2065.621273223438
 33
0.0
 14
1201.3684114425259
 24
2065.621273223438
 34
0.0
1001
ACAD
1000
DSTYLE
1002
{
1070
   287
1070
     3
1070
   287
1070
     3
1070
   287
1070
     3
1070
   287
1070
     3
1070
   287
1070
     3
1070
   287
1070
     3
1070
   287
1070
     3
1070
   287
1070
     3
1070
    40
1040
15.0
1070
   143
1040
0.039
1070
   172
1070
     1
1070
   271
1070
     0
1070
   279
1070
     0
1070
   288
1070
     1
1002
}
  0
DIMENSION
  5
8323
  8
3
  2
*D5
 10
368.3524604716842
 20
1535.621273223438
 30
0.0
 11
368.35246047168403
 21
1785.482821186753
 31
0.0
 70
   128
  3
IGA
 13
561.36841144252594
 23
2035.6212732234369
 33
0.0
 14
561.36841144252594
 24
1535.621273223438
 34
0.0
 50
90.0
1001
ACAD
1000
DSTYLE
1002
{
1070
   287
1070
     3
1070
   287
1070
     3
1070
   287
1070
     3
1070
   287
1070
     3
1070
   287
1070
     3
1070
   287
1070
     3
1070
   287
1070
     3
1070
   287
1070
     3
1070
     3
1000
φ<>
1070
    40
1040
15.0
1070
   143
1040
0.039
1070
   172
1070
     1
1070
   271
1070
     0
1070
   279
1070
     0
1070
   288
1070
     1
1002
}
  0
DIMENSION
  5
8324
  8
3
  2
*D6
 10
1943.5417471541259
 20
1455.621273223438
 30
0.0
 11
1906.041747154125
 21
1620.621273223438
 31
0.0
 70
     0
  3
IGA
 13
2086.9074196966458
 23
1785.6212732234369
 33
0.0
 14
2159.9074196966458
 24
1455.621273223438
 34
0.0
 50
90.0
1001
ACAD
1000
DSTYLE
1002
{
1070
   287
1070
     3
1070
   287
1070
     3
1070
   287
1070
     3
1070
   287
1070
     3
1070
   287
1070
     3
1070
   287
1070
     3
1070
   287
1070
     3
1070
   287
1070
     3
1070
    40
1040
15.0
1070
   143
1040
0.039
1070
   172
1070
     1
1070
   271
1070
     0
1070
   279
1070
     0
1070
   288
1070
     1
1002
}
  0
DIMENSION
  5
8325
  8
3
  2
*D7
 10
1943.5417471541259
 20
1360.6212732234369
 30
0.0
 11
1871.756032868411
 21
1451.561515506178
 31
0.0
 70
   128
  1
(<>)
  3
IGA
 13
2159.9074196966458
 23
1455.621273223438
 33
0.0
 14
2069.9074196966471
 24
1360.6212732234369
 34
0.0
 50
90.0
1001
ACAD
1000
DSTYLE
1002
{
1070
   288
1070
     1
1070
   172
1070
     1
1070
    75
1070
     1
1070
    40
1040
15.0
1070
   271
1070
     0
1070
     7
1000
_DOT
1070
   143
1040
0.039
1002
}
  0
DIMENSION
  5
8326
  8
3
  2
*D8
 10
1943.5417471541259
 20
1320.6212732234369
 30
0.0
 11
1906.041747154125
 21
1209.192701794866
 31
0.0
 70
     0
  3
IGA
 13
2069.9074196966471
 23
1360.6212732234369
 33
0.0
 14
2071.468002326942
 24
1320.6212732234369
 34
0.0
 50
90.0
1001
ACAD
1000
DSTYLE
1002
{
1070
   287
1070
     3
1070
   287
1070
     3
1070
   287
1070
     3
1070
   287
1070
     3
1070
   287
1070
     3
1070
   287
1070
     3
1070
   287
1070
     3
1070
   287
1070
     3
1070
    40
1040
15.0
1070
   143
1040
0.039
1070
   172
1070
     1
1070
   271
1070
     0
1070
   279
1070
     0
1070
   288
1070
     1
1070
     6
1000
DOT
1002
}
  0
DIMENSION
  5
8327
  8
3
  2
*D10
 10
2664.9074196966458
 20
2516.7451791682829
 30
0.0
 11
2383.3421753032599
 21
2516.7451791682829
 31
0.0
 70
   128
  3
IGA
 13
2104.9074196966471
 23
1785.6212732234369
 33
0.0
 14
2664.9074196966458
 24
1785.6212732234369
 34
0.0
1001
ACAD
1000
DSTYLE
1002
{
1070
   287
1070
     3
1070
   287
1070
     3
1070
   287
1070
     3
1070
   287
1070
     3
1070
   287
1070
     3
1070
   287
1070
     3
1070
   287
1070
     3
1070
   287
1070
     3
1070
    40
1040
15.0
1070
   143
1040
0.039
1070
   172
1070
     1
1070
   271
1070
     0
1070
   279
1070
     0
1070
   288
1070
     1
1002
}
  0
LINE
  5
8328
  8
1
 10
1241.3684114425259
 20
1360.6212732234369
 30
0.0
 11
1241.3684114425259
 21
1320.621273223438
 31
0.0
  0
LINE
  5
8329
  8
1
 10
551.36841144252594
 20
1360.621273223438
 30
0.0
 11
551.36841144252594
 21
1320.621273223438
 31
0.0
  0
LINE
  5
832A
  8
2
 10
569.36841144252594
 20
2393.4380785472381
 30
0.0
 11
569.36841144252594
 21
1302.0767532889729
 31
0.0
  0
LINE
  5
832B
  8
2
 10
1223.3684114425259
 20
1303.292751069215
 30
0.0
 11
1223.3684114425259
 21
2393.4380785472381
 31
0.0
  0
DIMENSION
  5
832C
  8
3
  2
*D11
 10
1241.3684114425259
 20
1173.368531391106
 30
0.0
 11
865.41311034354828
 21
1173.368531391106
 31
0.0
 70
   128
  3
IGA
 13
551.36841144252594
 23
1320.621273223438
 33
0.0
 14
1241.3684114425259
 24
1320.621273223438
 34
0.0
1001
ACAD
1000
DSTYLE
1002
{
1070
   287
1070
     3
1070
   287
1070
     3
1070
   287
1070
     3
1070
   287
1070
     3
1070
   287
1070
     3
1070
   287
1070
     3
1070
   287
1070
     3
1070
   287
1070
     3
1070
    40
1040
15.0
1070
   143
1040
0.039
1070
   172
1070
     1
1070
   271
1070
     0
1070
   279
1070
     0
1070
   288
1070
     1
1002
}
  0
LINE
  5
832D
  8
1
 10
2699.9074196966471
 20
1320.621273223438
 30
0.0
 11
2699.9074196966471
 21
1360.621273223438
 31
0.0
  0
LINE
  5
832E
  8
1
 10
2069.9074196966471
 20
1320.621273223438
 30
0.0
 11
2069.9074196966471
 21
1360.621273223438
 31
0.0
  0
LINE
  5
832F
  8
2
 10
2094.9074196966471
 20
1290.6749774633529
 30
0.0
 11
2094.9074196966471
 21
2393.7547734974628
 31
0.0
  0
LINE
  5
8330
  8
2
 10
2674.9074196966471
 20
1290.6749774633529
 30
0.0
 11
2674.9074196966471
 21
2390.3685911285411
 31
0.0
  0
DIMENSION
  5
8331
  8
3
  2
*D12
 10
2699.9074196966471
 20
1171.460255182197
 30
0.0
 11
2386.8015153935039
 21
1171.460255182197
 31
0.0
 70
   128
  3
IGA
 13
2069.9074196966471
 23
1320.621273223438
 33
0.0
 14
2699.9074196966471
 24
1320.6212732234369
 34
0.0
1001
ACAD
1000
DSTYLE
1002
{
1070
   287
1070
     3
1070
   287
1070
     3
1070
   287
1070
     3
1070
   287
1070
     3
1070
   287
1070
     3
1070
   287
1070
     3
1070
   287
1070
     3
1070
   287
1070
     3
1070
    40
1040
15.0
1070
   143
1040
0.039
1070
   172
1070
     1
1070
   271
1070
     0
1070
   279
1070
     0
1070
   288
1070
     1
1002
}
  0
DIMENSION
  5
8332
  8
3
  2
*D13
 10
1943.5417471541259
 20
2416.3615341282789
 30
0.0
 11
1906.041747154125
 21
2100.9914036758591
 31
0.0
 70
     0
  1
MAX.710
  3
IGA
 13
2086.9074196966458
 23
1785.6212732234369
 33
0.0
 14
2384.9074196966458
 24
2416.3615341282789
 34
0.0
 50
90.0
1001
ACAD
1000
DSTYLE
1002
{
1070
   287
1070
     4
1070
   287
1070
     4
1070
   287
1070
     4
1070
   287
1070
     4
1070
   287
1070
     4
1070
   287
1070
     4
1070
   287
1070
     4
1070
   287
1070
     4
1070
    40
1040
15.0
1070
    75
1070
     1
1070
   143
1040
0.039
1070
   172
1070
     1
1070
   271
1070
     0
1070
   279
1070
     1
1070
   288
1070
     1
1002
}
  0
ENDBLK
  5
8334
  8
0
  0
BLOCK
  8
0
  2
_DOTSMALL
 70
     0
 10
0.0
 20
0.0
 30
0.0
  3
_DOTSMALL
  1

  0
POLYLINE
  5
859B
  8
3
 62
     0
 66
     1
 10
0.0
 20
0.0
 30
0.0
 70
     1
 40
0.5
 41
0.5
  0
VERTEX
  5
8CE2
  8
3
 62
     0
 10
-0.0625
 20
0.0
 30
0.0
 42
1.0
  0
VERTEX
  5
8CE3
  8
3
 62
     0
 10
0.0625
 20
0.0
 30
0.0
 42
1.0
  0
SEQEND
  5
8CE4
  8
3
 62
     0
  0
ENDBLK
  5
859D
  8
0
  0
BLOCK
  8
0
  2
_NONE
 70
     0
 10
0.0
 20
0.0
 30
0.0
  3
_NONE
  1

  0
ENDBLK
  5
85AB
  8
0
  0
BLOCK
  8
0
  2
L-40-5
 70
     0
 10
0.0
 20
0.0
 30
0.0
  3
L-40-5
  1

  0
LINE
  5
8A62
  8
0
 10
110.7521769832896
 20
94.90786052536771
 30
0.0
 11
150.75217698328959
 21
94.90786052536771
 31
0.0
  0
LINE
  5
8A63
  8
0
 10
110.7521769832896
 20
94.90786052536771
 30
0.0
 11
110.7521769832896
 21
134.90786052536771
 31
0.0
  0
LINE
  5
8A64
  8
0
 10
150.75217698328959
 20
94.90786052536771
 30
0.0
 11
150.75217698328959
 21
96.907860525367724
 31
0.0
  0
LINE
  5
8A65
  8
0
 10
110.7521769832896
 20
134.90786052536771
 30
0.0
 11
112.7521769832896
 21
134.90786052536771
 31
0.0
  0
LINE
  5
8A66
  8
0
 10
115.7521769832896
 20
104.4078605253677
 30
0.0
 11
115.7521769832896
 21
131.90786052536771
 31
0.0
  0
LINE
  5
8A67
  8
0
 10
120.2521769832896
 20
99.90786052536771
 30
0.0
 11
147.75217698328959
 21
99.90786052536771
 31
0.0
  0
ARC
  5
8A68
  8
0
 10
147.75217698328959
 20
96.907860525367724
 30
0.0
 40
3.0
 50
0.0
 51
90.0
  0
ARC
  5
8A69
  8
0
 10
112.7521769832896
 20
131.90786052536771
 30
0.0
 40
3.0
 50
0.0
 51
90.0
  0
ARC
  5
8A6A
  8
0
 10
120.2521769832896
 20
104.4078605253677
 30
0.0
 40
4.5
 50
180.0
 51
270.0
  0
ENDBLK
  5
8A6C
  8
0
  0
BLOCK
  8
0
  2
*D18
 70
     1
 10
0.0
 20
0.0
 30
0.0
  3
*D18
  1

  0
LINE
  5
8CE5
  8
3
 62
     0
 10
1563.3630619245121
 20
2401.1506421621511
 30
0.0
 11
1563.3630619245121
 21
2473.3721856260422
 31
0.0
  0
LINE
  5
8CE6
  8
3
 62
     0
 10
2093.3630619245132
 20
2401.1506421621511
 30
0.0
 11
2093.3630619245132
 21
2473.3721856260422
 31
0.0
  0
LINE
  5
8CE7
  8
3
 62
     0
 10
1587.3630619245121
 20
2461.3721856260422
 30
0.0
 11
2069.3630619245118
 21
2461.3721856260422
 31
0.0
  0
INSERT
  5
8CE8
  8
3
 62
     0
  2
_OPEN
 10
1563.3630619245121
 20
2461.3721856260422
 30
0.0
 41
24.0
 42
24.0
 43
24.0
 50
180.0
  0
INSERT
  5
8CE9
  8
3
 62
     0
  2
_OPEN
 10
2093.3630619245132
 20
2461.3721856260422
 30
0.0
 41
24.0
 42
24.0
 43
24.0
  0
TEXT
  8
3
  40
36
  5
8D19
  62
0
  72
0
  71
0
 10
1757.42
 20
2427.65
 30
0.000000
  1
530
  0
POINT
  5
8CEB
  8
DEFPOINTS
 62
     0
 10
1563.3630619245121
 20
2395.1506421621511
 30
0.0
  0
POINT
  5
8CEC
  8
DEFPOINTS
 62
     0
 10
2093.3630619245132
 20
2395.1506421621511
 30
0.0
  0
POINT
  5
8CED
  8
DEFPOINTS
 62
     0
 10
2093.3630619245132
 20
2461.3721856260422
 30
0.0
  0
ENDBLK
  5
8A9B
  8
0
  0
BLOCK
  8
0
  2
*D19
 70
     1
 10
0.0
 20
0.0
 30
0.0
  3
*D19
  1

  0
LINE
  5
8CEE
  8
3
 62
     0
 10
488.90806281062709
 20
2111.0434145249919
 30
0.0
 11
488.90806281062709
 21
2461.2956543167211
 31
0.0
  0
LINE
  5
8CEF
  8
3
 62
     0
 10
1058.9080628106269
 20
2111.0434145249919
 30
0.0
 11
1058.9080628106269
 21
2461.2956543167211
 31
0.0
  0
LINE
  5
8CF0
  8
3
 62
     0
 10
512.90806281062714
 20
2449.2956543167211
 30
0.0
 11
1034.9080628106269
 21
2449.2956543167211
 31
0.0
  0
INSERT
  5
8CF1
  8
3
 62
     0
  2
_OPEN
 10
488.90806281062709
 20
2449.2956543167211
 30
0.0
 41
24.0
 42
24.0
 43
24.0
 50
180.0
  0
INSERT
  5
8CF2
  8
3
 62
     0
  2
_OPEN
 10
1058.9080628106269
 20
2449.2956543167211
 30
0.0
 41
24.0
 42
24.0
 43
24.0
  0
TEXT
  8
3
  40
36
  5
8D1A
  62
0
  72
0
  71
0
 10
724.886
 20
2415.58
 30
0.000000
  1
570
  0
POINT
  5
8CF4
  8
DEFPOINTS
 62
     0
 10
488.90806281062709
 20
2105.043414524991
 30
0.0
  0
POINT
  5
8CF5
  8
DEFPOINTS
 62
     0
 10
1058.9080628106269
 20
2105.043414524991
 30
0.0
  0
POINT
  5
8CF6
  8
DEFPOINTS
 62
     0
 10
1058.9080628106269
 20
2449.2956543167211
 30
0.0
  0
ENDBLK
  5
8AA8
  8
0
  0
BLOCK
  8
0
  2
*D20
 70
     1
 10
0.0
 20
0.0
 30
0.0
  3
*D20
  1

  0
LINE
  5
8CF7
  8
3
 62
     0
 10
468.90806281062709
 20
2022.1826641221769
 30
0.0
 11
468.9080628106272
 21
2571.4516957862152
 31
0.0
  0
LINE
  5
8CF8
  8
3
 62
     0
 10
1078.9080628106269
 20
2022.1826641221769
 30
0.0
 11
1078.9080628106269
 21
2571.4516957862152
 31
0.0
  0
LINE
  5
8CF9
  8
3
 62
     0
 10
492.90806281062709
 20
2559.4516957862152
 30
0.0
 11
1054.9080628106269
 21
2559.4516957862152
 31
0.0
  0
INSERT
  5
8CFA
  8
3
 62
     0
  2
_OPEN
 10
468.9080628106272
 20
2559.4516957862152
 30
0.0
 41
24.0
 42
24.0
 43
24.0
 50
180.0
  0
INSERT
  5
8CFB
  8
3
 62
     0
  2
_OPEN
 10
1078.9080628106269
 20
2559.4516957862152
 30
0.0
 41
24.0
 42
24.0
 43
24.0
  0
TEXT
  8
3
  40
36
  5
8D1B
  62
0
  72
0
  71
0
 10
710.184
 20
2525.73
 30
0.000000
  1
610
  0
POINT
  5
8CFD
  8
DEFPOINTS
 62
     0
 10
468.90806281062709
 20
2016.1826641221769
 30
0.0
  0
POINT
  5
8CFE
  8
DEFPOINTS
 62
     0
 10
1078.9080628106269
 20
2016.1826641221769
 30
0.0
  0
POINT
  5
8CFF
  8
DEFPOINTS
 62
     0
 10
1078.9080628106269
 20
2559.4516957862152
 30
0.0
  0
ENDBLK
  5
8AB5
  8
0
  0
BLOCK
  8
0
  2
*D21
 70
     1
 10
0.0
 20
0.0
 30
0.0
  3
*D21
  1

  0
LINE
  5
8D00
  8
3
 62
     0
 10
1058.9080628106269
 20
2111.0434145249919
 30
0.0
 11
1058.9080628106269
 21
2461.2956543167211
 31
0.0
  0
LINE
  5
8D01
  8
3
 62
     0
 10
1078.9080628106269
 20
2022.1826641221769
 30
0.0
 11
1078.9080628106269
 21
2461.2956543167211
 31
0.0
  0
LINE
  5
8D02
  8
3
 62
     0
 10
1034.9080628106269
 20
2449.2956543167211
 30
0.0
 11
1010.908062810627
 21
2449.2956543167211
 31
0.0
  0
LINE
  5
8D03
  8
3
 62
     0
 10
1102.9080628106269
 20
2449.2956543167211
 30
0.0
 11
1126.9080628106269
 21
2449.2956543167211
 31
0.0
  0
TEXT
  8
3
  40
36
  5
8D1C
  62
0
  72
0
  71
0
 10
1059.94
 20
2417.09
 30
0.000000
  1
20
  0
LINE
  5
8D05
  8
3
 62
     0
 10
1058.9080628106269
 20
2449.2956543167211
 30
0.0
 11
1078.9080628106269
 21
2449.2956543167211
 31
0.0
  0
INSERT
  5
8D06
  8
3
 62
     0
  2
_OPEN
 10
1058.9080628106269
 20
2449.2956543167211
 30
0.0
 41
24.0
 42
24.0
 43
24.0
  0
INSERT
  5
8D07
  8
3
 62
     0
  2
_OPEN
 10
1078.9080628106269
 20
2449.2956543167211
 30
0.0
 41
24.0
 42
24.0
 43
24.0
 50
180.0
  0
POINT
  5
8D08
  8
DEFPOINTS
 62
     0
 10
1058.9080628106269
 20
2105.043414524991
 30
0.0
  0
POINT
  5
8D09
  8
DEFPOINTS
 62
     0
 10
1078.9080628106269
 20
2016.1826641221769
 30
0.0
  0
POINT
  5
8D0A
  8
DEFPOINTS
 62
     0
 10
1078.9080628106269
 20
2449.2956543167211
 30
0.0
  0
ENDBLK
  5
8AC7
  8
0
  0
BLOCK
  8
0
  2
*D22
 70
     1
 10
0.0
 20
0.0
 30
0.0
  3
*D22
  1

  0
LINE
  5
8D0B
  8
3
 62
     0
 10
488.90806281062709
 20
2111.0434145249919
 30
0.0
 11
488.90806281062709
 21
2461.2956543167211
 31
0.0
  0
LINE
  5
8D0C
  8
3
 62
     0
 10
468.90806281062709
 20
2022.1826641221769
 30
0.0
 11
468.90806281062709
 21
2461.2956543167211
 31
0.0
  0
LINE
  5
8D0D
  8
3
 62
     0
 10
512.90806281062714
 20
2449.2956543167211
 30
0.0
 11
536.90806281062714
 21
2449.2956543167211
 31
0.0
  0
LINE
  5
8D0E
  8
3
 62
     0
 10
444.90806281062709
 20
2449.2956543167211
 30
0.0
 11
420.90806281062709
 21
2449.2956543167211
 31
0.0
  0
TEXT
  8
3
  40
36
  5
8D1D
  62
0
  72
0
  71
0
 10
326.989
 20
2408.39
 30
0.000000
  1
20
  0
LINE
  5
8D10
  8
3
 62
     0
 10
488.90806281062709
 20
2449.2956543167211
 30
0.0
 11
468.90806281062709
 21
2449.2956543167211
 31
0.0
  0
INSERT
  5
8D11
  8
3
 62
     0
  2
_OPEN
 10
488.90806281062709
 20
2449.2956543167211
 30
0.0
 41
24.0
 42
24.0
 43
24.0
 50
180.0
  0
INSERT
  5
8D12
  8
3
 62
     0
  2
_OPEN
 10
468.90806281062709
 20
2449.2956543167211
 30
0.0
 41
24.0
 42
24.0
 43
24.0
  0
POINT
  5
8D13
  8
DEFPOINTS
 62
     0
 10
488.90806281062709
 20
2105.043414524991
 30
0.0
  0
POINT
  5
8D14
  8
DEFPOINTS
 62
     0
 10
468.90806281062709
 20
2016.1826641221769
 30
0.0
  0
POINT
  5
8D15
  8
DEFPOINTS
 62
     0
 10
468.90806281062709
 20
2449.2956543167211
 30
0.0
  0
ENDBLK
  5
8AD9
  8
0
  0
ENDSEC
  0
SECTION
  2
ENTITIES
  0
CIRCLE
  5
7B91
  8
1
 10
1828.3630619245121
 20
1766.1826641221769
 30
0.0
 40
250.0
  0
LINE
  5
7B92
  8
2
 10
1499.7662994897159
 20
1766.1826641221769
 30
0.0
 11
2155.4149915283751
 21
1766.1826641221769
 31
0.0
  0
LINE
  5
7B95
  8
2
 10
988.90806281062703
 20
2164.6670112824709
 30
0.0
 11
582.90806281062714
 21
2164.6670112824718
 31
0.0
  0
LINE
  5
7B96
  8
1
 10
1048.9080628106269
 20
1954.667011282472
 30
0.0
 11
573.90806281062714
 21
1954.667011282472
 31
0.0
  0
LINE
  5
7B97
  8
1
 10
1048.9080628106269
 20
1891.8209942607141
 30
0.0
 11
573.90806281062714
 21
1891.8209942607141
 31
0.0
  0
LINE
  5
7B98
  8
1
 10
1103.9080628106269
 20
1541.1826641221769
 30
0.0
 11
443.90806281062709
 21
1541.1826641221769
 31
0.0
  0
LINE
  5
7B99
  8
1
 10
1103.9080628106269
 20
1991.1826641221769
 30
0.0
 11
443.90806281062709
 21
1991.1826641221769
 31
0.0
  0
LINE
  5
7B9A
  8
2
 10
1123.9080628106269
 20
1766.1826641221769
 30
0.0
 11
423.90806281062709
 21
1766.1826641221769
 31
0.0
  0
LINE
  5
7B9B
  8
1
 10
468.90806281062709
 20
2016.1826641221769
 30
0.0
 11
468.90806281062709
 21
1516.1826641221769
 31
0.0
  0
LINE
  5
7B9C
  8
1
 10
472.1080628106269
 20
2016.1826641221769
 30
0.0
 11
472.1080628106269
 21
1516.1826641221769
 31
0.0
  0
LINE
  5
7B9D
  8
1
 10
443.90806281062709
 20
1992.1826641221769
 30
0.0
 11
443.90806281062709
 21
1540.1826641221769
 31
0.0
  0
LINE
  5
7B9E
  8
1
 10
465.90806281062709
 20
2014.1826641221769
 30
0.0
 11
465.90806281062709
 21
1518.1826641221769
 31
0.0
  0
ARC
  5
7BA1
  8
1
 10
461.90806281062709
 20
1534.1826641221769
 30
0.0
 40
4.0
 50
0.0
 51
90.0
  0
LINE
  5
7BA5
  8
1
 10
492.10806281062702
 20
1526.1826641221769
 30
0.0
 11
445.90806281062709
 21
1526.1826641221769
 31
0.0
  0
LINE
  5
7BA6
  8
1
 10
468.90806281062709
 20
1516.1826641221769
 30
0.0
 11
472.1080628106269
 21
1516.1826641221769
 31
0.0
  0
ARC
  5
7BA7
  8
1
 10
467.90806281062709
 20
1518.1826641221769
 30
0.0
 40
2.0
 50
180.0
 51
270.0
  0
LINE
  5
7BA8
  8
1
 10
468.90806281062709
 20
1516.1826641221769
 30
0.0
 11
467.90806281062709
 21
1516.1826641221769
 31
0.0
  0
LINE
  5
7BAB
  8
1
 10
461.90806281062709
 20
1538.1826641221769
 30
0.0
 11
445.90806281062709
 21
1538.1826641221769
 31
0.0
  0
ARC
  5
7BAC
  8
1
 10
445.90806281062709
 20
1540.1826641221769
 30
0.0
 40
2.0
 50
180.0
 51
270.0
  0
LINE
  5
7BAF
  8
1
 10
573.90806281062714
 20
1954.667011282472
 30
0.0
 11
573.90806281062714
 21
1891.8209942607141
 31
0.0
  0
LINE
  5
7BB0
  8
1
 10
492.10806281062702
 20
2006.1826641221769
 30
0.0
 11
445.90806281062709
 21
2006.1826641221769
 31
0.0
  0
LINE
  5
7BB1
  8
1
 10
461.90806281062709
 20
1994.1826641221769
 30
0.0
 11
445.90806281062709
 21
1994.1826641221769
 31
0.0
  0
ARC
  5
7BB2
  8
1
 10
445.90806281062709
 20
1992.1826641221769
 30
0.0
 40
2.0
 50
90.0
 51
180.0
  0
ARC
  5
7BB3
  8
1
 10
461.90806281062709
 20
1998.1826641221769
 30
0.0
 40
4.0
 50
270.0
 51
0.0
  0
LINE
  5
7BB4
  8
1
 10
468.90806281062709
 20
2016.1826641221769
 30
0.0
 11
472.1080628106269
 21
2016.1826641221769
 31
0.0
  0
LINE
  5
7BB5
  8
1
 10
468.90806281062709
 20
2016.1826641221769
 30
0.0
 11
467.90806281062709
 21
2016.1826641221769
 31
0.0
  0
ARC
  5
7BB6
  8
1
 10
467.90806281062709
 20
2014.1826641221769
 30
0.0
 40
2.0
 50
90.0
 51
180.0
  0
LINE
  5
7BB7
  8
1
 10
1081.9080628106269
 20
2014.1826641221769
 30
0.0
 11
1081.9080628106269
 21
1518.1826641221769
 31
0.0
  0
LINE
  5
7BB8
  8
1
 10
1103.9080628106269
 20
1992.1826641221769
 30
0.0
 11
1103.9080628106269
 21
1540.1826641221769
 31
0.0
  0
LINE
  5
7BB9
  8
1
 10
1075.7080628106271
 20
2016.1826641221769
 30
0.0
 11
1075.7080628106271
 21
1516.1826641221769
 31
0.0
  0
LINE
  5
7BBA
  8
1
 10
1078.9080628106269
 20
2016.1826641221769
 30
0.0
 11
1078.9080628106269
 21
1516.1826641221769
 31
0.0
  0
ARC
  5
7BBD
  8
1
 10
1085.9080628106269
 20
1534.1826641221769
 30
0.0
 40
4.0
 50
90.0
 51
180.0
  0
LINE
  5
7BBF
  8
1
 10
1101.9080628106269
 20
1526.1826641221769
 30
0.0
 11
1055.708062810626
 21
1526.1826641221769
 31
0.0
  0
LINE
  5
7BC3
  8
1
 10
1078.9080628106269
 20
1516.1826641221769
 30
0.0
 11
1079.9080628106269
 21
1516.1826641221769
 31
0.0
  0
ARC
  5
7BC4
  8
1
 10
1079.9080628106269
 20
1518.1826641221769
 30
0.0
 40
2.0
 50
270.0
 51
0.0
  0
LINE
  5
7BC5
  8
1
 10
1078.9080628106269
 20
1516.1826641221769
 30
0.0
 11
1075.7080628106271
 21
1516.1826641221769
 31
0.0
  0
LINE
  5
7BC8
  8
1
 10
1085.9080628106269
 20
1538.1826641221769
 30
0.0
 11
1101.9080628106269
 21
1538.1826641221769
 31
0.0
  0
ARC
  5
7BC9
  8
1
 10
1101.9080628106269
 20
1540.1826641221769
 30
0.0
 40
2.0
 50
270.0
 51
0.0
  0
LINE
  5
7BCA
  8
1
 10
1008.908062810627
 20
2318.064789397044
 30
0.0
 11
1008.908062810627
 21
1958.0647893970449
 31
0.0
  0
LINE
  5
7BCB
  8
1
 10
908.90806281062714
 20
2318.064789397044
 30
0.0
 11
908.90806281062714
 21
1958.0647893970449
 31
0.0
  0
LINE
  5
7BCC
  8
1
 10
973.90806281062714
 20
2239.6670112824718
 30
0.0
 11
973.90806281062714
 21
1716.1826641221769
 31
0.0
  0
LINE
  5
7BCD
  8
1
 10
923.90806281062657
 20
2239.6670112824718
 30
0.0
 11
923.90806281062714
 21
1716.1826641221769
 31
0.0
  0
LINE
  5
7BCE
  8
2
 10
688.90806281062714
 20
2079.6670112824718
 30
0.0
 11
688.90806281062714
 21
2264.6670112824718
 31
0.0
  0
LINE
  5
7BCF
  8
2
 10
862.90806281062714
 20
2114.6670112824718
 30
0.0
 11
862.90806281062714
 21
2264.6670112824718
 31
0.0
  0
LINE
  5
7BD0
  8
1
 10
827.40806281062714
 20
2134.4343112824708
 30
0.0
 11
827.40806281062714
 21
2225.655411282472
 31
0.0
  0
LINE
  5
7BD1
  8
1
 10
822.40806281062714
 20
2224.054711282472
 30
0.0
 11
822.40806281062714
 21
2134.0924112824709
 31
0.0
  0
LINE
  5
7BD2
  8
2
 10
775.90806281062714
 20
2323.6670112824709
 30
0.0
 11
775.90806281062714
 21
2044.6670112824711
 31
0.0
  0
LINE
  5
7BD3
  8
1
 10
897.90806281062714
 20
2264.6670112824718
 30
0.0
 11
897.90806281062714
 21
2079.6670112824718
 31
0.0
  0
LINE
  5
7BD4
  8
1
 10
724.40806281062714
 20
2134.4343112824708
 30
0.0
 11
724.40806281062714
 21
2225.655411282472
 31
0.0
  0
LINE
  5
7BD5
  8
1
 10
729.40806281062714
 20
2224.054711282472
 30
0.0
 11
729.40806281062714
 21
2134.0924112824709
 31
0.0
  0
LINE
  5
7BD6
  8
1
 10
602.90806281062714
 20
2079.6670112824709
 30
0.0
 11
602.90806281062714
 21
2264.6670112824718
 31
0.0
  0
LINE
  5
7BD7
  8
1
 10
948.90806281062714
 20
2104.6670112824709
 30
0.0
 11
1048.9080628106269
 21
1954.667011282472
 31
0.0
  0
LINE
  5
7BD8
  8
2
 10
858.90806281062714
 20
2130.6670112824718
 30
0.0
 11
858.90806281062714
 21
1938.667011282472
 31
0.0
  0
LINE
  5
7BD9
  8
2
 10
638.90806281062714
 20
2130.6670112824718
 30
0.0
 11
638.90806281062714
 21
1938.667011282472
 31
0.0
  0
LINE
  5
7BDA
  8
1
 10
973.90806281062714
 20
1716.1826641221769
 30
0.0
 11
923.90806281062714
 21
1716.1826641221769
 31
0.0
  0
LINE
  5
7BDB
  8
1
 10
973.90806281062714
 20
1816.1826641221769
 30
0.0
 11
923.90806281062714
 21
1816.1826641221769
 31
0.0
  0
LINE
  5
7BDC
  8
1
 10
892.90806281062714
 20
2058.6670112824709
 30
0.0
 11
604.90806281062714
 21
2058.6670112824709
 31
0.0
  0
LINE
  5
7BDD
  8
1
 10
898.90806281062714
 20
2064.6670112824709
 30
0.0
 11
598.90806281062714
 21
2064.6670112824709
 31
0.0
  0
ARC
  5
7BDE
  8
1
 10
785.60526281062675
 20
2131.0924112824709
 30
0.0
 40
3.0
 50
221.76049999999989
 51
270.0
  0
LINE
  5
7BDF
  8
1
 10
781.72326281062715
 20
2128.0924112824709
 30
0.0
 11
816.40806281062714
 21
2128.0924112824709
 31
0.0
  0
ARC
  5
7BE0
  8
1
 10
786.24396281062718
 20
2103.4077112824721
 30
0.0
 40
5.0
 50
90.0
 51
183.72210000000001
  0
ARC
  5
7BE1
  8
1
 10
790.41076281062715
 20
2085.5703112824708
 30
0.0
 40
8.0
 50
183.7226
 51
269.25599999999991
  0
LINE
  5
7BE2
  8
1
 10
736.40806281062714
 20
2122.4343112824708
 30
0.0
 11
815.40806281062714
 21
2122.4343112824708
 31
0.0
  0
LINE
  5
7BE3
  8
1
 10
736.40806281062714
 20
2125.520511282471
 30
0.0
 11
815.40806281062714
 21
2125.520511282471
 31
0.0
  0
LINE
  5
7BE4
  8
1
 10
652.76446927117786
 20
2064.6670112824709
 30
0.0
 11
652.76446927117786
 21
2076.738808052196
 31
0.0
  0
LINE
  5
7BE5
  8
1
 10
645.8362660409025
 20
2076.738808052196
 30
0.0
 11
645.8362660409025
 21
2064.6670112824709
 31
0.0
  0
LINE
  5
7BE6
  8
1
 10
631.97985958035179
 20
2076.738808052196
 30
0.0
 11
631.97985958035179
 21
2064.6670112824709
 31
0.0
  0
LINE
  5
7BE7
  8
1
 10
625.05165635007597
 20
2064.6670112824709
 30
0.0
 11
625.05165635007597
 21
2076.738808052196
 31
0.0
  0
LINE
  5
7BE8
  8
1
 10
691.90806281062714
 20
2064.6670112824709
 30
0.0
 11
691.90806281062714
 21
2074.692911282471
 31
0.0
  0
LINE
  5
7BE9
  8
1
 10
705.90806281062714
 20
2079.2244112824719
 30
0.0
 11
705.90806281062714
 21
2061.8526112824711
 31
0.0
  0
LINE
  5
7BEA
  8
1
 10
646.90806281062714
 20
2045.667011282472
 30
0.0
 11
646.90806281062714
 21
1954.667011282472
 31
0.0
  0
LINE
  5
7BEB
  8
1
 10
630.90806281062714
 20
2045.6670112824711
 30
0.0
 11
630.90806281062714
 21
1954.667011282472
 31
0.0
  0
ARC
  5
7BEC
  8
1
 10
638.90806281062714
 20
2071.9875193581588
 30
0.0
 40
26.32050807568676
 50
254.73851957513861
 51
285.26148042486119
  0
LINE
  5
7BED
  8
1
 10
649.30036765604063
 20
2045.6670112824711
 30
0.0
 11
628.51575796521365
 21
2045.6670112824711
 31
0.0
  0
LINE
  5
7BEE
  8
1
 10
625.05165635007597
 20
2058.6670112824709
 30
0.0
 11
625.05165635007597
 21
2046.5952145127469
 31
0.0
  0
ARC
  5
7BEF
  8
1
 10
628.51575796521365
 20
2052.5952145127471
 30
0.0
 40
6.9282032302754892
 50
239.9999999999996
 51
299.99999999999989
  0
LINE
  5
7BF0
  8
1
 10
631.97985958035179
 20
2046.5952145127469
 30
0.0
 11
631.97985958035179
 21
2058.6670112824709
 31
0.0
  0
LINE
  5
7BF1
  8
1
 10
604.90806281062714
 20
2029.6670112824711
 30
0.0
 11
598.90806281062714
 21
2029.6670112824711
 31
0.0
  0
LINE
  5
7BF2
  8
1
 10
604.90806281062714
 20
2058.6670112824709
 30
0.0
 11
604.90806281062714
 21
2029.6670112824711
 31
0.0
  0
LINE
  5
7BF3
  8
1
 10
598.90806281062714
 20
2064.6670112824709
 30
0.0
 11
598.90806281062714
 21
2029.6670112824711
 31
0.0
  0
ARC
  5
7BF4
  8
1
 10
649.30036765604063
 20
2052.5952145127471
 30
0.0
 40
6.9282032302754892
 50
240.00000000000011
 51
300.00000000000028
  0
LINE
  5
7BF5
  8
1
 10
645.8362660409025
 20
2046.5952145127469
 30
0.0
 11
645.8362660409025
 21
2058.6670112824709
 31
0.0
  0
LINE
  5
7BF6
  8
1
 10
652.76446927117786
 20
2058.6670112824709
 30
0.0
 11
652.76446927117786
 21
2046.5952145127469
 31
0.0
  0
LINE
  5
7BF7
  8
1
 10
646.90806281062714
 20
2079.6670112824709
 30
0.0
 11
696.90806281062714
 21
2079.6670112824709
 31
0.0
  0
LINE
  5
7BF8
  8
1
 10
630.90806281062714
 20
2114.6670112824718
 30
0.0
 11
646.90806281062714
 21
2114.6670112824718
 31
0.0
  0
ARC
  5
7BF9
  8
1
 10
638.90806281062714
 20
2051.3465032067852
 30
0.0
 40
26.32050807568676
 50
74.738519575138611
 51
105.2614804248612
  0
LINE
  5
7BFA
  8
1
 10
628.51575796521365
 20
2077.6670112824709
 30
0.0
 11
649.30036765604018
 21
2077.6670112824718
 31
0.0
  0
LINE
  5
7BFB
  8
1
 10
630.90806281062714
 20
2114.6670112824718
 30
0.0
 11
630.90806281062714
 21
2077.6670112824718
 31
0.0
  0
ARC
  5
7BFC
  8
1
 10
628.51575796521365
 20
2070.738808052196
 30
0.0
 40
6.9282032302754892
 50
60.000000000000142
 51
120.0000000000003
  0
LINE
  5
7BFD
  8
1
 10
602.90806281062714
 20
2079.6670112824709
 30
0.0
 11
630.90806281062714
 21
2079.6670112824709
 31
0.0
  0
LINE
  5
7BFE
  8
1
 10
646.90806281062714
 20
2114.6670112824718
 30
0.0
 11
646.90806281062714
 21
2077.6670112824718
 31
0.0
  0
ARC
  5
7BFF
  8
1
 10
649.30036765604063
 20
2070.738808052196
 30
0.0
 40
6.9282032302754892
 50
59.999999999999623
 51
119.9999999999998
  0
LINE
  5
7C00
  8
1
 10
693.88206281062685
 20
2076.6927112824719
 30
0.0
 11
761.509162810627
 21
2077.5710112824722
 31
0.0
  0
LINE
  5
7C01
  8
1
 10
735.40806281062714
 20
2128.0924112824709
 30
0.0
 11
770.16756281062681
 21
2128.0924112824709
 31
0.0
  0
ARC
  5
7C02
  8
1
 10
735.40806281062714
 20
2134.0924112824709
 30
0.0
 40
6.0
 50
180.0
 51
270.0
  0
ARC
  5
7C03
  8
1
 10
736.40806281062714
 20
2137.5205112824719
 30
0.0
 40
12.0
 50
180.0
 51
270.0
  0
ARC
  5
7C04
  8
1
 10
736.40806281062714
 20
2134.4343112824708
 30
0.0
 40
12.0
 50
180.0
 51
270.0
  0
ARC
  5
7C05
  8
1
 10
694.90806281062714
 20
2090.6150112824712
 30
0.0
 40
2.0
 50
359.99829999999992
 51
90.0
  0
ARC
  5
7C06
  8
1
 10
693.90806281062714
 20
2074.6928112824712
 30
0.0
 40
2.0
 50
90.744900000000001
 51
179.99819999999991
  0
LINE
  5
7C07
  8
1
 10
696.90806281062714
 20
2076.7668112824708
 30
0.0
 11
696.90806281062714
 21
2090.6150112824712
 31
0.0
  0
ARC
  5
7C08
  8
1
 10
781.64856281062703
 20
2131.0924112824709
 30
0.0
 40
3.0
 50
224.14519999999999
 51
270.0
  0
ARC
  5
7C09
  8
1
 10
770.16756281062681
 20
2131.0924112824709
 30
0.0
 40
3.0
 50
270.0
 51
315.85480000000001
  0
ARC
  5
7C0A
  8
1
 10
775.90806281062714
 20
2125.520511282471
 30
0.0
 40
5.0
 50
44.146400000000007
 51
135.85359999999989
  0
LINE
  5
7C0B
  8
1
 10
782.42766281062666
 20
2085.0509112824711
 30
0.0
 11
781.25446281062659
 21
2103.0831112824708
 31
0.0
  0
LINE
  5
7C0C
  8
1
 10
769.38846281062661
 20
2085.0509112824711
 30
0.0
 11
770.56166281062679
 21
2103.0831112824708
 31
0.0
  0
ARC
  5
7C0D
  8
1
 10
766.21086281062662
 20
2131.0924112824709
 30
0.0
 40
3.0
 50
270.0
 51
318.23939999999999
  0
ARC
  5
7C0E
  8
1
 10
761.40536281062714
 20
2085.5703112824708
 30
0.0
 40
8.0
 50
270.74400000000003
 51
356.2774
  0
ARC
  5
7C0F
  8
1
 10
765.57216281062699
 20
2103.4077112824721
 30
0.0
 40
5.0
 50
356.27789999999999
 51
90.0
  0
ARC
  5
7C10
  8
1
 10
775.90806281062714
 20
2122.4343112824708
 30
0.0
 40
10.0
 50
41.759900000000002
 51
138.24010000000001
  0
LINE
  5
7C11
  8
1
 10
865.8362660409025
 20
2076.738808052196
 30
0.0
 11
865.8362660409025
 21
2064.6670112824709
 31
0.0
  0
LINE
  5
7C12
  8
1
 10
872.76446927117786
 20
2064.6670112824709
 30
0.0
 11
872.76446927117786
 21
2076.738808052196
 31
0.0
  0
LINE
  5
7C13
  8
1
 10
845.05165635007586
 20
2064.6670112824709
 30
0.0
 11
845.05165635007586
 21
2076.738808052196
 31
0.0
  0
LINE
  5
7C14
  8
1
 10
851.97985958035179
 20
2076.738808052196
 30
0.0
 11
851.97985958035179
 21
2064.6670112824709
 31
0.0
  0
LINE
  5
7C15
  8
1
 10
904.90806281062714
 20
2104.6670112824709
 30
0.0
 11
904.90806281062714
 21
1954.667011282472
 31
0.0
  0
LINE
  5
7C16
  8
1
 10
898.90806281062714
 20
2104.6670112824709
 30
0.0
 11
898.90806281062714
 21
1954.667011282472
 31
0.0
  0
LINE
  5
7C17
  8
1
 10
845.90806281062714
 20
2079.2244112824719
 30
0.0
 11
845.90806281062714
 21
2061.8526112824711
 31
0.0
  0
LINE
  5
7C18
  8
1
 10
850.90806281062714
 20
2045.6670112824711
 30
0.0
 11
850.90806281062714
 21
1954.667011282472
 31
0.0
  0
LINE
  5
7C19
  8
1
 10
866.90806281062714
 20
2045.667011282472
 30
0.0
 11
866.90806281062714
 21
1954.667011282472
 31
0.0
  0
ARC
  5
7C1A
  8
1
 10
869.30036765604063
 20
2052.5952145127471
 30
0.0
 40
6.9282032302754892
 50
240.00000000000011
 51
300.00000000000028
  0
ARC
  5
7C1B
  8
1
 10
848.51575796521365
 20
2052.5952145127471
 30
0.0
 40
6.9282032302754892
 50
239.9999999999996
 51
299.99999999999989
  0
LINE
  5
7C1C
  8
1
 10
869.30036765604063
 20
2045.6670112824711
 30
0.0
 11
848.51575796521365
 21
2045.6670112824711
 31
0.0
  0
ARC
  5
7C1D
  8
1
 10
858.90806281062714
 20
2071.9875193581588
 30
0.0
 40
26.32050807568676
 50
254.73851957513861
 51
285.26148042486119
  0
LINE
  5
7C1E
  8
1
 10
872.76446927117786
 20
2058.6670112824709
 30
0.0
 11
872.76446927117786
 21
2046.5952145127469
 31
0.0
  0
LINE
  5
7C1F
  8
1
 10
865.8362660409025
 20
2046.5952145127469
 30
0.0
 11
865.8362660409025
 21
2058.6670112824709
 31
0.0
  0
LINE
  5
7C20
  8
1
 10
851.97985958035179
 20
2046.5952145127469
 30
0.0
 11
851.97985958035179
 21
2058.6670112824709
 31
0.0
  0
LINE
  5
7C21
  8
1
 10
845.05165635007586
 20
2058.6670112824709
 30
0.0
 11
845.05165635007586
 21
2046.5952145127469
 31
0.0
  0
LINE
  5
7C22
  8
1
 10
892.90806281062714
 20
2058.6670112824709
 30
0.0
 11
892.90806281062714
 21
2029.6670112824711
 31
0.0
  0
LINE
  5
7C23
  8
1
 10
898.90806281062714
 20
2029.6670112824711
 30
0.0
 11
892.90806281062714
 21
2029.6670112824711
 31
0.0
  0
LINE
  5
7C24
  8
1
 10
866.90806281062714
 20
2079.6670112824718
 30
0.0
 11
897.90806281062714
 21
2079.6670112824718
 31
0.0
  0
LINE
  5
7C25
  8
1
 10
845.26541325080916
 20
2076.8572440645721
 30
0.0
 11
790.30696281062683
 21
2077.5710112824722
 31
0.0
  0
ARC
  5
7C26
  8
1
 10
816.40806281062714
 20
2134.0924112824709
 30
0.0
 40
6.0
 50
270.0
 51
0.0
  0
ARC
  5
7C27
  8
1
 10
815.40806281062714
 20
2134.4343112824708
 30
0.0
 40
12.0
 50
270.0
 51
0.0
  0
ARC
  5
7C28
  8
1
 10
815.40806281062714
 20
2137.5205112824719
 30
0.0
 40
12.0
 50
270.0
 51
0.0
  0
LINE
  5
7C29
  8
1
 10
850.90806281062714
 20
2114.6670112824718
 30
0.0
 11
866.90806281062714
 21
2114.6670112824718
 31
0.0
  0
ARC
  5
7C2A
  8
1
 10
869.30036765604063
 20
2070.738808052196
 30
0.0
 40
6.9282032302754892
 50
59.999999999999623
 51
119.9999999999998
  0
ARC
  5
7C2B
  8
1
 10
848.51575796521365
 20
2070.738808052196
 30
0.0
 40
6.9282032302754892
 50
60.000000000000142
 51
120.0000000000003
  0
LINE
  5
7C2C
  8
1
 10
848.51575796521365
 20
2077.6670112824709
 30
0.0
 11
869.30036765604007
 21
2077.6670112824718
 31
0.0
  0
ARC
  5
7C2D
  8
1
 10
858.90806281062714
 20
2051.3465032067852
 30
0.0
 40
26.32050807568676
 50
74.738519575138611
 51
105.2614804248612
  0
LINE
  5
7C2E
  8
1
 10
850.90806281062714
 20
2114.6670112824718
 30
0.0
 11
850.90806281062714
 21
2077.6670112824718
 31
0.0
  0
LINE
  5
7C2F
  8
1
 10
866.90806281062714
 20
2114.6670112824718
 30
0.0
 11
866.90806281062714
 21
2077.6670112824718
 31
0.0
  0
LINE
  5
7C30
  8
1
 10
903.90806281062714
 20
2124.6670112824709
 30
0.0
 11
903.90806281062714
 21
2204.6670112824718
 31
0.0
  0
LINE
  5
7C31
  8
1
 10
973.90806281062714
 20
2089.6670112824709
 30
0.0
 11
923.90806281062714
 21
2089.6670112824709
 31
0.0
  0
LINE
  5
7C32
  8
1
 10
948.90806281062714
 20
2104.6670112824709
 30
0.0
 11
898.90806281062714
 21
2104.6670112824709
 31
0.0
  0
LINE
  5
7C33
  8
1
 10
897.90806281062714
 20
2124.6670112824709
 30
0.0
 11
903.90806281062714
 21
2124.6670112824709
 31
0.0
  0
LINE
  5
7C34
  8
1
 10
908.90806281062714
 20
2178.6670112824718
 30
0.0
 11
968.90806281062714
 21
2178.6670112824718
 31
0.0
  0
LINE
  5
7C35
  8
1
 10
908.90806281062714
 20
2150.6670112824709
 30
0.0
 11
968.90806281062714
 21
2150.6670112824709
 31
0.0
  0
LINE
  5
7C36
  8
1
 10
897.90806281062714
 20
2204.6670112824718
 30
0.0
 11
903.90806281062714
 21
2204.6670112824718
 31
0.0
  0
LINE
  5
7C37
  8
1
 10
903.90806281062714
 20
2179.2670112824708
 30
0.0
 11
908.90806281062714
 21
2179.2670112824708
 31
0.0
  0
LINE
  5
7C38
  8
1
 10
903.90806281062714
 20
2150.0671112824712
 30
0.0
 11
908.90806281062714
 21
2150.0671112824712
 31
0.0
  0
LINE
  5
7C39
  8
1
 10
908.90806281062714
 20
2179.2670112824708
 30
0.0
 11
908.90806281062714
 21
2150.0671112824712
 31
0.0
  0
LINE
  5
7C3A
  8
1
 10
968.90806281062714
 20
2150.6670112824709
 30
0.0
 11
968.90806281062714
 21
2178.6670112824718
 31
0.0
  0
LINE
  5
7C3B
  8
1
 10
1048.9080628106269
 20
1954.667011282472
 30
0.0
 11
1048.9080628106269
 21
1891.8209942607141
 31
0.0
  0
LINE
  5
7C3C
  8
1
 10
1101.9080628106269
 20
2006.1826641221769
 30
0.0
 11
1055.708062810626
 21
2006.1826641221769
 31
0.0
  0
ARC
  5
7C3D
  8
1
 10
1101.9080628106269
 20
1992.1826641221769
 30
0.0
 40
2.0
 50
0.0
 51
90.0
  0
ARC
  5
7C3E
  8
1
 10
1085.9080628106269
 20
1998.1826641221769
 30
0.0
 40
4.0
 50
180.0
 51
270.0
  0
LINE
  5
7C3F
  8
1
 10
1085.9080628106269
 20
1994.1826641221769
 30
0.0
 11
1101.9080628106269
 21
1994.1826641221769
 31
0.0
  0
ARC
  5
7C40
  8
1
 10
1079.9080628106269
 20
2014.1826641221769
 30
0.0
 40
2.0
 50
0.0
 51
90.0
  0
LINE
  5
7C41
  8
1
 10
1078.9080628106269
 20
2016.1826641221769
 30
0.0
 11
1079.9080628106269
 21
2016.1826641221769
 31
0.0
  0
LINE
  5
7C42
  8
1
 10
1078.9080628106269
 20
2016.1826641221769
 30
0.0
 11
1075.7080628106271
 21
2016.1826641221769
 31
0.0
  0
LINE
  5
7C43
  8
1
 10
1008.908062810627
 20
2318.064789397044
 30
0.0
 11
908.90806281062714
 21
2318.064789397044
 31
0.0
  0
ARC
  5
7C44
  8
1
 10
775.90806281062714
 20
2286.6670112824709
 30
0.0
 40
17.0
 50
287.17439999999988
 51
0.0
  0
LINE
  5
7C45
  8
1
 10
897.90806281062714
 20
2264.6670112824718
 30
0.0
 11
602.90806281062714
 21
2264.6670112824718
 31
0.0
  0
LINE
  5
7C46
  8
1
 10
736.40806281062714
 20
2237.655411282472
 30
0.0
 11
815.40806281062714
 21
2237.655411282472
 31
0.0
  0
LINE
  5
7C47
  8
1
 10
739.40806281062714
 20
2234.054711282472
 30
0.0
 11
812.40806281062714
 21
2234.054711282472
 31
0.0
  0
CIRCLE
  5
7C48
  8
1
 10
775.90806281062714
 20
2286.6670112824709
 30
0.0
 40
10.0
  0
ARC
  5
7C49
  8
1
 10
775.90806281062714
 20
2286.6670112824709
 30
0.0
 40
17.0
 50
0.0
 51
252.82560000000001
  0
ARC
  5
7C4A
  8
1
 10
739.40806281062714
 20
2224.054711282472
 30
0.0
 40
10.0
 50
90.0
 51
180.0
  0
ARC
  5
7C4B
  8
1
 10
736.40806281062714
 20
2225.655411282472
 30
0.0
 40
12.0
 50
90.0
 51
180.0
  0
LINE
  5
7C4C
  8
1
 10
780.90806281062714
 20
2270.3674112824719
 30
0.0
 11
780.90806281062714
 21
2264.6670112824718
 31
0.0
  0
LINE
  5
7C4D
  8
1
 10
770.90806281062714
 20
2270.3674112824719
 30
0.0
 11
770.90806281062714
 21
2264.6670112824718
 31
0.0
  0
ARC
  5
7C4E
  8
1
 10
812.40806281062714
 20
2224.054711282472
 30
0.0
 40
10.0
 50
0.0
 51
90.0
  0
ARC
  5
7C4F
  8
1
 10
815.40806281062714
 20
2225.655411282472
 30
0.0
 40
12.0
 50
0.0
 51
90.0
  0
LINE
  5
7C50
  8
1
 10
973.90806281062714
 20
2239.6670112824718
 30
0.0
 11
923.90806281062657
 21
2239.6670112824718
 31
0.0
  0
CIRCLE
  5
7C53
  8
1
 10
1828.3630619245121
 20
1766.1826641221769
 30
0.0
 40
225.0
  0
LINE
  5
7C54
  8
2
 10
1828.3630619245121
 20
2338.0647893970449
 30
0.0
 11
1828.3630619245121
 21
1407.329652481006
 31
0.0
  0
LINE
  5
7C65
  8
1
 10
1710.863061924513
 20
2318.064789397044
 30
0.0
 11
1710.863061924513
 21
1958.0647893970449
 31
0.0
  0
LINE
  5
7C66
  8
1
 10
1945.8630619245121
 20
2318.064789397044
 30
0.0
 11
1945.8630619245121
 21
1958.0647893970449
 31
0.0
  0
CIRCLE
  5
7C67
  8
1
 10
1828.3630619245121
 20
2164.6670112824718
 30
0.0
 40
75.0
  0
LINE
  5
7C68
  8
1
 10
1724.3630619245121
 20
2144.6670112824718
 30
0.0
 11
1724.3630619245121
 21
2224.6670112824718
 31
0.0
  0
LINE
  5
7C69
  8
1
 10
1723.363061924513
 20
2140.6670112824718
 30
0.0
 11
1723.363061924513
 21
2227.6670112824718
 31
0.0
  0
LINE
  5
7C6A
  8
1
 10
1673.0885619245121
 20
2222.0707112824721
 30
0.0
 11
1668.623361924512
 21
2132.4366112824719
 31
0.0
  0
LINE
  5
7C6B
  8
1
 10
1718.8584619245121
 20
2237.2507112824719
 30
0.0
 11
1673.1773619245121
 21
2123.0480112824721
 31
0.0
  0
LINE
  5
7C6C
  8
1
 10
1714.401761924513
 20
2236.8793112824719
 30
0.0
 11
1670.206261924513
 21
2126.390611282472
 31
0.0
  0
ARC
  5
7C6D
  8
1
 10
1828.3630619245121
 20
2164.6670112824718
 30
0.0
 40
100.8
 50
285.78239985620951
 51
254.21760014379041
  0
LINE
  5
7C6E
  8
1
 10
1683.3630619245121
 20
2058.6670112824718
 30
0.0
 11
1973.3630619245121
 21
2058.6670112824718
 31
0.0
  0
LINE
  5
7C6F
  8
1
 10
1683.3630619245121
 20
2029.667011282472
 30
0.0
 11
1973.3630619245121
 21
2029.667011282472
 31
0.0
  0
LINE
  5
7C70
  8
1
 10
1683.3630619245121
 20
2064.6670112824718
 30
0.0
 11
1973.3630619245121
 21
2064.6670112824718
 31
0.0
  0
LINE
  5
7C78
  8
1
 10
1903.2153155841911
 20
2159.9616821688901
 30
0.0
 11
1878.2645643642979
 21
1763.0457780464551
 31
0.0
  0
LINE
  5
7C79
  8
1
 10
1753.5108082648339
 20
2159.9616821688901
 30
0.0
 11
1778.4615594847271
 21
1763.0457780464551
 31
0.0
  0
LINE
  5
7C7A
  8
1
 10
1637.8630619245121
 20
1950.167011282472
 30
0.0
 11
1637.8630619245121
 21
1928.076919733672
 31
0.0
  0
LINE
  5
7C7B
  8
1
 10
1633.3630619245121
 20
1954.667011282472
 30
0.0
 11
1633.3630619245121
 21
1922.627542593797
 31
0.0
  0
CIRCLE
  5
7C91
  8
1
 10
1828.3630619245121
 20
1766.1826641221769
 30
0.0
 40
50.0
  0
LINE
  5
7CA4
  8
2
 10
1707.5630619245121
 20
2164.6670112824718
 30
0.0
 11
1949.1630619245129
 21
2164.6670112824718
 31
0.0
  0
LINE
  5
7CA5
  8
1
 10
1774.6164619245119
 20
2078.920511282472
 30
0.0
 11
1768.3630619245121
 21
2072.6670112824718
 31
0.0
  0
LINE
  5
7CA6
  8
1
 10
1728.3630619245121
 20
2064.6670112824718
 30
0.0
 11
1728.3630619245121
 21
2074.6670112824718
 31
0.0
  0
LINE
  5
7CA7
  8
1
 10
1748.3630619245121
 20
2078.047511282472
 30
0.0
 11
1748.3630619245121
 21
2060.700411282472
 31
0.0
  0
LINE
  5
7CA8
  8
1
 10
1768.3630619245121
 20
2064.6670112824718
 30
0.0
 11
1768.3630619245121
 21
2074.6670112824718
 31
0.0
  0
LINE
  5
7CA9
  8
1
 10
1683.3630619245121
 20
2104.6670112824718
 30
0.0
 11
1683.3630619245121
 21
1969.83678266634
 31
0.0
  0
LINE
  5
7CAA
  8
1
 10
1643.3630619245121
 20
2104.6670112824718
 30
0.0
 11
1643.3630619245121
 21
1954.667011282472
 31
0.0
  0
LINE
  5
7CAB
  8
1
 10
1677.363061924513
 20
2104.6670112824718
 30
0.0
 11
1677.363061924513
 21
1965.4287431300211
 31
0.0
  0
LINE
  5
7CAC
  8
1
 10
1654.8630619245121
 20
2074.6670112824718
 30
0.0
 11
1654.8630619245121
 21
2014.667011282472
 31
0.0
  0
LINE
  5
7CAD
  8
1
 10
1666.8630619245121
 20
2074.6670112824718
 30
0.0
 11
1666.8630619245121
 21
2014.667011282472
 31
0.0
  0
LINE
  5
7CAE
  8
2
 10
1660.8630619245121
 20
2086.6670112824731
 30
0.0
 11
1660.8630619245121
 21
2002.667011282472
 31
0.0
  0
LINE
  5
7CAF
  8
1
 10
1664.126492076146
 20
1954.667011282472
 30
0.0
 11
1633.3630619245121
 21
1954.667011282472
 31
0.0
  0
LINE
  5
7CB0
  8
1
 10
1659.1006620833191
 20
1950.167011282472
 30
0.0
 11
1637.8630619245121
 21
1950.167011282472
 31
0.0
  0
ARC
  5
7CB1
  8
1
 10
1660.8630619245121
 20
2014.667011282472
 30
0.0
 40
6.0
 50
180.0
 51
0.0
  0
LINE
  5
7CB4
  8
1
 10
1728.3630619245121
 20
2064.6670112824718
 30
0.0
 11
1768.3630619245121
 21
2064.6670112824718
 31
0.0
  0
LINE
  5
7CB5
  8
1
 10
1683.3630619245121
 20
2104.6670112824718
 30
0.0
 11
1643.3630619245121
 21
2104.6670112824718
 31
0.0
  0
LINE
  5
7CB6
  8
1
 10
1671.3203619245121
 20
2129.1760112824718
 30
0.0
 11
1670.505561924512
 21
2129.5019112824721
 31
0.0
  0
LINE
  5
7CB7
  8
1
 10
1673.1773619245121
 20
2123.0480112824721
 30
0.0
 11
1671.3203619245121
 21
2123.7908112824721
 31
0.0
  0
ARC
  5
7CB8
  8
1
 10
1672.0631619245121
 20
2125.647811282472
 30
0.0
 40
2.0
 50
158.19790000000009
 51
248.19789999999989
  0
ARC
  5
7CB9
  8
1
 10
1671.619661924512
 20
2132.2873112824718
 30
0.0
 40
3.0
 50
177.14760000000001
 51
248.19789999999989
  0
ARC
  5
7CBA
  8
1
 10
1660.8630619245121
 20
2074.6670112824718
 30
0.0
 40
6.0
 50
0.0
 51
180.0
  0
ARC
  5
7CBB
  8
1
 10
1715.3630619245121
 20
2140.6670112824718
 30
0.0
 40
8.0
 50
270.0
 51
0.0
  0
LINE
  5
7CBC
  8
1
 10
1677.0249619245119
 20
2132.6670112824718
 30
0.0
 11
1715.3630619245121
 21
2132.6670112824718
 31
0.0
  0
ARC
  5
7CBD
  8
1
 10
1766.3630619245121
 20
2074.6670112824718
 30
0.0
 40
2.0
 50
0.0
 51
90.0
  0
ARC
  5
7CBE
  8
1
 10
1759.8066619245119
 20
2079.6670112824718
 30
0.0
 40
3.0
 50
270.0
 51
315.0
  0
LINE
  5
7CBF
  8
1
 10
1730.3630619245121
 20
2076.6670112824718
 30
0.0
 11
1766.3630619245121
 21
2076.6670112824718
 31
0.0
  0
LINE
  5
7CC0
  8
1
 10
1767.780961924512
 20
2083.398711282472
 30
0.0
 11
1761.9280619245119
 21
2077.545711282472
 31
0.0
  0
LINE
  5
7CC1
  8
1
 10
1729.453861924512
 20
2076.7065112824721
 30
0.0
 11
1745.572561924512
 21
2106.8408112824718
 31
0.0
  0
ARC
  5
7CC2
  8
1
 10
1730.3630619245121
 20
2074.6670112824718
 30
0.0
 40
2.0
 50
90.0
 51
180.0
  0
LINE
  5
7CC3
  8
1
 10
1723.363061924513
 20
2144.6670112824718
 30
0.0
 11
1729.383161924512
 21
2144.6670112824718
 31
0.0
  0
LINE
  5
7CC4
  8
1
 10
1888.3630619245121
 20
2064.6670112824718
 30
0.0
 11
1888.3630619245121
 21
2074.6670112824718
 31
0.0
  0
LINE
  5
7CC5
  8
1
 10
1881.813461924512
 20
2079.2167112824718
 30
0.0
 11
1888.3630619245121
 21
2072.6670112824718
 31
0.0
  0
LINE
  5
7CC6
  8
1
 10
1908.3630619245121
 20
2078.047511282472
 30
0.0
 11
1908.3630619245121
 21
2060.700411282472
 31
0.0
  0
LINE
  5
7CC7
  8
1
 10
1928.3630619245121
 20
2064.6670112824718
 30
0.0
 11
1928.3630619245121
 21
2074.6670112824718
 31
0.0
  0
LINE
  5
7CC8
  8
1
 10
1800.9470082332889
 20
2067.6670112824718
 30
0.0
 11
1855.779115615735
 21
2067.6670112824718
 31
0.0
  0
LINE
  5
7CCB
  8
1
 10
1928.3630619245121
 20
2064.6670112824718
 30
0.0
 11
1888.3630619245121
 21
2064.6670112824718
 31
0.0
  0
CIRCLE
  5
7CCC
  8
1
 10
1828.3630619245121
 20
2164.6670112824718
 30
0.0
 40
14.0
  0
LINE
  5
7CCD
  8
1
 10
1927.4708619245121
 20
2076.3351112824721
 30
0.0
 11
1911.0700619245119
 21
2106.9971112824719
 31
0.0
  0
LINE
  5
7CCE
  8
1
 10
1926.3630619245121
 20
2076.6670112824718
 30
0.0
 11
1890.3630619245121
 21
2076.6670112824718
 31
0.0
  0
ARC
  5
7CCF
  8
1
 10
1896.919461924512
 20
2079.6670112824718
 30
0.0
 40
3.0
 50
225.0
 51
270.0
  0
ARC
  5
7CD0
  8
1
 10
1890.3630619245121
 20
2074.6670112824718
 30
0.0
 40
2.0
 50
90.0
 51
180.0
  0
LINE
  5
7CD1
  8
1
 10
1888.5655619245119
 20
2083.7782112824721
 30
0.0
 11
1894.798061924512
 21
2077.545711282472
 31
0.0
  0
ARC
  5
7CD2
  8
1
 10
1926.3630619245121
 20
2074.6670112824718
 30
0.0
 40
2.0
 50
0.0
 51
90.0
  0
LINE
  5
7CD5
  8
1
 10
2018.8630619245121
 20
1950.167011282472
 30
0.0
 11
2018.8630619245121
 21
1928.076919733671
 31
0.0
  0
LINE
  5
7CD6
  8
1
 10
2023.3630619245121
 20
1954.667011282472
 30
0.0
 11
2023.3630619245121
 21
1922.627542593797
 31
0.0
  0
LINE
  5
7CDB
  8
1
 10
1989.863061924513
 20
2074.6670112824718
 30
0.0
 11
1989.863061924513
 21
2014.667011282472
 31
0.0
  0
LINE
  5
7CDC
  8
1
 10
2001.8630619245121
 20
2074.6670112824718
 30
0.0
 11
2001.8630619245121
 21
2014.667011282472
 31
0.0
  0
LINE
  5
7CDD
  8
2
 10
1995.8630619245121
 20
2086.6670112824731
 30
0.0
 11
1995.8630619245121
 21
2002.667011282472
 31
0.0
  0
LINE
  5
7CDE
  8
1
 10
1979.3630619245121
 20
2104.6670112824718
 30
0.0
 11
1979.3630619245121
 21
1965.4287431300211
 31
0.0
  0
LINE
  5
7CDF
  8
1
 10
1973.3630619245121
 20
2104.6670112824718
 30
0.0
 11
1973.3630619245121
 21
1969.83678266634
 31
0.0
  0
LINE
  5
7CE0
  8
1
 10
2013.363061924513
 20
2104.6670112824718
 30
0.0
 11
2013.363061924513
 21
1954.667011282472
 31
0.0
  0
LINE
  5
7CE1
  8
1
 10
1992.5996317728791
 20
1954.667011282472
 30
0.0
 11
2023.3630619245121
 21
1954.667011282472
 31
0.0
  0
LINE
  5
7CE2
  8
1
 10
1997.625461765705
 20
1950.167011282472
 30
0.0
 11
2018.8630619245121
 21
1950.167011282472
 31
0.0
  0
ARC
  5
7CE3
  8
1
 10
1995.8630619245121
 20
2014.667011282472
 30
0.0
 40
6.0
 50
180.0
 51
0.0
  0
LINE
  5
7CE4
  8
1
 10
1973.3630619245121
 20
2104.6670112824718
 30
0.0
 11
2013.363061924513
 21
2104.6670112824718
 31
0.0
  0
ARC
  5
7CE5
  8
1
 10
1995.8630619245121
 20
2074.6670112824718
 30
0.0
 40
6.0
 50
0.0
 51
180.0
  0
LINE
  5
7CE6
  8
1
 10
1710.863061924513
 20
2318.064789397044
 30
0.0
 11
1945.8630619245121
 21
2318.064789397044
 31
0.0
  0
ARC
  5
7CE7
  8
1
 10
1683.076161924512
 20
2221.5731112824719
 30
0.0
 40
10.0
 50
95.71050000000001
 51
177.14799999999991
  0
LINE
  5
7CE8
  8
1
 10
1723.363061924513
 20
2224.6670112824718
 30
0.0
 11
1727.363061924513
 21
2224.6670112824718
 31
0.0
  0
ARC
  5
7CE9
  8
1
 10
1718.3630619245121
 20
2227.6670112824718
 30
0.0
 40
5.0
 50
0.0
 51
90.0
  0
ARC
  5
7CEA
  8
1
 10
1716.2586619245119
 20
2236.1365112824719
 30
0.0
 40
2.0
 50
68.199399999999983
 51
158.1983000000001
  0
LINE
  5
7CEB
  8
1
 10
1718.8584619245121
 20
2237.2507112824719
 30
0.0
 11
1717.0014619245119
 21
2237.9935112824719
 31
0.0
  0
LINE
  5
7CEC
  8
1
 10
1717.0249619245119
 20
2232.6670112824718
 30
0.0
 11
1718.3630619245121
 21
2232.6670112824718
 31
0.0
  0
LINE
  5
7CED
  8
1
 10
1713.5168619245121
 20
2234.6670112824718
 30
0.0
 11
1682.0811619245119
 21
2231.5235112824721
 31
0.0
  0
LINE
  5
7CEE
  8
1
 10
1750.020761924512
 20
2235.2325112824719
 30
0.0
 11
1753.998861924513
 21
2232.7156112824719
 31
0.0
  0
LINE
  5
7CEF
  8
1
 10
1727.363061924513
 20
2224.6670112824718
 30
0.0
 11
1750.020761924512
 21
2235.2325112824719
 31
0.0
  0
LINE
  5
7CF0
  8
1
 10
1809.3630619245121
 20
2274.4777112824718
 30
0.0
 11
1809.3630619245121
 21
2300.5314112824708
 31
0.0
  0
LINE
  5
7CF1
  8
1
 10
1815.3630619245121
 20
2300.5314112824708
 30
0.0
 11
1815.3630619245121
 21
2275.0641112824719
 31
0.0
  0
ARC
  5
7CF2
  8
1
 10
1803.3630619245121
 20
2262.6670112824718
 30
0.0
 40
2.0
 50
90.0
 51
203.24219999999929
  0
LINE
  5
7CF3
  8
1
 10
1807.8630619245121
 20
2264.6670112824718
 30
0.0
 11
1807.8630619245121
 21
2271.0955112824722
 31
0.0
  0
ARC
  5
7CF4
  8
1
 10
1810.8630619245121
 20
2271.0955112824722
 30
0.0
 40
3.0
 50
138.59039999999999
 51
180.0
  0
ARC
  5
7CF5
  8
1
 10
1806.3630619245121
 20
2275.0641112824719
 30
0.0
 40
3.0
 50
318.59039999999987
 51
0.0
  0
ARC
  5
7CF6
  8
1
 10
1813.8630619245121
 20
2271.0955112824722
 30
0.0
 40
3.0
 50
0.0
 51
41.409600000000012
  0
LINE
  5
7CF7
  8
1
 10
1816.863061924513
 20
2264.6670112824718
 30
0.0
 11
1816.863061924513
 21
2271.0955112824722
 31
0.0
  0
ARC
  5
7CF8
  8
1
 10
1818.363061924513
 20
2275.0641112824719
 30
0.0
 40
3.0
 50
180.0
 51
221.40960000000001
  0
LINE
  5
7CF9
  8
1
 10
1815.7797619245121
 20
2264.6670112824718
 30
0.0
 11
1803.3630619245121
 21
2264.6670112824718
 31
0.0
  0
ARC
  5
7CFA
  8
1
 10
1812.3630619245121
 20
2300.5314112824708
 30
0.0
 40
3.0
 50
89.999399999999994
 51
180.0
  0
ARC
  5
7CFB
  8
1
 10
1812.3630619245121
 20
2300.5314112824708
 30
0.0
 40
3.0
 50
0.0
 51
90.0
  0
LINE
  5
7CFD
  8
1
 10
488.90806281062709
 20
1878.6826641221769
 30
0.0
 11
488.90806281062709
 21
1653.6826641221769
 31
0.0
  0
LINE
  5
7CFE
  8
1
 10
578.90806281062714
 20
1878.6826641221769
 30
0.0
 11
578.90806281062714
 21
1653.6826641221769
 31
0.0
  0
LINE
  5
7CFF
  8
1
 10
508.90806281062709
 20
1988.1826641221769
 30
0.0
 11
558.90806281062714
 21
1988.1826641221769
 31
0.0
  0
LINE
  5
7D00
  8
1
 10
508.90806281062709
 20
1868.6826641221769
 30
0.0
 11
508.90806281062657
 21
1663.6826641221769
 31
0.0
  0
LINE
  5
7D01
  8
1
 10
518.90806281062714
 20
1868.6826641221769
 30
0.0
 11
518.90806281062714
 21
1663.6826641221769
 31
0.0
  0
LINE
  5
7D02
  8
1
 10
488.90806281062709
 20
1878.6826641221769
 30
0.0
 11
578.90806281062714
 21
1878.6826641221769
 31
0.0
  0
LINE
  5
7D03
  8
1
 10
488.90806281062709
 20
1653.6826641221769
 30
0.0
 11
578.90806281062714
 21
1653.6826641221769
 31
0.0
  0
LINE
  5
7D04
  8
1
 10
488.90806281062709
 20
1663.6826641221769
 30
0.0
 11
578.90806281062714
 21
1663.6826641221769
 31
0.0
  0
LINE
  5
7D05
  8
1
 10
488.90806281062709
 20
1868.6826641221769
 30
0.0
 11
578.90806281062714
 21
1868.6826641221769
 31
0.0
  0
LINE
  5
7D06
  8
1
 10
488.90806281062709
 20
1878.6826641221769
 30
0.0
 11
508.90806281062709
 21
1988.1826641221769
 31
0.0
  0
LINE
  5
7D07
  8
1
 10
558.90806281062714
 20
1988.1826641221769
 30
0.0
 11
578.90806281062714
 21
1878.6826641221769
 31
0.0
  0
LINE
  5
7D08
  8
1
 10
558.90806281062714
 20
1544.1826641221769
 30
0.0
 11
578.90806281062714
 21
1653.6826641221769
 31
0.0
  0
LINE
  5
7D09
  8
1
 10
488.90806281062709
 20
1653.6826641221769
 30
0.0
 11
508.90806281062709
 21
1544.1826641221769
 31
0.0
  0
LINE
  5
7D0A
  8
1
 10
508.90806281062709
 20
1544.1826641221769
 30
0.0
 11
558.90806281062714
 21
1544.1826641221769
 31
0.0
  0
LINE
  5
7D18
  8
4
 10
2220.0
 20
600.0
 30
0.0
 11
2220.0
 21
360.0
 31
0.0
  0
LINE
  5
7D19
  8
4
 10
1380.0
 20
600.0
 30
0.0
 11
1380.0
 21
360.0
 31
0.0
  0
LINE
  5
7D1A
  8
4
 10
780.0
 20
600.0
 30
0.0
 11
780.0
 21
360.0
 31
0.0
  0
LINE
  5
7D1D
  8
4
 10
780.0
 20
360.0
 30
0.0
 11
2220.0
 21
360.0
 31
0.0
  0
LINE
  5
7D1E
  8
4
 10
780.0
 20
480.0
 30
0.0
 11
2220.0
 21
480.0
 31
0.0
  0
TEXT
  5
7D1F
  8
4
 10
826.20249701628188
 20
517.85163103993546
 30
0.0
 40
60.0
  1
機器名称
  0
TEXT
  5
7D20
  8
4
 10
823.509727229757
 20
385.97418807841308
 30
0.0
 40
60.0
  1
機器型番
  0
TEXT
  5
7D21
  8
4
 10
1413.2144945851969
 20
507.08612274908222
 30
0.0
 40
60.0
  1
ミツヤ軸流ファン
  0
TEXT
  5
7D22
  8
4
 10
1423.9853947025761
 20
380.59150113593199
 30
0.0
 40
60.0
  1
AP＃450-2
  0
TEXT
  5
7D24
  8
4
 10
979.79672916461448
 20
2860.1146095990189
 30
0.0
 40
64.799999999999997
  1
天井吊本体形
  0
TEXT
  5
7D25
  8
4
 10
379.40111199533561
 20
3040.6571714391571
 30
0.0
 40
86.400000000000006
  1
ベルト駆動式横形軸流ファン
  0
LINE
  5
7D26
  8
4
 10
300.0
 20
2963.2905051177659
 30
0.0
 11
2220.0
 21
2963.2905051177659
 31
0.0
  0
LINE
  5
7D27
  8
4
 10
300.0
 20
3203.290505117765
 30
0.0
 11
2220.0
 21
3203.290505117765
 31
0.0
  0
LINE
  5
7D28
  8
4
 10
780.0
 20
600.0
 30
0.0
 11
2220.0
 21
600.0
 31
0.0
  0
LINE
  5
7D29
  8
4
 10
300.0
 20
3203.290505117765
 30
0.0
 11
300.0
 21
2963.2905051177659
 31
0.0
  0
TEXT
  5
7D2A
  8
4
 10
350.8199275887327
 20
2858.7833730556122
 30
0.0
 40
64.799999999999997
  1
左回転後方吐出
  0
TEXT
  5
7D2B
  8
4
 10
1762.763471099147
 20
3247.2732977943701
 30
0.0
 40
67.200000000000003
  1
No.
  0
TEXT
  5
7D2C
  8
4
 10
1717.1075619138021
 20
2860.1146095990189
 30
0.0
 40
64.799999999999997
  1
縮尺：1/12
  0
LINE
  5
7D2D
  8
4
 10
2220.0
 20
3203.290505117765
 30
0.0
 11
2220.0
 21
2963.2905051177659
 31
0.0
  0
LINE
  5
7D2E
  8
4
 10
2520.0
 20
3540.0
 30
0.0
 11
2520.0
 21
3540.0
 31
0.0
  0
LINE
  5
7D2F
  8
4
 10
1728.740906831837
 20
3217.5162997504808
 30
0.0
 11
1728.740906831837
 21
3343.9827138597029
 31
0.0
  0
LINE
  5
7D30
  8
4
 10
1728.740906831837
 20
3343.9827138597029
 30
0.0
 11
2220.0
 21
3343.9827138597029
 31
0.0
  0
LINE
  5
7D31
  8
4
 10
2220.0
 20
3343.9827138597029
 30
0.0
 11
2220.0
 21
3217.5162997504808
 31
0.0
  0
LINE
  5
7D32
  8
4
 10
2220.0
 20
3217.5162997504808
 30
0.0
 11
1728.740906831837
 21
3217.5162997504808
 31
0.0
  0
LINE
  5
7D33
  8
4
 10
0.0
 20
0.0
 30
0.0
 11
0.0
 21
3540.0
 31
0.0
  0
LINE
  5
7D34
  8
4
 10
0.0
 20
3540.0
 30
0.0
 11
2520.0
 21
3540.0
 31
0.0
  0
LINE
  5
7D35
  8
4
 10
2520.0
 20
3540.0
 30
0.0
 11
2520.0
 21
0.0
 31
0.0
  0
LINE
  5
7D36
  8
4
 10
2520.0
 20
0.0
 30
0.0
 11
0.0
 21
0.0
 31
0.0
  0
DIMENSION
  5
7E07
  8
3
  2
*D1
 10
1438.1948484036041
 20
2300.5314112824708
 30
0.0
 11
1408.1948484036029
 21
2033.357037702325
 31
0.0
 70
     0
  1
MAX.670
 13
1499.7662994897159
 23
1766.1826641221769
 33
0.0
 14
1809.3630619245121
 24
2300.5314112824708
 34
0.0
 50
90.0
1001
ACAD
1000
DSTYLE
1002
{
1070
   287
1070
     3
1070
   287
1070
     3
1070
   287
1070
     3
1070
    40
1040
12.0
1070
   143
1040
0.039
1070
   172
1070
     1
1070
   271
1070
     0
1070
   279
1070
     0
1070
   288
1070
     1
1002
}
  0
DIMENSION
  5
7E38
  8
3
  2
*D2
 10
360.87922330749302
 20
1541.1826641221769
 30
0.0
 11
360.87922330749279
 21
1763.3831785976711
 31
0.0
 70
   128
 13
443.90806281062709
 23
1991.1826641221769
 33
0.0
 14
443.90806281062709
 24
1541.1826641221769
 34
0.0
 50
90.0
1001
ACAD
1000
DSTYLE
1002
{
1070
   287
1070
     3
1070
   287
1070
     3
1070
   287
1070
     3
1070
   287
1070
     3
1070
   287
1070
     3
1070
   287
1070
     3
1070
   287
1070
     3
1070
   287
1070
     3
1070
     3
1000
φ<>
1070
    40
1040
12.0
1070
   143
1040
0.039
1070
   172
1070
     1
1070
   271
1070
     0
1070
   279
1070
     0
1070
   288
1070
     1
1002
}
  0
DIMENSION
  5
7E45
  8
3
  2
*D3
 10
1208.7210890945901
 20
1541.1826641221769
 30
0.0
 11
1208.7210890945901
 21
1771.63256235107
 31
0.0
 70
   128
 13
1103.9080628106269
 23
1991.1826641221769
 33
0.0
 14
1103.9080628106269
 24
1541.1826641221769
 34
0.0
 50
90.0
1001
ACAD
1000
DSTYLE
1002
{
1070
   287
1070
     3
1070
   287
1070
     3
1070
   287
1070
     3
1070
   287
1070
     3
1070
   287
1070
     3
1070
   287
1070
     3
1070
   287
1070
     3
1070
   287
1070
     3
1070
     3
1000
φ<>
1070
    40
1040
12.0
1070
   143
1040
0.039
1070
   172
1070
     1
1070
   271
1070
     0
1070
   279
1070
     0
1070
   288
1070
     1
1002
}
  0
LINE
  5
8A50
  8
2
 10
1563.3630619245121
 20
2395.1506421621511
 30
0.0
 11
1563.3630619245121
 21
1735.688140041806
 31
0.0
  0
LINE
  5
8A51
  8
1
 10
1540.8630619245121
 20
1786.1826641221769
 30
0.0
 11
1540.863061924513
 21
1746.1826641221769
 31
0.0
  0
LINE
  5
8A52
  8
1
 10
1600.8630619245121
 20
1786.1826641221769
 30
0.0
 11
1600.8630619245121
 21
1746.1826641221769
 31
0.0
  0
LINE
  5
8A53
  8
1
 10
1540.8630619245121
 20
1786.1826641221769
 30
0.0
 11
1600.8630619245121
 21
1786.1826641221769
 31
0.0
  0
LINE
  5
8A54
  8
1
 10
1540.8630619245121
 20
1746.1826641221769
 30
0.0
 11
1600.8630619245121
 21
1746.1826641221769
 31
0.0
  0
LINE
  5
8A55
  8
1
 10
1540.8630619245121
 20
1751.1826641221769
 30
0.0
 11
1600.8630619245121
 21
1751.1826641221769
 31
0.0
  0
LINE
  5
8A57
  8
1
 10
2115.8630619245118
 20
1786.1826641221769
 30
0.0
 11
2115.8630619245118
 21
1746.1826641221769
 31
0.0
  0
LINE
  5
8A58
  8
1
 10
2055.8630619245132
 20
1786.1826641221769
 30
0.0
 11
2055.8630619245132
 21
1746.1826641221769
 31
0.0
  0
LINE
  5
8A59
  8
1
 10
2115.8630619245118
 20
1751.1826641221769
 30
0.0
 11
2055.8630619245132
 21
1751.1826641221769
 31
0.0
  0
LINE
  5
8A5A
  8
1
 10
2115.8630619245118
 20
1746.1826641221769
 30
0.0
 11
2055.8630619245132
 21
1746.1826641221769
 31
0.0
  0
LINE
  5
8A5B
  8
1
 10
2115.8630619245118
 20
1786.1826641221769
 30
0.0
 11
2055.8630619245132
 21
1786.1826641221769
 31
0.0
  0
LINE
  5
8A5C
  8
2
 10
2093.3630619245132
 20
2395.1506421621511
 30
0.0
 11
2093.3630619245132
 21
1735.688140041806
 31
0.0
  0
LINE
  5
8A5F
  8
2
 10
1058.9080628106269
 20
2105.043414524991
 30
0.0
 11
1058.9080628106269
 21
1728.7871637403559
 31
0.0
  0
LINE
  5
8A6E
  8
1
 10
1035.708062810626
 20
1746.1826641221769
 30
0.0
 11
1075.7080628106271
 21
1746.1826641221769
 31
0.0
  0
LINE
  5
8A6F
  8
1
 10
1035.708062810626
 20
1746.1826641221769
 30
0.0
 11
1035.708062810626
 21
1786.1826641221769
 31
0.0
  0
LINE
  5
8A70
  8
1
 10
1075.7080628106271
 20
1746.1826641221769
 30
0.0
 11
1075.7080628106271
 21
1748.1826641221769
 31
0.0
  0
LINE
  5
8A71
  8
1
 10
1035.708062810626
 20
1786.1826641221769
 30
0.0
 11
1037.708062810626
 21
1786.1826641221769
 31
0.0
  0
LINE
  5
8A72
  8
1
 10
1040.7080628106271
 20
1755.6826641221769
 30
0.0
 11
1040.7080628106271
 21
1783.1826641221769
 31
0.0
  0
LINE
  5
8A73
  8
1
 10
1045.2080628106271
 20
1751.1826641221769
 30
0.0
 11
1072.708062810626
 21
1751.1826641221769
 31
0.0
  0
ARC
  5
8A74
  8
1
 10
1072.708062810626
 20
1748.1826641221769
 30
0.0
 40
3.0
 50
0.0
 51
90.0
  0
ARC
  5
8A75
  8
1
 10
1037.708062810626
 20
1783.1826641221769
 30
0.0
 40
3.0
 50
0.0
 51
90.0
  0
ARC
  5
8A76
  8
1
 10
1045.2080628106271
 20
1755.6826641221769
 30
0.0
 40
4.5
 50
180.0
 51
270.0
  0
LINE
  5
8A78
  8
1
 10
507.1080628106273
 20
1755.6826641221769
 30
0.0
 11
507.1080628106273
 21
1783.1826641221769
 31
0.0
  0
LINE
  5
8A79
  8
1
 10
512.10806281062742
 20
1746.1826641221769
 30
0.0
 11
512.10806281062742
 21
1786.1826641221769
 31
0.0
  0
LINE
  5
8A7A
  8
1
 10
502.6080628106273
 20
1751.1826641221769
 30
0.0
 11
475.10806281062742
 21
1751.1826641221769
 31
0.0
  0
LINE
  5
8A7B
  8
1
 10
512.10806281062742
 20
1746.1826641221769
 30
0.0
 11
472.10806281062742
 21
1746.1826641221769
 31
0.0
  0
ARC
  5
8A7C
  8
1
 10
502.6080628106273
 20
1755.6826641221769
 30
0.0
 40
4.5
 50
270.0
 51
0.000000000000007
  0
ARC
  5
8A7D
  8
1
 10
475.10806281062742
 20
1748.1826641221769
 30
0.0
 40
3.0
 50
90.0
 51
180.0
  0
LINE
  5
8A7E
  8
1
 10
472.10806281062742
 20
1746.1826641221769
 30
0.0
 11
472.10806281062742
 21
1748.1826641221769
 31
0.0
  0
ARC
  5
8A7F
  8
1
 10
510.10806281062742
 20
1783.1826641221769
 30
0.0
 40
3.0
 50
90.0
 51
180.0
  0
LINE
  5
8A80
  8
1
 10
512.10806281062742
 20
1786.1826641221769
 30
0.0
 11
510.10806281062742
 21
1786.1826641221769
 31
0.0
  0
LINE
  5
8A81
  8
2
 10
488.90806281062709
 20
2105.043414524991
 30
0.0
 11
488.90806281062709
 21
1728.7871637403559
 31
0.0
  0
DIMENSION
  5
8A8F
  8
3
  2
*D18
 10
2093.3630619245132
 20
2461.3721856260422
 30
0.0
 11
1829.4172758157431
 21
2461.3721856260422
 31
0.0
 70
   128
 13
1563.3630619245121
 23
2395.1506421621511
 33
0.0
 14
2093.3630619245132
 24
2395.1506421621511
 34
0.0
1001
ACAD
1000
DSTYLE
1002
{
1070
   287
1070
     3
1070
   287
1070
     3
1070
   287
1070
     3
1070
    40
1040
12.0
1070
   143
1040
0.039
1070
   172
1070
     1
1070
   271
1070
     0
1070
   279
1070
     0
1070
   288
1070
     1
1002
}
  0
DIMENSION
  5
8A9C
  8
3
  2
*D19
 10
1058.9080628106269
 20
2449.2956543167211
 30
0.0
 11
796.88626246277988
 21
2449.2956543167211
 31
0.0
 70
   128
 13
488.90806281062709
 23
2105.043414524991
 33
0.0
 14
1058.9080628106269
 24
2105.043414524991
 34
0.0
1001
ACAD
1000
DSTYLE
1002
{
1070
   287
1070
     3
1070
   287
1070
     3
1070
   287
1070
     3
1070
    40
1040
12.0
1070
   143
1040
0.039
1070
   172
1070
     1
1070
   271
1070
     0
1070
   279
1070
     0
1070
   288
1070
     1
1002
}
  0
DIMENSION
  5
8AA9
  8
3
  2
*D20
 10
1078.9080628106269
 20
2559.4516957862152
 30
0.0
 11
782.18424506394865
 21
2559.4516957862152
 31
0.0
 70
   128
 13
468.90806281062709
 23
2016.1826641221769
 33
0.0
 14
1078.9080628106269
 24
2016.1826641221769
 34
0.0
1001
ACAD
1000
DSTYLE
1002
{
1070
   287
1070
     3
1070
   287
1070
     3
1070
   287
1070
     3
1070
    40
1040
12.0
1070
   143
1040
0.039
1070
   172
1070
     1
1070
   271
1070
     0
1070
   279
1070
     0
1070
   288
1070
     1
1002
}
  0
DIMENSION
  5
8AB6
  8
3
  2
*D21
 10
1078.9080628106269
 20
2449.2956543167211
 30
0.0
 11
1131.937684012446
 21
2450.81216418136
 31
0.0
 70
   128
 13
1058.9080628106269
 23
2105.043414524991
 33
0.0
 14
1078.9080628106269
 24
2016.1826641221769
 34
0.0
1001
ACAD
1000
DSTYLE
1002
{
1070
   287
1070
     4
1070
   287
1070
     4
1070
   287
1070
     4
1070
    40
1040
12.0
1070
   143
1040
0.039
1070
   172
1070
     1
1070
   271
1070
     0
1070
   279
1070
     1
1070
   288
1070
     1
1002
}
  0
DIMENSION
  5
8AC8
  8
3
  2
*D22
 10
468.90806281062709
 20
2449.2956543167211
 30
0.0
 11
398.98932277187481
 21
2442.1100243444462
 31
0.0
 70
   128
 13
488.90806281062709
 23
2105.043414524991
 33
0.0
 14
468.90806281062709
 24
2016.1826641221769
 34
0.0
1001
ACAD
1000
DSTYLE
1002
{
1070
   287
1070
     4
1070
   287
1070
     4
1070
   287
1070
     4
1070
    40
1040
12.0
1070
   143
1040
0.039
1070
   172
1070
     1
1070
   271
1070
     0
1070
   279
1070
     1
1070
   288
1070
     1
1002
}
  0
ENDSEC
  0
EOF
