  0
SECTION
  2
HEADER
  9
$ACADVER
  1
AC1009
  9
$INSBASE
 10
0.0
 20
0.0
 30
0.0
  9
$EXTMIN
 10
0.0
 20
0.0
 30
0.0
  9
$EXTMAX
 10
2520.0
 20
3540.0
 30
0.0
  9
$LIMMIN
 10
0.0
 20
0.0
  9
$LIMMAX
 10
297.0
 20
210.0
  9
$ORTHOMODE
 70
     0
  9
$REGENMODE
 70
     1
  9
$FILLMODE
 70
     0
  9
$QTEXTMODE
 70
     0
  9
$MIRRTEXT
 70
     1
  9
$DRAGMODE
 70
     2
  9
$LTSCALE
 40
100.0
  9
$OSMODE
 70
    37
  9
$ATTMODE
 70
     1
  9
$TEXTSIZE
 40
180.0
  9
$TRACEWID
 40
0.05
  9
$TEXTSTYLE
  7
STANDARD
  9
$CLAYER
  8
3
  9
$CELTYPE
  6
BYLAYER
  9
$CECOLOR
 62
   256
  9
$DIMSCALE
 40
12.0
  9
$DIMASZ
 40
2.0
  9
$DIMEXO
 40
0.5
  9
$DIMDLI
 40
10.0
  9
$DIMRND
 40
0.0
  9
$DIMDLE
 40
0.0
  9
$DIMEXE
 40
1.0
  9
$DIMTP
 40
1.0
  9
$DIMTM
 40
1.0
  9
$DIMTXT
 40
3.0
  9
$DIMCEN
 40
0.0
  9
$DIMTSZ
 40
0.0
  9
$DIMTOL
 70
     0
  9
$DIMLIM
 70
     0
  9
$DIMTIH
 70
     0
  9
$DIMTOH
 70
     0
  9
$DIMSE1
 70
     0
  9
$DIMSE2
 70
     0
  9
$DIMTAD
 70
     1
  9
$DIMZIN
 70
     8
  9
$DIMBLK
  1

  9
$DIMASO
 70
     1
  9
$DIMSHO
 70
     1
  9
$DIMPOST
  1

  9
$DIMAPOST
  1

  9
$DIMALT
 70
     0
  9
$DIMALTD
 70
     2
  9
$DIMALTF
 40
0.039
  9
$DIMLFAC
 40
1.0
  9
$DIMTOFL
 70
     1
  9
$DIMTVP
 40
0.0
  9
$DIMTIX
 70
     0
  9
$DIMSOXD
 70
     0
  9
$DIMSAH
 70
     1
  9
$DIMBLK1
  1
OPEN
  9
$DIMBLK2
  1
OPEN
  9
$DIMSTYLE
  2
IGA
  9
$DIMCLRD
 70
     0
  9
$DIMCLRE
 70
     0
  9
$DIMCLRT
 70
     0
  9
$DIMTFAC
 40
10.0
  9
$DIMGAP
 40
1.0
  9
$LUNITS
 70
     2
  9
$LUPREC
 70
     3
  9
$SKETCHINC
 40
0.1
  9
$FILLETRAD
 40
50.0
  9
$AUNITS
 70
     0
  9
$AUPREC
 70
     0
  9
$MENU
  1
acad
  9
$ELEVATION
 40
0.0
  9
$PELEVATION
 40
0.0
  9
$THICKNESS
 40
0.0
  9
$LIMCHECK
 70
     0
  9
$BLIPMODE
 70
     0
  9
$CHAMFERA
 40
0.5
  9
$CHAMFERB
 40
0.5
  9
$SKPOLY
 70
     0
  9
$TDCREATE
 40
2452832.4581446759
  9
$TDUPDATE
 40
2454953.6245050221
  9
$TDINDWG
 40
0.0406578819
  9
$TDUSRTIMER
 40
0.0406578819
  9
$USRTIMER
 70
     1
  9
$ANGBASE
 50
0.0
  9
$ANGDIR
 70
     0
  9
$PDMODE
 70
     0
  9
$PDSIZE
 40
0.0
  9
$PLINEWID
 40
0.0
  9
$COORDS
 70
     1
  9
$SPLFRAME
 70
     0
  9
$SPLINETYPE
 70
     6
  9
$SPLINESEGS
 70
     8
  9
$ATTDIA
 70
     0
  9
$ATTREQ
 70
     1
  9
$HANDLING
 70
 10241
  9
$HANDSEED
  5
8D37
  9
$SURFTAB1
 70
     6
  9
$SURFTAB2
 70
     6
  9
$SURFTYPE
 70
     6
  9
$SURFU
 70
     6
  9
$SURFV
 70
     6
  9
$UCSNAME
  2

  9
$UCSORG
 10
0.0
 20
0.0
 30
0.0
  9
$UCSXDIR
 10
1.0
 20
0.0
 30
0.0
  9
$UCSYDIR
 10
0.0
 20
1.0
 30
0.0
  9
$PUCSNAME
  2

  9
$PUCSORG
 10
0.0
 20
0.0
 30
0.0
  9
$PUCSXDIR
 10
1.0
 20
0.0
 30
0.0
  9
$PUCSYDIR
 10
0.0
 20
1.0
 30
0.0
  9
$USERI1
 70
     0
  9
$USERI2
 70
     0
  9
$USERI3
 70
     0
  9
$USERI4
 70
     0
  9
$USERI5
 70
     0
  9
$USERR1
 40
0.0
  9
$USERR2
 40
0.0
  9
$USERR3
 40
0.0
  9
$USERR4
 40
0.0
  9
$USERR5
 40
0.0
  9
$WORLDVIEW
 70
     1
  9
$SHADEDGE
 70
     3
  9
$SHADEDIF
 70
    70
  9
$TILEMODE
 70
     1
  9
$MAXACTVP
 70
    16
  9
$PLIMCHECK
 70
     0
  9
$PEXTMIN
 10
1.0000000000000000E+020
 20
1.0000000000000000E+020
 30
1.0000000000000000E+020
  9
$PEXTMAX
 10
-1.0000000000000000E+020
 20
-1.0000000000000000E+020
 30
-1.0000000000000000E+020
  9
$PLIMMIN
 10
0.0
 20
0.0
  9
$PLIMMAX
 10
12.0
 20
9.0
  9
$UNITMODE
 70
     0
  9
$VISRETAIN
 70
     0
  9
$PLINEGEN
 70
     0
  9
$PSLTSCALE
 70
     1
  0
ENDSEC
  0
SECTION
  2
TABLES
  0
TABLE
  2
VPORT
 70
     2
  0
VPORT
  2
*ACTIVE
 70
     0
 10
0.0
 20
0.0
 11
1.0
 21
1.0
 12
2383.0470854168288
 22
429.51150811922889
 13
0.0
 23
0.0
 14
10.0
 24
10.0
 15
10.0
 25
10.0
 16
0.0
 26
0.0
 36
1.0
 17
0.0
 27
0.0
 37
0.0
 40
1059.7303315825491
 41
3.1666666666666661
 42
50.0
 43
0.0
 44
0.0
 50
0.0
 51
0.0
 71
     0
 72
   100
 73
     1
 74
     0
 75
     0
 76
     0
 77
     0
 78
     0
  0
ENDTAB
  0
TABLE
  2
LTYPE
 70
     2
  0
LTYPE
  2
CONTINUOUS
 70
     0
  3
Solid line
 72
    65
 73
     0
 40
0.0
  0
LTYPE
  2
CENTER
 70
     0
  3
____ _ ____ _ ____ _ ____ _ ____ _ ____ _ ____ 
 72
    65
 73
     4
 40
2.0
 49
1.25
 49
-0.25
 49
0.25
 49
-0.25
  0
ENDTAB
  0
TABLE
  2
LAYER
 70
     6
  0
LAYER
  2
0
 70
     0
 62
     7
  6
CONTINUOUS
  0
LAYER
  2
3
 70
     0
 62
     2
  6
CONTINUOUS
  0
LAYER
  2
2
 70
     0
 62
     3
  6
CENTER
  0
LAYER
  2
1
 70
     0
 62
     4
  6
CONTINUOUS
  0
LAYER
  2
4
 70
     0
 62
     7
  6
CONTINUOUS
  0
LAYER
  2
DEFPOINTS
 70
     0
 62
     7
  6
CONTINUOUS
  0
ENDTAB
  0
TABLE
  2
STYLE
 70
     1
  0
STYLE
  2
STANDARD
 70
     0
 40
0.0
 41
1.0
 50
0.0
 71
     0
 42
180.0
  3
simplex.shx
  4
extfont.shx
  0
ENDTAB
  0
TABLE
  2
VIEW
 70
     0
  0
ENDTAB
  0
TABLE
  2
UCS
 70
     0
  0
ENDTAB
  0
TABLE
  2
APPID
 70
     1
  0
APPID
  2
ACAD
 70
     0
  0
ENDTAB
  0
TABLE
  2
DIMSTYLE
 70
     1
  0
DIMSTYLE
  2
IGA
 70
     0
  3

  4

  5

  6
OPEN
  7
OPEN
 40
2.0
 41
2.0
 42
0.5
 43
10.0
 44
1.0
 45
0.0
 46
0.0
 47
1.0
 48
1.0
140
3.0
141
0.0
142
0.0
143
0.03937
144
1.0
145
0.0
146
10.0
147
1.0
 71
     0
 72
     0
 73
     0
 74
     0
 75
     0
 76
     0
 77
     1
 78
     8
170
     0
171
     2
172
     0
173
     1
174
     0
175
     0
176
     0
177
     0
178
     0
  0
ENDTAB
  0
ENDSEC
  0
SECTION
  2
BLOCKS
  0
BLOCK
  8
0
  2
$MODEL_SPACE
 70
     0
 10
0.0
 20
0.0
 30
0.0
  3
$MODEL_SPACE
  1

  0
ENDBLK
  5
1B
  8
0
  0
BLOCK
 67
     1
  8
0
  2
$PAPER_SPACE
 70
     0
 10
0.0
 20
0.0
 30
0.0
  3
$PAPER_SPACE
  1

  0
ENDBLK
  5
18
 67
     1
  8
0
  0
BLOCK
  8
0
  2
_OPEN
 70
     0
 10
0.0
 20
0.0
 30
0.0
  3
_OPEN
  1

  0
LINE
  5
7D39
  8
0
  6
BYBLOCK
 62
     0
 10
-1.0
 20
0.1666666666666666
 30
0.0
 11
0.0
 21
0.0
 31
0.0
  0
LINE
  5
7D3A
  8
0
  6
BYBLOCK
 62
     0
 10
0.0
 20
0.0
 30
0.0
 11
-1.0
 21
-0.1666666666666666
 31
0.0
  0
LINE
  5
7D3B
  8
0
  6
BYBLOCK
 62
     0
 10
0.0
 20
0.0
 30
0.0
 11
-1.0
 21
0.0
 31
0.0
  0
ENDBLK
  5
7D3C
  8
0
  0
BLOCK
  8
0
  2
*D1
 70
     1
 10
0.0
 20
0.0
 30
0.0
  3
*D1
  1

  0
LINE
  5
8CE2
  8
3
 62
     0
 10
428.90806281062709
 20
1325.1826641221769
 30
0.0
 11
428.90806281062709
 21
1129.4754585971141
 31
0.0
  0
LINE
  5
8CE3
  8
3
 62
     0
 10
1118.9080628106269
 20
1325.1826641221769
 30
0.0
 11
1118.9080628106269
 21
1129.4754585971141
 31
0.0
  0
LINE
  5
8CE4
  8
3
 62
     0
 10
452.90806281062709
 20
1141.4754585971141
 30
0.0
 11
1094.9080628106269
 21
1141.4754585971141
 31
0.0
  0
INSERT
  5
8CE5
  8
3
 62
     0
  2
_OPEN
 10
428.90806281062709
 20
1141.4754585971141
 30
0.0
 41
24.0
 42
24.0
 43
24.0
 50
180.0
  0
INSERT
  5
8CE6
  8
3
 62
     0
  2
_OPEN
 10
1118.9080628106269
 20
1141.4754585971141
 30
0.0
 41
24.0
 42
24.0
 43
24.0
  0
TEXT
  8
3
  40
36
  5
8D2F
  62
0
  72
0
  71
0
 10
666.313
 20
1107.76
 30
0.000000
  1
690
  0
POINT
  5
8CE8
  8
DEFPOINTS
 62
     0
 10
428.90806281062709
 20
1331.1826641221769
 30
0.0
  0
POINT
  5
8CE9
  8
DEFPOINTS
 62
     0
 10
1118.9080628106269
 20
1331.1826641221769
 30
0.0
  0
POINT
  5
8CEA
  8
DEFPOINTS
 62
     0
 10
1118.9080628106269
 20
1141.4754585971141
 30
0.0
  0
ENDBLK
  5
7D55
  8
0
  0
BLOCK
  8
0
  2
*D2
 70
     1
 10
0.0
 20
0.0
 30
0.0
  3
*D2
  1

  0
LINE
  5
8CEB
  8
3
 62
     0
 10
1538.3630619245121
 20
1325.1826641221769
 30
0.0
 11
1538.3630619245121
 21
1129.4754585971141
 31
0.0
  0
LINE
  5
8CEC
  8
3
 62
     0
 10
2118.3630619245132
 20
1325.1826641221769
 30
0.0
 11
2118.3630619245132
 21
1129.4754585971141
 31
0.0
  0
LINE
  5
8CED
  8
3
 62
     0
 10
1562.363061924513
 20
1141.4754585971141
 30
0.0
 11
2094.3630619245118
 21
1141.4754585971141
 31
0.0
  0
INSERT
  5
8CEE
  8
3
 62
     0
  2
_OPEN
 10
1538.3630619245121
 20
1141.4754585971141
 30
0.0
 41
24.0
 42
24.0
 43
24.0
 50
180.0
  0
INSERT
  5
8CEF
  8
3
 62
     0
  2
_OPEN
 10
2118.3630619245132
 20
1141.4754585971141
 30
0.0
 41
24.0
 42
24.0
 43
24.0
  0
TEXT
  8
3
  40
36
  5
8D30
  62
0
  72
0
  71
0
 10
1752.26
 20
1107.76
 30
0.000000
  1
580
  0
POINT
  5
8CF1
  8
DEFPOINTS
 62
     0
 10
1538.3630619245121
 20
1331.1826641221769
 30
0.0
  0
POINT
  5
8CF2
  8
DEFPOINTS
 62
     0
 10
2118.3630619245132
 20
1331.1826641221769
 30
0.0
  0
POINT
  5
8CF3
  8
DEFPOINTS
 62
     0
 10
2118.3630619245132
 20
1141.4754585971141
 30
0.0
  0
ENDBLK
  5
7D61
  8
0
  0
BLOCK
  8
0
  2
*D3
 70
     1
 10
0.0
 20
0.0
 30
0.0
  3
*D3
  1

  0
LINE
  5
8CF4
  8
3
 62
     0
 10
1493.7662994897159
 20
1766.1826641221769
 30
0.0
 11
1426.1948484036041
 21
1766.1826641221769
 31
0.0
  0
LINE
  5
8CF5
  8
3
 62
     0
 10
1622.3630619245121
 20
1466.1826641221769
 30
0.0
 11
1426.1948484036029
 21
1466.1826641221769
 31
0.0
  0
LINE
  5
8CF6
  8
3
 62
     0
 10
1438.1948484036041
 20
1742.1826641221769
 30
0.0
 11
1438.1948484036041
 21
1490.1826641221769
 31
0.0
  0
INSERT
  5
8CF7
  8
3
 62
     0
  2
_OPEN
 10
1438.1948484036041
 20
1766.1826641221769
 30
0.0
 41
24.0
 42
24.0
 43
24.0
 50
90.0
  0
INSERT
  5
8CF8
  8
3
 62
     0
  2
_OPEN
 10
1438.1948484036041
 20
1466.1826641221769
 30
0.0
 41
24.0
 42
24.0
 43
24.0
 50
270.0
  0
TEXT
  8
3
  40
36
  5
8D31
  62
0
  72
0
  71
0
 10
1336.19
 20
1544.96
 30
0.000000
  1
300
  0
POINT
  5
8CFA
  8
DEFPOINTS
 62
     0
 10
1499.7662994897159
 20
1766.1826641221769
 30
0.0
  0
POINT
  5
8CFB
  8
DEFPOINTS
 62
     0
 10
1628.3630619245121
 20
1466.1826641221769
 30
0.0
  0
POINT
  5
8CFC
  8
DEFPOINTS
 62
     0
 10
1438.1948484036041
 20
1466.1826641221769
 30
0.0
  0
ENDBLK
  5
7DBB
  8
0
  0
BLOCK
  8
0
  2
*D4
 70
     1
 10
0.0
 20
0.0
 30
0.0
  3
*D4
  1

  0
LINE
  5
8A8C
  8
3
 62
     0
 10
1532.363061924513
 20
1371.1826641221769
 30
0.0
 11
1426.1948484036029
 21
1371.1826641221769
 31
0.0
  0
LINE
  5
8A8D
  8
3
 62
     0
 10
1438.1948484036041
 20
1466.1826641221769
 30
0.0
 11
1438.1948484036041
 21
1371.1826641221769
 31
0.0
  0
TEXT
  5
8A8E
  8
3
 62
     0
 10
1392.766276975032
 20
1366.3969498364629
 30
0.0
 40
36.0
  1
(95)
 50
90.0
  0
POINT
  5
8A8F
  8
DEFPOINTS
 62
     0
 10
1628.3630619245121
 20
1466.1826641221769
 30
0.0
  0
POINT
  5
8A90
  8
DEFPOINTS
 62
     0
 10
1538.363061924513
 20
1371.1826641221769
 30
0.0
  0
POINT
  5
8A91
  8
DEFPOINTS
 62
     0
 10
1438.1948484036041
 20
1371.1826641221769
 30
0.0
  0
ENDBLK
  5
7DFB
  8
0
  0
BLOCK
  8
0
  2
*D5
 70
     1
 10
0.0
 20
0.0
 30
0.0
  3
*D5
  1

  0
LINE
  5
8CFD
  8
3
 62
     0
 10
1532.363061924513
 20
1371.1826641221769
 30
0.0
 11
1426.1948484036029
 21
1371.1826641221769
 31
0.0
  0
LINE
  5
8CFE
  8
3
 62
     0
 10
1532.3630619245121
 20
1331.1826641221769
 30
0.0
 11
1426.1948484036029
 21
1331.1826641221769
 31
0.0
  0
LINE
  5
8CFF
  8
3
 62
     0
 10
1438.1948484036041
 20
1371.1826641221769
 30
0.0
 11
1438.1948484036041
 21
1395.1826641221769
 31
0.0
  0
LINE
  5
8D00
  8
3
 62
     0
 10
1438.1948484036041
 20
1307.1826641221769
 30
0.0
 11
1438.1948484036041
 21
1200.8969498364629
 31
0.0
  0
LINE
  5
8D01
  8
3
 62
     0
 10
1438.1948484036041
 20
1371.1826641221769
 30
0.0
 11
1438.1948484036041
 21
1331.1826641221769
 31
0.0
  0
INSERT
  5
8D02
  8
3
 62
     0
  2
_DOTSMALL
 10
1438.1948484036041
 20
1371.1826641221769
 30
0.0
 41
24.0
 42
24.0
 43
24.0
 50
270.0
  0
INSERT
  5
8D03
  8
3
 62
     0
  2
_OPEN
 10
1438.1948484036041
 20
1331.1826641221769
 30
0.0
 41
24.0
 42
24.0
 43
24.0
 50
90.0
  0
TEXT
  8
3
  40
36
  5
8D32
  62
0
  72
0
  71
0
 10
1336.19
 20
1178.32
 30
0.000000
  1
40
  0
POINT
  5
8D05
  8
DEFPOINTS
 62
     0
 10
1538.363061924513
 20
1371.1826641221769
 30
0.0
  0
POINT
  5
8D06
  8
DEFPOINTS
 62
     0
 10
1538.3630619245121
 20
1331.1826641221769
 30
0.0
  0
POINT
  5
8D07
  8
DEFPOINTS
 62
     0
 10
1438.1948484036041
 20
1331.1826641221769
 30
0.0
  0
ENDBLK
  5
7DE7
  8
0
  0
BLOCK
  8
0
  2
*D6
 70
     1
 10
0.0
 20
0.0
 30
0.0
  3
*D6
  1

  0
LINE
  5
8D08
  8
3
 62
     0
 10
1578.363061924513
 20
1772.1826641221769
 30
0.0
 11
1578.363061924513
 21
2285.6651373468949
 31
0.0
  0
LINE
  5
8D09
  8
3
 62
     0
 10
2078.3630619245118
 20
1772.1826641221769
 30
0.0
 11
2078.3630619245118
 21
2285.6651373468949
 31
0.0
  0
LINE
  5
8D0A
  8
3
 62
     0
 10
1602.363061924513
 20
2273.6651373468949
 30
0.0
 11
2054.3630619245132
 21
2273.6651373468949
 31
0.0
  0
INSERT
  5
8D0B
  8
3
 62
     0
  2
_OPEN
 10
1578.363061924513
 20
2273.6651373468949
 30
0.0
 41
24.0
 42
24.0
 43
24.0
 50
180.0
  0
INSERT
  5
8D0C
  8
3
 62
     0
  2
_OPEN
 10
2078.3630619245118
 20
2273.6651373468949
 30
0.0
 41
24.0
 42
24.0
 43
24.0
  0
TEXT
  8
3
  40
36
  5
8D33
  62
0
  72
0
  71
0
 10
1756.14
 20
2239.95
 30
0.000000
  1
500
  0
POINT
  5
8D0E
  8
DEFPOINTS
 62
     0
 10
1578.363061924513
 20
1766.1826641221769
 30
0.0
  0
POINT
  5
8D0F
  8
DEFPOINTS
 62
     0
 10
2078.3630619245118
 20
1766.1826641221769
 30
0.0
  0
POINT
  5
8D10
  8
DEFPOINTS
 62
     0
 10
2078.3630619245118
 20
2273.6651373468949
 30
0.0
  0
ENDBLK
  5
7E1D
  8
0
  0
BLOCK
  8
0
  2
*D7
 70
     1
 10
0.0
 20
0.0
 30
0.0
  3
*D7
  1

  0
LINE
  5
8D11
  8
3
 62
     0
 10
468.90806281062709
 20
2022.1826641221769
 30
0.0
 11
468.90806281062709
 21
2285.3736517743901
 31
0.0
  0
LINE
  5
8D12
  8
3
 62
     0
 10
1078.9080628106269
 20
2022.1826641221769
 30
0.0
 11
1078.9080628106269
 21
2285.3736517743901
 31
0.0
  0
LINE
  5
8D13
  8
3
 62
     0
 10
492.90806281062709
 20
2273.3736517743891
 30
0.0
 11
1054.9080628106269
 21
2273.3736517743891
 31
0.0
  0
INSERT
  5
8D14
  8
3
 62
     0
  2
_OPEN
 10
468.90806281062709
 20
2273.3736517743891
 30
0.0
 41
24.0
 42
24.0
 43
24.0
 50
180.0
  0
INSERT
  5
8D15
  8
3
 62
     0
  2
_OPEN
 10
1078.9080628106269
 20
2273.3736517743891
 30
0.0
 41
24.0
 42
24.0
 43
24.0
  0
TEXT
  8
3
  40
36
  5
8D34
  62
0
  72
0
  71
0
 10
703.920
 20
2239.65
 30
0.000000
  1
610
  0
POINT
  5
8D17
  8
DEFPOINTS
 62
     0
 10
468.90806281062709
 20
2016.1826641221769
 30
0.0
  0
POINT
  5
8D18
  8
DEFPOINTS
 62
     0
 10
1078.9080628106269
 20
2016.1826641221769
 30
0.0
  0
POINT
  5
8D19
  8
DEFPOINTS
 62
     0
 10
1078.9080628106269
 20
2273.3736517743891
 30
0.0
  0
ENDBLK
  5
7E6B
  8
0
  0
BLOCK
  8
0
  2
*D8
 70
     1
 10
0.0
 20
0.0
 30
0.0
  3
*D8
  1

  0
LINE
  5
8D1A
  8
3
 62
     0
 10
437.90806281062709
 20
1991.1826641221769
 30
0.0
 11
294.5884217514016
 21
1991.1826641221769
 31
0.0
  0
LINE
  5
8D1B
  8
3
 62
     0
 10
437.90806281062709
 20
1541.1826641221769
 30
0.0
 11
294.58842175140143
 21
1541.1826641221769
 31
0.0
  0
LINE
  5
8D1C
  8
3
 62
     0
 10
306.5884217514016
 20
1967.1826641221769
 30
0.0
 11
306.58842175140143
 21
1565.1826641221769
 31
0.0
  0
INSERT
  5
8D1D
  8
3
 62
     0
  2
_OPEN
 10
306.5884217514016
 20
1991.1826641221769
 30
0.0
 41
24.0
 42
24.0
 43
24.0
 50
90.0
  0
INSERT
  5
8D1E
  8
3
 62
     0
  2
_OPEN
 10
306.58842175140143
 20
1541.1826641221769
 30
0.0
 41
24.0
 42
24.0
 43
24.0
 50
270.0
  0
TEXT
  8
3
  40
36
  5
8D35
  62
0
  72
0
  71
0
 10
204.588
 20
1699.66
 30
0.000000
  1
φ450
  0
POINT
  5
8D20
  8
DEFPOINTS
 62
     0
 10
443.90806281062709
 20
1991.1826641221769
 30
0.0
  0
POINT
  5
8D21
  8
DEFPOINTS
 62
     0
 10
443.90806281062709
 20
1541.1826641221769
 30
0.0
  0
POINT
  5
8D22
  8
DEFPOINTS
 62
     0
 10
306.58842175140143
 20
1541.1826641221769
 30
0.0
  0
ENDBLK
  5
7E5B
  8
0
  0
BLOCK
  8
0
  2
*D9
 70
     1
 10
0.0
 20
0.0
 30
0.0
  3
*D9
  1

  0
LINE
  5
8D23
  8
3
 62
     0
 10
1109.9080628106269
 20
1991.1826641221769
 30
0.0
 11
1259.9961122121349
 21
1991.1826641221769
 31
0.0
  0
LINE
  5
8D24
  8
3
 62
     0
 10
1109.9080628106269
 20
1541.1826641221769
 30
0.0
 11
1259.9961122121349
 21
1541.1826641221769
 31
0.0
  0
LINE
  5
8D25
  8
3
 62
     0
 10
1247.9961122121349
 20
1967.1826641221769
 30
0.0
 11
1247.9961122121349
 21
1565.1826641221769
 31
0.0
  0
INSERT
  5
8D26
  8
3
 62
     0
  2
_OPEN
 10
1247.9961122121349
 20
1991.1826641221769
 30
0.0
 41
24.0
 42
24.0
 43
24.0
 50
90.0
  0
INSERT
  5
8D27
  8
3
 62
     0
  2
_OPEN
 10
1247.9961122121349
 20
1541.1826641221769
 30
0.0
 41
24.0
 42
24.0
 43
24.0
 50
270.0
  0
TEXT
  8
3
  40
36
  5
8D36
  62
0
  72
0
  71
0
 10
1146.00
 20
1707.91
 30
0.000000
  1
φ450
  0
POINT
  5
8D29
  8
DEFPOINTS
 62
     0
 10
1103.9080628106269
 20
1991.1826641221769
 30
0.0
  0
POINT
  5
8D2A
  8
DEFPOINTS
 62
     0
 10
1103.9080628106269
 20
1541.1826641221769
 30
0.0
  0
POINT
  5
8D2B
  8
DEFPOINTS
 62
     0
 10
1247.9961122121349
 20
1541.1826641221769
 30
0.0
  0
ENDBLK
  5
7E50
  8
0
  0
BLOCK
  8
0
  2
_DOTSMALL
 70
     0
 10
0.0
 20
0.0
 30
0.0
  3
_DOTSMALL
  1

  0
POLYLINE
  5
859B
  8
3
 62
     0
 66
     1
 10
0.0
 20
0.0
 30
0.0
 70
     1
 40
0.5
 41
0.5
  0
VERTEX
  5
8D2C
  8
3
 62
     0
 10
-0.0625
 20
0.0
 30
0.0
 42
1.0
  0
VERTEX
  5
8D2D
  8
3
 62
     0
 10
0.0625
 20
0.0
 30
0.0
 42
1.0
  0
SEQEND
  5
8D2E
  8
3
 62
     0
  0
ENDBLK
  5
859D
  8
0
  0
ENDSEC
  0
SECTION
  2
ENTITIES
  0
LINE
  5
7B90
  8
1
 10
2118.3630619245132
 20
1331.1826641221769
 30
0.0
 11
1538.3630619245121
 21
1331.1826641221769
 31
0.0
  0
CIRCLE
  5
7B91
  8
1
 10
1828.3630619245121
 20
1766.1826641221769
 30
0.0
 40
250.0
  0
LINE
  5
7B92
  8
2
 10
1499.7662994897159
 20
1766.1826641221769
 30
0.0
 11
2155.4149915283751
 21
1766.1826641221769
 31
0.0
  0
LINE
  5
7B93
  8
1
 10
1118.9080628106269
 20
1371.1826641221769
 30
0.0
 11
428.90806281062709
 21
1371.1826641221769
 31
0.0
  0
LINE
  5
7B94
  8
1
 10
1118.9080628106269
 20
1331.1826641221769
 30
0.0
 11
428.90806281062709
 21
1331.1826641221769
 31
0.0
  0
LINE
  5
7B98
  8
1
 10
1103.9080628106269
 20
1541.1826641221769
 30
0.0
 11
443.90806281062709
 21
1541.1826641221769
 31
0.0
  0
LINE
  5
7B99
  8
1
 10
1103.9080628106269
 20
1991.1826641221769
 30
0.0
 11
443.90806281062709
 21
1991.1826641221769
 31
0.0
  0
LINE
  5
7B9A
  8
2
 10
1123.9080628106269
 20
1766.1826641221769
 30
0.0
 11
423.90806281062709
 21
1766.1826641221769
 31
0.0
  0
LINE
  5
7B9B
  8
1
 10
468.90806281062709
 20
2016.1826641221769
 30
0.0
 11
468.90806281062709
 21
1516.1826641221769
 31
0.0
  0
LINE
  5
7B9C
  8
1
 10
472.1080628106269
 20
2016.1826641221769
 30
0.0
 11
472.1080628106269
 21
1516.1826641221769
 31
0.0
  0
LINE
  5
7B9D
  8
1
 10
443.90806281062709
 20
1992.1826641221769
 30
0.0
 11
443.90806281062709
 21
1540.1826641221769
 31
0.0
  0
LINE
  5
7B9E
  8
1
 10
465.90806281062709
 20
2014.1826641221769
 30
0.0
 11
465.90806281062709
 21
1518.1826641221769
 31
0.0
  0
LINE
  5
7B9F
  8
1
 10
472.10806281062781
 20
1611.174893824417
 30
0.0
 11
472.10806281062781
 21
1466.1826641221769
 31
0.0
  0
LINE
  5
7BA0
  8
1
 10
476.60806281062781
 20
1611.174893824417
 30
0.0
 11
476.60806281062781
 21
1470.6826641221769
 31
0.0
  0
ARC
  5
7BA1
  8
1
 10
461.90806281062709
 20
1534.1826641221769
 30
0.0
 40
4.0
 50
0.0
 51
90.0
  0
LINE
  5
7BA2
  8
1
 10
532.10806281062787
 20
1466.1826641221769
 30
0.0
 11
472.10806281062781
 21
1466.1826641221769
 31
0.0
  0
LINE
  5
7BA3
  8
1
 10
532.10806281062787
 20
1470.6826641221769
 30
0.0
 11
476.60806281062781
 21
1470.6826641221769
 31
0.0
  0
LINE
  5
7BA4
  8
1
 10
481.90806281062709
 20
1371.1826641221769
 30
0.0
 11
528.90806281062714
 21
1371.1826641221769
 31
0.0
  0
LINE
  5
7BA5
  8
1
 10
492.10806281062702
 20
1526.1826641221769
 30
0.0
 11
445.90806281062709
 21
1526.1826641221769
 31
0.0
  0
LINE
  5
7BA6
  8
1
 10
468.90806281062709
 20
1516.1826641221769
 30
0.0
 11
472.1080628106269
 21
1516.1826641221769
 31
0.0
  0
ARC
  5
7BA7
  8
1
 10
467.90806281062709
 20
1518.1826641221769
 30
0.0
 40
2.0
 50
180.0
 51
270.0
  0
LINE
  5
7BA8
  8
1
 10
468.90806281062709
 20
1516.1826641221769
 30
0.0
 11
467.90806281062709
 21
1516.1826641221769
 31
0.0
  0
LINE
  5
7BA9
  8
1
 10
532.10806281062787
 20
1470.6826641221769
 30
0.0
 11
532.10806281062787
 21
1466.1826641221769
 31
0.0
  0
LINE
  5
7BAA
  8
2
 10
503.90806281062709
 20
1366.9846446444731
 30
0.0
 11
503.90806281062709
 21
1474.895537072289
 31
0.0
  0
LINE
  5
7BAB
  8
1
 10
461.90806281062709
 20
1538.1826641221769
 30
0.0
 11
445.90806281062709
 21
1538.1826641221769
 31
0.0
  0
ARC
  5
7BAC
  8
1
 10
445.90806281062709
 20
1540.1826641221769
 30
0.0
 40
2.0
 50
180.0
 51
270.0
  0
LINE
  5
7BAD
  8
1
 10
472.10806281062781
 20
1601.1826641221769
 30
0.0
 11
476.60806281062781
 21
1601.1826641221769
 31
0.0
  0
LINE
  5
7BAE
  8
1
 10
472.10806281062781
 20
1611.174893824417
 30
0.0
 11
476.60806281062781
 21
1611.174893824417
 31
0.0
  0
LINE
  5
7BB0
  8
1
 10
492.10806281062702
 20
2006.1826641221769
 30
0.0
 11
445.90806281062709
 21
2006.1826641221769
 31
0.0
  0
LINE
  5
7BB1
  8
1
 10
461.90806281062709
 20
1994.1826641221769
 30
0.0
 11
445.90806281062709
 21
1994.1826641221769
 31
0.0
  0
ARC
  5
7BB2
  8
1
 10
445.90806281062709
 20
1992.1826641221769
 30
0.0
 40
2.0
 50
90.0
 51
180.0
  0
ARC
  5
7BB3
  8
1
 10
461.90806281062709
 20
1998.1826641221769
 30
0.0
 40
4.0
 50
270.0
 51
0.0
  0
LINE
  5
7BB4
  8
1
 10
468.90806281062709
 20
2016.1826641221769
 30
0.0
 11
472.1080628106269
 21
2016.1826641221769
 31
0.0
  0
LINE
  5
7BB5
  8
1
 10
468.90806281062709
 20
2016.1826641221769
 30
0.0
 11
467.90806281062709
 21
2016.1826641221769
 31
0.0
  0
ARC
  5
7BB6
  8
1
 10
467.90806281062709
 20
2014.1826641221769
 30
0.0
 40
2.0
 50
90.0
 51
180.0
  0
LINE
  5
7BB7
  8
1
 10
1081.9080628106269
 20
2014.1826641221769
 30
0.0
 11
1081.9080628106269
 21
1518.1826641221769
 31
0.0
  0
LINE
  5
7BB8
  8
1
 10
1103.9080628106269
 20
1992.1826641221769
 30
0.0
 11
1103.9080628106269
 21
1540.1826641221769
 31
0.0
  0
LINE
  5
7BB9
  8
1
 10
1075.7080628106271
 20
2016.1826641221769
 30
0.0
 11
1075.7080628106271
 21
1516.1826641221769
 31
0.0
  0
LINE
  5
7BBA
  8
1
 10
1078.9080628106269
 20
2016.1826641221769
 30
0.0
 11
1078.9080628106269
 21
1516.1826641221769
 31
0.0
  0
LINE
  5
7BBB
  8
1
 10
1075.7080628106271
 20
1611.174893824417
 30
0.0
 11
1075.708062810628
 21
1466.1826641221769
 31
0.0
  0
LINE
  5
7BBC
  8
1
 10
1071.2080628106271
 20
1611.174893824417
 30
0.0
 11
1071.2080628106271
 21
1470.6826641221769
 31
0.0
  0
ARC
  5
7BBD
  8
1
 10
1085.9080628106269
 20
1534.1826641221769
 30
0.0
 40
4.0
 50
90.0
 51
180.0
  0
LINE
  5
7BBE
  8
1
 10
1015.708062810628
 20
1466.1826641221769
 30
0.0
 11
1075.708062810628
 21
1466.1826641221769
 31
0.0
  0
LINE
  5
7BBF
  8
1
 10
1101.9080628106269
 20
1526.1826641221769
 30
0.0
 11
1055.708062810626
 21
1526.1826641221769
 31
0.0
  0
LINE
  5
7BC0
  8
1
 10
1015.708062810627
 20
1470.6826641221769
 30
0.0
 11
1015.708062810627
 21
1466.1826641221769
 31
0.0
  0
LINE
  5
7BC1
  8
2
 10
1043.9080628106269
 20
1365.9112297412701
 30
0.0
 11
1043.9080628106269
 21
1476.1569367365171
 31
0.0
  0
LINE
  5
7BC2
  8
1
 10
1015.708062810627
 20
1470.6826641221769
 30
0.0
 11
1071.2080628106271
 21
1470.6826641221769
 31
0.0
  0
LINE
  5
7BC3
  8
1
 10
1078.9080628106269
 20
1516.1826641221769
 30
0.0
 11
1079.9080628106269
 21
1516.1826641221769
 31
0.0
  0
ARC
  5
7BC4
  8
1
 10
1079.9080628106269
 20
1518.1826641221769
 30
0.0
 40
2.0
 50
270.0
 51
0.0
  0
LINE
  5
7BC5
  8
1
 10
1078.9080628106269
 20
1516.1826641221769
 30
0.0
 11
1075.7080628106271
 21
1516.1826641221769
 31
0.0
  0
LINE
  5
7BC6
  8
1
 10
1075.7080628106271
 20
1611.174893824417
 30
0.0
 11
1071.2080628106271
 21
1611.174893824417
 31
0.0
  0
LINE
  5
7BC7
  8
1
 10
1075.7080628106271
 20
1601.1826641221769
 30
0.0
 11
1071.2080628106271
 21
1601.1826641221769
 31
0.0
  0
LINE
  5
7BC8
  8
1
 10
1085.9080628106269
 20
1538.1826641221769
 30
0.0
 11
1101.9080628106269
 21
1538.1826641221769
 31
0.0
  0
ARC
  5
7BC9
  8
1
 10
1101.9080628106269
 20
1540.1826641221769
 30
0.0
 40
2.0
 50
270.0
 51
0.0
  0
LINE
  5
7C3C
  8
1
 10
1101.9080628106269
 20
2006.1826641221769
 30
0.0
 11
1055.708062810626
 21
2006.1826641221769
 31
0.0
  0
ARC
  5
7C3D
  8
1
 10
1101.9080628106269
 20
1992.1826641221769
 30
0.0
 40
2.0
 50
0.0
 51
90.0
  0
ARC
  5
7C3E
  8
1
 10
1085.9080628106269
 20
1998.1826641221769
 30
0.0
 40
4.0
 50
180.0
 51
270.0
  0
LINE
  5
7C3F
  8
1
 10
1085.9080628106269
 20
1994.1826641221769
 30
0.0
 11
1101.9080628106269
 21
1994.1826641221769
 31
0.0
  0
ARC
  5
7C40
  8
1
 10
1079.9080628106269
 20
2014.1826641221769
 30
0.0
 40
2.0
 50
0.0
 51
90.0
  0
LINE
  5
7C41
  8
1
 10
1078.9080628106269
 20
2016.1826641221769
 30
0.0
 11
1079.9080628106269
 21
2016.1826641221769
 31
0.0
  0
LINE
  5
7C42
  8
1
 10
1078.9080628106269
 20
2016.1826641221769
 30
0.0
 11
1075.7080628106271
 21
2016.1826641221769
 31
0.0
  0
CIRCLE
  5
7C53
  8
1
 10
1828.3630619245121
 20
1766.1826641221769
 30
0.0
 40
225.0
  0
LINE
  5
7C54
  8
2
 10
1828.3630619245121
 20
2107.6519108106272
 30
0.0
 11
1828.3630619245121
 21
1298.6224079524959
 31
0.0
  0
LINE
  5
7C55
  8
1
 10
1628.3630619245121
 20
1466.1826641221769
 30
0.0
 11
2028.3630619245121
 21
1466.1826641221769
 31
0.0
  0
LINE
  5
7C56
  8
1
 10
2118.3630619245132
 20
1371.1826641221769
 30
0.0
 11
1538.3630619245121
 21
1371.1826641221769
 31
0.0
  0
LINE
  5
7C57
  8
1
 10
1628.3630619245121
 20
1601.1826641221769
 30
0.0
 11
1628.3630619245121
 21
1466.1826641221769
 31
0.0
  0
LINE
  5
7C5A
  8
2
 10
1648.3630619245121
 20
1476.207995728377
 30
0.0
 11
1648.3630619245121
 21
1363.4135355865369
 31
0.0
  0
LINE
  5
7C5B
  8
1
 10
1628.3630619245121
 20
1601.1826641221769
 30
0.0
 11
1634.1751814333061
 21
1608.7308712764529
 31
0.0
  0
LINE
  5
7C60
  8
1
 10
2028.3630619245121
 20
1601.1826641221769
 30
0.0
 11
2028.3630619245121
 21
1466.1826641221769
 31
0.0
  0
LINE
  5
7C61
  8
2
 10
2008.3630619245121
 20
1476.8124310182179
 30
0.0
 11
2008.3630619245121
 21
1363.4135355865369
 31
0.0
  0
LINE
  5
7C62
  8
1
 10
2028.3630619245121
 20
1601.1826641221769
 30
0.0
 11
2022.5509424157201
 21
1608.7308712764541
 31
0.0
  0
LINE
  5
7CFC
  8
1
 10
478.90806281062709
 20
1766.1826641221769
 30
0.0
 11
588.90806281062714
 21
1766.1826641221769
 31
0.0
  0
LINE
  5
7CFD
  8
1
 10
488.90806281062709
 20
1878.6826641221769
 30
0.0
 11
488.90806281062709
 21
1653.6826641221769
 31
0.0
  0
LINE
  5
7CFE
  8
1
 10
578.90806281062714
 20
1878.6826641221769
 30
0.0
 11
578.90806281062714
 21
1653.6826641221769
 31
0.0
  0
LINE
  5
7CFF
  8
1
 10
508.90806281062709
 20
1988.1826641221769
 30
0.0
 11
558.90806281062714
 21
1988.1826641221769
 31
0.0
  0
LINE
  5
7D00
  8
1
 10
508.90806281062709
 20
1868.6826641221769
 30
0.0
 11
508.90806281062657
 21
1663.6826641221769
 31
0.0
  0
LINE
  5
7D01
  8
1
 10
518.90806281062714
 20
1868.6826641221769
 30
0.0
 11
518.90806281062714
 21
1663.6826641221769
 31
0.0
  0
LINE
  5
7D02
  8
1
 10
488.90806281062709
 20
1878.6826641221769
 30
0.0
 11
578.90806281062714
 21
1878.6826641221769
 31
0.0
  0
LINE
  5
7D03
  8
1
 10
488.90806281062709
 20
1653.6826641221769
 30
0.0
 11
578.90806281062714
 21
1653.6826641221769
 31
0.0
  0
LINE
  5
7D04
  8
1
 10
488.90806281062709
 20
1663.6826641221769
 30
0.0
 11
578.90806281062714
 21
1663.6826641221769
 31
0.0
  0
LINE
  5
7D05
  8
1
 10
488.90806281062709
 20
1868.6826641221769
 30
0.0
 11
578.90806281062714
 21
1868.6826641221769
 31
0.0
  0
LINE
  5
7D06
  8
1
 10
488.90806281062709
 20
1878.6826641221769
 30
0.0
 11
508.90806281062709
 21
1988.1826641221769
 31
0.0
  0
LINE
  5
7D07
  8
1
 10
558.90806281062714
 20
1988.1826641221769
 30
0.0
 11
578.90806281062714
 21
1878.6826641221769
 31
0.0
  0
LINE
  5
7D08
  8
1
 10
558.90806281062714
 20
1544.1826641221769
 30
0.0
 11
578.90806281062714
 21
1653.6826641221769
 31
0.0
  0
LINE
  5
7D09
  8
1
 10
488.90806281062709
 20
1653.6826641221769
 30
0.0
 11
508.90806281062709
 21
1544.1826641221769
 31
0.0
  0
LINE
  5
7D0A
  8
1
 10
508.90806281062709
 20
1544.1826641221769
 30
0.0
 11
558.90806281062714
 21
1544.1826641221769
 31
0.0
  0
LINE
  5
7D0F
  8
1
 10
1118.9080628106269
 20
1371.1826641221769
 30
0.0
 11
1118.9080628106269
 21
1331.1826641221769
 31
0.0
  0
LINE
  5
7D10
  8
1
 10
428.90806281062709
 20
1371.1826641221769
 30
0.0
 11
428.90806281062709
 21
1331.1826641221769
 31
0.0
  0
LINE
  5
7D11
  8
2
 10
1100.9080628106269
 20
1351.2350947219791
 30
0.0
 11
1100.9080628106269
 21
1307.9085678384549
 31
0.0
  0
LINE
  5
7D12
  8
2
 10
446.90806281062709
 20
1351.2350947219791
 30
0.0
 11
446.90806281062709
 21
1310.7387715661159
 31
0.0
  0
LINE
  5
7D13
  8
1
 10
2118.3630619245132
 20
1371.1826641221769
 30
0.0
 11
2118.3630619245132
 21
1331.1826641221769
 31
0.0
  0
LINE
  5
7D14
  8
1
 10
1538.363061924513
 20
1371.1826641221769
 30
0.0
 11
1538.3630619245121
 21
1331.1826641221769
 31
0.0
  0
LINE
  5
7D15
  8
2
 10
1563.363061924513
 20
1351.2350947219791
 30
0.0
 11
1563.3630619245121
 21
1289.5698757141381
 31
0.0
  0
LINE
  5
7D16
  8
2
 10
2093.3630619245132
 20
1351.2350947219791
 30
0.0
 11
2093.3630619245118
 21
1289.5698757141381
 31
0.0
  0
LINE
  5
7D18
  8
4
 10
2220.0
 20
600.0
 30
0.0
 11
2220.0
 21
360.0
 31
0.0
  0
LINE
  5
7D19
  8
4
 10
1380.0
 20
600.0
 30
0.0
 11
1380.0
 21
360.0
 31
0.0
  0
LINE
  5
7D1A
  8
4
 10
780.0
 20
600.0
 30
0.0
 11
780.0
 21
360.0
 31
0.0
  0
LINE
  5
7D1D
  8
4
 10
780.0
 20
360.0
 30
0.0
 11
2220.0
 21
360.0
 31
0.0
  0
LINE
  5
7D1E
  8
4
 10
780.0
 20
480.0
 30
0.0
 11
2220.0
 21
480.0
 31
0.0
  0
TEXT
  5
7D1F
  8
4
 10
826.20249701628188
 20
517.85163103993546
 30
0.0
 40
60.0
  1
機器名称
  0
TEXT
  5
7D20
  8
4
 10
823.509727229757
 20
385.97418807841308
 30
0.0
 40
60.0
  1
機器型番
  0
TEXT
  5
7D21
  8
4
 10
1413.2144945851969
 20
507.08612274908222
 30
0.0
 40
60.0
  1
ミツヤ軸流ファン
  0
TEXT
  5
7D22
  8
4
 10
1423.9853947025761
 20
380.59150113593199
 30
0.0
 40
60.0
  1
AP＃450-1
  0
TEXT
  5
7D24
  8
4
 10
979.79672916461448
 20
2860.1146095990189
 30
0.0
 40
64.799999999999997
  1
床置防振ベット
  0
TEXT
  5
7D25
  8
4
 10
379.40111199533561
 20
3040.6571714391571
 30
0.0
 40
86.400000000000006
  1
電動機直動式横形軸流ファン
  0
LINE
  5
7D26
  8
4
 10
300.0
 20
2963.2905051177659
 30
0.0
 11
2220.0
 21
2963.2905051177659
 31
0.0
  0
LINE
  5
7D27
  8
4
 10
300.0
 20
3203.290505117765
 30
0.0
 11
2220.0
 21
3203.290505117765
 31
0.0
  0
LINE
  5
7D28
  8
4
 10
780.0
 20
600.0
 30
0.0
 11
2220.0
 21
600.0
 31
0.0
  0
LINE
  5
7D29
  8
4
 10
300.0
 20
3203.290505117765
 30
0.0
 11
300.0
 21
2963.2905051177659
 31
0.0
  0
TEXT
  5
7D2A
  8
4
 10
350.8199275887327
 20
2858.7833730556122
 30
0.0
 40
64.799999999999997
  1
左回転後方吐出
  0
TEXT
  5
7D2B
  8
4
 10
1762.763471099147
 20
3247.2732977943701
 30
0.0
 40
67.200000000000003
  1
No.
  0
TEXT
  5
7D2C
  8
4
 10
1717.1075619138021
 20
2860.1146095990189
 30
0.0
 40
64.799999999999997
  1
縮尺：1/12
  0
LINE
  5
7D2D
  8
4
 10
2220.0
 20
3203.290505117765
 30
0.0
 11
2220.0
 21
2963.2905051177659
 31
0.0
  0
LINE
  5
7D2E
  8
4
 10
2520.0
 20
3540.0
 30
0.0
 11
2520.0
 21
3540.0
 31
0.0
  0
LINE
  5
7D2F
  8
4
 10
1728.740906831837
 20
3217.5162997504808
 30
0.0
 11
1728.740906831837
 21
3343.9827138597029
 31
0.0
  0
LINE
  5
7D30
  8
4
 10
1728.740906831837
 20
3343.9827138597029
 30
0.0
 11
2220.0
 21
3343.9827138597029
 31
0.0
  0
LINE
  5
7D31
  8
4
 10
2220.0
 20
3343.9827138597029
 30
0.0
 11
2220.0
 21
3217.5162997504808
 31
0.0
  0
LINE
  5
7D32
  8
4
 10
2220.0
 20
3217.5162997504808
 30
0.0
 11
1728.740906831837
 21
3217.5162997504808
 31
0.0
  0
LINE
  5
7D33
  8
4
 10
0.0
 20
0.0
 30
0.0
 11
0.0
 21
3540.0
 31
0.0
  0
LINE
  5
7D34
  8
4
 10
0.0
 20
3540.0
 30
0.0
 11
2520.0
 21
3540.0
 31
0.0
  0
LINE
  5
7D35
  8
4
 10
2520.0
 20
3540.0
 30
0.0
 11
2520.0
 21
0.0
 31
0.0
  0
LINE
  5
7D36
  8
4
 10
2520.0
 20
0.0
 30
0.0
 11
0.0
 21
0.0
 31
0.0
  0
DIMENSION
  5
7D4A
  8
3
  2
*D1
 10
1118.9080628106269
 20
1141.4754585971141
 30
0.0
 11
738.31254494704979
 21
1141.4754585971141
 31
0.0
 70
   128
 13
428.90806281062709
 23
1331.1826641221769
 33
0.0
 14
1118.9080628106269
 24
1331.1826641221769
 34
0.0
1001
ACAD
1000
DSTYLE
1002
{
1070
   287
1070
     3
1070
   287
1070
     3
1070
   287
1070
     3
1070
   287
1070
     3
1070
   287
1070
     3
1070
   287
1070
     3
1070
   287
1070
     3
1070
   287
1070
     3
1070
    40
1040
12.0
1070
   143
1040
0.039
1070
   172
1070
     1
1070
   271
1070
     0
1070
   279
1070
     0
1070
   288
1070
     1
1002
}
  0
DIMENSION
  5
7D62
  8
3
  2
*D2
 10
2118.3630619245132
 20
1141.4754585971141
 30
0.0
 11
1824.261060436871
 21
1141.4754585971141
 31
0.0
 70
   128
 13
1538.3630619245121
 23
1331.1826641221769
 33
0.0
 14
2118.3630619245132
 24
1331.1826641221769
 34
0.0
1001
ACAD
1000
DSTYLE
1002
{
1070
   287
1070
     3
1070
   287
1070
     3
1070
   287
1070
     3
1070
   287
1070
     3
1070
   287
1070
     3
1070
   287
1070
     3
1070
   287
1070
     3
1070
   287
1070
     3
1070
    40
1040
12.0
1070
   143
1040
0.039
1070
   172
1070
     1
1070
   271
1070
     0
1070
   279
1070
     0
1070
   288
1070
     1
1002
}
  0
DIMENSION
  5
7DBC
  8
3
  2
*D3
 10
1438.1948484036041
 20
1466.1826641221769
 30
0.0
 11
1438.1948484036041
 21
1608.679393114222
 31
0.0
 70
   128
 13
1499.7662994897159
 23
1766.1826641221769
 33
0.0
 14
1628.3630619245121
 24
1466.1826641221769
 34
0.0
 50
90.0
1001
ACAD
1000
DSTYLE
1002
{
1070
   287
1070
     3
1070
   287
1070
     3
1070
   287
1070
     3
1070
   287
1070
     3
1070
   287
1070
     3
1070
   287
1070
     3
1070
   287
1070
     3
1070
   287
1070
     3
1070
    40
1040
12.0
1070
   143
1040
0.039
1070
   172
1070
     1
1070
   271
1070
     0
1070
   279
1070
     0
1070
   288
1070
     1
1002
}
  0
DIMENSION
  5
7DCA
  8
3
  2
*D4
 10
1438.1948484036041
 20
1371.1826641221769
 30
0.0
 11
1380.766276975032
 21
1418.6826641221769
 31
0.0
 70
     0
  1
(<>)
 13
1628.3630619245121
 23
1466.1826641221769
 33
0.0
 14
1538.363061924513
 24
1371.1826641221769
 34
0.0
 50
90.0
1001
ACAD
1000
DSTYLE
1002
{
1070
     7
1000
NONE
1070
     6
1000
NONE
1070
   288
1070
     1
1070
   172
1070
     1
1070
    75
1070
     1
1070
    40
1040
12.0
1070
   271
1070
     0
1070
   143
1040
0.039
1002
}
  0
DIMENSION
  5
7DDA
  8
3
  2
*D5
 10
1438.1948484036041
 20
1331.1826641221769
 30
0.0
 11
1408.1948484036029
 21
1242.03980697932
 31
0.0
 70
     0
 13
1538.363061924513
 23
1371.1826641221769
 33
0.0
 14
1538.3630619245121
 24
1331.1826641221769
 34
0.0
 50
90.0
1001
ACAD
1000
DSTYLE
1002
{
1070
   287
1070
     3
1070
   287
1070
     3
1070
   287
1070
     3
1070
   287
1070
     3
1070
   287
1070
     3
1070
     6
1000
DOTSMALL
1070
   287
1070
     3
1070
   287
1070
     3
1070
   287
1070
     3
1070
    40
1040
12.0
1070
   143
1040
0.039
1070
   172
1070
     1
1070
   271
1070
     0
1070
   279
1070
     0
1070
   288
1070
     1
1002
}
  0
DIMENSION
  5
7E1E
  8
3
  2
*D6
 10
2078.3630619245118
 20
2273.6651373468949
 30
0.0
 11
1828.1412171641421
 21
2273.6651373468949
 31
0.0
 70
   128
 13
1578.363061924513
 23
1766.1826641221769
 33
0.0
 14
2078.3630619245118
 24
1766.1826641221769
 34
0.0
1001
ACAD
1000
DSTYLE
1002
{
1070
   287
1070
     3
1070
   287
1070
     3
1070
   287
1070
     3
1070
   287
1070
     3
1070
   287
1070
     3
1070
   287
1070
     3
1070
   287
1070
     3
1070
   287
1070
     3
1070
    40
1040
12.0
1070
   143
1040
0.039
1070
   172
1070
     1
1070
   271
1070
     0
1070
   279
1070
     0
1070
   288
1070
     1
1002
}
  0
DIMENSION
  5
7E2B
  8
3
  2
*D7
 10
1078.9080628106269
 20
2273.3736517743891
 30
0.0
 11
775.91973012492235
 21
2273.3736517743891
 31
0.0
 70
   128
 13
468.90806281062709
 23
2016.1826641221769
 33
0.0
 14
1078.9080628106269
 24
2016.1826641221769
 34
0.0
1001
ACAD
1000
DSTYLE
1002
{
1070
   287
1070
     3
1070
   287
1070
     3
1070
   287
1070
     3
1070
   287
1070
     3
1070
   287
1070
     3
1070
   287
1070
     3
1070
   287
1070
     3
1070
   287
1070
     3
1070
    40
1040
12.0
1070
   143
1040
0.039
1070
   172
1070
     1
1070
   271
1070
     0
1070
   279
1070
     0
1070
   288
1070
     1
1002
}
  0
DIMENSION
  5
7E38
  8
3
  2
*D8
 10
306.58842175140143
 20
1541.1826641221769
 30
0.0
 11
306.5884217514012
 21
1763.3831785976711
 31
0.0
 70
   128
 13
443.90806281062709
 23
1991.1826641221769
 33
0.0
 14
443.90806281062709
 24
1541.1826641221769
 34
0.0
 50
90.0
1001
ACAD
1000
DSTYLE
1002
{
1070
   287
1070
     3
1070
   287
1070
     3
1070
   287
1070
     3
1070
   287
1070
     3
1070
   287
1070
     3
1070
   287
1070
     3
1070
   287
1070
     3
1070
   287
1070
     3
1070
     3
1000
φ<>
1070
    40
1040
12.0
1070
   143
1040
0.039
1070
   172
1070
     1
1070
   271
1070
     0
1070
   279
1070
     0
1070
   288
1070
     1
1002
}
  0
DIMENSION
  5
7E45
  8
3
  2
*D9
 10
1247.9961122121349
 20
1541.1826641221769
 30
0.0
 11
1247.9961122121349
 21
1771.63256235107
 31
0.0
 70
   128
 13
1103.9080628106269
 23
1991.1826641221769
 33
0.0
 14
1103.9080628106269
 24
1541.1826641221769
 34
0.0
 50
90.0
1001
ACAD
1000
DSTYLE
1002
{
1070
   287
1070
     3
1070
   287
1070
     3
1070
   287
1070
     3
1070
   287
1070
     3
1070
   287
1070
     3
1070
   287
1070
     3
1070
   287
1070
     3
1070
   287
1070
     3
1070
     3
1000
φ<>
1070
    40
1040
12.0
1070
   143
1040
0.039
1070
   172
1070
     1
1070
   271
1070
     0
1070
   279
1070
     0
1070
   288
1070
     1
1002
}
  0
ENDSEC
  0
EOF
