  0
SECTION
  2
HEADER
  9
$ACADVER
  1
AC1009
  9
$INSBASE
 10
0.0
 20
0.0
 30
0.0
  9
$EXTMIN
 10
0.0
 20
0.0
 30
0.0
  9
$EXTMAX
 10
2520.0
 20
3540.0
 30
0.0
  9
$LIMMIN
 10
0.0
 20
0.0
  9
$LIMMAX
 10
297.0
 20
210.0
  9
$ORTHOMODE
 70
     0
  9
$REGENMODE
 70
     1
  9
$FILLMODE
 70
     0
  9
$QTEXTMODE
 70
     0
  9
$MIRRTEXT
 70
     1
  9
$DRAGMODE
 70
     2
  9
$LTSCALE
 40
100.0
  9
$OSMODE
 70
    37
  9
$ATTMODE
 70
     1
  9
$TEXTSIZE
 40
180.0
  9
$TRACEWID
 40
0.05
  9
$TEXTSTYLE
  7
STANDARD
  9
$CLAYER
  8
3
  9
$CELTYPE
  6
BYLAYER
  9
$CECOLOR
 62
   256
  9
$DIMSCALE
 40
12.0
  9
$DIMASZ
 40
2.0
  9
$DIMEXO
 40
0.5
  9
$DIMDLI
 40
10.0
  9
$DIMRND
 40
0.0
  9
$DIMDLE
 40
0.0
  9
$DIMEXE
 40
1.0
  9
$DIMTP
 40
1.0
  9
$DIMTM
 40
1.0
  9
$DIMTXT
 40
3.0
  9
$DIMCEN
 40
0.0
  9
$DIMTSZ
 40
0.0
  9
$DIMTOL
 70
     0
  9
$DIMLIM
 70
     0
  9
$DIMTIH
 70
     0
  9
$DIMTOH
 70
     0
  9
$DIMSE1
 70
     0
  9
$DIMSE2
 70
     0
  9
$DIMTAD
 70
     1
  9
$DIMZIN
 70
     8
  9
$DIMBLK
  1

  9
$DIMASO
 70
     1
  9
$DIMSHO
 70
     1
  9
$DIMPOST
  1

  9
$DIMAPOST
  1

  9
$DIMALT
 70
     0
  9
$DIMALTD
 70
     2
  9
$DIMALTF
 40
0.039
  9
$DIMLFAC
 40
1.0
  9
$DIMTOFL
 70
     1
  9
$DIMTVP
 40
0.0
  9
$DIMTIX
 70
     0
  9
$DIMSOXD
 70
     0
  9
$DIMSAH
 70
     1
  9
$DIMBLK1
  1
OPEN
  9
$DIMBLK2
  1
OPEN
  9
$DIMSTYLE
  2
IGA
  9
$DIMCLRD
 70
     0
  9
$DIMCLRE
 70
     0
  9
$DIMCLRT
 70
     0
  9
$DIMTFAC
 40
10.0
  9
$DIMGAP
 40
1.0
  9
$LUNITS
 70
     2
  9
$LUPREC
 70
     3
  9
$SKETCHINC
 40
0.1
  9
$FILLETRAD
 40
50.0
  9
$AUNITS
 70
     0
  9
$AUPREC
 70
     0
  9
$MENU
  1
acad
  9
$ELEVATION
 40
0.0
  9
$PELEVATION
 40
0.0
  9
$THICKNESS
 40
0.0
  9
$LIMCHECK
 70
     0
  9
$BLIPMODE
 70
     0
  9
$CHAMFERA
 40
0.5
  9
$CHAMFERB
 40
0.5
  9
$SKPOLY
 70
     0
  9
$TDCREATE
 40
2452832.4581446759
  9
$TDUPDATE
 40
2454953.624254548
  9
$TDINDWG
 40
0.0471344792
  9
$TDUSRTIMER
 40
0.0471344792
  9
$USRTIMER
 70
     1
  9
$ANGBASE
 50
0.0
  9
$ANGDIR
 70
     0
  9
$PDMODE
 70
     0
  9
$PDSIZE
 40
0.0
  9
$PLINEWID
 40
0.0
  9
$COORDS
 70
     1
  9
$SPLFRAME
 70
     0
  9
$SPLINETYPE
 70
     6
  9
$SPLINESEGS
 70
     8
  9
$ATTDIA
 70
     0
  9
$ATTREQ
 70
     1
  9
$HANDLING
 70
 10241
  9
$HANDSEED
  5
92EA
  9
$SURFTAB1
 70
     6
  9
$SURFTAB2
 70
     6
  9
$SURFTYPE
 70
     6
  9
$SURFU
 70
     6
  9
$SURFV
 70
     6
  9
$UCSNAME
  2

  9
$UCSORG
 10
0.0
 20
0.0
 30
0.0
  9
$UCSXDIR
 10
1.0
 20
0.0
 30
0.0
  9
$UCSYDIR
 10
0.0
 20
1.0
 30
0.0
  9
$PUCSNAME
  2

  9
$PUCSORG
 10
0.0
 20
0.0
 30
0.0
  9
$PUCSXDIR
 10
1.0
 20
0.0
 30
0.0
  9
$PUCSYDIR
 10
0.0
 20
1.0
 30
0.0
  9
$USERI1
 70
     0
  9
$USERI2
 70
     0
  9
$USERI3
 70
     0
  9
$USERI4
 70
     0
  9
$USERI5
 70
     0
  9
$USERR1
 40
0.0
  9
$USERR2
 40
0.0
  9
$USERR3
 40
0.0
  9
$USERR4
 40
0.0
  9
$USERR5
 40
0.0
  9
$WORLDVIEW
 70
     1
  9
$SHADEDGE
 70
     3
  9
$SHADEDIF
 70
    70
  9
$TILEMODE
 70
     1
  9
$MAXACTVP
 70
    16
  9
$PLIMCHECK
 70
     0
  9
$PEXTMIN
 10
1.0000000000000000E+020
 20
1.0000000000000000E+020
 30
1.0000000000000000E+020
  9
$PEXTMAX
 10
-1.0000000000000000E+020
 20
-1.0000000000000000E+020
 30
-1.0000000000000000E+020
  9
$PLIMMIN
 10
0.0
 20
0.0
  9
$PLIMMAX
 10
12.0
 20
9.0
  9
$UNITMODE
 70
     0
  9
$VISRETAIN
 70
     0
  9
$PLINEGEN
 70
     0
  9
$PSLTSCALE
 70
     1
  0
ENDSEC
  0
SECTION
  2
TABLES
  0
TABLE
  2
VPORT
 70
     2
  0
VPORT
  2
*ACTIVE
 70
     0
 10
0.0
 20
0.0
 11
1.0
 21
1.0
 12
2402.4862907743341
 22
418.30556196497758
 13
0.0
 23
0.0
 14
10.0
 24
10.0
 15
10.0
 25
10.0
 16
0.0
 26
0.0
 36
1.0
 17
0.0
 27
0.0
 37
0.0
 40
1105.9525995371739
 41
3.1666666666666661
 42
50.0
 43
0.0
 44
0.0
 50
0.0
 51
0.0
 71
     0
 72
   100
 73
     1
 74
     0
 75
     0
 76
     0
 77
     0
 78
     0
  0
ENDTAB
  0
TABLE
  2
LTYPE
 70
     2
  0
LTYPE
  2
CONTINUOUS
 70
     0
  3
Solid line
 72
    65
 73
     0
 40
0.0
  0
LTYPE
  2
CENTER
 70
     0
  3
____ _ ____ _ ____ _ ____ _ ____ _ ____ _ ____ 
 72
    65
 73
     4
 40
2.0
 49
1.25
 49
-0.25
 49
0.25
 49
-0.25
  0
ENDTAB
  0
TABLE
  2
LAYER
 70
     6
  0
LAYER
  2
0
 70
     0
 62
     7
  6
CONTINUOUS
  0
LAYER
  2
3
 70
     0
 62
     2
  6
CONTINUOUS
  0
LAYER
  2
2
 70
     0
 62
     3
  6
CENTER
  0
LAYER
  2
1
 70
     0
 62
     4
  6
CONTINUOUS
  0
LAYER
  2
4
 70
     0
 62
     7
  6
CONTINUOUS
  0
LAYER
  2
DEFPOINTS
 70
     0
 62
     7
  6
CONTINUOUS
  0
ENDTAB
  0
TABLE
  2
STYLE
 70
     1
  0
STYLE
  2
STANDARD
 70
     0
 40
0.0
 41
1.0
 50
0.0
 71
     0
 42
180.0
  3
simplex.shx
  4
extfont.shx
  0
ENDTAB
  0
TABLE
  2
VIEW
 70
     0
  0
ENDTAB
  0
TABLE
  2
UCS
 70
     0
  0
ENDTAB
  0
TABLE
  2
APPID
 70
     1
  0
APPID
  2
ACAD
 70
     0
  0
ENDTAB
  0
TABLE
  2
DIMSTYLE
 70
     1
  0
DIMSTYLE
  2
IGA
 70
     0
  3

  4

  5

  6
OPEN
  7
OPEN
 40
2.0
 41
2.0
 42
0.5
 43
10.0
 44
1.0
 45
0.0
 46
0.0
 47
1.0
 48
1.0
140
3.0
141
0.0
142
0.0
143
0.03937
144
1.0
145
0.0
146
10.0
147
1.0
 71
     0
 72
     0
 73
     0
 74
     0
 75
     0
 76
     0
 77
     1
 78
     8
170
     0
171
     2
172
     0
173
     1
174
     0
175
     0
176
     0
177
     0
178
     0
  0
ENDTAB
  0
ENDSEC
  0
SECTION
  2
BLOCKS
  0
BLOCK
  8
0
  2
$MODEL_SPACE
 70
     0
 10
0.0
 20
0.0
 30
0.0
  3
$MODEL_SPACE
  1

  0
ENDBLK
  5
1B
  8
0
  0
BLOCK
 67
     1
  8
0
  2
$PAPER_SPACE
 70
     0
 10
0.0
 20
0.0
 30
0.0
  3
$PAPER_SPACE
  1

  0
ENDBLK
  5
18
 67
     1
  8
0
  0
BLOCK
  8
0
  2
_OPEN
 70
     0
 10
0.0
 20
0.0
 30
0.0
  3
_OPEN
  1

  0
LINE
  5
7D39
  8
0
  6
BYBLOCK
 62
     0
 10
-1.0
 20
0.1666666666666666
 30
0.0
 11
0.0
 21
0.0
 31
0.0
  0
LINE
  5
7D3A
  8
0
  6
BYBLOCK
 62
     0
 10
0.0
 20
0.0
 30
0.0
 11
-1.0
 21
-0.1666666666666666
 31
0.0
  0
LINE
  5
7D3B
  8
0
  6
BYBLOCK
 62
     0
 10
0.0
 20
0.0
 30
0.0
 11
-1.0
 21
0.0
 31
0.0
  0
ENDBLK
  5
7D3C
  8
0
  0
BLOCK
  8
0
  2
*D1
 70
     1
 10
0.0
 20
0.0
 30
0.0
  3
*D1
  1

  0
LINE
  5
92A0
  8
3
 62
     0
 10
437.90806281062709
 20
1991.1826641221769
 30
0.0
 11
294.5884217514016
 21
1991.1826641221769
 31
0.0
  0
LINE
  5
92A1
  8
3
 62
     0
 10
437.90806281062709
 20
1541.1826641221769
 30
0.0
 11
294.58842175140143
 21
1541.1826641221769
 31
0.0
  0
LINE
  5
92A2
  8
3
 62
     0
 10
306.5884217514016
 20
1967.1826641221769
 30
0.0
 11
306.58842175140143
 21
1565.1826641221769
 31
0.0
  0
INSERT
  5
92A3
  8
3
 62
     0
  2
_OPEN
 10
306.5884217514016
 20
1991.1826641221769
 30
0.0
 41
24.0
 42
24.0
 43
24.0
 50
90.0
  0
INSERT
  5
92A4
  8
3
 62
     0
  2
_OPEN
 10
306.58842175140143
 20
1541.1826641221769
 30
0.0
 41
24.0
 42
24.0
 43
24.0
 50
270.0
  0
TEXT
  8
3
  40
36
  5
92E3
  62
0
  72
0
  71
0
 10
204.588
 20
1699.66
 30
0.000000
  1
φ450
  0
POINT
  5
92A6
  8
DEFPOINTS
 62
     0
 10
443.90806281062709
 20
1991.1826641221769
 30
0.0
  0
POINT
  5
92A7
  8
DEFPOINTS
 62
     0
 10
443.90806281062709
 20
1541.1826641221769
 30
0.0
  0
POINT
  5
92A8
  8
DEFPOINTS
 62
     0
 10
306.58842175140143
 20
1541.1826641221769
 30
0.0
  0
ENDBLK
  5
7E5B
  8
0
  0
BLOCK
  8
0
  2
*D2
 70
     1
 10
0.0
 20
0.0
 30
0.0
  3
*D2
  1

  0
LINE
  5
92A9
  8
3
 62
     0
 10
1109.9080628106269
 20
1991.1826641221769
 30
0.0
 11
1259.9961122121349
 21
1991.1826641221769
 31
0.0
  0
LINE
  5
92AA
  8
3
 62
     0
 10
1109.9080628106269
 20
1541.1826641221769
 30
0.0
 11
1259.9961122121349
 21
1541.1826641221769
 31
0.0
  0
LINE
  5
92AB
  8
3
 62
     0
 10
1247.9961122121349
 20
1967.1826641221769
 30
0.0
 11
1247.9961122121349
 21
1565.1826641221769
 31
0.0
  0
INSERT
  5
92AC
  8
3
 62
     0
  2
_OPEN
 10
1247.9961122121349
 20
1991.1826641221769
 30
0.0
 41
24.0
 42
24.0
 43
24.0
 50
90.0
  0
INSERT
  5
92AD
  8
3
 62
     0
  2
_OPEN
 10
1247.9961122121349
 20
1541.1826641221769
 30
0.0
 41
24.0
 42
24.0
 43
24.0
 50
270.0
  0
TEXT
  8
3
  40
36
  5
92E4
  62
0
  72
0
  71
0
 10
1146.00
 20
1707.91
 30
0.000000
  1
φ450
  0
POINT
  5
92AF
  8
DEFPOINTS
 62
     0
 10
1103.9080628106269
 20
1991.1826641221769
 30
0.0
  0
POINT
  5
92B0
  8
DEFPOINTS
 62
     0
 10
1103.9080628106269
 20
1541.1826641221769
 30
0.0
  0
POINT
  5
92B1
  8
DEFPOINTS
 62
     0
 10
1247.9961122121349
 20
1541.1826641221769
 30
0.0
  0
ENDBLK
  5
7E50
  8
0
  0
BLOCK
  8
0
  2
*D3
 70
     1
 10
0.0
 20
0.0
 30
0.0
  3
*D3
  1

  0
LINE
  5
92B2
  8
3
 62
     0
 10
1563.3630619245121
 20
2246.9368893084988
 30
0.0
 11
1563.3630619245121
 21
2343.7865372579522
 31
0.0
  0
LINE
  5
92B3
  8
3
 62
     0
 10
2093.3630619245132
 20
2246.9368893084988
 30
0.0
 11
2093.3630619245132
 21
2343.7865372579522
 31
0.0
  0
LINE
  5
92B4
  8
3
 62
     0
 10
1587.3630619245121
 20
2331.7865372579522
 30
0.0
 11
2069.3630619245118
 21
2331.7865372579522
 31
0.0
  0
INSERT
  5
92B5
  8
3
 62
     0
  2
_OPEN
 10
1563.3630619245121
 20
2331.7865372579522
 30
0.0
 41
24.0
 42
24.0
 43
24.0
 50
180.0
  0
INSERT
  5
92B6
  8
3
 62
     0
  2
_OPEN
 10
2093.3630619245132
 20
2331.7865372579522
 30
0.0
 41
24.0
 42
24.0
 43
24.0
  0
TEXT
  8
3
  40
36
  5
92E5
  62
0
  72
0
  71
0
 10
1757.74
 20
2298.07
 30
0.000000
  1
530
  0
POINT
  5
92B8
  8
DEFPOINTS
 62
     0
 10
1563.3630619245121
 20
2240.9368893085002
 30
0.0
  0
POINT
  5
92B9
  8
DEFPOINTS
 62
     0
 10
2093.3630619245132
 20
2240.9368893085002
 30
0.0
  0
POINT
  5
92BA
  8
DEFPOINTS
 62
     0
 10
2093.3630619245132
 20
2331.7865372579522
 30
0.0
  0
ENDBLK
  5
912C
  8
0
  0
BLOCK
  8
0
  2
*D4
 70
     1
 10
0.0
 20
0.0
 30
0.0
  3
*D4
  1

  0
LINE
  5
92BB
  8
3
 62
     0
 10
468.90806281062709
 20
2022.1826641221769
 30
0.0
 11
468.90806281062709
 21
2392.9094123685668
 31
0.0
  0
LINE
  5
92BC
  8
3
 62
     0
 10
1078.9080628106269
 20
2022.1826641221769
 30
0.0
 11
1078.9080628106269
 21
2392.9094123685668
 31
0.0
  0
LINE
  5
92BD
  8
3
 62
     0
 10
492.90806281062709
 20
2380.9094123685668
 30
0.0
 11
1054.9080628106269
 21
2380.9094123685668
 31
0.0
  0
INSERT
  5
92BE
  8
3
 62
     0
  2
_OPEN
 10
468.90806281062709
 20
2380.9094123685668
 30
0.0
 41
24.0
 42
24.0
 43
24.0
 50
180.0
  0
INSERT
  5
92BF
  8
3
 62
     0
  2
_OPEN
 10
1078.9080628106269
 20
2380.9094123685668
 30
0.0
 41
24.0
 42
24.0
 43
24.0
  0
TEXT
  8
3
  40
36
  5
92E6
  62
0
  72
0
  71
0
 10
681.146
 20
2347.19
 30
0.000000
  1
610
  0
POINT
  5
92C1
  8
DEFPOINTS
 62
     0
 10
468.90806281062709
 20
2016.1826641221769
 30
0.0
  0
POINT
  5
92C2
  8
DEFPOINTS
 62
     0
 10
1078.9080628106269
 20
2016.1826641221769
 30
0.0
  0
POINT
  5
92C3
  8
DEFPOINTS
 62
     0
 10
1078.9080628106269
 20
2380.9094123685668
 30
0.0
  0
ENDBLK
  5
9139
  8
0
  0
BLOCK
  8
0
  2
*D5
 70
     1
 10
0.0
 20
0.0
 30
0.0
  3
*D5
  1

  0
LINE
  5
92C4
  8
3
 62
     0
 10
488.90806281062669
 20
2246.9368893084988
 30
0.0
 11
488.90806281062669
 21
2284.3219963239339
 31
0.0
  0
LINE
  5
92C5
  8
3
 62
     0
 10
1058.908062810626
 20
2246.9368893084988
 30
0.0
 11
1058.908062810626
 21
2284.3219963239339
 31
0.0
  0
LINE
  5
92C6
  8
3
 62
     0
 10
512.90806281062657
 20
2272.3219963239339
 30
0.0
 11
1034.908062810626
 21
2272.3219963239339
 31
0.0
  0
INSERT
  5
92C7
  8
3
 62
     0
  2
_OPEN
 10
488.90806281062669
 20
2272.3219963239339
 30
0.0
 41
24.0
 42
24.0
 43
24.0
 50
180.0
  0
INSERT
  5
92C8
  8
3
 62
     0
  2
_OPEN
 10
1058.908062810626
 20
2272.3219963239339
 30
0.0
 41
24.0
 42
24.0
 43
24.0
  0
TEXT
  8
3
  40
36
  5
92E7
  62
0
  72
0
  71
0
 10
686.322
 20
2238.60
 30
0.000000
  1
570
  0
POINT
  5
92CA
  8
DEFPOINTS
 62
     0
 10
488.90806281062669
 20
2240.9368893084988
 30
0.0
  0
POINT
  5
92CB
  8
DEFPOINTS
 62
     0
 10
1058.908062810626
 20
2240.9368893084988
 30
0.0
  0
POINT
  5
92CC
  8
DEFPOINTS
 62
     0
 10
1058.908062810626
 20
2272.3219963239339
 30
0.0
  0
ENDBLK
  5
9146
  8
0
  0
BLOCK
  8
0
  2
*D6
 70
     1
 10
0.0
 20
0.0
 30
0.0
  3
*D6
  1

  0
LINE
  5
92CD
  8
3
 62
     0
 10
1058.908062810626
 20
2246.9368893084988
 30
0.0
 11
1058.908062810626
 21
2284.3219963239339
 31
0.0
  0
LINE
  5
92CE
  8
3
 62
     0
 10
1078.9080628106269
 20
2022.1826641221769
 30
0.0
 11
1078.9080628106269
 21
2284.3219963239339
 31
0.0
  0
LINE
  5
92CF
  8
3
 62
     0
 10
1034.908062810626
 20
2272.3219963239339
 30
0.0
 11
1010.908062810626
 21
2272.3219963239339
 31
0.0
  0
LINE
  5
92D0
  8
3
 62
     0
 10
1102.9080628106269
 20
2272.3219963239339
 30
0.0
 11
1126.9080628106269
 21
2272.3219963239339
 31
0.0
  0
TEXT
  8
3
  40
36
  5
92E8
  62
0
  72
0
  71
0
 10
1073.10
 20
2236.55
 30
0.000000
  1
20
  0
LINE
  5
92D2
  8
3
 62
     0
 10
1058.908062810626
 20
2272.3219963239339
 30
0.0
 11
1078.9080628106269
 21
2272.3219963239339
 31
0.0
  0
INSERT
  5
92D3
  8
3
 62
     0
  2
_OPEN
 10
1058.908062810626
 20
2272.3219963239339
 30
0.0
 41
24.0
 42
24.0
 43
24.0
  0
INSERT
  5
92D4
  8
3
 62
     0
  2
_OPEN
 10
1078.9080628106269
 20
2272.3219963239339
 30
0.0
 41
24.0
 42
24.0
 43
24.0
 50
180.0
  0
POINT
  5
92D5
  8
DEFPOINTS
 62
     0
 10
1058.908062810626
 20
2240.9368893084988
 30
0.0
  0
POINT
  5
92D6
  8
DEFPOINTS
 62
     0
 10
1078.9080628106269
 20
2016.1826641221769
 30
0.0
  0
POINT
  5
92D7
  8
DEFPOINTS
 62
     0
 10
1078.9080628106269
 20
2272.3219963239339
 30
0.0
  0
ENDBLK
  5
9158
  8
0
  0
BLOCK
  8
0
  2
*D7
 70
     1
 10
0.0
 20
0.0
 30
0.0
  3
*D7
  1

  0
LINE
  5
92D8
  8
3
 62
     0
 10
488.90806281062669
 20
2246.9368893084988
 30
0.0
 11
488.90806281062669
 21
2284.3219963239339
 31
0.0
  0
LINE
  5
92D9
  8
3
 62
     0
 10
468.90806281062709
 20
2022.1826641221769
 30
0.0
 11
468.90806281062709
 21
2284.3219963239339
 31
0.0
  0
LINE
  5
92DA
  8
3
 62
     0
 10
512.90806281062657
 20
2272.3219963239339
 30
0.0
 11
536.90806281062657
 21
2272.3219963239339
 31
0.0
  0
LINE
  5
92DB
  8
3
 62
     0
 10
444.90806281062709
 20
2272.3219963239339
 30
0.0
 11
420.90806281062709
 21
2272.3219963239339
 31
0.0
  0
TEXT
  8
3
  40
36
  5
92E9
  62
0
  72
0
  71
0
 10
321.827
 20
2232.55
 30
0.000000
  1
20
  0
LINE
  5
92DD
  8
3
 62
     0
 10
488.90806281062669
 20
2272.3219963239339
 30
0.0
 11
468.90806281062709
 21
2272.3219963239339
 31
0.0
  0
INSERT
  5
92DE
  8
3
 62
     0
  2
_OPEN
 10
488.90806281062669
 20
2272.3219963239339
 30
0.0
 41
24.0
 42
24.0
 43
24.0
 50
180.0
  0
INSERT
  5
92DF
  8
3
 62
     0
  2
_OPEN
 10
468.90806281062709
 20
2272.3219963239339
 30
0.0
 41
24.0
 42
24.0
 43
24.0
  0
POINT
  5
92E0
  8
DEFPOINTS
 62
     0
 10
488.90806281062669
 20
2240.9368893084988
 30
0.0
  0
POINT
  5
92E1
  8
DEFPOINTS
 62
     0
 10
468.90806281062709
 20
2016.1826641221769
 30
0.0
  0
POINT
  5
92E2
  8
DEFPOINTS
 62
     0
 10
468.90806281062709
 20
2272.3219963239339
 30
0.0
  0
ENDBLK
  5
916A
  8
0
  0
ENDSEC
  0
SECTION
  2
ENTITIES
  0
CIRCLE
  5
7B91
  8
1
 10
1828.3630619245121
 20
1766.1826641221769
 30
0.0
 40
250.0
  0
LINE
  5
7B92
  8
2
 10
1499.7662994897159
 20
1766.1826641221769
 30
0.0
 11
2155.4149915283751
 21
1766.1826641221769
 31
0.0
  0
LINE
  5
7B98
  8
1
 10
1103.9080628106269
 20
1541.1826641221769
 30
0.0
 11
443.90806281062709
 21
1541.1826641221769
 31
0.0
  0
LINE
  5
7B99
  8
1
 10
1103.9080628106269
 20
1991.1826641221769
 30
0.0
 11
443.90806281062709
 21
1991.1826641221769
 31
0.0
  0
LINE
  5
7B9A
  8
2
 10
1123.9080628106269
 20
1766.1826641221769
 30
0.0
 11
423.90806281062709
 21
1766.1826641221769
 31
0.0
  0
LINE
  5
7B9B
  8
1
 10
468.90806281062709
 20
2016.1826641221769
 30
0.0
 11
468.90806281062709
 21
1516.1826641221769
 31
0.0
  0
LINE
  5
7B9C
  8
1
 10
472.1080628106269
 20
2016.1826641221769
 30
0.0
 11
472.1080628106269
 21
1516.1826641221769
 31
0.0
  0
LINE
  5
7B9D
  8
1
 10
443.90806281062709
 20
1992.1826641221769
 30
0.0
 11
443.90806281062709
 21
1540.1826641221769
 31
0.0
  0
LINE
  5
7B9E
  8
1
 10
465.90806281062709
 20
2014.1826641221769
 30
0.0
 11
465.90806281062709
 21
1518.1826641221769
 31
0.0
  0
ARC
  5
7BA1
  8
1
 10
461.90806281062709
 20
1534.1826641221769
 30
0.0
 40
4.0
 50
0.0
 51
90.0
  0
LINE
  5
7BA5
  8
1
 10
492.10806281062702
 20
1526.1826641221769
 30
0.0
 11
445.90806281062709
 21
1526.1826641221769
 31
0.0
  0
LINE
  5
7BA6
  8
1
 10
468.90806281062709
 20
1516.1826641221769
 30
0.0
 11
472.1080628106269
 21
1516.1826641221769
 31
0.0
  0
ARC
  5
7BA7
  8
1
 10
467.90806281062709
 20
1518.1826641221769
 30
0.0
 40
2.0
 50
180.0
 51
270.0
  0
LINE
  5
7BA8
  8
1
 10
468.90806281062709
 20
1516.1826641221769
 30
0.0
 11
467.90806281062709
 21
1516.1826641221769
 31
0.0
  0
LINE
  5
7BAB
  8
1
 10
461.90806281062709
 20
1538.1826641221769
 30
0.0
 11
445.90806281062709
 21
1538.1826641221769
 31
0.0
  0
ARC
  5
7BAC
  8
1
 10
445.90806281062709
 20
1540.1826641221769
 30
0.0
 40
2.0
 50
180.0
 51
270.0
  0
LINE
  5
7BB0
  8
1
 10
492.10806281062702
 20
2006.1826641221769
 30
0.0
 11
445.90806281062709
 21
2006.1826641221769
 31
0.0
  0
LINE
  5
7BB1
  8
1
 10
461.90806281062709
 20
1994.1826641221769
 30
0.0
 11
445.90806281062709
 21
1994.1826641221769
 31
0.0
  0
ARC
  5
7BB2
  8
1
 10
445.90806281062709
 20
1992.1826641221769
 30
0.0
 40
2.0
 50
90.0
 51
180.0
  0
ARC
  5
7BB3
  8
1
 10
461.90806281062709
 20
1998.1826641221769
 30
0.0
 40
4.0
 50
270.0
 51
0.0
  0
LINE
  5
7BB4
  8
1
 10
468.90806281062709
 20
2016.1826641221769
 30
0.0
 11
472.1080628106269
 21
2016.1826641221769
 31
0.0
  0
LINE
  5
7BB5
  8
1
 10
468.90806281062709
 20
2016.1826641221769
 30
0.0
 11
467.90806281062709
 21
2016.1826641221769
 31
0.0
  0
ARC
  5
7BB6
  8
1
 10
467.90806281062709
 20
2014.1826641221769
 30
0.0
 40
2.0
 50
90.0
 51
180.0
  0
LINE
  5
7BB7
  8
1
 10
1081.9080628106269
 20
2014.1826641221769
 30
0.0
 11
1081.9080628106269
 21
1518.1826641221769
 31
0.0
  0
LINE
  5
7BB8
  8
1
 10
1103.9080628106269
 20
1992.1826641221769
 30
0.0
 11
1103.9080628106269
 21
1540.1826641221769
 31
0.0
  0
LINE
  5
7BB9
  8
1
 10
1075.7080628106271
 20
2016.1826641221769
 30
0.0
 11
1075.7080628106271
 21
1516.1826641221769
 31
0.0
  0
LINE
  5
7BBA
  8
1
 10
1078.9080628106269
 20
2016.1826641221769
 30
0.0
 11
1078.9080628106269
 21
1516.1826641221769
 31
0.0
  0
ARC
  5
7BBD
  8
1
 10
1085.9080628106269
 20
1534.1826641221769
 30
0.0
 40
4.0
 50
90.0
 51
180.0
  0
LINE
  5
7BBF
  8
1
 10
1101.9080628106269
 20
1526.1826641221769
 30
0.0
 11
1055.708062810626
 21
1526.1826641221769
 31
0.0
  0
LINE
  5
7BC3
  8
1
 10
1078.9080628106269
 20
1516.1826641221769
 30
0.0
 11
1079.9080628106269
 21
1516.1826641221769
 31
0.0
  0
ARC
  5
7BC4
  8
1
 10
1079.9080628106269
 20
1518.1826641221769
 30
0.0
 40
2.0
 50
270.0
 51
0.0
  0
LINE
  5
7BC5
  8
1
 10
1078.9080628106269
 20
1516.1826641221769
 30
0.0
 11
1075.7080628106271
 21
1516.1826641221769
 31
0.0
  0
LINE
  5
7BC8
  8
1
 10
1085.9080628106269
 20
1538.1826641221769
 30
0.0
 11
1101.9080628106269
 21
1538.1826641221769
 31
0.0
  0
ARC
  5
7BC9
  8
1
 10
1101.9080628106269
 20
1540.1826641221769
 30
0.0
 40
2.0
 50
270.0
 51
0.0
  0
LINE
  5
7C3C
  8
1
 10
1101.9080628106269
 20
2006.1826641221769
 30
0.0
 11
1055.708062810626
 21
2006.1826641221769
 31
0.0
  0
ARC
  5
7C3D
  8
1
 10
1101.9080628106269
 20
1992.1826641221769
 30
0.0
 40
2.0
 50
0.0
 51
90.0
  0
ARC
  5
7C3E
  8
1
 10
1085.9080628106269
 20
1998.1826641221769
 30
0.0
 40
4.0
 50
180.0
 51
270.0
  0
LINE
  5
7C3F
  8
1
 10
1085.9080628106269
 20
1994.1826641221769
 30
0.0
 11
1101.9080628106269
 21
1994.1826641221769
 31
0.0
  0
ARC
  5
7C40
  8
1
 10
1079.9080628106269
 20
2014.1826641221769
 30
0.0
 40
2.0
 50
0.0
 51
90.0
  0
LINE
  5
7C41
  8
1
 10
1078.9080628106269
 20
2016.1826641221769
 30
0.0
 11
1079.9080628106269
 21
2016.1826641221769
 31
0.0
  0
LINE
  5
7C42
  8
1
 10
1078.9080628106269
 20
2016.1826641221769
 30
0.0
 11
1075.7080628106271
 21
2016.1826641221769
 31
0.0
  0
CIRCLE
  5
7C53
  8
1
 10
1828.3630619245121
 20
1766.1826641221769
 30
0.0
 40
225.0
  0
LINE
  5
7C54
  8
2
 10
1828.3630619245121
 20
2107.6519108106272
 30
0.0
 11
1828.3630619245121
 21
1415.494133944426
 31
0.0
  0
LINE
  5
7CFC
  8
1
 10
478.90806281062709
 20
1766.1826641221769
 30
0.0
 11
588.90806281062714
 21
1766.1826641221769
 31
0.0
  0
LINE
  5
7CFD
  8
1
 10
488.90806281062709
 20
1878.6826641221769
 30
0.0
 11
488.90806281062709
 21
1653.6826641221769
 31
0.0
  0
LINE
  5
7CFE
  8
1
 10
578.90806281062714
 20
1878.6826641221769
 30
0.0
 11
578.90806281062714
 21
1653.6826641221769
 31
0.0
  0
LINE
  5
7CFF
  8
1
 10
508.90806281062709
 20
1988.1826641221769
 30
0.0
 11
558.90806281062714
 21
1988.1826641221769
 31
0.0
  0
LINE
  5
7D00
  8
1
 10
508.90806281062709
 20
1868.6826641221769
 30
0.0
 11
508.90806281062657
 21
1663.6826641221769
 31
0.0
  0
LINE
  5
7D01
  8
1
 10
518.90806281062714
 20
1868.6826641221769
 30
0.0
 11
518.90806281062714
 21
1663.6826641221769
 31
0.0
  0
LINE
  5
7D02
  8
1
 10
488.90806281062709
 20
1878.6826641221769
 30
0.0
 11
578.90806281062714
 21
1878.6826641221769
 31
0.0
  0
LINE
  5
7D03
  8
1
 10
488.90806281062709
 20
1653.6826641221769
 30
0.0
 11
578.90806281062714
 21
1653.6826641221769
 31
0.0
  0
LINE
  5
7D04
  8
1
 10
488.90806281062709
 20
1663.6826641221769
 30
0.0
 11
578.90806281062714
 21
1663.6826641221769
 31
0.0
  0
LINE
  5
7D05
  8
1
 10
488.90806281062709
 20
1868.6826641221769
 30
0.0
 11
578.90806281062714
 21
1868.6826641221769
 31
0.0
  0
LINE
  5
7D06
  8
1
 10
488.90806281062709
 20
1878.6826641221769
 30
0.0
 11
508.90806281062709
 21
1988.1826641221769
 31
0.0
  0
LINE
  5
7D07
  8
1
 10
558.90806281062714
 20
1988.1826641221769
 30
0.0
 11
578.90806281062714
 21
1878.6826641221769
 31
0.0
  0
LINE
  5
7D08
  8
1
 10
558.90806281062714
 20
1544.1826641221769
 30
0.0
 11
578.90806281062714
 21
1653.6826641221769
 31
0.0
  0
LINE
  5
7D09
  8
1
 10
488.90806281062709
 20
1653.6826641221769
 30
0.0
 11
508.90806281062709
 21
1544.1826641221769
 31
0.0
  0
LINE
  5
7D0A
  8
1
 10
508.90806281062709
 20
1544.1826641221769
 30
0.0
 11
558.90806281062714
 21
1544.1826641221769
 31
0.0
  0
LINE
  5
7D18
  8
4
 10
2220.0
 20
600.0
 30
0.0
 11
2220.0
 21
360.0
 31
0.0
  0
LINE
  5
7D19
  8
4
 10
1380.0
 20
600.0
 30
0.0
 11
1380.0
 21
360.0
 31
0.0
  0
LINE
  5
7D1A
  8
4
 10
780.0
 20
600.0
 30
0.0
 11
780.0
 21
360.0
 31
0.0
  0
LINE
  5
7D1D
  8
4
 10
780.0
 20
360.0
 30
0.0
 11
2220.0
 21
360.0
 31
0.0
  0
LINE
  5
7D1E
  8
4
 10
780.0
 20
480.0
 30
0.0
 11
2220.0
 21
480.0
 31
0.0
  0
TEXT
  5
7D1F
  8
4
 10
826.20249701628188
 20
517.85163103993546
 30
0.0
 40
60.0
  1
機器名称
  0
TEXT
  5
7D20
  8
4
 10
823.509727229757
 20
385.97418807841308
 30
0.0
 40
60.0
  1
機器型番
  0
TEXT
  5
7D21
  8
4
 10
1413.2144945851969
 20
507.08612274908222
 30
0.0
 40
60.0
  1
ミツヤ軸流ファン
  0
TEXT
  5
7D22
  8
4
 10
1423.9853947025761
 20
380.59150113593199
 30
0.0
 40
60.0
  1
AP＃450-1
  0
TEXT
  5
7D24
  8
4
 10
979.79672916461448
 20
2860.1146095990189
 30
0.0
 40
64.799999999999997
  1
天井吊本体形
  0
TEXT
  5
7D25
  8
4
 10
379.40111199533561
 20
3040.6571714391571
 30
0.0
 40
86.400000000000006
  1
電動機直動式横形軸流ファン
  0
LINE
  5
7D26
  8
4
 10
300.0
 20
2963.2905051177659
 30
0.0
 11
2220.0
 21
2963.2905051177659
 31
0.0
  0
LINE
  5
7D27
  8
4
 10
300.0
 20
3203.290505117765
 30
0.0
 11
2220.0
 21
3203.290505117765
 31
0.0
  0
LINE
  5
7D28
  8
4
 10
780.0
 20
600.0
 30
0.0
 11
2220.0
 21
600.0
 31
0.0
  0
LINE
  5
7D29
  8
4
 10
300.0
 20
3203.290505117765
 30
0.0
 11
300.0
 21
2963.2905051177659
 31
0.0
  0
TEXT
  5
7D2A
  8
4
 10
350.8199275887327
 20
2858.7833730556122
 30
0.0
 40
64.799999999999997
  1
左回転後方吐出
  0
TEXT
  5
7D2B
  8
4
 10
1762.763471099147
 20
3247.2732977943701
 30
0.0
 40
67.200000000000003
  1
No.
  0
TEXT
  5
7D2C
  8
4
 10
1717.1075619138021
 20
2860.1146095990189
 30
0.0
 40
64.799999999999997
  1
縮尺：1/12
  0
LINE
  5
7D2D
  8
4
 10
2220.0
 20
3203.290505117765
 30
0.0
 11
2220.0
 21
2963.2905051177659
 31
0.0
  0
LINE
  5
7D2E
  8
4
 10
2520.0
 20
3540.0
 30
0.0
 11
2520.0
 21
3540.0
 31
0.0
  0
LINE
  5
7D2F
  8
4
 10
1728.740906831837
 20
3217.5162997504808
 30
0.0
 11
1728.740906831837
 21
3343.9827138597029
 31
0.0
  0
LINE
  5
7D30
  8
4
 10
1728.740906831837
 20
3343.9827138597029
 30
0.0
 11
2220.0
 21
3343.9827138597029
 31
0.0
  0
LINE
  5
7D31
  8
4
 10
2220.0
 20
3343.9827138597029
 30
0.0
 11
2220.0
 21
3217.5162997504808
 31
0.0
  0
LINE
  5
7D32
  8
4
 10
2220.0
 20
3217.5162997504808
 30
0.0
 11
1728.740906831837
 21
3217.5162997504808
 31
0.0
  0
LINE
  5
7D33
  8
4
 10
0.0
 20
0.0
 30
0.0
 11
0.0
 21
3540.0
 31
0.0
  0
LINE
  5
7D34
  8
4
 10
0.0
 20
3540.0
 30
0.0
 11
2520.0
 21
3540.0
 31
0.0
  0
LINE
  5
7D35
  8
4
 10
2520.0
 20
3540.0
 30
0.0
 11
2520.0
 21
0.0
 31
0.0
  0
LINE
  5
7D36
  8
4
 10
2520.0
 20
0.0
 30
0.0
 11
0.0
 21
0.0
 31
0.0
  0
DIMENSION
  5
7E38
  8
3
  2
*D1
 10
306.58842175140143
 20
1541.1826641221769
 30
0.0
 11
306.5884217514012
 21
1763.3831785976711
 31
0.0
 70
   128
 13
443.90806281062709
 23
1991.1826641221769
 33
0.0
 14
443.90806281062709
 24
1541.1826641221769
 34
0.0
 50
90.0
1001
ACAD
1000
DSTYLE
1002
{
1070
   287
1070
     3
1070
   287
1070
     3
1070
   287
1070
     3
1070
   287
1070
     3
1070
   287
1070
     3
1070
   287
1070
     3
1070
   287
1070
     3
1070
   287
1070
     3
1070
   287
1070
     3
1070
     3
1000
φ<>
1070
    40
1040
12.0
1070
   143
1040
0.039
1070
   172
1070
     1
1070
   271
1070
     0
1070
   279
1070
     0
1070
   288
1070
     1
1002
}
  0
DIMENSION
  5
7E45
  8
3
  2
*D2
 10
1247.9961122121349
 20
1541.1826641221769
 30
0.0
 11
1247.9961122121349
 21
1771.63256235107
 31
0.0
 70
   128
 13
1103.9080628106269
 23
1991.1826641221769
 33
0.0
 14
1103.9080628106269
 24
1541.1826641221769
 34
0.0
 50
90.0
1001
ACAD
1000
DSTYLE
1002
{
1070
   287
1070
     3
1070
   287
1070
     3
1070
   287
1070
     3
1070
   287
1070
     3
1070
   287
1070
     3
1070
   287
1070
     3
1070
   287
1070
     3
1070
   287
1070
     3
1070
   287
1070
     3
1070
     3
1000
φ<>
1070
    40
1040
12.0
1070
   143
1040
0.039
1070
   172
1070
     1
1070
   271
1070
     0
1070
   279
1070
     0
1070
   288
1070
     1
1002
}
  0
LINE
  5
90AB
  8
1
 10
1540.8630619245121
 20
1751.1826641221769
 30
0.0
 11
1600.8630619245121
 21
1751.1826641221769
 31
0.0
  0
LINE
  5
90AC
  8
1
 10
1540.8630619245121
 20
1746.1826641221769
 30
0.0
 11
1600.8630619245121
 21
1746.1826641221769
 31
0.0
  0
LINE
  5
90AD
  8
1
 10
1540.8630619245121
 20
1786.1826641221769
 30
0.0
 11
1600.8630619245121
 21
1786.1826641221769
 31
0.0
  0
LINE
  5
90AE
  8
1
 10
1540.8630619245121
 20
1786.1826641221769
 30
0.0
 11
1540.863061924513
 21
1746.1826641221769
 31
0.0
  0
LINE
  5
90AF
  8
1
 10
1600.8630619245121
 20
1786.1826641221769
 30
0.0
 11
1600.8630619245121
 21
1746.1826641221769
 31
0.0
  0
LINE
  5
90B0
  8
1
 10
2115.8630619245118
 20
1786.1826641221769
 30
0.0
 11
2055.8630619245132
 21
1786.1826641221769
 31
0.0
  0
LINE
  5
90B1
  8
1
 10
2115.8630619245118
 20
1746.1826641221769
 30
0.0
 11
2055.8630619245132
 21
1746.1826641221769
 31
0.0
  0
LINE
  5
90B2
  8
1
 10
2115.8630619245118
 20
1751.1826641221769
 30
0.0
 11
2055.8630619245132
 21
1751.1826641221769
 31
0.0
  0
LINE
  5
90B3
  8
1
 10
2055.8630619245132
 20
1786.1826641221769
 30
0.0
 11
2055.8630619245132
 21
1746.1826641221769
 31
0.0
  0
LINE
  5
90B4
  8
1
 10
2115.8630619245118
 20
1786.1826641221769
 30
0.0
 11
2115.8630619245118
 21
1746.1826641221769
 31
0.0
  0
LINE
  5
90B5
  8
2
 10
2093.3630619245132
 20
2240.9368893085002
 30
0.0
 11
2093.3630619245132
 21
1735.688140041806
 31
0.0
  0
LINE
  5
90B6
  8
2
 10
1563.3630619245121
 20
2240.9368893085002
 30
0.0
 11
1563.3630619245121
 21
1735.688140041806
 31
0.0
  0
ARC
  5
90B9
  8
1
 10
475.10806281062702
 20
1748.1826641221769
 30
0.0
 40
3.0
 50
90.0
 51
180.0
  0
LINE
  5
90BA
  8
1
 10
512.10806281062685
 20
1746.1826641221769
 30
0.0
 11
472.1080628106269
 21
1746.1826641221769
 31
0.0
  0
LINE
  5
90BB
  8
1
 10
472.1080628106269
 20
1746.1826641221769
 30
0.0
 11
472.1080628106269
 21
1748.1826641221769
 31
0.0
  0
LINE
  5
90BC
  8
1
 10
502.6080628106269
 20
1751.1826641221769
 30
0.0
 11
475.10806281062702
 21
1751.1826641221769
 31
0.0
  0
LINE
  5
90BD
  8
1
 10
512.10806281062685
 20
1786.1826641221769
 30
0.0
 11
510.1080628106269
 21
1786.1826641221769
 31
0.0
  0
ARC
  5
90BE
  8
1
 10
510.1080628106269
 20
1783.1826641221769
 30
0.0
 40
3.0
 50
90.0
 51
180.0
  0
ARC
  5
90BF
  8
1
 10
502.6080628106269
 20
1755.6826641221769
 30
0.0
 40
4.5
 50
270.0
 51
0.0
  0
LINE
  5
90C0
  8
1
 10
512.10806281062685
 20
1746.1826641221769
 30
0.0
 11
512.10806281062685
 21
1786.1826641221769
 31
0.0
  0
LINE
  5
90C1
  8
1
 10
507.1080628106269
 20
1755.6826641221769
 30
0.0
 11
507.1080628106269
 21
1783.1826641221769
 31
0.0
  0
LINE
  5
90C2
  8
1
 10
1045.208062810626
 20
1751.1826641221769
 30
0.0
 11
1072.708062810626
 21
1751.1826641221769
 31
0.0
  0
LINE
  5
90C3
  8
1
 10
1035.708062810626
 20
1746.1826641221769
 30
0.0
 11
1075.708062810626
 21
1746.1826641221769
 31
0.0
  0
ARC
  5
90C4
  8
1
 10
1037.708062810626
 20
1783.1826641221769
 30
0.0
 40
3.0
 50
0.0
 51
90.0
  0
LINE
  5
90C5
  8
1
 10
1035.708062810626
 20
1786.1826641221769
 30
0.0
 11
1037.708062810626
 21
1786.1826641221769
 31
0.0
  0
LINE
  5
90C6
  8
1
 10
1035.708062810626
 20
1746.1826641221769
 30
0.0
 11
1035.708062810626
 21
1786.1826641221769
 31
0.0
  0
ARC
  5
90C7
  8
1
 10
1045.208062810626
 20
1755.6826641221769
 30
0.0
 40
4.5
 50
180.0
 51
270.0
  0
LINE
  5
90C8
  8
1
 10
1040.708062810626
 20
1755.6826641221769
 30
0.0
 11
1040.708062810626
 21
1783.1826641221769
 31
0.0
  0
ARC
  5
90C9
  8
1
 10
1072.708062810626
 20
1748.1826641221769
 30
0.0
 40
3.0
 50
0.0
 51
90.0
  0
LINE
  5
90CA
  8
1
 10
1075.708062810626
 20
1746.1826641221769
 30
0.0
 11
1075.708062810626
 21
1748.1826641221769
 31
0.0
  0
LINE
  5
90CB
  8
2
 10
1058.908062810626
 20
2240.9368893084988
 30
0.0
 11
1058.908062810626
 21
1728.7871637403559
 31
0.0
  0
LINE
  5
90CC
  8
2
 10
488.90806281062669
 20
2240.9368893084988
 30
0.0
 11
488.90806281062669
 21
1728.7871637403559
 31
0.0
  0
DIMENSION
  5
9120
  8
3
  2
*D3
 10
2093.3630619245132
 20
2331.7865372579522
 30
0.0
 11
1829.7445650768959
 21
2331.7865372579522
 31
0.0
 70
   128
 13
1563.3630619245121
 23
2240.9368893085002
 33
0.0
 14
2093.3630619245132
 24
2240.9368893085002
 34
0.0
1001
ACAD
1000
DSTYLE
1002
{
1070
   287
1070
     3
1070
   287
1070
     3
1070
    40
1040
12.0
1070
   143
1040
0.039
1070
   172
1070
     1
1070
   271
1070
     0
1070
   279
1070
     0
1070
   288
1070
     1
1002
}
  0
DIMENSION
  5
912D
  8
3
  2
*D4
 10
1078.9080628106269
 20
2380.9094123685668
 30
0.0
 11
753.14645935225406
 21
2380.9094123685668
 31
0.0
 70
   128
 13
468.90806281062709
 23
2016.1826641221769
 33
0.0
 14
1078.9080628106269
 24
2016.1826641221769
 34
0.0
1001
ACAD
1000
DSTYLE
1002
{
1070
   287
1070
     3
1070
   287
1070
     3
1070
    40
1040
12.0
1070
   143
1040
0.039
1070
   172
1070
     1
1070
   271
1070
     0
1070
   279
1070
     0
1070
   288
1070
     1
1002
}
  0
DIMENSION
  5
913A
  8
3
  2
*D5
 10
1058.908062810626
 20
2272.3219963239339
 30
0.0
 11
758.32241543082625
 21
2272.3219963239339
 31
0.0
 70
   128
 13
488.90806281062669
 23
2240.9368893084988
 33
0.0
 14
1058.908062810626
 24
2240.9368893084988
 34
0.0
1001
ACAD
1000
DSTYLE
1002
{
1070
   287
1070
     3
1070
   287
1070
     3
1070
    40
1040
12.0
1070
   143
1040
0.039
1070
   172
1070
     1
1070
   271
1070
     0
1070
   279
1070
     0
1070
   288
1070
     1
1002
}
  0
DIMENSION
  5
9147
  8
3
  2
*D6
 10
1078.9080628106269
 20
2272.3219963239339
 30
0.0
 11
1145.098794104302
 21
2270.2693008681399
 31
0.0
 70
   128
 13
1058.908062810626
 23
2240.9368893084988
 33
0.0
 14
1078.9080628106269
 24
2016.1826641221769
 34
0.0
1001
ACAD
1000
DSTYLE
1002
{
1070
   287
1070
     4
1070
   287
1070
     4
1070
    40
1040
12.0
1070
   143
1040
0.039
1070
   172
1070
     1
1070
   271
1070
     0
1070
   279
1070
     1
1070
   288
1070
     1
1002
}
  0
DIMENSION
  5
9159
  8
3
  2
*D7
 10
468.90806281062709
 20
2272.3219963239339
 30
0.0
 11
393.82719000550418
 21
2266.2664813106721
 31
0.0
 70
   128
 13
488.90806281062669
 23
2240.9368893084988
 33
0.0
 14
468.90806281062709
 24
2016.1826641221769
 34
0.0
1001
ACAD
1000
DSTYLE
1002
{
1070
   287
1070
     4
1070
   287
1070
     4
1070
    40
1040
12.0
1070
   143
1040
0.039
1070
   172
1070
     1
1070
   271
1070
     0
1070
   279
1070
     1
1070
   288
1070
     1
1002
}
  0
ENDSEC
  0
EOF
