  0
SECTION
  2
HEADER
  9
$ACADVER
  1
AC1009
  9
$INSBASE
 10
0.0
 20
0.0
 30
0.0
  9
$EXTMIN
 10
981.57995253702393
 20
196.1538952045411
 30
0.0
  9
$EXTMAX
 10
8331.5799525370239
 20
10521.153895204539
 30
0.0
  9
$LIMMIN
 10
0.0
 20
0.0
  9
$LIMMAX
 10
297.0
 20
210.0
  9
$ORTHOMODE
 70
     0
  9
$REGENMODE
 70
     1
  9
$FILLMODE
 70
     0
  9
$QTEXTMODE
 70
     0
  9
$MIRRTEXT
 70
     1
  9
$DRAGMODE
 70
     2
  9
$LTSCALE
 40
100.0
  9
$OSMODE
 70
    37
  9
$ATTMODE
 70
     1
  9
$TEXTSIZE
 40
180.0
  9
$TRACEWID
 40
0.05
  9
$TEXTSTYLE
  7
STANDARD
  9
$CLAYER
  8
3
  9
$CELTYPE
  6
BYLAYER
  9
$CECOLOR
 62
   256
  9
$DIMSCALE
 40
35.0
  9
$DIMASZ
 40
2.0
  9
$DIMEXO
 40
0.5
  9
$DIMDLI
 40
10.0
  9
$DIMRND
 40
0.0
  9
$DIMDLE
 40
0.0
  9
$DIMEXE
 40
1.0
  9
$DIMTP
 40
1.0
  9
$DIMTM
 40
1.0
  9
$DIMTXT
 40
3.0
  9
$DIMCEN
 40
0.0
  9
$DIMTSZ
 40
0.0
  9
$DIMTOL
 70
     0
  9
$DIMLIM
 70
     0
  9
$DIMTIH
 70
     0
  9
$DIMTOH
 70
     0
  9
$DIMSE1
 70
     0
  9
$DIMSE2
 70
     0
  9
$DIMTAD
 70
     1
  9
$DIMZIN
 70
     8
  9
$DIMBLK
  1

  9
$DIMASO
 70
     1
  9
$DIMSHO
 70
     1
  9
$DIMPOST
  1

  9
$DIMAPOST
  1

  9
$DIMALT
 70
     0
  9
$DIMALTD
 70
     2
  9
$DIMALTF
 40
0.039
  9
$DIMLFAC
 40
1.0
  9
$DIMTOFL
 70
     0
  9
$DIMTVP
 40
0.0
  9
$DIMTIX
 70
     0
  9
$DIMSOXD
 70
     0
  9
$DIMSAH
 70
     1
  9
$DIMBLK1
  1
OPEN
  9
$DIMBLK2
  1
OPEN
  9
$DIMSTYLE
  2
IGA
  9
$DIMCLRD
 70
     0
  9
$DIMCLRE
 70
     0
  9
$DIMCLRT
 70
     0
  9
$DIMTFAC
 40
10.0
  9
$DIMGAP
 40
1.0
  9
$LUNITS
 70
     2
  9
$LUPREC
 70
     3
  9
$SKETCHINC
 40
0.1
  9
$FILLETRAD
 40
630.0
  9
$AUNITS
 70
     0
  9
$AUPREC
 70
     0
  9
$MENU
  1
acad
  9
$ELEVATION
 40
0.0
  9
$PELEVATION
 40
0.0
  9
$THICKNESS
 40
0.0
  9
$LIMCHECK
 70
     0
  9
$BLIPMODE
 70
     0
  9
$CHAMFERA
 40
0.5
  9
$CHAMFERB
 40
0.5
  9
$SKPOLY
 70
     0
  9
$TDCREATE
 40
2452571.4627275462
  9
$TDUPDATE
 40
2454953.6361568631
  9
$TDINDWG
 40
0.1062238194
  9
$TDUSRTIMER
 40
0.1062238194
  9
$USRTIMER
 70
     1
  9
$ANGBASE
 50
0.0
  9
$ANGDIR
 70
     0
  9
$PDMODE
 70
     0
  9
$PDSIZE
 40
0.0
  9
$PLINEWID
 40
0.0
  9
$COORDS
 70
     1
  9
$SPLFRAME
 70
     0
  9
$SPLINETYPE
 70
     6
  9
$SPLINESEGS
 70
     8
  9
$ATTDIA
 70
     0
  9
$ATTREQ
 70
     1
  9
$HANDLING
 70
 10241
  9
$HANDSEED
  5
9920
  9
$SURFTAB1
 70
     6
  9
$SURFTAB2
 70
     6
  9
$SURFTYPE
 70
     6
  9
$SURFU
 70
     6
  9
$SURFV
 70
     6
  9
$UCSNAME
  2

  9
$UCSORG
 10
0.0
 20
0.0
 30
0.0
  9
$UCSXDIR
 10
1.0
 20
0.0
 30
0.0
  9
$UCSYDIR
 10
0.0
 20
1.0
 30
0.0
  9
$PUCSNAME
  2

  9
$PUCSORG
 10
0.0
 20
0.0
 30
0.0
  9
$PUCSXDIR
 10
1.0
 20
0.0
 30
0.0
  9
$PUCSYDIR
 10
0.0
 20
1.0
 30
0.0
  9
$USERI1
 70
     0
  9
$USERI2
 70
     0
  9
$USERI3
 70
     0
  9
$USERI4
 70
     0
  9
$USERI5
 70
     0
  9
$USERR1
 40
0.0
  9
$USERR2
 40
0.0
  9
$USERR3
 40
0.0
  9
$USERR4
 40
0.0
  9
$USERR5
 40
0.0
  9
$WORLDVIEW
 70
     1
  9
$SHADEDGE
 70
     3
  9
$SHADEDIF
 70
    70
  9
$TILEMODE
 70
     1
  9
$MAXACTVP
 70
    16
  9
$PLIMCHECK
 70
     0
  9
$PEXTMIN
 10
1.0000000000000000E+020
 20
1.0000000000000000E+020
 30
1.0000000000000000E+020
  9
$PEXTMAX
 10
-1.0000000000000000E+020
 20
-1.0000000000000000E+020
 30
-1.0000000000000000E+020
  9
$PLIMMIN
 10
0.0
 20
0.0
  9
$PLIMMAX
 10
12.0
 20
9.0
  9
$UNITMODE
 70
     0
  9
$VISRETAIN
 70
     0
  9
$PLINEGEN
 70
     0
  9
$PSLTSCALE
 70
     1
  0
ENDSEC
  0
SECTION
  2
TABLES
  0
TABLE
  2
VPORT
 70
     2
  0
VPORT
  2
*ACTIVE
 70
     0
 10
0.0
 20
0.0
 11
1.0
 21
1.0
 12
7853.2773299688788
 22
1442.8528456283509
 13
0.0
 23
0.0
 14
10.0
 24
10.0
 15
10.0
 25
10.0
 16
0.0
 26
0.0
 36
1.0
 17
0.0
 27
0.0
 37
0.0
 40
3044.7240111708079
 41
3.1666666666666661
 42
50.0
 43
0.0
 44
0.0
 50
0.0
 51
0.0
 71
     0
 72
   100
 73
     1
 74
     0
 75
     0
 76
     0
 77
     0
 78
     0
  0
ENDTAB
  0
TABLE
  2
LTYPE
 70
     3
  0
LTYPE
  2
CONTINUOUS
 70
     0
  3
Solid line
 72
    65
 73
     0
 40
0.0
  0
LTYPE
  2
CENTER
 70
     0
  3
____ _ ____ _ ____ _ ____ _ ____ _ ____ _ ____ 
 72
    65
 73
     4
 40
2.0
 49
1.25
 49
-0.25
 49
0.25
 49
-0.25
  0
LTYPE
  2
HIDDEN
 70
     0
  3
__ __ __ __ __ __ __ __ __ __ __ __ __ __ __ __
 72
    65
 73
     2
 40
0.375
 49
0.25
 49
-0.125
  0
ENDTAB
  0
TABLE
  2
LAYER
 70
     7
  0
LAYER
  2
0
 70
     0
 62
     7
  6
CONTINUOUS
  0
LAYER
  2
3
 70
     0
 62
     2
  6
CONTINUOUS
  0
LAYER
  2
4
 70
     0
 62
     7
  6
CONTINUOUS
  0
LAYER
  2
DEFPOINTS
 70
     0
 62
     7
  6
CONTINUOUS
  0
LAYER
  2
CT
 70
     0
 62
     3
  6
CENTER
  0
LAYER
  2
FUTO
 70
     0
 62
     4
  6
CONTINUOUS
  0
LAYER
  2
KL
 70
     0
 62
     7
  6
HIDDEN
  0
ENDTAB
  0
TABLE
  2
STYLE
 70
     1
  0
STYLE
  2
STANDARD
 70
     0
 40
0.0
 41
1.0
 50
0.0
 71
     0
 42
180.0
  3
simplex.shx
  4
extfont.shx
  0
ENDTAB
  0
TABLE
  2
VIEW
 70
     0
  0
ENDTAB
  0
TABLE
  2
UCS
 70
     0
  0
ENDTAB
  0
TABLE
  2
APPID
 70
     1
  0
APPID
  2
ACAD
 70
     0
  0
ENDTAB
  0
TABLE
  2
DIMSTYLE
 70
     1
  0
DIMSTYLE
  2
IGA
 70
     0
  3

  4

  5

  6
OPEN
  7
OPEN
 40
2.0
 41
2.0
 42
0.5
 43
10.0
 44
1.0
 45
0.0
 46
0.0
 47
1.0
 48
1.0
140
3.0
141
0.0
142
0.0
143
0.03937
144
1.0
145
0.0
146
10.0
147
1.0
 71
     0
 72
     0
 73
     0
 74
     0
 75
     0
 76
     0
 77
     1
 78
     8
170
     0
171
     2
172
     0
173
     1
174
     0
175
     0
176
     0
177
     0
178
     0
  0
ENDTAB
  0
ENDSEC
  0
SECTION
  2
BLOCKS
  0
BLOCK
  8
0
  2
$MODEL_SPACE
 70
     0
 10
0.0
 20
0.0
 30
0.0
  3
$MODEL_SPACE
  1

  0
ENDBLK
  5
1B
  8
0
  0
BLOCK
 67
     1
  8
0
  2
$PAPER_SPACE
 70
     0
 10
0.0
 20
0.0
 30
0.0
  3
$PAPER_SPACE
  1

  0
ENDBLK
  5
18
 67
     1
  8
0
  0
BLOCK
  8
0
  2
_OPEN
 70
     0
 10
0.0
 20
0.0
 30
0.0
  3
_OPEN
  1

  0
LINE
  5
79FD
  8
0
  6
BYBLOCK
 62
     0
 10
-1.0
 20
0.1666666666666666
 30
0.0
 11
0.0
 21
0.0
 31
0.0
  0
LINE
  5
79FE
  8
0
  6
BYBLOCK
 62
     0
 10
0.0
 20
0.0
 30
0.0
 11
-1.0
 21
-0.1666666666666666
 31
0.0
  0
LINE
  5
79FF
  8
0
  6
BYBLOCK
 62
     0
 10
0.0
 20
0.0
 30
0.0
 11
-1.0
 21
0.0
 31
0.0
  0
ENDBLK
  5
7A01
  8
0
  0
BLOCK
  8
0
  2
*D1
 70
     1
 10
0.0
 20
0.0
 30
0.0
  3
*D1
  1

  0
LINE
  5
98B0
  8
3
 62
     0
 10
2528.0544132986061
 20
4201.7758350898794
 30
0.0
 11
2528.0544132986061
 21
3848.4515130118712
 31
0.0
  0
LINE
  5
98B1
  8
3
 62
     0
 10
4128.054413298607
 20
4201.7758350898794
 30
0.0
 11
4128.054413298607
 21
3848.4515130118712
 31
0.0
  0
LINE
  5
98B2
  8
3
 62
     0
 10
2598.054413298607
 20
3883.4515130118712
 30
0.0
 11
4058.054413298607
 21
3883.4515130118712
 31
0.0
  0
INSERT
  5
98B3
  8
3
 62
     0
  2
_OPEN
 10
2528.0544132986061
 20
3883.4515130118712
 30
0.0
 41
70.0
 42
70.0
 43
70.0
 50
180.0
  0
INSERT
  5
98B4
  8
3
 62
     0
  2
_OPEN
 10
4128.054413298607
 20
3883.4515130118712
 30
0.0
 41
70.0
 42
70.0
 43
70.0
  0
TEXT
  8
3
  40
105
  5
9915
  62
0
  72
0
  71
0
 10
3118.05
 20
3785.10
 30
0.000000
  1
1600
  0
POINT
  5
98B6
  8
DEFPOINTS
 62
     0
 10
2528.0544132986061
 20
4219.2758350898794
 30
0.0
  0
POINT
  5
98B7
  8
DEFPOINTS
 62
     0
 10
4128.054413298607
 20
4219.2758350898794
 30
0.0
  0
POINT
  5
98B8
  8
DEFPOINTS
 62
     0
 10
4128.054413298607
 20
3883.4515130118712
 30
0.0
  0
ENDBLK
  5
95E4
  8
0
  0
BLOCK
  8
0
  2
*D2
 70
     1
 10
0.0
 20
0.0
 30
0.0
  3
*D2
  1

  0
LINE
  5
98B9
  8
3
 62
     0
 10
2328.054413298607
 20
4171.7758350898803
 30
0.0
 11
2328.054413298607
 21
3565.5544755250698
 31
0.0
  0
LINE
  5
98BA
  8
3
 62
     0
 10
4328.054413298607
 20
4171.7758350898803
 30
0.0
 11
4328.054413298607
 21
3565.5544755250698
 31
0.0
  0
LINE
  5
98BB
  8
3
 62
     0
 10
2398.054413298607
 20
3600.5544755250698
 30
0.0
 11
4258.054413298607
 21
3600.5544755250698
 31
0.0
  0
INSERT
  5
98BC
  8
3
 62
     0
  2
_OPEN
 10
2328.054413298607
 20
3600.5544755250698
 30
0.0
 41
70.0
 42
70.0
 43
70.0
 50
180.0
  0
INSERT
  5
98BD
  8
3
 62
     0
  2
_OPEN
 10
4328.054413298607
 20
3600.5544755250698
 30
0.0
 41
70.0
 42
70.0
 43
70.0
  0
TEXT
  8
3
  40
105
  5
9916
  62
0
  72
0
  71
0
 10
3118.05
 20
3502.20
 30
0.000000
  1
2000
  0
POINT
  5
98BF
  8
DEFPOINTS
 62
     0
 10
2328.054413298607
 20
4189.2758350898794
 30
0.0
  0
POINT
  5
98C0
  8
DEFPOINTS
 62
     0
 10
4328.054413298607
 20
4189.2758350898794
 30
0.0
  0
POINT
  5
98C1
  8
DEFPOINTS
 62
     0
 10
4328.054413298607
 20
3600.5544755250698
 30
0.0
  0
ENDBLK
  5
95F1
  8
0
  0
BLOCK
  8
0
  2
*D3
 70
     1
 10
0.0
 20
0.0
 30
0.0
  3
*D3
  1

  0
LINE
  5
98C2
  8
3
 62
     0
 10
1735.554413298607
 20
6219.2758350898775
 30
0.0
 11
1539.731196654647
 21
6219.2758350898775
 31
0.0
  0
LINE
  5
98C3
  8
3
 62
     0
 10
1735.5544132986061
 20
5369.2758350898794
 30
0.0
 11
1539.731196654647
 21
5369.2758350898794
 31
0.0
  0
LINE
  5
98C4
  8
3
 62
     0
 10
1574.731196654647
 20
6149.2758350898794
 30
0.0
 11
1574.731196654647
 21
5439.2758350898803
 31
0.0
  0
INSERT
  5
98C5
  8
3
 62
     0
  2
_OPEN
 10
1574.731196654647
 20
6219.2758350898775
 30
0.0
 41
70.0
 42
70.0
 43
70.0
 50
90.0
  0
INSERT
  5
98C6
  8
3
 62
     0
  2
_OPEN
 10
1574.731196654647
 20
5369.2758350898794
 30
0.0
 41
70.0
 42
70.0
 43
70.0
 50
270.0
  0
TEXT
  8
3
  40
105
  5
9917
  62
0
  72
0
  71
0
 10
1277.23
 20
5608.43
 30
0.000000
  1
850
  0
POINT
  5
98C8
  8
DEFPOINTS
 62
     0
 10
1753.054413298607
 20
6219.2758350898775
 30
0.0
  0
POINT
  5
98C9
  8
DEFPOINTS
 62
     0
 10
1753.054413298607
 20
5369.2758350898794
 30
0.0
  0
POINT
  5
98CA
  8
DEFPOINTS
 62
     0
 10
1574.731196654647
 20
5369.2758350898794
 30
0.0
  0
ENDBLK
  5
95FE
  8
0
  0
BLOCK
  8
0
  2
*D4
 70
     1
 10
0.0
 20
0.0
 30
0.0
  3
*D4
  1

  0
LINE
  5
98CB
  8
3
 62
     0
 10
1735.5544132986061
 20
5369.2758350898794
 30
0.0
 11
1539.731196654647
 21
5369.2758350898794
 31
0.0
  0
LINE
  5
98CC
  8
3
 62
     0
 10
2306.0544132986061
 20
4339.2758350898794
 30
0.0
 11
1539.731196654647
 21
4339.2758350898803
 31
0.0
  0
LINE
  5
98CD
  8
3
 62
     0
 10
1574.731196654647
 20
5299.2758350898794
 30
0.0
 11
1574.731196654647
 21
4409.2758350898803
 31
0.0
  0
INSERT
  5
98CE
  8
3
 62
     0
  2
_OPEN
 10
1574.731196654647
 20
5369.2758350898794
 30
0.0
 41
70.0
 42
70.0
 43
70.0
 50
90.0
  0
INSERT
  5
98CF
  8
3
 62
     0
  2
_OPEN
 10
1574.731196654647
 20
4339.2758350898803
 30
0.0
 41
70.0
 42
70.0
 43
70.0
 50
270.0
  0
TEXT
  8
3
  40
105
  5
9918
  62
0
  72
0
  71
0
 10
1277.23
 20
4668.43
 30
0.000000
  1
1030
  0
POINT
  5
98D1
  8
DEFPOINTS
 62
     0
 10
1753.054413298607
 20
5369.2758350898794
 30
0.0
  0
POINT
  5
98D2
  8
DEFPOINTS
 62
     0
 10
2323.554413298607
 20
4339.2758350898794
 30
0.0
  0
POINT
  5
98D3
  8
DEFPOINTS
 62
     0
 10
1574.731196654647
 20
4339.2758350898803
 30
0.0
  0
ENDBLK
  5
960B
  8
0
  0
BLOCK
  8
0
  2
*D5
 70
     1
 10
0.0
 20
0.0
 30
0.0
  3
*D5
  1

  0
LINE
  5
98D4
  8
3
 62
     0
 10
2306.0544132986061
 20
4339.2758350898794
 30
0.0
 11
1540.074222268209
 21
4339.2758350898803
 31
0.0
  0
LINE
  5
98D5
  8
3
 62
     0
 10
2306.0544132986061
 20
4189.2758350898794
 30
0.0
 11
1540.074222268209
 21
4189.2758350898803
 31
0.0
  0
LINE
  5
98D6
  8
3
 62
     0
 10
1575.074222268209
 20
4409.2758350898803
 30
0.0
 11
1575.074222268209
 21
4479.2758350898803
 31
0.0
  0
LINE
  5
98D7
  8
3
 62
     0
 10
1575.074222268209
 20
4119.2758350898803
 30
0.0
 11
1575.074222268209
 21
3729.2758350898798
 31
0.0
  0
INSERT
  5
98D8
  8
3
 62
     0
  2
_OPEN
 10
1575.074222268209
 20
4339.2758350898803
 30
0.0
 41
70.0
 42
70.0
 43
70.0
 50
270.0
  0
INSERT
  5
98D9
  8
3
 62
     0
  2
_OPEN
 10
1575.074222268209
 20
4189.2758350898803
 30
0.0
 41
70.0
 42
70.0
 43
70.0
 50
90.0
  0
TEXT
  8
3
  40
105
  5
9919
  62
0
  72
0
  71
0
 10
1277.57
 20
3703.43
 30
0.000000
  1
150
  0
POINT
  5
98DB
  8
DEFPOINTS
 62
     0
 10
2323.554413298607
 20
4339.2758350898794
 30
0.0
  0
POINT
  5
98DC
  8
DEFPOINTS
 62
     0
 10
2323.554413298607
 20
4189.2758350898794
 30
0.0
  0
POINT
  5
98DD
  8
DEFPOINTS
 62
     0
 10
1575.074222268209
 20
4189.2758350898803
 30
0.0
  0
ENDBLK
  5
9619
  8
0
  0
BLOCK
  8
0
  2
*D6
 70
     1
 10
0.0
 20
0.0
 30
0.0
  3
*D6
  1

  0
LINE
  5
98DE
  8
3
 62
     0
 10
2310.554413298607
 20
4189.2758350898794
 30
0.0
 11
1261.0781526110291
 21
4189.2758350898803
 31
0.0
  0
LINE
  5
98DF
  8
3
 62
     0
 10
1735.554413298607
 20
6219.2758350898775
 30
0.0
 11
1261.0781526110291
 21
6219.2758350898775
 31
0.0
  0
LINE
  5
98E0
  8
3
 62
     0
 10
1296.0781526110291
 20
4259.2758350898803
 30
0.0
 11
1296.0781526110291
 21
6149.2758350898794
 31
0.0
  0
INSERT
  5
98E1
  8
3
 62
     0
  2
_OPEN
 10
1296.0781526110291
 20
4189.2758350898803
 30
0.0
 41
70.0
 42
70.0
 43
70.0
 50
270.0
  0
INSERT
  5
98E2
  8
3
 62
     0
  2
_OPEN
 10
1296.0781526110291
 20
6219.2758350898775
 30
0.0
 41
70.0
 42
70.0
 43
70.0
 50
90.0
  0
TEXT
  8
3
  40
105
  5
991A
  62
0
  72
0
  71
0
 10
998.578
 20
5018.43
 30
0.000000
  1
2030
  0
POINT
  5
98E4
  8
DEFPOINTS
 62
     0
 10
2328.054413298607
 20
4189.2758350898794
 30
0.0
  0
POINT
  5
98E5
  8
DEFPOINTS
 62
     0
 10
1753.054413298607
 20
6219.2758350898775
 30
0.0
  0
POINT
  5
98E6
  8
DEFPOINTS
 62
     0
 10
1296.0781526110291
 20
6219.2758350898775
 30
0.0
  0
ENDBLK
  5
9626
  8
0
  0
BLOCK
  8
0
  2
*D7
 70
     1
 10
0.0
 20
0.0
 30
0.0
  3
*D7
  1

  0
LINE
  5
98E7
  8
3
 62
     0
 10
1753.054413298607
 20
6236.7758350898794
 30
0.0
 11
1753.054413298607
 21
6627.7210414338906
 31
0.0
  0
LINE
  5
98E8
  8
3
 62
     0
 10
4903.054413298607
 20
6236.7758350898803
 30
0.0
 11
4903.054413298607
 21
6627.7210414338906
 31
0.0
  0
LINE
  5
98E9
  8
3
 62
     0
 10
1823.054413298607
 20
6592.7210414338906
 30
0.0
 11
4833.054413298607
 21
6592.7210414338906
 31
0.0
  0
INSERT
  5
98EA
  8
3
 62
     0
  2
_OPEN
 10
1753.054413298607
 20
6592.7210414338906
 30
0.0
 41
70.0
 42
70.0
 43
70.0
 50
180.0
  0
INSERT
  5
98EB
  8
3
 62
     0
  2
_OPEN
 10
4903.054413298607
 20
6592.7210414338906
 30
0.0
 41
70.0
 42
70.0
 43
70.0
  0
TEXT
  8
3
  40
105
  5
991B
  62
0
  72
0
  71
0
 10
3118.05
 20
6494.37
 30
0.000000
  1
3150
  0
POINT
  5
98ED
  8
DEFPOINTS
 62
     0
 10
1753.054413298607
 20
6219.2758350898775
 30
0.0
  0
POINT
  5
98EE
  8
DEFPOINTS
 62
     0
 10
4903.054413298607
 20
6219.2758350898812
 30
0.0
  0
POINT
  5
98EF
  8
DEFPOINTS
 62
     0
 10
4903.054413298607
 20
6592.7210414338906
 30
0.0
  0
ENDBLK
  5
9640
  8
0
  0
BLOCK
  8
0
  2
*D8
 70
     1
 10
0.0
 20
0.0
 30
0.0
  3
*D8
  1

  0
LINE
  5
98F0
  8
3
 62
     0
 10
5053.054413298607
 20
5661.3088214659047
 30
0.0
 11
5053.054413298607
 21
6619.9634628990607
 31
0.0
  0
LINE
  5
98F1
  8
3
 62
     0
 10
8203.054413298607
 20
5661.3088214659047
 30
0.0
 11
8203.054413298607
 21
6619.9634628990607
 31
0.0
  0
LINE
  5
98F2
  8
3
 62
     0
 10
5123.054413298607
 20
6584.9634628990607
 30
0.0
 11
8133.054413298607
 21
6584.9634628990607
 31
0.0
  0
INSERT
  5
98F3
  8
3
 62
     0
  2
_OPEN
 10
5053.054413298607
 20
6584.9634628990607
 30
0.0
 41
70.0
 42
70.0
 43
70.0
 50
180.0
  0
INSERT
  5
98F4
  8
3
 62
     0
  2
_OPEN
 10
8203.054413298607
 20
6584.9634628990607
 30
0.0
 41
70.0
 42
70.0
 43
70.0
  0
TEXT
  8
3
  40
105
  5
991C
  62
0
  72
0
  71
0
 10
6418.05
 20
6486.61
 30
0.000000
  1
3150
  0
POINT
  5
98F6
  8
DEFPOINTS
 62
     0
 10
5053.054413298607
 20
5643.8088214659047
 30
0.0
  0
POINT
  5
98F7
  8
DEFPOINTS
 62
     0
 10
8203.054413298607
 20
5643.8088214659047
 30
0.0
  0
POINT
  5
98F8
  8
DEFPOINTS
 62
     0
 10
8203.054413298607
 20
6584.9634628990607
 30
0.0
  0
ENDBLK
  5
964E
  8
0
  0
BLOCK
  8
0
  2
*D9
 70
     1
 10
0.0
 20
0.0
 30
0.0
  3
*D9
  1

  0
LINE
  5
98F9
  8
3
 62
     0
 10
5828.054413298607
 20
4201.7758350898794
 30
0.0
 11
5828.054413298607
 21
3862.1543238750742
 31
0.0
  0
LINE
  5
98FA
  8
3
 62
     0
 10
7428.054413298607
 20
4201.7758350898794
 30
0.0
 11
7428.054413298607
 21
3862.1543238750742
 31
0.0
  0
LINE
  5
98FB
  8
3
 62
     0
 10
5898.054413298607
 20
3897.1543238750742
 30
0.0
 11
7358.054413298607
 21
3897.1543238750742
 31
0.0
  0
INSERT
  5
98FC
  8
3
 62
     0
  2
_OPEN
 10
5828.054413298607
 20
3897.1543238750742
 30
0.0
 41
70.0
 42
70.0
 43
70.0
 50
180.0
  0
INSERT
  5
98FD
  8
3
 62
     0
  2
_OPEN
 10
7428.054413298607
 20
3897.1543238750742
 30
0.0
 41
70.0
 42
70.0
 43
70.0
  0
TEXT
  8
3
  40
105
  5
991D
  62
0
  72
0
  71
0
 10
6418.05
 20
3798.80
 30
0.000000
  1
1600
  0
POINT
  5
98FF
  8
DEFPOINTS
 62
     0
 10
5828.054413298607
 20
4219.2758350898794
 30
0.0
  0
POINT
  5
9900
  8
DEFPOINTS
 62
     0
 10
7428.054413298607
 20
4219.2758350898794
 30
0.0
  0
POINT
  5
9901
  8
DEFPOINTS
 62
     0
 10
7428.054413298607
 20
3897.1543238750742
 30
0.0
  0
ENDBLK
  5
96A4
  8
0
  0
BLOCK
  8
0
  2
*D10
 70
     1
 10
0.0
 20
0.0
 30
0.0
  3
*D10
  1

  0
LINE
  5
9902
  8
3
 62
     0
 10
5628.054413298607
 20
4171.7758350898803
 30
0.0
 11
5628.054413298607
 21
3580.49497035993
 31
0.0
  0
LINE
  5
9903
  8
3
 62
     0
 10
7628.0544132986061
 20
4171.7758350898775
 30
0.0
 11
7628.0544132986061
 21
3580.49497035993
 31
0.0
  0
LINE
  5
9904
  8
3
 62
     0
 10
5698.0544132986061
 20
3615.4949703599309
 30
0.0
 11
7558.0544132986079
 21
3615.4949703599309
 31
0.0
  0
INSERT
  5
9905
  8
3
 62
     0
  2
_OPEN
 10
5628.054413298607
 20
3615.4949703599309
 30
0.0
 41
70.0
 42
70.0
 43
70.0
 50
180.0
  0
INSERT
  5
9906
  8
3
 62
     0
  2
_OPEN
 10
7628.0544132986061
 20
3615.4949703599309
 30
0.0
 41
70.0
 42
70.0
 43
70.0
  0
TEXT
  8
3
  40
105
  5
991E
  62
0
  72
0
  71
0
 10
6418.05
 20
3517.14
 30
0.000000
  1
2000
  0
POINT
  5
9908
  8
DEFPOINTS
 62
     0
 10
5628.054413298607
 20
4189.2758350898794
 30
0.0
  0
POINT
  5
9909
  8
DEFPOINTS
 62
     0
 10
7628.0544132986061
 20
4189.2758350898794
 30
0.0
  0
POINT
  5
990A
  8
DEFPOINTS
 62
     0
 10
7628.0544132986061
 20
3615.4949703599309
 30
0.0
  0
ENDBLK
  5
96B1
  8
0
  0
BLOCK
  8
0
  2
*D11
 70
     1
 10
0.0
 20
0.0
 30
0.0
  3
*D11
  1

  0
LINE
  5
990B
  8
3
 62
     0
 10
2490.554413298607
 20
4239.2758350898803
 30
0.0
 11
1906.689639475931
 21
4239.2758350898803
 31
0.0
  0
LINE
  5
990C
  8
3
 62
     0
 10
2306.054413298607
 20
4189.2758350898794
 30
0.0
 11
1906.689639475931
 21
4189.2758350898803
 31
0.0
  0
LINE
  5
990D
  8
3
 62
     0
 10
1941.689639475931
 20
4309.2758350898803
 30
0.0
 11
1941.689639475931
 21
4379.2758350898803
 31
0.0
  0
LINE
  5
990E
  8
3
 62
     0
 10
1941.689639475931
 20
4119.2758350898803
 30
0.0
 11
1941.689639475931
 21
3809.2758350898789
 31
0.0
  0
INSERT
  5
990F
  8
3
 62
     0
  2
_OPEN
 10
1941.689639475931
 20
4239.2758350898803
 30
0.0
 41
70.0
 42
70.0
 43
70.0
 50
270.0
  0
INSERT
  5
9910
  8
3
 62
     0
  2
_OPEN
 10
1941.689639475931
 20
4189.2758350898803
 30
0.0
 41
70.0
 42
70.0
 43
70.0
 50
90.0
  0
TEXT
  8
3
  40
105
  5
991F
  62
0
  72
0
  71
0
 10
1644.19
 20
3743.43
 30
0.000000
  1
50
  0
POINT
  5
9912
  8
DEFPOINTS
 62
     0
 10
2508.054413298607
 20
4239.2758350898803
 30
0.0
  0
POINT
  5
9913
  8
DEFPOINTS
 62
     0
 10
2323.554413298607
 20
4189.2758350898794
 30
0.0
  0
POINT
  5
9914
  8
DEFPOINTS
 62
     0
 10
1941.689639475931
 20
4189.2758350898803
 30
0.0
  0
ENDBLK
  5
974F
  8
0
  0
ENDSEC
  0
SECTION
  2
ENTITIES
  0
LINE
  5
7D25
  8
4
 10
7456.579952537023
 20
1946.153895204541
 30
0.0
 11
7456.579952537023
 21
1246.153895204541
 31
0.0
  0
LINE
  5
7D26
  8
4
 10
5006.579952537023
 20
1946.153895204541
 30
0.0
 11
5006.579952537023
 21
1246.153895204541
 31
0.0
  0
LINE
  5
7D27
  8
4
 10
3256.579952537023
 20
1946.153895204541
 30
0.0
 11
3256.579952537023
 21
1246.153895204541
 31
0.0
  0
LINE
  5
7D2A
  8
4
 10
3256.579952537023
 20
1246.153895204541
 30
0.0
 11
7456.579952537023
 21
1246.153895204541
 31
0.0
  0
LINE
  5
7D2B
  8
4
 10
3256.579952537023
 20
1596.153895204541
 30
0.0
 11
7456.579952537023
 21
1596.153895204541
 31
0.0
  0
TEXT
  5
7D2C
  8
4
 10
3391.3372355011788
 20
1706.554485737686
 30
0.0
 40
175.0
  1
機器名称
  0
TEXT
  5
7D2D
  8
4
 10
3383.4833236238151
 20
1321.911943766579
 30
0.0
 40
175.0
  1
機器型番
  0
TEXT
  5
7D2E
  8
4
 10
5103.4555617438509
 20
1675.1550865560309
 30
0.0
 40
175.0
  1
ミツヤ軸流排煙ファン
  0
TEXT
  5
7D2F
  8
4
 10
5134.8706870862052
 20
1306.212440184343
 30
0.0
 40
175.0
  1
APE#1600-3R
  0
TEXT
  5
7D31
  8
4
 10
4148.3301316680372
 20
8538.1548398683462
 30
0.0
 40
188.99999999999989
  1
床置ベット
  0
TEXT
  5
7D32
  8
4
 10
2088.1665291900858
 20
9064.7373119020849
 30
0.0
 40
252.0
  1
電動機直動立形軸流式排煙ファン
  0
LINE
  5
7D33
  8
4
 10
1856.579952537023
 20
8839.0845351313583
 30
0.0
 11
7456.579952537023
 21
8839.0845351313583
 31
0.0
  0
LINE
  5
7D34
  8
4
 10
1856.579952537023
 20
9539.0845351313583
 30
0.0
 11
7456.579952537023
 21
9539.0845351313583
 31
0.0
  0
LINE
  5
7D35
  8
4
 10
3256.579952537023
 20
1946.153895204541
 30
0.0
 11
7456.579952537023
 21
1946.153895204541
 31
0.0
  0
LINE
  5
7D36
  8
4
 10
1856.579952537023
 20
9539.0845351313583
 30
0.0
 11
1856.579952537023
 21
8839.0845351313583
 31
0.0
  0
TEXT
  5
7D37
  8
4
 10
2174.4265772723411
 20
8554.6369622831953
 30
0.0
 40
188.99999999999989
  1
左回転前方吐出
  0
TEXT
  5
7D38
  8
4
 10
6122.9734099095394
 20
9667.3676804381212
 30
0.0
 40
196.0
  1
No.
  0
TEXT
  5
7D39
  8
4
 10
5571.1161716370689
 20
8538.1548398683462
 30
0.0
 40
188.99999999999989
  1
縮尺：1/35
  0
LINE
  5
7D3A
  8
4
 10
7456.579952537023
 20
9539.0845351313583
 30
0.0
 11
7456.579952537023
 21
8839.0845351313583
 31
0.0
  0
LINE
  5
7D3B
  8
4
 10
8331.5799525370239
 20
10521.153895204539
 30
0.0
 11
8331.5799525370239
 21
10521.153895204539
 31
0.0
  0
LINE
  5
7D3C
  8
4
 10
6023.7409307965499
 20
9580.5764361434449
 30
0.0
 11
6023.7409307965499
 21
9949.4368106286747
 31
0.0
  0
LINE
  5
7D3D
  8
4
 10
6023.7409307965499
 20
9949.4368106286747
 30
0.0
 11
7456.579952537023
 21
9949.4368106286747
 31
0.0
  0
LINE
  5
7D3E
  8
4
 10
7456.579952537023
 20
9949.4368106286747
 30
0.0
 11
7456.579952537023
 21
9580.5764361434449
 31
0.0
  0
LINE
  5
7D3F
  8
4
 10
7456.579952537023
 20
9580.5764361434449
 30
0.0
 11
6023.7409307965499
 21
9580.5764361434449
 31
0.0
  0
LINE
  5
7D40
  8
4
 10
981.57995253702393
 20
196.1538952045411
 30
0.0
 11
981.57995253702393
 21
10521.153895204539
 31
0.0
  0
LINE
  5
7D41
  8
4
 10
981.57995253702393
 20
10521.153895204539
 30
0.0
 11
8331.5799525370239
 21
10521.153895204539
 31
0.0
  0
LINE
  5
7D42
  8
4
 10
8331.5799525370239
 20
10521.153895204539
 30
0.0
 11
8331.5799525370239
 21
196.1538952045411
 31
0.0
  0
LINE
  5
7D43
  8
4
 10
8331.5799525370239
 20
196.1538952045411
 30
0.0
 11
981.57995253702393
 21
196.1538952045411
 31
0.0
  0
LINE
  5
8C8E
  8
FUTO
 10
2661.8700343698961
 20
5213.2758350898803
 30
0.0
 11
2478.524796578336
 21
5469.2758350898812
 31
0.0
  0
LINE
  5
8C91
  8
FUTO
 10
2323.554413298607
 20
4339.2758350898794
 30
0.0
 11
4332.5544132986061
 21
4339.2758350898775
 31
0.0
  0
LINE
  5
8C92
  8
FUTO
 10
2323.554413298607
 20
4189.2758350898794
 30
0.0
 11
4332.5544132986061
 21
4189.2758350898794
 31
0.0
  0
LINE
  5
8C93
  8
KL
 10
2328.054413298607
 20
4325.2758350898775
 30
0.0
 11
4328.054413298607
 21
4325.2758350898794
 31
0.0
  0
LINE
  5
8C95
  8
KL
 10
2328.054413298607
 20
4319.2758350898775
 30
0.0
 11
4328.054413298607
 21
4319.2758350898794
 31
0.0
  0
LINE
  5
8C99
  8
FUTO
 10
4903.054413298607
 20
5469.2758350898812
 30
0.0
 11
1753.054413298607
 21
5469.2758350898812
 31
0.0
  0
LINE
  5
8C9A
  8
FUTO
 10
1753.054413298607
 20
6219.2758350898775
 30
0.0
 11
4903.054413298607
 21
6219.2758350898812
 31
0.0
  0
LINE
  5
8C9C
  8
KL
 10
2528.0544132986061
 20
5469.2758350898812
 30
0.0
 11
2528.0544132986061
 21
4319.2758350898794
 31
0.0
  0
LINE
  5
8C9D
  8
FUTO
 10
2522.054413298607
 20
5408.4966077992431
 30
0.0
 11
2522.054413298607
 21
4526.4293926527889
 31
0.0
  0
CIRCLE
  5
8CB2
  8
FUTO
 10
2528.0544132986061
 20
4239.2758350898803
 30
0.0
 40
12.5
  0
LINE
  5
8CB3
  8
CT
 10
2528.0544132986061
 20
4259.2758350898794
 30
0.0
 11
2528.0544132986061
 21
4219.2758350898794
 31
0.0
  0
LINE
  5
8CB4
  8
KL
 10
2328.054413298607
 20
4339.2758350898794
 30
0.0
 11
2328.054413298607
 21
4189.2758350898794
 31
0.0
  0
LINE
  5
8CB5
  8
FUTO
 10
2323.554413298607
 20
4339.2758350898794
 30
0.0
 11
2323.554413298607
 21
4189.2758350898794
 31
0.0
  0
LINE
  5
8CB6
  8
CT
 10
2508.054413298607
 20
4239.2758350898803
 30
0.0
 11
2548.0544132986061
 21
4239.2758350898803
 31
0.0
  0
LINE
  5
8CB7
  8
FUTO
 10
2328.054413298607
 20
4389.2758350898794
 30
0.0
 11
2328.0544132986079
 21
4339.2758350898794
 31
0.0
  0
LINE
  5
8CB9
  8
KL
 10
2478.054413298607
 20
4325.2758350898794
 30
0.0
 11
2478.054413298607
 21
4319.2758350898794
 31
0.0
  0
LINE
  5
8CBF
  8
FUTO
 10
1753.054413298607
 20
5369.2758350898794
 30
0.0
 11
1753.054413298607
 21
6219.2758350898775
 31
0.0
  0
LINE
  5
8CC1
  8
FUTO
 10
1755.3544132986081
 20
5369.2758350898794
 30
0.0
 11
1755.3544132986081
 21
5469.2758350898812
 31
0.0
  0
LINE
  5
8CC2
  8
FUTO
 10
1755.3544132986081
 20
5369.2758350898803
 30
0.0
 11
1753.054413298607
 21
5369.2758350898794
 31
0.0
  0
LINE
  5
8CC9
  8
FUTO
 10
2711.8700343698961
 20
4625.2758350898794
 30
0.0
 11
2711.8700343698961
 21
4365.7889485100668
 31
0.0
  0
LINE
  5
8CCA
  8
KL
 10
4128.0544132986088
 20
5469.2758350898812
 30
0.0
 11
4128.054413298607
 21
4319.2758350898794
 31
0.0
  0
LINE
  5
8CCB
  8
FUTO
 10
4134.0544132986061
 20
5408.4966077992403
 30
0.0
 11
4134.0544132986061
 21
4526.4293926527898
 31
0.0
  0
LINE
  5
8CCC
  8
CT
 10
3328.054413298607
 20
6319.2758350898803
 30
0.0
 11
3328.054413298607
 21
4140.0325055378444
 31
0.0
  0
LINE
  5
8CCE
  8
FUTO
 10
2781.8700343699029
 20
4370.6243898978682
 30
0.0
 11
3874.238792227311
 21
4370.6243898978682
 31
0.0
  0
LINE
  5
8CD0
  8
CT
 10
4108.0544132986061
 20
4239.2758350898803
 30
0.0
 11
4148.054413298607
 21
4239.2758350898803
 31
0.0
  0
CIRCLE
  5
8CD2
  8
FUTO
 10
4128.054413298607
 20
4239.2758350898803
 30
0.0
 40
12.5
  0
LINE
  5
8CD3
  8
CT
 10
4128.054413298607
 20
4259.2758350898794
 30
0.0
 11
4128.054413298607
 21
4219.2758350898794
 31
0.0
  0
LINE
  5
8CD4
  8
FUTO
 10
4332.5544132986061
 20
4339.2758350898794
 30
0.0
 11
4332.5544132986061
 21
4189.2758350898794
 31
0.0
  0
LINE
  5
8CD5
  8
KL
 10
4328.054413298607
 20
4339.2758350898794
 30
0.0
 11
4328.054413298607
 21
4189.2758350898794
 31
0.0
  0
LINE
  5
8CD6
  8
FUTO
 10
4328.054413298607
 20
4389.2758350898794
 30
0.0
 11
4328.054413298607
 21
4339.2758350898794
 31
0.0
  0
LINE
  5
8CD8
  8
KL
 10
4178.054413298607
 20
4325.2758350898794
 30
0.0
 11
4178.054413298607
 21
4319.2758350898794
 31
0.0
  0
LINE
  5
8CDC
  8
FUTO
 10
2711.8700343698961
 20
4625.2758350898794
 30
0.0
 11
2661.8700343698961
 21
4625.2758350898794
 31
0.0
  0
LINE
  5
8CDD
  8
FUTO
 10
2711.8700343698961
 20
5213.2758350898803
 30
0.0
 11
2711.8700343698961
 21
5469.2758350898794
 31
0.0
  0
LINE
  5
8CDE
  8
FUTO
 10
2711.8700343698961
 20
5213.2758350898803
 30
0.0
 11
2661.8700343698961
 21
5213.2758350898803
 31
0.0
  0
LINE
  5
8CE0
  8
FUTO
 10
3994.2387922273192
 20
5213.2758350898803
 30
0.0
 11
4177.5840300188802
 21
5469.2758350898812
 31
0.0
  0
LINE
  5
8CE1
  8
FUTO
 10
3944.2387922273192
 20
5213.2758350898803
 30
0.0
 11
3944.2387922273192
 21
5469.2758350898794
 31
0.0
  0
LINE
  5
8CE2
  8
FUTO
 10
3944.2387922273192
 20
5213.2758350898803
 30
0.0
 11
3994.2387922273192
 21
5213.2758350898803
 31
0.0
  0
LINE
  5
8CE8
  8
FUTO
 10
4903.054413298607
 20
6219.2758350898812
 30
0.0
 11
4903.054413298607
 21
5369.2758350898794
 31
0.0
  0
LINE
  5
8CEB
  8
FUTO
 10
4900.7544132986068
 20
5469.2758350898812
 30
0.0
 11
4900.7544132986068
 21
5369.2758350898794
 31
0.0
  0
LINE
  5
8CEC
  8
FUTO
 10
4903.054413298607
 20
5369.2758350898794
 30
0.0
 11
4900.7544132986068
 21
5369.2758350898803
 31
0.0
  0
LINE
  5
8F7D
  8
FUTO
 10
4214.6564320227908
 20
4974.2758350898803
 30
0.0
 11
4214.6564320227908
 21
4854.2758350898794
 31
0.0
  0
LINE
  5
8F7E
  8
FUTO
 10
4219.6564320227917
 20
4979.2758350898794
 30
0.0
 11
4219.6564320227917
 21
4849.2758350898803
 31
0.0
  0
LINE
  5
8F7F
  8
FUTO
 10
4232.0713490227936
 20
4990.1005420898791
 30
0.0
 11
4350.9423820227921
 21
4770.1695110898781
 31
0.0
  0
LINE
  5
8F80
  8
FUTO
 10
4228.9043570227914
 20
4988.3887500898791
 30
0.0
 11
4347.7753900227908
 21
4768.457719089879
 31
0.0
  0
LINE
  5
8F81
  8
FUTO
 10
4219.6564320227917
 20
4859.2758350898803
 30
0.0
 11
4219.6564320227917
 21
4976.2947550898798
 31
0.0
  0
ARC
  5
8F82
  8
FUTO
 10
4307.4006950227922
 20
4942.0846720898799
 30
0.0
 40
40.0
 50
5.1561989999999991
 51
86.309096999999994
  0
LINE
  5
8F83
  8
CT
 10
4195.6365350227934
 20
4919.2758350898794
 30
0.0
 11
4236.9505000227909
 21
4919.2758350898794
 31
0.0
  0
ARC
  5
8F84
  8
FUTO
 10
3351.285461022791
 20
4855.8070850898794
 30
0.0
 40
1000.0
 50
355.73046899999991
 51
5.156280999999999
  0
LINE
  5
8F85
  8
FUTO
 10
4219.6564320227917
 20
4859.2758350898803
 30
0.0
 11
4228.5614620227934
 21
4788.0354780898788
 31
0.0
  0
LINE
  5
8F86
  8
FUTO
 10
4341.9282830227921
 20
4779.2758350898794
 30
0.0
 11
4238.4842520227903
 21
4779.2758350898794
 31
0.0
  0
ARC
  5
8F87
  8
FUTO
 10
4238.4841910227906
 20
4789.2758350898794
 30
0.0
 40
9.9999520000000004
 50
187.12510700000001
 51
270.0
  0
ARC
  5
8F88
  8
FUTO
 10
4350.062621022792
 20
4769.6939250898786
 30
0.0
 40
0.999915
 50
298.39218099999999
 51
28.395019999999999
  0
ARC
  5
8F89
  8
FUTO
 10
4348.655151022791
 20
4768.93318308988
 30
0.0
 40
0.999915
 50
208.39218099999999
 51
298.39501999999999
  0
LINE
  5
8F8A
  8
FUTO
 10
4349.1307360227911
 20
4768.0534220898799
 30
0.0
 11
4350.5382070227924
 21
4768.8142870898791
 31
0.0
  0
LINE
  5
8F8B
  8
FUTO
 10
4345.7120350227924
 20
4779.8463910898799
 30
0.0
 11
4348.5103750227927
 21
4781.3588420898786
 31
0.0
  0
ARC
  5
8F8C
  8
FUTO
 10
4224.6563100227904
 20
4976.2947550898798
 30
0.0
 40
4.9998969999999989
 50
118.39019
 51
180.0
  0
LINE
  5
8F8D
  8
FUTO
 10
4230.6254260227906
 20
4985.2045460898798
 30
0.0
 11
4222.2789910227912
 21
4980.6933150898803
 31
0.0
  0
ARC
  5
8F8E
  8
FUTO
 10
4229.7841180227906
 20
4988.8642130898797
 30
0.0
 40
1.0000219999999991
 50
118.388863
 51
208.38885499999989
  0
ARC
  5
8F8F
  8
FUTO
 10
4231.1917110227914
 20
4989.6250780898799
 30
0.0
 40
0.999915
 50
28.392186999999989
 51
118.39501199999999
  0
LINE
  5
8F90
  8
FUTO
 10
4230.7161250227909
 20
4990.5047160898803
 30
0.0
 11
4229.3086540227923
 21
4989.743974089879
 31
0.0
  0
LINE
  5
8F91
  8
FUTO
 10
4233.7925410227908
 20
4986.9162150898801
 30
0.0
 11
4309.9756460227909
 21
4982.0016650898779
 31
0.0
  0
LINE
  5
8FA3
  8
FUTO
 10
4214.6564320227908
 20
4944.2758350898803
 30
0.0
 11
4134.0544132986061
 21
4944.2758350898794
 31
0.0
  0
LINE
  5
8FA4
  8
FUTO
 10
4219.6564320227917
 20
4979.2758350898803
 30
0.0
 11
4134.0544132986061
 21
4979.2758350898794
 31
0.0
  0
LINE
  5
8FA5
  8
FUTO
 10
4214.6564320227908
 20
4974.2758350898803
 30
0.0
 11
4134.0544132986061
 21
4974.2758350898775
 31
0.0
  0
LINE
  5
8FA6
  8
FUTO
 10
4214.6564320227908
 20
4884.2758350898803
 30
0.0
 11
4134.0544132986061
 21
4884.2758350898803
 31
0.0
  0
LINE
  5
8FA7
  8
FUTO
 10
4214.6564320227908
 20
4854.2758350898794
 30
0.0
 11
4134.0544132986061
 21
4854.2758350898794
 31
0.0
  0
LINE
  5
8FA8
  8
FUTO
 10
4219.6564320227917
 20
4849.2758350898803
 30
0.0
 11
4134.0544132986061
 21
4849.2758350898803
 31
0.0
  0
LINE
  5
92B6
  8
FUTO
 10
2328.0544132986079
 20
4339.2758350898794
 30
0.0
 11
2781.8700343698979
 21
4370.6243898978682
 31
0.0
  0
LINE
  5
92B8
  8
FUTO
 10
3944.2387922273169
 20
4625.2758350898794
 30
0.0
 11
3944.2387922273169
 21
4365.7889485100659
 31
0.0
  0
LINE
  5
92B9
  8
FUTO
 10
3944.2387922273169
 20
4625.2758350898794
 30
0.0
 11
3994.2387922273169
 21
4625.2758350898794
 31
0.0
  0
LINE
  5
92BB
  8
FUTO
 10
3874.2387922273192
 20
4370.6243898978682
 30
0.0
 11
4328.054413298607
 21
4339.2758350898794
 31
0.0
  0
LINE
  5
9318
  8
FUTO
 10
2328.054413298607
 20
4389.2758350898794
 30
0.0
 11
2661.8700343698961
 21
4625.2758350898794
 31
0.0
  0
LINE
  5
9319
  8
FUTO
 10
3994.2387922273169
 20
4625.2758350898794
 30
0.0
 11
4328.054413298607
 21
4389.2758350898794
 31
0.0
  0
LINE
  5
9327
  8
FUTO
 10
5703.6380261319136
 20
6219.2758350898775
 30
0.0
 11
7552.4708004653003
 21
6219.2758350898775
 31
0.0
  0
LINE
  5
9328
  8
FUTO
 10
7900.7544132986077
 20
5469.2758350898812
 30
0.0
 11
5355.354413298609
 21
5469.2758350898812
 31
0.0
  0
LINE
  5
9331
  8
CT
 10
6628.0544132986061
 20
6319.2758350898794
 30
0.0
 11
6628.0544132986061
 21
4140.0325055378444
 31
0.0
  0
LINE
  5
9372
  8
FUTO
 10
5758.054413298607
 20
6219.2758350898794
 30
0.0
 11
5788.054413298607
 21
6219.2758350898794
 31
0.0
  0
LINE
  5
9373
  8
FUTO
 10
5788.054413298607
 20
6219.2758350898794
 30
0.0
 11
5783.8937528344686
 21
6242.8721131377433
 31
0.0
  0
LINE
  5
9374
  8
CT
 10
5773.054413298607
 20
6316.2758350898794
 30
0.0
 11
5773.054413298607
 21
6208.15124738141
 31
0.0
  0
LINE
  5
9375
  8
FUTO
 10
5758.054413298607
 20
6219.2758350898794
 30
0.0
 11
5762.2150737627444
 21
6242.8721131377433
 31
0.0
  0
LINE
  5
937F
  8
CT
 10
5713.054413298607
 20
6271.2758350898803
 30
0.0
 11
5833.054413298607
 21
6271.2758350898803
 31
0.0
  0
CIRCLE
  5
9381
  8
FUTO
 10
5773.054413298607
 20
6271.2758350898803
 30
0.0
 40
25.0
  0
ARC
  5
9383
  8
FUTO
 10
5773.054413298607
 20
6271.2758350898803
 30
0.0
 40
40.0
 50
288.25391686615802
 51
251.74608313384189
  0
ARC
  5
9385
  8
FUTO
 10
7483.054413298607
 20
6271.2758350898803
 30
0.0
 40
40.0
 50
288.25391686615802
 51
251.74608313384189
  0
CIRCLE
  5
9386
  8
FUTO
 10
7483.054413298607
 20
6271.2758350898803
 30
0.0
 40
25.0
  0
LINE
  5
9387
  8
CT
 10
7543.054413298607
 20
6271.2758350898803
 30
0.0
 11
7423.054413298607
 21
6271.2758350898803
 31
0.0
  0
LINE
  5
9388
  8
CT
 10
7483.054413298607
 20
6316.2758350898794
 30
0.0
 11
7483.054413298607
 21
6208.15124738141
 31
0.0
  0
LINE
  5
9389
  8
FUTO
 10
7498.054413298607
 20
6219.2758350898794
 30
0.0
 11
7493.8937528344704
 21
6242.8721131377433
 31
0.0
  0
LINE
  5
938A
  8
FUTO
 10
7468.054413298607
 20
6219.2758350898794
 30
0.0
 11
7472.2150737627444
 21
6242.8721131377433
 31
0.0
  0
LINE
  5
938B
  8
FUTO
 10
7498.054413298607
 20
6219.2758350898794
 30
0.0
 11
7468.054413298607
 21
6219.2758350898794
 31
0.0
  0
LINE
  5
9390
  8
FUTO
 10
5053.054413298607
 20
5643.8088214659047
 30
0.0
 11
5355.3544132986071
 21
5469.2758350898812
 31
0.0
  0
LINE
  5
9391
  8
FUTO
 10
5111.6316750367914
 20
5804.7485253850509
 30
0.0
 11
5053.054413298607
 21
5643.8088214659047
 31
0.0
  0
LINE
  5
9394
  8
FUTO
 10
8203.054413298607
 20
5643.8088214659047
 30
0.0
 11
7900.7544132986059
 21
5469.2758350898812
 31
0.0
  0
LINE
  5
9395
  8
FUTO
 10
8144.4771515604234
 20
5804.7485253850482
 30
0.0
 11
8203.054413298607
 21
5643.8088214659047
 31
0.0
  0
LINE
  5
9593
  8
KL
 10
5628.054413298607
 20
4319.2758350898775
 30
0.0
 11
7628.0544132986061
 21
4319.2758350898794
 31
0.0
  0
LINE
  5
9594
  8
KL
 10
5628.054413298607
 20
4325.2758350898775
 30
0.0
 11
7628.0544132986061
 21
4325.2758350898794
 31
0.0
  0
LINE
  5
9595
  8
FUTO
 10
5623.554413298607
 20
4189.2758350898794
 30
0.0
 11
7632.5544132986061
 21
4189.2758350898794
 31
0.0
  0
LINE
  5
9596
  8
FUTO
 10
5623.554413298607
 20
4339.2758350898794
 30
0.0
 11
7632.5544132986061
 21
4339.2758350898775
 31
0.0
  0
LINE
  5
9597
  8
FUTO
 10
7174.2387922273201
 20
4370.6243898978682
 30
0.0
 11
7628.0544132986061
 21
4339.2758350898794
 31
0.0
  0
LINE
  5
9598
  8
FUTO
 10
7294.2387922273174
 20
4625.2758350898794
 30
0.0
 11
7628.0544132986061
 21
4389.2758350898794
 31
0.0
  0
LINE
  5
959D
  8
FUTO
 10
5961.8700343698974
 20
5213.2758350898803
 30
0.0
 11
5778.5247965783356
 21
5469.2758350898812
 31
0.0
  0
LINE
  5
959E
  8
KL
 10
5828.0544132986051
 20
5469.2758350898812
 30
0.0
 11
5828.054413298607
 21
4319.2758350898794
 31
0.0
  0
LINE
  5
959F
  8
FUTO
 10
5822.054413298607
 20
5408.4966077992431
 30
0.0
 11
5822.054413298607
 21
4526.4293926527889
 31
0.0
  0
LINE
  5
95A0
  8
FUTO
 10
6011.8700343698974
 20
5213.2758350898803
 30
0.0
 11
6011.8700343698974
 21
5469.2758350898794
 31
0.0
  0
LINE
  5
95A1
  8
FUTO
 10
7294.2387922273201
 20
5213.2758350898803
 30
0.0
 11
7477.5840300188793
 21
5469.2758350898812
 31
0.0
  0
LINE
  5
95A2
  8
FUTO
 10
7244.2387922273201
 20
5213.2758350898803
 30
0.0
 11
7244.2387922273201
 21
5469.2758350898794
 31
0.0
  0
LINE
  5
95A3
  8
KL
 10
7428.0544132986088
 20
5469.2758350898812
 30
0.0
 11
7428.054413298607
 21
4319.2758350898794
 31
0.0
  0
LINE
  5
95A4
  8
FUTO
 10
7434.054413298607
 20
5408.4966077992403
 30
0.0
 11
7434.054413298607
 21
4526.4293926527898
 31
0.0
  0
LINE
  5
95A5
  8
FUTO
 10
6081.8700343699038
 20
4370.6243898978682
 30
0.0
 11
7174.2387922273119
 21
4370.6243898978682
 31
0.0
  0
LINE
  5
95A6
  8
FUTO
 10
6011.8700343698974
 20
4625.2758350898794
 30
0.0
 11
6011.8700343698974
 21
4365.7889485100668
 31
0.0
  0
LINE
  5
95A7
  8
FUTO
 10
5628.054413298607
 20
4389.2758350898794
 30
0.0
 11
5961.8700343698974
 21
4625.2758350898794
 31
0.0
  0
LINE
  5
95A8
  8
FUTO
 10
5628.0544132986088
 20
4339.2758350898794
 30
0.0
 11
6081.8700343698993
 21
4370.6243898978682
 31
0.0
  0
LINE
  5
95A9
  8
KL
 10
5628.054413298607
 20
4339.2758350898794
 30
0.0
 11
5628.054413298607
 21
4189.2758350898794
 31
0.0
  0
LINE
  5
95AA
  8
FUTO
 10
5623.554413298607
 20
4339.2758350898794
 30
0.0
 11
5623.554413298607
 21
4189.2758350898794
 31
0.0
  0
LINE
  5
95AB
  8
FUTO
 10
5628.054413298607
 20
4389.2758350898794
 30
0.0
 11
5628.0544132986088
 21
4339.2758350898794
 31
0.0
  0
LINE
  5
95AC
  8
CT
 10
5828.054413298607
 20
4259.2758350898794
 30
0.0
 11
5828.054413298607
 21
4219.2758350898794
 31
0.0
  0
CIRCLE
  5
95AD
  8
FUTO
 10
5828.054413298607
 20
4239.2758350898803
 30
0.0
 40
12.5
  0
LINE
  5
95AE
  8
KL
 10
5778.054413298607
 20
4325.2758350898794
 30
0.0
 11
5778.054413298607
 21
4319.2758350898794
 31
0.0
  0
LINE
  5
95AF
  8
CT
 10
5808.054413298607
 20
4239.2758350898803
 30
0.0
 11
5848.054413298607
 21
4239.2758350898803
 31
0.0
  0
LINE
  5
95B0
  8
FUTO
 10
6011.8700343698974
 20
4625.2758350898794
 30
0.0
 11
5961.8700343698974
 21
4625.2758350898794
 31
0.0
  0
LINE
  5
95B1
  8
FUTO
 10
6011.8700343698974
 20
5213.2758350898803
 30
0.0
 11
5961.8700343698974
 21
5213.2758350898803
 31
0.0
  0
LINE
  5
95B2
  8
FUTO
 10
7244.2387922273174
 20
4625.2758350898794
 30
0.0
 11
7244.2387922273174
 21
4365.7889485100659
 31
0.0
  0
CIRCLE
  5
95B3
  8
FUTO
 10
7428.054413298607
 20
4239.2758350898803
 30
0.0
 40
12.5
  0
LINE
  5
95B4
  8
CT
 10
7428.054413298607
 20
4259.2758350898794
 30
0.0
 11
7428.054413298607
 21
4219.2758350898794
 31
0.0
  0
LINE
  5
95B5
  8
KL
 10
7478.054413298607
 20
4325.2758350898794
 30
0.0
 11
7478.054413298607
 21
4319.2758350898794
 31
0.0
  0
LINE
  5
95B6
  8
CT
 10
7408.054413298607
 20
4239.2758350898803
 30
0.0
 11
7448.0544132986061
 21
4239.2758350898803
 31
0.0
  0
LINE
  5
95B9
  8
FUTO
 10
7244.2387922273174
 20
4625.2758350898794
 30
0.0
 11
7294.2387922273174
 21
4625.2758350898794
 31
0.0
  0
LINE
  5
95BC
  8
FUTO
 10
7244.2387922273201
 20
5213.2758350898803
 30
0.0
 11
7294.2387922273201
 21
5213.2758350898803
 31
0.0
  0
LINE
  5
95CA
  8
FUTO
 10
7632.5544132986061
 20
4339.2758350898794
 30
0.0
 11
7632.5544132986061
 21
4189.2758350898794
 31
0.0
  0
LINE
  5
95CB
  8
KL
 10
7628.0544132986061
 20
4339.2758350898794
 30
0.0
 11
7628.0544132986061
 21
4189.2758350898794
 31
0.0
  0
LINE
  5
95CC
  8
FUTO
 10
7628.0544132986061
 20
4389.2758350898794
 30
0.0
 11
7628.0544132986061
 21
4339.2758350898794
 31
0.0
  0
ARC
  5
95D6
  8
FUTO
 10
5703.6380261319136
 20
5589.2758350898775
 30
0.0
 40
630.0
 50
90.0
 51
159.99999999999989
  0
ARC
  5
95D7
  8
FUTO
 10
7552.4708004653003
 20
5589.2758350898775
 30
0.0
 40
630.0
 50
19.999999999999869
 51
90.0
  0
DIMENSION
  5
95D8
  8
3
  2
*D1
 10
4128.054413298607
 20
3883.4515130118712
 30
0.0
 11
3328.054413298607
 21
3970.9515130118712
 31
0.0
 70
     0
 13
2528.0544132986061
 23
4219.2758350898794
 33
0.0
 14
4128.054413298607
 24
4219.2758350898794
 34
0.0
1001
ACAD
1000
DSTYLE
1002
{
1070
   287
1070
     3
1070
   287
1070
     3
1070
   287
1070
     3
1070
   287
1070
     3
1070
    40
1040
35.0
1070
   143
1040
0.039
1070
   271
1070
     0
1070
   279
1070
     0
1002
}
  0
DIMENSION
  5
95E5
  8
3
  2
*D2
 10
4328.054413298607
 20
3600.5544755250698
 30
0.0
 11
3328.054413298607
 21
3688.0544755250698
 31
0.0
 70
     0
 13
2328.054413298607
 23
4189.2758350898794
 33
0.0
 14
4328.054413298607
 24
4189.2758350898794
 34
0.0
1001
ACAD
1000
DSTYLE
1002
{
1070
   287
1070
     3
1070
   287
1070
     3
1070
   287
1070
     3
1070
   287
1070
     3
1070
    40
1040
35.0
1070
   143
1040
0.039
1070
   271
1070
     0
1070
   279
1070
     0
1002
}
  0
DIMENSION
  5
95F2
  8
3
  2
*D3
 10
1574.731196654647
 20
5369.2758350898794
 30
0.0
 11
1487.2311966546461
 21
5794.2758350898775
 31
0.0
 70
     0
 13
1753.054413298607
 23
6219.2758350898775
 33
0.0
 14
1753.054413298607
 24
5369.2758350898794
 34
0.0
 50
90.0
1001
ACAD
1000
DSTYLE
1002
{
1070
   287
1070
     3
1070
   287
1070
     3
1070
   287
1070
     3
1070
   287
1070
     3
1070
    40
1040
35.0
1070
   143
1040
0.039
1070
   271
1070
     0
1070
   279
1070
     0
1002
}
  0
DIMENSION
  5
95FF
  8
3
  2
*D4
 10
1574.731196654647
 20
4339.2758350898803
 30
0.0
 11
1487.2311966546461
 21
4854.2758350898803
 31
0.0
 70
     0
 13
1753.054413298607
 23
5369.2758350898794
 33
0.0
 14
2323.554413298607
 24
4339.2758350898794
 34
0.0
 50
90.0
1001
ACAD
1000
DSTYLE
1002
{
1070
   287
1070
     3
1070
   287
1070
     3
1070
   287
1070
     3
1070
   287
1070
     3
1070
    40
1040
35.0
1070
   143
1040
0.039
1070
   271
1070
     0
1070
   279
1070
     0
1002
}
  0
DIMENSION
  5
960C
  8
3
  2
*D5
 10
1575.074222268209
 20
4189.2758350898803
 30
0.0
 11
1487.5742222682079
 21
3889.2758350898798
 31
0.0
 70
     0
 13
2323.554413298607
 23
4339.2758350898794
 33
0.0
 14
2323.554413298607
 24
4189.2758350898794
 34
0.0
 50
90.0
1001
ACAD
1000
DSTYLE
1002
{
1070
   287
1070
     3
1070
   287
1070
     3
1070
   287
1070
     3
1070
   287
1070
     3
1070
    40
1040
35.0
1070
   143
1040
0.039
1070
   271
1070
     0
1070
   279
1070
     0
1002
}
  0
DIMENSION
  5
961A
  8
3
  2
*D6
 10
1296.0781526110291
 20
6219.2758350898775
 30
0.0
 11
1208.5781526110279
 21
5204.2758350898794
 31
0.0
 70
     0
 13
2328.054413298607
 23
4189.2758350898794
 33
0.0
 14
1753.054413298607
 24
6219.2758350898775
 34
0.0
 50
90.0
1001
ACAD
1000
DSTYLE
1002
{
1070
   287
1070
     3
1070
   287
1070
     3
1070
   287
1070
     3
1070
   287
1070
     3
1070
    40
1040
35.0
1070
   143
1040
0.039
1070
   271
1070
     0
1070
   279
1070
     0
1002
}
  0
DIMENSION
  5
9634
  8
3
  2
*D7
 10
4903.054413298607
 20
6592.7210414338906
 30
0.0
 11
3328.054413298607
 21
6680.2210414338924
 31
0.0
 70
     0
 13
1753.054413298607
 23
6219.2758350898775
 33
0.0
 14
4903.054413298607
 24
6219.2758350898812
 34
0.0
1001
ACAD
1000
DSTYLE
1002
{
1070
   287
1070
     3
1070
   287
1070
     3
1070
   287
1070
     3
1070
   287
1070
     3
1070
    40
1040
35.0
1070
   143
1040
0.039
1070
   271
1070
     0
1070
   279
1070
     0
1002
}
  0
DIMENSION
  5
9642
  8
3
  2
*D8
 10
8203.054413298607
 20
6584.9634628990607
 30
0.0
 11
6628.0544132986061
 21
6672.4634628990607
 31
0.0
 70
     0
 13
5053.054413298607
 23
5643.8088214659047
 33
0.0
 14
8203.054413298607
 24
5643.8088214659047
 34
0.0
1001
ACAD
1000
DSTYLE
1002
{
1070
   287
1070
     3
1070
   287
1070
     3
1070
   287
1070
     3
1070
   287
1070
     3
1070
    40
1040
35.0
1070
   143
1040
0.039
1070
   271
1070
     0
1070
   279
1070
     0
1002
}
  0
DIMENSION
  5
9698
  8
3
  2
*D9
 10
7428.054413298607
 20
3897.1543238750742
 30
0.0
 11
6628.0544132986061
 21
3984.6543238750751
 31
0.0
 70
     0
 13
5828.054413298607
 23
4219.2758350898794
 33
0.0
 14
7428.054413298607
 24
4219.2758350898794
 34
0.0
1001
ACAD
1000
DSTYLE
1002
{
1070
   287
1070
     3
1070
   287
1070
     3
1070
   287
1070
     3
1070
   287
1070
     3
1070
    40
1040
35.0
1070
   143
1040
0.039
1070
   271
1070
     0
1070
   279
1070
     0
1002
}
  0
DIMENSION
  5
96A5
  8
3
  2
*D10
 10
7628.0544132986061
 20
3615.4949703599309
 30
0.0
 11
6628.0544132986061
 21
3702.99497035993
 31
0.0
 70
     0
 13
5628.054413298607
 23
4189.2758350898794
 33
0.0
 14
7628.0544132986061
 24
4189.2758350898794
 34
0.0
1001
ACAD
1000
DSTYLE
1002
{
1070
   287
1070
     3
1070
   287
1070
     3
1070
   287
1070
     3
1070
   287
1070
     3
1070
    40
1040
35.0
1070
   143
1040
0.039
1070
   271
1070
     0
1070
   279
1070
     0
1002
}
  0
DIMENSION
  5
9742
  8
3
  2
*D11
 10
1941.689639475931
 20
4189.2758350898803
 30
0.0
 11
1854.1896394759301
 21
3929.2758350898798
 31
0.0
 70
     0
 13
2508.054413298607
 23
4239.2758350898803
 33
0.0
 14
2323.554413298607
 24
4189.2758350898794
 34
0.0
 50
90.0
1001
ACAD
1000
DSTYLE
1002
{
1070
   287
1070
     3
1070
   287
1070
     3
1070
   287
1070
     3
1070
    40
1040
35.0
1070
   143
1040
0.039
1070
   271
1070
     0
1070
   279
1070
     0
1002
}
  0
LINE
  5
9880
  8
FUTO
 10
2458.054413298607
 20
6219.2758350898794
 30
0.0
 11
2488.054413298607
 21
6219.2758350898794
 31
0.0
  0
LINE
  5
9881
  8
FUTO
 10
2488.054413298607
 20
6219.2758350898794
 30
0.0
 11
2483.89375283447
 21
6242.8721131377433
 31
0.0
  0
LINE
  5
9882
  8
CT
 10
2473.054413298607
 20
6297.819639387023
 30
0.0
 11
2473.054413298607
 21
6213.1512473814109
 31
0.0
  0
LINE
  5
9883
  8
FUTO
 10
2458.054413298607
 20
6219.2758350898794
 30
0.0
 11
2462.2150737627439
 21
6242.8721131377433
 31
0.0
  0
LINE
  5
9884
  8
FUTO
 10
2479.3044132986029
 20
6285.0258283324929
 30
0.0
 11
2479.3043619150699
 21
6237.5004916180114
 31
0.0
  0
LINE
  5
9885
  8
FUTO
 10
2466.8044132986111
 20
6285.0258283324929
 30
0.0
 11
2466.8044646821431
 21
6237.5004916180114
 31
0.0
  0
ARC
  5
9886
  8
FUTO
 10
2473.054413298607
 20
6237.5258350898794
 30
0.0
 40
6.25
 50
180.23233247289559
 51
359.76766752710432
  0
LINE
  5
9887
  8
FUTO
 10
2462.2150737627439
 20
6242.8721131377433
 30
0.0
 11
2465.054413298607
 21
6245.7114526736068
 31
0.0
  0
LINE
  5
9888
  8
FUTO
 10
2462.2150737627439
 20
6242.8721131377433
 30
0.0
 11
2466.8044588744428
 21
6242.8721131377433
 31
0.0
  0
LINE
  5
9889
  8
FUTO
 10
2465.054413298607
 20
6245.7114526736068
 30
0.0
 11
2466.8044558046008
 21
6245.7114526736068
 31
0.0
  0
LINE
  5
988A
  8
FUTO
 10
2479.3043677227702
 20
6242.8721131377433
 30
0.0
 11
2483.89375283447
 21
6242.8721131377433
 31
0.0
  0
LINE
  5
988B
  8
FUTO
 10
2483.89375283447
 20
6242.8721131377433
 30
0.0
 11
2481.054413298607
 21
6245.7114526736068
 31
0.0
  0
LINE
  5
988C
  8
FUTO
 10
2479.3043707926131
 20
6245.7114526736068
 30
0.0
 11
2481.054413298607
 21
6245.7114526736068
 31
0.0
  0
LINE
  5
988D
  8
CT
 10
2461.4656707100862
 20
6261.2758350898794
 30
0.0
 11
2485.4157383075999
 21
6261.2758350898794
 31
0.0
  0
ARC
  5
988E
  8
FUTO
 10
2473.054413298607
 20
6285.0258350898794
 30
0.0
 40
6.25
 50
359.9999380528414
 51
180.00006194715851
  0
LINE
  5
988F
  8
FUTO
 10
4168.054413298607
 20
6219.2758350898794
 30
0.0
 11
4198.0544132986061
 21
6219.2758350898794
 31
0.0
  0
LINE
  5
9890
  8
FUTO
 10
4198.0544132986061
 20
6219.2758350898794
 30
0.0
 11
4193.8937528344686
 21
6242.8721131377433
 31
0.0
  0
LINE
  5
9891
  8
CT
 10
4183.054413298607
 20
6297.819639387023
 30
0.0
 11
4183.054413298607
 21
6213.1512473814109
 31
0.0
  0
LINE
  5
9892
  8
FUTO
 10
4168.054413298607
 20
6219.2758350898794
 30
0.0
 11
4172.2150737627444
 21
6242.8721131377433
 31
0.0
  0
LINE
  5
9893
  8
FUTO
 10
4189.3044132986033
 20
6285.0258283324929
 30
0.0
 11
4189.3043619150703
 21
6237.5004916180114
 31
0.0
  0
LINE
  5
9894
  8
FUTO
 10
4176.8044132986106
 20
6285.0258283324929
 30
0.0
 11
4176.8044646821436
 21
6237.5004916180114
 31
0.0
  0
ARC
  5
9895
  8
FUTO
 10
4183.054413298607
 20
6237.5258350898794
 30
0.0
 40
6.25
 50
180.23233247289559
 51
359.76766752710432
  0
LINE
  5
9896
  8
FUTO
 10
4172.2150737627444
 20
6242.8721131377433
 30
0.0
 11
4175.054413298607
 21
6245.7114526736068
 31
0.0
  0
LINE
  5
9897
  8
FUTO
 10
4172.2150737627444
 20
6242.8721131377433
 30
0.0
 11
4176.8044588744433
 21
6242.8721131377433
 31
0.0
  0
LINE
  5
9898
  8
FUTO
 10
4175.054413298607
 20
6245.7114526736068
 30
0.0
 11
4176.8044558046013
 21
6245.7114526736068
 31
0.0
  0
LINE
  5
9899
  8
FUTO
 10
4189.3043677227706
 20
6242.8721131377433
 30
0.0
 11
4193.8937528344686
 21
6242.8721131377433
 31
0.0
  0
LINE
  5
989A
  8
FUTO
 10
4193.8937528344686
 20
6242.8721131377433
 30
0.0
 11
4191.054413298607
 21
6245.7114526736068
 31
0.0
  0
LINE
  5
989B
  8
FUTO
 10
4189.3043707926117
 20
6245.7114526736068
 30
0.0
 11
4191.054413298607
 21
6245.7114526736068
 31
0.0
  0
LINE
  5
989C
  8
CT
 10
4171.4656707100858
 20
6261.2758350898794
 30
0.0
 11
4195.4157383075999
 21
6261.2758350898794
 31
0.0
  0
ARC
  5
989D
  8
FUTO
 10
4183.054413298607
 20
6285.0258350898794
 30
0.0
 40
6.25
 50
359.9999380528414
 51
180.00006194715851
  0
ENDSEC
  0
EOF
