  0
SECTION
  2
HEADER
  9
$ACADVER
  1
AC1009
  9
$INSBASE
 10
0.0
 20
0.0
 30
0.0
  9
$EXTMIN
 10
0.0
 20
0.0
 30
0.0
  9
$EXTMAX
 10
5250.0
 20
7375.0
 30
0.0
  9
$LIMMIN
 10
0.0
 20
0.0
  9
$LIMMAX
 10
297.0
 20
210.0
  9
$ORTHOMODE
 70
     0
  9
$REGENMODE
 70
     1
  9
$FILLMODE
 70
     1
  9
$QTEXTMODE
 70
     0
  9
$MIRRTEXT
 70
     0
  9
$DRAGMODE
 70
     2
  9
$LTSCALE
 40
125.0
  9
$OSMODE
 70
    37
  9
$ATTMODE
 70
     1
  9
$TEXTSIZE
 40
3.5
  9
$TRACEWID
 40
0.05
  9
$TEXTSTYLE
  7
STANDARD
  9
$CLAYER
  8
SP
  9
$CELTYPE
  6
BYLAYER
  9
$CECOLOR
 62
   256
  9
$DIMSCALE
 40
25.0
  9
$DIMASZ
 40
2.5
  9
$DIMEXO
 40
1.0
  9
$DIMDLI
 40
7.0
  9
$DIMRND
 40
0.0
  9
$DIMDLE
 40
0.0
  9
$DIMEXE
 40
1.0
  9
$DIMTP
 40
0.0
  9
$DIMTM
 40
0.0
  9
$DIMTXT
 40
3.0
  9
$DIMCEN
 40
0.0
  9
$DIMTSZ
 40
0.0
  9
$DIMTOL
 70
     0
  9
$DIMLIM
 70
     0
  9
$DIMTIH
 70
     0
  9
$DIMTOH
 70
     0
  9
$DIMSE1
 70
     0
  9
$DIMSE2
 70
     0
  9
$DIMTAD
 70
     1
  9
$DIMZIN
 70
     8
  9
$DIMBLK
  1

  9
$DIMASO
 70
     1
  9
$DIMSHO
 70
     1
  9
$DIMPOST
  1

  9
$DIMAPOST
  1

  9
$DIMALT
 70
     0
  9
$DIMALTD
 70
     2
  9
$DIMALTF
 40
0.03937
  9
$DIMLFAC
 40
1.0
  9
$DIMTOFL
 70
     1
  9
$DIMTVP
 40
0.0
  9
$DIMTIX
 70
     0
  9
$DIMSOXD
 70
     0
  9
$DIMSAH
 70
     1
  9
$DIMBLK1
  1
OPEN
  9
$DIMBLK2
  1
OPEN
  9
$DIMSTYLE
  2
GOD
  9
$DIMCLRD
 70
   256
  9
$DIMCLRE
 70
   256
  9
$DIMCLRT
 70
   256
  9
$DIMTFAC
 40
1.0
  9
$DIMGAP
 40
1.0
  9
$LUNITS
 70
     2
  9
$LUPREC
 70
     3
  9
$SKETCHINC
 40
0.1
  9
$FILLETRAD
 40
0.0
  9
$AUNITS
 70
     0
  9
$AUPREC
 70
     2
  9
$MENU
  1
acad
  9
$ELEVATION
 40
0.0
  9
$PELEVATION
 40
0.0
  9
$THICKNESS
 40
0.0
  9
$LIMCHECK
 70
     0
  9
$BLIPMODE
 70
     0
  9
$CHAMFERA
 40
0.0
  9
$CHAMFERB
 40
0.0
  9
$SKPOLY
 70
     0
  9
$TDCREATE
 40
2454942.6188268168
  9
$TDUPDATE
 40
2454953.634640289
  9
$TDINDWG
 40
0.0357225347
  9
$TDUSRTIMER
 40
0.0357225347
  9
$USRTIMER
 70
     1
  9
$ANGBASE
 50
0.0
  9
$ANGDIR
 70
     0
  9
$PDMODE
 70
     0
  9
$PDSIZE
 40
1.0
  9
$PLINEWID
 40
0.0
  9
$COORDS
 70
     1
  9
$SPLFRAME
 70
     0
  9
$SPLINETYPE
 70
     6
  9
$SPLINESEGS
 70
     8
  9
$ATTDIA
 70
     0
  9
$ATTREQ
 70
     1
  9
$HANDLING
 70
 10241
  9
$HANDSEED
  5
2515
  9
$SURFTAB1
 70
     6
  9
$SURFTAB2
 70
     6
  9
$SURFTYPE
 70
     6
  9
$SURFU
 70
     6
  9
$SURFV
 70
     6
  9
$UCSNAME
  2

  9
$UCSORG
 10
0.0
 20
0.0
 30
0.0
  9
$UCSXDIR
 10
1.0
 20
0.0
 30
0.0
  9
$UCSYDIR
 10
0.0
 20
1.0
 30
0.0
  9
$PUCSNAME
  2

  9
$PUCSORG
 10
0.0
 20
0.0
 30
0.0
  9
$PUCSXDIR
 10
1.0
 20
0.0
 30
0.0
  9
$PUCSYDIR
 10
0.0
 20
1.0
 30
0.0
  9
$USERI1
 70
     0
  9
$USERI2
 70
     0
  9
$USERI3
 70
     0
  9
$USERI4
 70
     0
  9
$USERI5
 70
     0
  9
$USERR1
 40
0.0
  9
$USERR2
 40
0.0
  9
$USERR3
 40
0.0
  9
$USERR4
 40
0.0
  9
$USERR5
 40
0.0
  9
$WORLDVIEW
 70
     1
  9
$SHADEDGE
 70
     3
  9
$SHADEDIF
 70
    70
  9
$TILEMODE
 70
     1
  9
$MAXACTVP
 70
    16
  9
$PLIMCHECK
 70
     0
  9
$PEXTMIN
 10
1.0000000000000000E+020
 20
1.0000000000000000E+020
 30
1.0000000000000000E+020
  9
$PEXTMAX
 10
-1.0000000000000000E+020
 20
-1.0000000000000000E+020
 30
-1.0000000000000000E+020
  9
$PLIMMIN
 10
0.0
 20
0.0
  9
$PLIMMAX
 10
12.0
 20
9.0
  9
$UNITMODE
 70
     0
  9
$VISRETAIN
 70
     0
  9
$PLINEGEN
 70
     0
  9
$PSLTSCALE
 70
     0
  0
ENDSEC
  0
SECTION
  2
TABLES
  0
TABLE
  2
VPORT
 70
     2
  0
VPORT
  2
*ACTIVE
 70
     0
 10
0.0
 20
0.0
 11
1.0
 21
1.0
 12
4669.4213483510039
 22
890.45876461316857
 13
0.0
 23
0.0
 14
5.0
 24
5.0
 15
0.0
 25
0.0
 16
0.0
 26
0.0
 36
1.0
 17
0.0
 27
0.0
 37
0.0
 40
2335.1643628409961
 41
3.1666666666666661
 42
50.0
 43
0.0
 44
0.0
 50
0.0
 51
0.0
 71
     0
 72
   100
 73
     1
 74
     0
 75
     0
 76
     0
 77
     0
 78
     0
  0
ENDTAB
  0
TABLE
  2
LTYPE
 70
     4
  0
LTYPE
  2
CONTINUOUS
 70
     0
  3
Solid line
 72
    65
 73
     0
 40
0.0
  0
LTYPE
  2
CENTER
 70
     0
  3
____ _ ____ _ ____ _ ____ _ ____ _ ____ _ ____ 
 72
    65
 73
     4
 40
2.0
 49
1.25
 49
-0.25
 49
0.25
 49
-0.25
  0
LTYPE
  2
HIDDEN
 70
     0
  3
__ __ __ __ __ __ __ __ __ __ __ __ __ __ __ __
 72
    65
 73
     2
 40
0.375
 49
0.25
 49
-0.125
  0
LTYPE
  2
PHANTOM
 70
     0
  3
______  __  __  ______  __  __  ______  __  __ 
 72
    65
 73
     6
 40
2.5
 49
1.25
 49
-0.25
 49
0.25
 49
-0.25
 49
0.25
 49
-0.25
  0
ENDTAB
  0
TABLE
  2
LAYER
 70
    13
  0
LAYER
  2
0
 70
     0
 62
     7
  6
CONTINUOUS
  0
LAYER
  2
CT
 70
     0
 62
     3
  6
CENTER
  0
LAYER
  2
FUTO
 70
     0
 62
     4
  6
CONTINUOUS
  0
LAYER
  2
HOSO
 70
     0
 62
     7
  6
CONTINUOUS
  0
LAYER
  2
KL
 70
     0
 62
     7
  6
HIDDEN
  0
LAYER
  2
MOJI
 70
     0
 62
     3
  6
CONTINUOUS
  0
LAYER
  2
SL
 70
     0
 62
     1
  6
PHANTOM
  0
LAYER
  2
SP
 70
     0
 62
     2
  6
CONTINUOUS
  0
LAYER
  2
DEFPOINTS
 70
     0
 62
     7
  6
CONTINUOUS
  0
LAYER
  2
3
 70
     0
 62
     2
  6
CONTINUOUS
  0
LAYER
  2
2
 70
     0
 62
     3
  6
CENTER
  0
LAYER
  2
1
 70
     0
 62
     4
  6
CONTINUOUS
  0
LAYER
  2
4
 70
     0
 62
     7
  6
CONTINUOUS
  0
ENDTAB
  0
TABLE
  2
STYLE
 70
     2
  0
STYLE
  2
STANDARD
 70
     0
 40
0.0
 41
1.0
 50
15.0
 71
     0
 42
3.5
  3
C:\Program Files\AutoCAD LT\simplex.shx
  4
C:\Program Files\AutoCAD LT\extfont.shx
  0
STYLE
  2

 70
     1
 40
0.0
 41
1.0
 50
0.0
 71
     0
 42
3.5
  3
ltypeshp.shx
  4

  0
ENDTAB
  0
TABLE
  2
VIEW
 70
     0
  0
ENDTAB
  0
TABLE
  2
UCS
 70
     0
  0
ENDTAB
  0
TABLE
  2
APPID
 70
     1
  0
APPID
  2
ACAD
 70
     0
  0
ENDTAB
  0
TABLE
  2
DIMSTYLE
 70
     3
  0
DIMSTYLE
  2
STANDARD
 70
     0
  3

  4

  5

  6

  7

 40
1.0
 41
0.18
 42
0.0625
 43
0.38
 44
0.18
 45
0.0
 46
0.0
 47
0.0
 48
0.0
140
0.18
141
0.09
142
0.0
143
25.399999999999999
144
1.0
145
0.0
146
1.0
147
0.09
 71
     0
 72
     0
 73
     1
 74
     1
 75
     0
 76
     0
 77
     0
 78
     0
170
     0
171
     2
172
     0
173
     0
174
     0
175
     0
176
     0
177
     0
178
     0
  0
DIMSTYLE
  2
GOD
 70
     0
  3

  4

  5

  6
OPEN
  7
OPEN
 40
25.0
 41
2.5
 42
1.0
 43
7.0
 44
1.0
 45
0.0
 46
0.0
 47
0.0
 48
0.0
140
3.0
141
0.0
142
0.0
143
0.03937
144
1.0
145
0.0
146
1.0
147
1.0
 71
     0
 72
     0
 73
     0
 74
     0
 75
     0
 76
     0
 77
     1
 78
     8
170
     0
171
     2
172
     1
173
     1
174
     0
175
     0
176
   256
177
   256
178
   256
  0
DIMSTYLE
  2
IGA
 70
     0
  3

  4

  5

  6
OPEN
  7
OPEN
 40
2.0
 41
2.0
 42
0.5
 43
10.0
 44
1.0
 45
0.0
 46
0.0
 47
1.0
 48
1.0
140
3.0
141
0.0
142
0.0
143
0.03937
144
1.0
145
0.0
146
10.0
147
1.0
 71
     0
 72
     0
 73
     0
 74
     0
 75
     0
 76
     0
 77
     1
 78
     8
170
     0
171
     2
172
     0
173
     1
174
     0
175
     0
176
     0
177
     0
178
     0
  0
ENDTAB
  0
ENDSEC
  0
SECTION
  2
BLOCKS
  0
BLOCK
  8
0
  2
$MODEL_SPACE
 70
     0
 10
0.0
 20
0.0
 30
0.0
  3
$MODEL_SPACE
  1

  0
ENDBLK
  5
1B
  8
0
  0
BLOCK
 67
     1
  8
0
  2
$PAPER_SPACE
 70
     0
 10
0.0
 20
0.0
 30
0.0
  3
$PAPER_SPACE
  1

  0
ENDBLK
  5
18
 67
     1
  8
0
  0
BLOCK
  8
0
  2
_OPEN
 70
     0
 10
0.0
 20
0.0
 30
0.0
  3
_OPEN
  1

  0
LINE
  5
1E81
  8
0
  6
BYBLOCK
 62
     0
 10
-1.0
 20
0.1666666666666666
 30
0.0
 11
0.0
 21
0.0
 31
0.0
  0
LINE
  5
1E82
  8
0
  6
BYBLOCK
 62
     0
 10
0.0
 20
0.0
 30
0.0
 11
-1.0
 21
-0.1666666666666666
 31
0.0
  0
LINE
  5
1E83
  8
0
  6
BYBLOCK
 62
     0
 10
0.0
 20
0.0
 30
0.0
 11
-1.0
 21
0.0
 31
0.0
  0
ENDBLK
  5
1E84
  8
0
  0
BLOCK
  8
0
  2
_DOT
 70
     0
 10
0.0
 20
0.0
 30
0.0
  3
_DOT
  1

  0
LINE
  5
1EC3
  8
0
  6
BYBLOCK
 62
     0
 10
0.0
 20
0.0
 30
0.0
 11
-1.0
 21
-0.0000000000000284
 31
0.0
  0
POLYLINE
  5
1EC4
  8
0
  6
BYBLOCK
 62
     0
 66
     1
 10
0.0
 20
0.0
 30
0.0
 70
     1
 40
0.1666666666666666
 41
0.1666666666666666
  0
VERTEX
  5
2512
  8
0
  6
BYBLOCK
 62
     0
 10
-0.0833333333333286
 20
-0.0000000000000284
 30
0.0
 42
1.0
  0
VERTEX
  5
2513
  8
0
  6
BYBLOCK
 62
     0
 10
0.0833333333333286
 20
-0.0000000000000284
 30
0.0
 42
1.0
  0
SEQEND
  5
2514
  8
0
  6
BYBLOCK
 62
     0
  0
ENDBLK
  5
1EB8
  8
0
  0
BLOCK
  8
0
  2
*D2
 70
     1
 10
0.0
 20
0.0
 30
0.0
  3
*D2
  1

  0
LINE
  5
24D9
  8
SP
 10
4374.1554545707559
 20
2427.2365768750901
 30
0.0
 11
4374.1554545707559
 21
2165.9277802077659
 31
0.0
  0
LINE
  5
24DA
  8
SP
 10
2974.1554545707568
 20
2427.2365768750901
 30
0.0
 11
2974.1554545707568
 21
2165.9277802077659
 31
0.0
  0
LINE
  5
24DB
  8
SP
 10
4311.6554545707559
 20
2190.9277802077659
 30
0.0
 11
3036.6554545707568
 21
2190.9277802077659
 31
0.0
  0
INSERT
  5
24DC
  8
SP
  2
_OPEN
 10
4374.1554545707559
 20
2190.9277802077659
 30
0.0
 41
62.5
 42
62.5
 43
62.5
  0
INSERT
  5
24DD
  8
SP
  2
_OPEN
 10
2974.1554545707568
 20
2190.9277802077659
 30
0.0
 41
62.5
 42
62.5
 43
62.5
 50
180.0
  0
TEXT
  5
24DE
  8
SP
 10
3534.6728250302949
 20
2215.9277802077668
 30
0.0
 40
75.0
  1
1400
 51
15.0
  0
POINT
  5
24DF
  8
DEFPOINTS
 62
     0
 10
4374.1554545707559
 20
2452.2365768750901
 30
0.0
  0
POINT
  5
24E0
  8
DEFPOINTS
 62
     0
 10
2974.1554545707568
 20
2452.2365768750901
 30
0.0
  0
POINT
  5
24E1
  8
DEFPOINTS
 62
     0
 10
2974.1554545707568
 20
2190.9277802077659
 30
0.0
  0
ENDBLK
  5
2414
  8
0
  0
BLOCK
  8
0
  2
*D3
 70
     1
 10
0.0
 20
0.0
 30
0.0
  3
*D3
  1

  0
LINE
  5
24E2
  8
SP
 10
4399.155454570755
 20
2452.2365768750901
 30
0.0
 11
4835.2993720666709
 21
2452.2365768750901
 31
0.0
  0
LINE
  5
24E3
  8
SP
 10
4645.014555689786
 20
3362.2365768750901
 30
0.0
 11
4835.2993720666709
 21
3362.2365768750901
 31
0.0
  0
LINE
  5
24E4
  8
SP
 10
4810.2993720666709
 20
2514.7365768750901
 30
0.0
 11
4810.2993720666709
 21
3299.7365768750901
 31
0.0
  0
INSERT
  5
24E5
  8
SP
  2
_OPEN
 10
4810.2993720666709
 20
2452.2365768750901
 30
0.0
 41
62.5
 42
62.5
 43
62.5
 50
270.0
  0
INSERT
  5
24E6
  8
SP
  2
_OPEN
 10
4810.2993720666709
 20
3362.2365768750901
 30
0.0
 41
62.5
 42
62.5
 43
62.5
 50
90.0
  0
TEXT
  5
24E7
  8
SP
 10
4785.29937206667
 20
2808.3812485739791
 30
0.0
 40
75.0
  1
910
 50
90.0
 51
15.0
  0
POINT
  5
24E8
  8
DEFPOINTS
 62
     0
 10
4374.1554545707559
 20
2452.2365768750901
 30
0.0
  0
POINT
  5
24E9
  8
DEFPOINTS
 62
     0
 10
4620.014555689786
 20
3362.2365768750901
 30
0.0
  0
POINT
  5
24EA
  8
DEFPOINTS
 62
     0
 10
4810.2993720666709
 20
3362.2365768750901
 30
0.0
  0
ENDBLK
  5
2421
  8
0
  0
BLOCK
  8
0
  2
*D4
 70
     1
 10
0.0
 20
0.0
 30
0.0
  3
*D4
  1

  0
LINE
  5
24F5
  8
SP
 10
680.8234322960451
 20
4237.2365768750897
 30
0.0
 11
680.8234322960451
 21
4472.9657495649553
 31
0.0
  0
LINE
  5
24F6
  8
SP
 10
1980.823432296045
 20
4237.2365768750897
 30
0.0
 11
1980.823432296045
 21
4472.9657495649553
 31
0.0
  0
LINE
  5
24F7
  8
SP
 10
743.3234322960451
 20
4447.9657495649553
 30
0.0
 11
1918.323432296045
 21
4447.9657495649553
 31
0.0
  0
INSERT
  5
24F8
  8
SP
  2
_OPEN
 10
680.8234322960451
 20
4447.9657495649553
 30
0.0
 41
62.5
 42
62.5
 43
62.5
 50
180.0
  0
INSERT
  5
24F9
  8
SP
  2
_OPEN
 10
1980.823432296045
 20
4447.9657495649553
 30
0.0
 41
62.5
 42
62.5
 43
62.5
  0
TEXT
  5
24FA
  8
SP
 10
1191.340802755584
 20
4472.9657495649553
 30
0.0
 40
75.0
  1
1300
 51
15.0
  0
POINT
  5
24FB
  8
DEFPOINTS
 62
     0
 10
680.8234322960451
 20
4212.2365768750897
 30
0.0
  0
POINT
  5
24FC
  8
DEFPOINTS
 62
     0
 10
1980.823432296045
 20
4212.2365768750897
 30
0.0
  0
POINT
  5
24FD
  8
DEFPOINTS
 62
     0
 10
1980.823432296045
 20
4447.9657495649553
 30
0.0
  0
ENDBLK
  5
243A
  8
0
  0
BLOCK
  8
0
  2
*D5
 70
     1
 10
0.0
 20
0.0
 30
0.0
  3
*D5
  1

  0
LINE
  5
24EC
  8
SP
 10
2005.823432296045
 20
4162.2365768750897
 30
0.0
 11
2251.9620909056762
 21
4162.2365768750888
 31
0.0
  0
LINE
  5
24ED
  8
SP
 10
1999.823432296045
 20
2562.2365768750901
 30
0.0
 11
2251.9620909056762
 21
2562.2365768750901
 31
0.0
  0
LINE
  5
24EE
  8
SP
 10
2226.9620909056762
 20
4099.7365768750888
 30
0.0
 11
2226.9620909056748
 21
2624.7365768750901
 31
0.0
  0
INSERT
  5
24EF
  8
SP
  2
_OPEN
 10
2226.9620909056762
 20
4162.2365768750888
 30
0.0
 41
62.5
 42
62.5
 43
62.5
 50
90.0
  0
INSERT
  5
24F0
  8
SP
  2
_OPEN
 10
2226.9620909056748
 20
2562.2365768750901
 30
0.0
 41
62.5
 42
62.5
 43
62.5
 50
270.0
  0
TEXT
  5
24F1
  8
SP
 10
2201.9620909056748
 20
3196.7374841531059
 30
0.0
 40
75.0
  1
φ1600
 50
90.0
 51
15.0
  0
POINT
  5
24F2
  8
DEFPOINTS
 62
     0
 10
1980.823432296045
 20
4162.2365768750897
 30
0.0
  0
POINT
  5
24F3
  8
DEFPOINTS
 62
     0
 10
1974.823432296045
 20
2562.2365768750901
 30
0.0
  0
POINT
  5
24F4
  8
DEFPOINTS
 62
     0
 10
2226.9620909056748
 20
2562.2365768750901
 30
0.0
  0
ENDBLK
  5
2447
  8
0
  0
BLOCK
  8
0
  2
*D6
 70
     1
 10
0.0
 20
0.0
 30
0.0
  3
*D6
  1

  0
LINE
  5
24D0
  8
SP
 10
2809.1554545707559
 20
3387.2365768750901
 30
0.0
 11
2809.1554545707559
 21
4472.9657495649553
 31
0.0
  0
LINE
  5
24D1
  8
SP
 10
4539.1554545707568
 20
3387.2365768750901
 30
0.0
 11
4539.1554545707568
 21
4472.9657495649553
 31
0.0
  0
LINE
  5
24D2
  8
SP
 10
2871.6554545707559
 20
4447.9657495649553
 30
0.0
 11
4476.6554545707568
 21
4447.9657495649553
 31
0.0
  0
INSERT
  5
24D3
  8
SP
  2
_OPEN
 10
2809.1554545707559
 20
4447.9657495649553
 30
0.0
 41
62.5
 42
62.5
 43
62.5
 50
180.0
  0
INSERT
  5
24D4
  8
SP
  2
_OPEN
 10
4539.1554545707568
 20
4447.9657495649553
 30
0.0
 41
62.5
 42
62.5
 43
62.5
  0
TEXT
  5
24D5
  8
SP
 10
3534.6728250302958
 20
4472.9657495649553
 30
0.0
 40
75.0
  1
1730
 51
15.0
  0
POINT
  5
24D6
  8
DEFPOINTS
 62
     0
 10
2809.1554545707559
 20
3362.2365768750901
 30
0.0
  0
POINT
  5
24D7
  8
DEFPOINTS
 62
     0
 10
4539.1554545707568
 20
3362.2365768750901
 30
0.0
  0
POINT
  5
24D8
  8
DEFPOINTS
 62
     0
 10
4539.1554545707568
 20
4447.9657495649553
 30
0.0
  0
ENDBLK
  5
24BD
  8
0
  0
ENDSEC
  0
SECTION
  2
ENTITIES
  0
TEXT
  5
1FC0
  8
4
  6
CONTINUOUS
 10
1040.9500435445841
 20
6334.7024394120117
 30
0.0
 40
180.0
  1
電動機直動横形軸流式排煙ファン
  0
TEXT
  5
1FC1
  8
4
 10
2107.6030655346399
 20
5958.5721033312893
 30
0.0
 40
134.99999999999989
  1
床置ベッド型
  0
LINE
  5
1FC2
  8
4
 10
1125.0
 20
1250.0
 30
0.0
 11
4125.0
 21
1250.0
 31
0.0
  0
LINE
  5
1FC3
  8
4
 10
1125.0
 20
1000.0
 30
0.0
 11
4125.0
 21
1000.0
 31
0.0
  0
LINE
  5
1FC4
  8
4
 10
1125.0
 20
750.0
 30
0.0
 11
4125.0
 21
750.0
 31
0.0
  0
LINE
  5
1FC6
  8
4
 10
5250.0
 20
0.0
 30
0.0
 11
0.0
 21
0.0
 31
0.0
  0
LINE
  5
1FC7
  8
4
 10
0.0
 20
7375.0
 30
0.0
 11
5250.0
 21
7375.0
 31
0.0
  0
LINE
  5
1FC8
  8
4
 10
625.0
 20
6673.5218856620122
 30
0.0
 11
4625.0
 21
6673.5218856620122
 31
0.0
  0
LINE
  5
1FC9
  8
4
 10
625.0
 20
6173.5218856620122
 30
0.0
 11
4625.0
 21
6173.5218856620122
 31
0.0
  0
LINE
  5
1FCA
  8
4
 10
0.0
 20
0.0
 30
0.0
 11
0.0
 21
7375.0
 31
0.0
  0
TEXT
  5
1FCB
  8
4
 10
1215.6452650619931
 20
804.11289183002725
 30
0.0
 40
125.0
  1
機器型番
  0
TEXT
  5
1FCC
  8
4
 10
1221.2552021172539
 20
1078.857564666532
 30
0.0
 40
125.0
  1
機器名称
  0
LINE
  5
1FCE
  8
4
 10
1125.0
 20
1250.0
 30
0.0
 11
1125.0
 21
750.0
 31
0.0
  0
LINE
  5
1FCF
  8
4
 10
625.0
 20
6673.5218856620122
 30
0.0
 11
625.0
 21
6173.5218856620122
 31
0.0
  0
TEXT
  5
1FD0
  8
4
 10
788.13895364992266
 20
5955.7986938658578
 30
0.0
 40
134.99999999999989
  1
左回転前方吐出
  0
TEXT
  5
1FD2
  8
4
 10
2466.6362389637011
 20
798.36173218841839
 30
0.0
 40
125.0
  1
APE＃1600-1M
  0
TEXT
  5
1FD3
  8
4
 10
2444.1968637191621
 20
1056.429422393921
 30
0.0
 40
125.0
  1
ミツヤ軸流排煙ファン
  0
LINE
  5
1FD4
  8
4
 10
2375.0
 20
1250.0
 30
0.0
 11
2375.0
 21
750.0
 31
0.0
  0
LINE
  5
1FD5
  8
4
 10
4125.0
 20
1250.0
 30
0.0
 11
4125.0
 21
750.0
 31
0.0
  0
TEXT
  5
1FD6
  8
4
 10
3423.9831957167189
 20
5958.5721033312893
 30
0.0
 40
134.99999999999989
  1
縮尺：1/25
  0
TEXT
  5
1FD7
  8
4
 10
3672.4238981232238
 20
6765.1527037382721
 30
0.0
 40
140.0
  1
No.
  0
LINE
  5
1FD8
  8
4
 10
4625.0
 20
6703.1589578135026
 30
0.0
 11
3601.543555899661
 21
6703.1589578135026
 31
0.0
  0
LINE
  5
1FD9
  8
4
 10
3601.543555899661
 20
6966.6306538743811
 30
0.0
 11
4625.0
 21
6966.6306538743811
 31
0.0
  0
LINE
  5
1FDA
  8
4
 10
3601.543555899661
 20
6703.1589578135026
 30
0.0
 11
3601.543555899661
 21
6966.6306538743811
 31
0.0
  0
LINE
  5
1FDB
  8
4
 10
4625.0
 20
6673.5218856620122
 30
0.0
 11
4625.0
 21
6173.5218856620122
 31
0.0
  0
LINE
  5
1FDC
  8
4
 10
4625.0
 20
6966.6306538743811
 30
0.0
 11
4625.0
 21
6703.1589578135026
 31
0.0
  0
LINE
  5
1FDD
  8
4
 10
5250.0
 20
7375.0
 30
0.0
 11
5250.0
 21
0.0
 31
0.0
  0
LINE
  5
1FDE
  8
4
 10
5250.0
 20
7375.0
 30
0.0
 11
5250.0
 21
7375.0
 31
0.0
  0
LINE
  5
2194
  8
2
  6
CENTER
 10
597.74334313682994
 20
3362.2365768750901
 30
0.0
 11
2028.611549493816
 21
3362.2365768750901
 31
0.0
  0
LINE
  5
2195
  8
2
  6
CENTER
 10
3674.1554545707559
 20
2385.1658191853671
 30
0.0
 11
3674.1554545707559
 21
4333.6759412941756
 31
0.0
  0
LINE
  5
2196
  8
2
  6
CENTER
 10
2728.2963534517262
 20
3362.2365768750901
 30
0.0
 11
4620.014555689786
 21
3362.2365768750901
 31
0.0
  0
LINE
  5
223E
  8
1
 10
951.39767904549717
 20
4149.7365768750897
 30
0.0
 11
982.64767904549717
 21
3874.7365768750901
 31
0.0
  0
LINE
  5
223F
  8
1
 10
763.89767904549717
 20
4149.7365768750897
 30
0.0
 11
732.64767904549717
 21
3874.7365768750901
 31
0.0
  0
LINE
  5
2240
  8
1
  6
CONTINUOUS
 10
732.64767904549717
 20
2849.7365768750901
 30
0.0
 11
732.64767904549717
 21
3874.7365768750901
 31
0.0
  0
LINE
  5
2241
  8
1
  6
CONTINUOUS
 10
982.64767904549717
 20
2849.7365768750901
 30
0.0
 11
982.64767904549717
 21
3874.7365768750901
 31
0.0
  0
LINE
  5
2242
  8
1
 10
732.64767904549717
 20
3874.7365768750901
 30
0.0
 11
982.64767904549717
 21
3874.7365768750901
 31
0.0
  0
LINE
  5
2243
  8
1
 10
763.89767904549717
 20
4149.7365768750897
 30
0.0
 11
951.39767904549717
 21
4149.7365768750888
 31
0.0
  0
LINE
  5
2244
  8
1
 10
732.64767904549717
 20
2849.7365768750901
 30
0.0
 11
982.64767904549717
 21
2849.7365768750901
 31
0.0
  0
LINE
  5
2245
  8
1
 10
951.39767904549717
 20
2574.7365768750901
 30
0.0
 11
982.64767904549717
 21
2849.7365768750892
 31
0.0
  0
LINE
  5
2246
  8
1
 10
763.89767904549717
 20
2574.7365768750901
 30
0.0
 11
732.64767904549717
 21
2849.7365768750892
 31
0.0
  0
LINE
  5
2247
  8
1
 10
763.89767904549717
 20
2574.7365768750901
 30
0.0
 11
951.39767904549717
 21
2574.7365768750901
 31
0.0
  0
LINE
  5
2335
  8
SP
 10
733.04575089517004
 20
4865.641050191507
 30
0.0
 11
859.61808882685727
 21
4792.5644768146858
 31
0.0
  0
LINE
  5
2336
  8
SP
 10
1304.8384519948081
 20
4831.897051948441
 30
0.0
 11
607.11143500153185
 21
4831.897051948441
 31
0.0
  0
LINE
  5
2337
  8
SP
 10
607.11143500153185
 20
4831.897051948441
 30
0.0
 11
733.04575089517004
 21
4865.641050191507
 31
0.0
  0
DIMENSION
  5
2408
  8
SP
  2
*D2
 10
2974.1554545707568
 20
2190.9277802077659
 30
0.0
 11
3674.1554545707559
 21
2253.4277802077659
 31
0.0
 70
     0
 13
4374.1554545707559
 23
2452.2365768750901
 33
0.0
 14
2974.1554545707568
 24
2452.2365768750901
 34
0.0
  0
DIMENSION
  5
2415
  8
SP
  2
*D3
 10
4810.2993720666709
 20
3362.2365768750901
 30
0.0
 11
4747.79937206667
 21
2907.2365768750901
 31
0.0
 70
     0
 13
4374.1554545707559
 23
2452.2365768750901
 33
0.0
 14
4620.014555689786
 24
3362.2365768750901
 34
0.0
 50
90.0
  0
LINE
  5
2424
  8
FUTO
 10
680.8234322960451
 20
4212.2365768750897
 30
0.0
 11
680.82343229604487
 21
2512.2365768750901
 31
0.0
  0
LINE
  5
2425
  8
FUTO
 10
1980.823432296045
 20
4212.2365768750897
 30
0.0
 11
1980.823432296045
 21
2512.2365768750901
 31
0.0
  0
LINE
  5
2426
  8
FUTO
 10
1980.823432296045
 20
4162.2365768750897
 30
0.0
 11
680.8234322960451
 21
4162.2365768750897
 31
0.0
  0
LINE
  5
2427
  8
FUTO
 10
1980.823432296045
 20
2562.2365768750901
 30
0.0
 11
680.8234322960451
 21
2562.2365768750901
 31
0.0
  0
LINE
  5
2429
  8
FUTO
 10
686.82343229604464
 20
2452.2365768750901
 30
0.0
 11
1974.823432296045
 21
2452.2365768750901
 31
0.0
  0
LINE
  5
242B
  8
FUTO
 10
1974.8234322960441
 20
2862.236576875091
 30
0.0
 11
1974.823432296045
 21
2452.2365768750901
 31
0.0
  0
LINE
  5
242D
  8
FUTO
 10
686.82343229604487
 20
2862.236576875091
 30
0.0
 11
686.82343229604464
 21
2452.2365768750901
 31
0.0
  0
DIMENSION
  5
242E
  8
SP
  2
*D4
 10
1980.823432296045
 20
4447.9657495649553
 30
0.0
 11
1330.823432296045
 21
4510.4657495649553
 31
0.0
 70
     0
 13
680.8234322960451
 23
4212.2365768750897
 33
0.0
 14
1980.823432296045
 24
4212.2365768750897
 34
0.0
  0
DIMENSION
  5
243B
  8
SP
  2
*D5
 10
2226.9620909056748
 20
2562.2365768750901
 30
0.0
 11
2164.4620909056748
 21
3362.2365768750901
 31
0.0
 70
     0
 13
1980.823432296045
 23
4162.2365768750897
 33
0.0
 14
1974.823432296045
 24
2562.2365768750901
 34
0.0
 50
90.0
1001
ACAD
1000
DSTYLE
1002
{
1070
     3
1000
φ<>
1002
}
  0
CIRCLE
  5
2473
  8
FUTO
 10
3674.1554545707559
 20
3362.2365768750901
 30
0.0
 40
800.0
  0
CIRCLE
  5
2474
  8
FUTO
 10
3674.1554545707559
 20
3362.2365768750901
 30
0.0
 40
865.0
  0
LINE
  5
2475
  8
FUTO
 10
2974.1554545707568
 20
2452.2365768750901
 30
0.0
 11
4374.1554545707559
 21
2452.2365768750901
 31
0.0
  0
LINE
  5
2476
  8
FUTO
 10
2974.1554545707568
 20
2452.2365768750901
 30
0.0
 11
2974.155454570755
 21
2854.0781370160239
 31
0.0
  0
LINE
  5
2477
  8
FUTO
 10
4374.1554545707559
 20
2452.2365768750901
 30
0.0
 11
4374.1554545707559
 21
2854.0781370160239
 31
0.0
  0
DIMENSION
  5
24B1
  8
SP
  2
*D6
 10
4539.1554545707568
 20
4447.9657495649553
 30
0.0
 11
3674.1554545707559
 21
4510.4657495649553
 31
0.0
 70
     0
 13
2809.1554545707559
 23
3362.2365768750901
 33
0.0
 14
4539.1554545707568
 24
3362.2365768750901
 34
0.0
  0
ENDSEC
  0
EOF
