  0
SECTION
  2
HEADER
  9
$ACADVER
  1
AC1009
  9
$INSBASE
 10
0.0
 20
0.0
 30
0.0
  9
$EXTMIN
 10
981.57995253702393
 20
196.1538952045411
 30
0.0
  9
$EXTMAX
 10
8331.5799525370239
 20
10521.153895204539
 30
0.0
  9
$LIMMIN
 10
0.0
 20
0.0
  9
$LIMMAX
 10
297.0
 20
210.0
  9
$ORTHOMODE
 70
     0
  9
$REGENMODE
 70
     1
  9
$FILLMODE
 70
     0
  9
$QTEXTMODE
 70
     0
  9
$MIRRTEXT
 70
     1
  9
$DRAGMODE
 70
     2
  9
$LTSCALE
 40
100.0
  9
$OSMODE
 70
    37
  9
$ATTMODE
 70
     1
  9
$TEXTSIZE
 40
180.0
  9
$TRACEWID
 40
0.05
  9
$TEXTSTYLE
  7
STANDARD
  9
$CLAYER
  8
3
  9
$CELTYPE
  6
BYLAYER
  9
$CECOLOR
 62
   256
  9
$DIMSCALE
 40
35.0
  9
$DIMASZ
 40
2.0
  9
$DIMEXO
 40
0.5
  9
$DIMDLI
 40
10.0
  9
$DIMRND
 40
0.0
  9
$DIMDLE
 40
0.0
  9
$DIMEXE
 40
1.0
  9
$DIMTP
 40
1.0
  9
$DIMTM
 40
1.0
  9
$DIMTXT
 40
3.0
  9
$DIMCEN
 40
0.0
  9
$DIMTSZ
 40
0.0
  9
$DIMTOL
 70
     0
  9
$DIMLIM
 70
     0
  9
$DIMTIH
 70
     0
  9
$DIMTOH
 70
     0
  9
$DIMSE1
 70
     0
  9
$DIMSE2
 70
     0
  9
$DIMTAD
 70
     1
  9
$DIMZIN
 70
     8
  9
$DIMBLK
  1

  9
$DIMASO
 70
     1
  9
$DIMSHO
 70
     1
  9
$DIMPOST
  1

  9
$DIMAPOST
  1

  9
$DIMALT
 70
     0
  9
$DIMALTD
 70
     2
  9
$DIMALTF
 40
0.039
  9
$DIMLFAC
 40
1.0
  9
$DIMTOFL
 70
     0
  9
$DIMTVP
 40
0.0
  9
$DIMTIX
 70
     0
  9
$DIMSOXD
 70
     0
  9
$DIMSAH
 70
     1
  9
$DIMBLK1
  1
OPEN
  9
$DIMBLK2
  1
OPEN
  9
$DIMSTYLE
  2
IGA
  9
$DIMCLRD
 70
     0
  9
$DIMCLRE
 70
     0
  9
$DIMCLRT
 70
     0
  9
$DIMTFAC
 40
10.0
  9
$DIMGAP
 40
1.0
  9
$LUNITS
 70
     2
  9
$LUPREC
 70
     3
  9
$SKETCHINC
 40
0.1
  9
$FILLETRAD
 40
500.0
  9
$AUNITS
 70
     0
  9
$AUPREC
 70
     0
  9
$MENU
  1
acad
  9
$ELEVATION
 40
0.0
  9
$PELEVATION
 40
0.0
  9
$THICKNESS
 40
0.0
  9
$LIMCHECK
 70
     0
  9
$BLIPMODE
 70
     0
  9
$CHAMFERA
 40
0.5
  9
$CHAMFERB
 40
0.5
  9
$SKPOLY
 70
     0
  9
$TDCREATE
 40
2452571.4627275462
  9
$TDUPDATE
 40
2454953.6361085759
  9
$TDINDWG
 40
0.0966131713
  9
$TDUSRTIMER
 40
0.0966131713
  9
$USRTIMER
 70
     1
  9
$ANGBASE
 50
0.0
  9
$ANGDIR
 70
     0
  9
$PDMODE
 70
     0
  9
$PDSIZE
 40
0.0
  9
$PLINEWID
 40
0.0
  9
$COORDS
 70
     1
  9
$SPLFRAME
 70
     0
  9
$SPLINETYPE
 70
     6
  9
$SPLINESEGS
 70
     8
  9
$ATTDIA
 70
     0
  9
$ATTREQ
 70
     1
  9
$HANDLING
 70
 10241
  9
$HANDSEED
  5
96E2
  9
$SURFTAB1
 70
     6
  9
$SURFTAB2
 70
     6
  9
$SURFTYPE
 70
     6
  9
$SURFU
 70
     6
  9
$SURFV
 70
     6
  9
$UCSNAME
  2

  9
$UCSORG
 10
0.0
 20
0.0
 30
0.0
  9
$UCSXDIR
 10
1.0
 20
0.0
 30
0.0
  9
$UCSYDIR
 10
0.0
 20
1.0
 30
0.0
  9
$PUCSNAME
  2

  9
$PUCSORG
 10
0.0
 20
0.0
 30
0.0
  9
$PUCSXDIR
 10
1.0
 20
0.0
 30
0.0
  9
$PUCSYDIR
 10
0.0
 20
1.0
 30
0.0
  9
$USERI1
 70
     0
  9
$USERI2
 70
     0
  9
$USERI3
 70
     0
  9
$USERI4
 70
     0
  9
$USERI5
 70
     0
  9
$USERR1
 40
0.0
  9
$USERR2
 40
0.0
  9
$USERR3
 40
0.0
  9
$USERR4
 40
0.0
  9
$USERR5
 40
0.0
  9
$WORLDVIEW
 70
     1
  9
$SHADEDGE
 70
     3
  9
$SHADEDIF
 70
    70
  9
$TILEMODE
 70
     1
  9
$MAXACTVP
 70
    16
  9
$PLIMCHECK
 70
     0
  9
$PEXTMIN
 10
1.0000000000000000E+020
 20
1.0000000000000000E+020
 30
1.0000000000000000E+020
  9
$PEXTMAX
 10
-1.0000000000000000E+020
 20
-1.0000000000000000E+020
 30
-1.0000000000000000E+020
  9
$PLIMMIN
 10
0.0
 20
0.0
  9
$PLIMMAX
 10
12.0
 20
9.0
  9
$UNITMODE
 70
     0
  9
$VISRETAIN
 70
     0
  9
$PLINEGEN
 70
     0
  9
$PSLTSCALE
 70
     1
  0
ENDSEC
  0
SECTION
  2
TABLES
  0
TABLE
  2
VPORT
 70
     2
  0
VPORT
  2
*ACTIVE
 70
     0
 10
0.0
 20
0.0
 11
1.0
 21
1.0
 12
7905.3005207327196
 22
1359.1817697224431
 13
0.0
 23
0.0
 14
10.0
 24
10.0
 15
10.0
 25
10.0
 16
0.0
 26
0.0
 36
1.0
 17
0.0
 27
0.0
 37
0.0
 40
3077.5807632321821
 41
3.1666666666666661
 42
50.0
 43
0.0
 44
0.0
 50
0.0
 51
0.0
 71
     0
 72
   100
 73
     1
 74
     0
 75
     0
 76
     0
 77
     0
 78
     0
  0
ENDTAB
  0
TABLE
  2
LTYPE
 70
     3
  0
LTYPE
  2
CONTINUOUS
 70
     0
  3
Solid line
 72
    65
 73
     0
 40
0.0
  0
LTYPE
  2
CENTER
 70
     0
  3
____ _ ____ _ ____ _ ____ _ ____ _ ____ _ ____ 
 72
    65
 73
     4
 40
2.0
 49
1.25
 49
-0.25
 49
0.25
 49
-0.25
  0
LTYPE
  2
HIDDEN
 70
     0
  3
__ __ __ __ __ __ __ __ __ __ __ __ __ __ __ __
 72
    65
 73
     2
 40
0.375
 49
0.25
 49
-0.125
  0
ENDTAB
  0
TABLE
  2
LAYER
 70
     7
  0
LAYER
  2
0
 70
     0
 62
     7
  6
CONTINUOUS
  0
LAYER
  2
3
 70
     0
 62
     2
  6
CONTINUOUS
  0
LAYER
  2
4
 70
     0
 62
     7
  6
CONTINUOUS
  0
LAYER
  2
DEFPOINTS
 70
     0
 62
     7
  6
CONTINUOUS
  0
LAYER
  2
CT
 70
     0
 62
     3
  6
CENTER
  0
LAYER
  2
FUTO
 70
     0
 62
     4
  6
CONTINUOUS
  0
LAYER
  2
KL
 70
     0
 62
     7
  6
HIDDEN
  0
ENDTAB
  0
TABLE
  2
STYLE
 70
     1
  0
STYLE
  2
STANDARD
 70
     0
 40
0.0
 41
1.0
 50
0.0
 71
     0
 42
180.0
  3
simplex.shx
  4
extfont.shx
  0
ENDTAB
  0
TABLE
  2
VIEW
 70
     0
  0
ENDTAB
  0
TABLE
  2
UCS
 70
     0
  0
ENDTAB
  0
TABLE
  2
APPID
 70
     1
  0
APPID
  2
ACAD
 70
     0
  0
ENDTAB
  0
TABLE
  2
DIMSTYLE
 70
     1
  0
DIMSTYLE
  2
IGA
 70
     0
  3

  4

  5

  6
OPEN
  7
OPEN
 40
2.0
 41
2.0
 42
0.5
 43
10.0
 44
1.0
 45
0.0
 46
0.0
 47
1.0
 48
1.0
140
3.0
141
0.0
142
0.0
143
0.03937
144
1.0
145
0.0
146
10.0
147
1.0
 71
     0
 72
     0
 73
     0
 74
     0
 75
     0
 76
     0
 77
     1
 78
     8
170
     0
171
     2
172
     0
173
     1
174
     0
175
     0
176
     0
177
     0
178
     0
  0
ENDTAB
  0
ENDSEC
  0
SECTION
  2
BLOCKS
  0
BLOCK
  8
0
  2
$MODEL_SPACE
 70
     0
 10
0.0
 20
0.0
 30
0.0
  3
$MODEL_SPACE
  1

  0
ENDBLK
  5
1B
  8
0
  0
BLOCK
 67
     1
  8
0
  2
$PAPER_SPACE
 70
     0
 10
0.0
 20
0.0
 30
0.0
  3
$PAPER_SPACE
  1

  0
ENDBLK
  5
18
 67
     1
  8
0
  0
BLOCK
  8
0
  2
_OPEN
 70
     0
 10
0.0
 20
0.0
 30
0.0
  3
_OPEN
  1

  0
LINE
  5
79FD
  8
0
  6
BYBLOCK
 62
     0
 10
-1.0
 20
0.1666666666666666
 30
0.0
 11
0.0
 21
0.0
 31
0.0
  0
LINE
  5
79FE
  8
0
  6
BYBLOCK
 62
     0
 10
0.0
 20
0.0
 30
0.0
 11
-1.0
 21
-0.1666666666666666
 31
0.0
  0
LINE
  5
79FF
  8
0
  6
BYBLOCK
 62
     0
 10
0.0
 20
0.0
 30
0.0
 11
-1.0
 21
0.0
 31
0.0
  0
ENDBLK
  5
7A01
  8
0
  0
BLOCK
  8
0
  2
*D1
 70
     1
 10
0.0
 20
0.0
 30
0.0
  3
*D1
  1

  0
LINE
  5
9672
  8
3
 62
     0
 10
1810.554413298607
 20
6119.2758350898794
 30
0.0
 11
1586.697290647855
 21
6119.2758350898794
 31
0.0
  0
LINE
  5
9673
  8
3
 62
     0
 10
1810.5544132986061
 20
5369.2758350898794
 30
0.0
 11
1586.6972906478541
 21
5369.2758350898794
 31
0.0
  0
LINE
  5
9674
  8
3
 62
     0
 10
1621.697290647855
 20
6049.2758350898794
 30
0.0
 11
1621.697290647855
 21
5439.2758350898803
 31
0.0
  0
INSERT
  5
9675
  8
3
 62
     0
  2
_OPEN
 10
1621.697290647855
 20
6119.2758350898794
 30
0.0
 41
70.0
 42
70.0
 43
70.0
 50
90.0
  0
INSERT
  5
9676
  8
3
 62
     0
  2
_OPEN
 10
1621.697290647855
 20
5369.2758350898794
 30
0.0
 41
70.0
 42
70.0
 43
70.0
 50
270.0
  0
TEXT
  8
3
  40
105
  5
96D7
  62
0
  72
0
  71
0
 10
1324.20
 20
5558.43
 30
0.000000
  1
750
  0
POINT
  5
9678
  8
DEFPOINTS
 62
     0
 10
1828.054413298607
 20
6119.2758350898794
 30
0.0
  0
POINT
  5
9679
  8
DEFPOINTS
 62
     0
 10
1828.0544132986061
 20
5369.2758350898794
 30
0.0
  0
POINT
  5
967A
  8
DEFPOINTS
 62
     0
 10
1621.697290647855
 20
5369.2758350898794
 30
0.0
  0
ENDBLK
  5
93A3
  8
0
  0
BLOCK
  8
0
  2
*D2
 70
     1
 10
0.0
 20
0.0
 30
0.0
  3
*D2
  1

  0
LINE
  5
967B
  8
3
 62
     0
 10
1810.5544132986061
 20
5369.2758350898794
 30
0.0
 11
1586.697290647855
 21
5369.2758350898794
 31
0.0
  0
LINE
  5
967C
  8
3
 62
     0
 10
2306.0544132986061
 20
4339.2758350898794
 30
0.0
 11
1586.6972906478541
 21
4339.2758350898803
 31
0.0
  0
LINE
  5
967D
  8
3
 62
     0
 10
1621.697290647855
 20
5299.2758350898794
 30
0.0
 11
1621.697290647855
 21
4409.2758350898803
 31
0.0
  0
INSERT
  5
967E
  8
3
 62
     0
  2
_OPEN
 10
1621.697290647855
 20
5369.2758350898794
 30
0.0
 41
70.0
 42
70.0
 43
70.0
 50
90.0
  0
INSERT
  5
967F
  8
3
 62
     0
  2
_OPEN
 10
1621.697290647855
 20
4339.2758350898803
 30
0.0
 41
70.0
 42
70.0
 43
70.0
 50
270.0
  0
TEXT
  8
3
  40
105
  5
96D8
  62
0
  72
0
  71
0
 10
1324.20
 20
4668.43
 30
0.000000
  1
1030
  0
POINT
  5
9681
  8
DEFPOINTS
 62
     0
 10
1828.0544132986061
 20
5369.2758350898794
 30
0.0
  0
POINT
  5
9682
  8
DEFPOINTS
 62
     0
 10
2323.554413298607
 20
4339.2758350898794
 30
0.0
  0
POINT
  5
9683
  8
DEFPOINTS
 62
     0
 10
1621.697290647855
 20
4339.2758350898803
 30
0.0
  0
ENDBLK
  5
93B0
  8
0
  0
BLOCK
  8
0
  2
*D3
 70
     1
 10
0.0
 20
0.0
 30
0.0
  3
*D3
  1

  0
LINE
  5
9684
  8
3
 62
     0
 10
2306.0544132986061
 20
4339.2758350898794
 30
0.0
 11
1586.697290647855
 21
4339.2758350898803
 31
0.0
  0
LINE
  5
9685
  8
3
 62
     0
 10
2306.0544132986061
 20
4189.2758350898794
 30
0.0
 11
1586.697290647855
 21
4189.2758350898803
 31
0.0
  0
LINE
  5
9686
  8
3
 62
     0
 10
1621.697290647855
 20
4409.2758350898803
 30
0.0
 11
1621.697290647855
 21
4479.2758350898803
 31
0.0
  0
LINE
  5
9687
  8
3
 62
     0
 10
1621.697290647855
 20
4119.2758350898803
 30
0.0
 11
1621.697290647855
 21
3729.2758350898798
 31
0.0
  0
INSERT
  5
9688
  8
3
 62
     0
  2
_OPEN
 10
1621.697290647855
 20
4339.2758350898803
 30
0.0
 41
70.0
 42
70.0
 43
70.0
 50
270.0
  0
INSERT
  5
9689
  8
3
 62
     0
  2
_OPEN
 10
1621.697290647855
 20
4189.2758350898803
 30
0.0
 41
70.0
 42
70.0
 43
70.0
 50
90.0
  0
TEXT
  8
3
  40
105
  5
96D9
  62
0
  72
0
  71
0
 10
1324.20
 20
3703.43
 30
0.000000
  1
150
  0
POINT
  5
968B
  8
DEFPOINTS
 62
     0
 10
2323.554413298607
 20
4339.2758350898794
 30
0.0
  0
POINT
  5
968C
  8
DEFPOINTS
 62
     0
 10
2323.554413298607
 20
4189.2758350898794
 30
0.0
  0
POINT
  5
968D
  8
DEFPOINTS
 62
     0
 10
1621.697290647855
 20
4189.2758350898803
 30
0.0
  0
ENDBLK
  5
93BE
  8
0
  0
BLOCK
  8
0
  2
*D4
 70
     1
 10
0.0
 20
0.0
 30
0.0
  3
*D4
  1

  0
LINE
  5
968E
  8
3
 62
     0
 10
1810.554413298607
 20
6119.2758350898794
 30
0.0
 11
1280.697501299815
 21
6119.2758350898794
 31
0.0
  0
LINE
  5
968F
  8
3
 62
     0
 10
2306.0544132986061
 20
4189.2758350898794
 30
0.0
 11
1280.697501299815
 21
4189.2758350898803
 31
0.0
  0
LINE
  5
9690
  8
3
 62
     0
 10
1315.697501299815
 20
6049.2758350898794
 30
0.0
 11
1315.697501299815
 21
4259.2758350898803
 31
0.0
  0
INSERT
  5
9691
  8
3
 62
     0
  2
_OPEN
 10
1315.697501299815
 20
6119.2758350898794
 30
0.0
 41
70.0
 42
70.0
 43
70.0
 50
90.0
  0
INSERT
  5
9692
  8
3
 62
     0
  2
_OPEN
 10
1315.697501299815
 20
4189.2758350898803
 30
0.0
 41
70.0
 42
70.0
 43
70.0
 50
270.0
  0
TEXT
  8
3
  40
105
  5
96DA
  62
0
  72
0
  71
0
 10
1018.20
 20
4968.43
 30
0.000000
  1
1930
  0
POINT
  5
9694
  8
DEFPOINTS
 62
     0
 10
1828.054413298607
 20
6119.2758350898794
 30
0.0
  0
POINT
  5
9695
  8
DEFPOINTS
 62
     0
 10
2323.554413298607
 20
4189.2758350898794
 30
0.0
  0
POINT
  5
9696
  8
DEFPOINTS
 62
     0
 10
1315.697501299815
 20
4189.2758350898803
 30
0.0
  0
ENDBLK
  5
93CB
  8
0
  0
BLOCK
  8
0
  2
*D5
 70
     1
 10
0.0
 20
0.0
 30
0.0
  3
*D5
  1

  0
LINE
  5
9697
  8
3
 62
     0
 10
2528.0544132986061
 20
4201.7758350898794
 30
0.0
 11
2528.0544132986061
 21
3826.754562094317
 31
0.0
  0
LINE
  5
9698
  8
3
 62
     0
 10
3928.054413298607
 20
4201.7758350898794
 30
0.0
 11
3928.054413298607
 21
3826.754562094317
 31
0.0
  0
LINE
  5
9699
  8
3
 62
     0
 10
2598.054413298607
 20
3861.754562094317
 30
0.0
 11
3858.0544132986061
 21
3861.754562094317
 31
0.0
  0
INSERT
  5
969A
  8
3
 62
     0
  2
_OPEN
 10
2528.0544132986061
 20
3861.754562094317
 30
0.0
 41
70.0
 42
70.0
 43
70.0
 50
180.0
  0
INSERT
  5
969B
  8
3
 62
     0
  2
_OPEN
 10
3928.054413298607
 20
3861.754562094317
 30
0.0
 41
70.0
 42
70.0
 43
70.0
  0
TEXT
  8
3
  40
105
  5
96DB
  62
0
  72
0
  71
0
 10
3018.05
 20
3763.40
 30
0.000000
  1
1400
  0
POINT
  5
969D
  8
DEFPOINTS
 62
     0
 10
2528.0544132986061
 20
4219.2758350898794
 30
0.0
  0
POINT
  5
969E
  8
DEFPOINTS
 62
     0
 10
3928.054413298607
 20
4219.2758350898794
 30
0.0
  0
POINT
  5
969F
  8
DEFPOINTS
 62
     0
 10
3928.054413298607
 20
3861.754562094317
 30
0.0
  0
ENDBLK
  5
9422
  8
0
  0
BLOCK
  8
0
  2
*D6
 70
     1
 10
0.0
 20
0.0
 30
0.0
  3
*D6
  1

  0
LINE
  5
96A0
  8
3
 62
     0
 10
2328.054413298607
 20
4171.7758350898803
 30
0.0
 11
2328.054413298607
 21
3525.2766899783119
 31
0.0
  0
LINE
  5
96A1
  8
3
 62
     0
 10
4128.054413298607
 20
4171.7758350898803
 30
0.0
 11
4128.054413298607
 21
3525.2766899783119
 31
0.0
  0
LINE
  5
96A2
  8
3
 62
     0
 10
2398.054413298607
 20
3560.2766899783119
 30
0.0
 11
4058.054413298607
 21
3560.2766899783119
 31
0.0
  0
INSERT
  5
96A3
  8
3
 62
     0
  2
_OPEN
 10
2328.054413298607
 20
3560.2766899783119
 30
0.0
 41
70.0
 42
70.0
 43
70.0
 50
180.0
  0
INSERT
  5
96A4
  8
3
 62
     0
  2
_OPEN
 10
4128.054413298607
 20
3560.2766899783119
 30
0.0
 41
70.0
 42
70.0
 43
70.0
  0
TEXT
  8
3
  40
105
  5
96DC
  62
0
  72
0
  71
0
 10
3018.05
 20
3461.93
 30
0.000000
  1
1800
  0
POINT
  5
96A6
  8
DEFPOINTS
 62
     0
 10
2328.054413298607
 20
4189.2758350898794
 30
0.0
  0
POINT
  5
96A7
  8
DEFPOINTS
 62
     0
 10
4128.054413298607
 20
4189.2758350898794
 30
0.0
  0
POINT
  5
96A8
  8
DEFPOINTS
 62
     0
 10
4128.054413298607
 20
3560.2766899783119
 30
0.0
  0
ENDBLK
  5
942F
  8
0
  0
BLOCK
  8
0
  2
*D7
 70
     1
 10
0.0
 20
0.0
 30
0.0
  3
*D7
  1

  0
LINE
  5
96A9
  8
3
 62
     0
 10
1828.054413298607
 20
6136.7758350898803
 30
0.0
 11
1828.054413298607
 21
6556.283026671048
 31
0.0
  0
LINE
  5
96AA
  8
3
 62
     0
 10
4628.054413298607
 20
6136.7758350898803
 30
0.0
 11
4628.054413298607
 21
6556.283026671048
 31
0.0
  0
LINE
  5
96AB
  8
3
 62
     0
 10
1898.054413298607
 20
6521.283026671048
 30
0.0
 11
4558.054413298607
 21
6521.283026671048
 31
0.0
  0
INSERT
  5
96AC
  8
3
 62
     0
  2
_OPEN
 10
1828.054413298607
 20
6521.283026671048
 30
0.0
 41
70.0
 42
70.0
 43
70.0
 50
180.0
  0
INSERT
  5
96AD
  8
3
 62
     0
  2
_OPEN
 10
4628.054413298607
 20
6521.283026671048
 30
0.0
 41
70.0
 42
70.0
 43
70.0
  0
TEXT
  8
3
  40
105
  5
96DD
  62
0
  72
0
  71
0
 10
3018.05
 20
6422.93
 30
0.000000
  1
2800
  0
POINT
  5
96AF
  8
DEFPOINTS
 62
     0
 10
1828.054413298607
 20
6119.2758350898794
 30
0.0
  0
POINT
  5
96B0
  8
DEFPOINTS
 62
     0
 10
4628.054413298607
 20
6119.2758350898794
 30
0.0
  0
POINT
  5
96B1
  8
DEFPOINTS
 62
     0
 10
4628.054413298607
 20
6521.283026671048
 30
0.0
  0
ENDBLK
  5
943C
  8
0
  0
BLOCK
  8
0
  2
*D8
 70
     1
 10
0.0
 20
0.0
 30
0.0
  3
*D8
  1

  0
LINE
  5
96B2
  8
3
 62
     0
 10
5328.054413298607
 20
5661.3088214659047
 30
0.0
 11
5328.054413298607
 21
6513.6177343552454
 31
0.0
  0
LINE
  5
96B3
  8
3
 62
     0
 10
8128.0544132986061
 20
5661.3088214659047
 30
0.0
 11
8128.0544132986061
 21
6513.6177343552454
 31
0.0
  0
LINE
  5
96B4
  8
3
 62
     0
 10
5398.054413298607
 20
6478.6177343552454
 30
0.0
 11
8058.0544132986079
 21
6478.6177343552454
 31
0.0
  0
INSERT
  5
96B5
  8
3
 62
     0
  2
_OPEN
 10
5328.054413298607
 20
6478.6177343552454
 30
0.0
 41
70.0
 42
70.0
 43
70.0
 50
180.0
  0
INSERT
  5
96B6
  8
3
 62
     0
  2
_OPEN
 10
8128.0544132986061
 20
6478.6177343552454
 30
0.0
 41
70.0
 42
70.0
 43
70.0
  0
TEXT
  8
3
  40
105
  5
96DE
  62
0
  72
0
  71
0
 10
6518.05
 20
6380.27
 30
0.000000
  1
2800
  0
POINT
  5
96B8
  8
DEFPOINTS
 62
     0
 10
5328.054413298607
 20
5643.8088214659047
 30
0.0
  0
POINT
  5
96B9
  8
DEFPOINTS
 62
     0
 10
8128.0544132986061
 20
5643.8088214659047
 30
0.0
  0
POINT
  5
96BA
  8
DEFPOINTS
 62
     0
 10
8128.0544132986061
 20
6478.6177343552454
 30
0.0
  0
ENDBLK
  5
9449
  8
0
  0
BLOCK
  8
0
  2
*D9
 70
     1
 10
0.0
 20
0.0
 30
0.0
  3
*D9
  1

  0
LINE
  5
96BB
  8
3
 62
     0
 10
6028.054413298607
 20
4201.7758350898794
 30
0.0
 11
6028.054413298607
 21
3829.6417858277991
 31
0.0
  0
LINE
  5
96BC
  8
3
 62
     0
 10
7428.054413298607
 20
4201.7758350898794
 30
0.0
 11
7428.054413298607
 21
3829.6417858277991
 31
0.0
  0
LINE
  5
96BD
  8
3
 62
     0
 10
6098.054413298607
 20
3864.6417858277991
 30
0.0
 11
7358.054413298607
 21
3864.6417858277991
 31
0.0
  0
INSERT
  5
96BE
  8
3
 62
     0
  2
_OPEN
 10
6028.054413298607
 20
3864.6417858277991
 30
0.0
 41
70.0
 42
70.0
 43
70.0
 50
180.0
  0
INSERT
  5
96BF
  8
3
 62
     0
  2
_OPEN
 10
7428.054413298607
 20
3864.6417858277991
 30
0.0
 41
70.0
 42
70.0
 43
70.0
  0
TEXT
  8
3
  40
105
  5
96DF
  62
0
  72
0
  71
0
 10
6518.05
 20
3766.29
 30
0.000000
  1
1400
  0
POINT
  5
96C1
  8
DEFPOINTS
 62
     0
 10
6028.054413298607
 20
4219.2758350898794
 30
0.0
  0
POINT
  5
96C2
  8
DEFPOINTS
 62
     0
 10
7428.054413298607
 20
4219.2758350898794
 30
0.0
  0
POINT
  5
96C3
  8
DEFPOINTS
 62
     0
 10
7428.054413298607
 20
3864.6417858277991
 30
0.0
  0
ENDBLK
  5
9464
  8
0
  0
BLOCK
  8
0
  2
*D10
 70
     1
 10
0.0
 20
0.0
 30
0.0
  3
*D10
  1

  0
LINE
  5
96C4
  8
3
 62
     0
 10
5828.054413298607
 20
4171.7758350898803
 30
0.0
 11
5828.054413298607
 21
3507.0063972344828
 31
0.0
  0
LINE
  5
96C5
  8
3
 62
     0
 10
7628.0544132986061
 20
4171.7758350898775
 30
0.0
 11
7628.0544132986061
 21
3507.0063972344828
 31
0.0
  0
LINE
  5
96C6
  8
3
 62
     0
 10
5898.054413298607
 20
3542.0063972344828
 30
0.0
 11
7558.0544132986079
 21
3542.0063972344828
 31
0.0
  0
INSERT
  5
96C7
  8
3
 62
     0
  2
_OPEN
 10
5828.054413298607
 20
3542.0063972344828
 30
0.0
 41
70.0
 42
70.0
 43
70.0
 50
180.0
  0
INSERT
  5
96C8
  8
3
 62
     0
  2
_OPEN
 10
7628.0544132986061
 20
3542.0063972344828
 30
0.0
 41
70.0
 42
70.0
 43
70.0
  0
TEXT
  8
3
  40
105
  5
96E0
  62
0
  72
0
  71
0
 10
6518.05
 20
3443.66
 30
0.000000
  1
1800
  0
POINT
  5
96CA
  8
DEFPOINTS
 62
     0
 10
5828.054413298607
 20
4189.2758350898794
 30
0.0
  0
POINT
  5
96CB
  8
DEFPOINTS
 62
     0
 10
7628.0544132986061
 20
4189.2758350898794
 30
0.0
  0
POINT
  5
96CC
  8
DEFPOINTS
 62
     0
 10
7628.0544132986061
 20
3542.0063972344828
 30
0.0
  0
ENDBLK
  5
9471
  8
0
  0
BLOCK
  8
0
  2
*D11
 70
     1
 10
0.0
 20
0.0
 30
0.0
  3
*D11
  1

  0
LINE
  5
96CD
  8
3
 62
     0
 10
2490.554413298607
 20
4239.2758350898803
 30
0.0
 11
1904.56588833758
 21
4239.2758350898803
 31
0.0
  0
LINE
  5
96CE
  8
3
 62
     0
 10
2306.0544132986061
 20
4189.2758350898794
 30
0.0
 11
1904.56588833758
 21
4189.2758350898803
 31
0.0
  0
LINE
  5
96CF
  8
3
 62
     0
 10
1939.5658883375791
 20
4309.2758350898803
 30
0.0
 11
1939.5658883375791
 21
4379.2758350898803
 31
0.0
  0
LINE
  5
96D0
  8
3
 62
     0
 10
1939.5658883375791
 20
4119.2758350898803
 30
0.0
 11
1939.5658883375791
 21
3809.2758350898789
 31
0.0
  0
INSERT
  5
96D1
  8
3
 62
     0
  2
_OPEN
 10
1939.5658883375791
 20
4239.2758350898803
 30
0.0
 41
70.0
 42
70.0
 43
70.0
 50
270.0
  0
INSERT
  5
96D2
  8
3
 62
     0
  2
_OPEN
 10
1939.5658883375791
 20
4189.2758350898803
 30
0.0
 41
70.0
 42
70.0
 43
70.0
 50
90.0
  0
TEXT
  8
3
  40
105
  5
96E1
  62
0
  72
0
  71
0
 10
1642.07
 20
3743.43
 30
0.000000
  1
50
  0
POINT
  5
96D4
  8
DEFPOINTS
 62
     0
 10
2508.054413298607
 20
4239.2758350898803
 30
0.0
  0
POINT
  5
96D5
  8
DEFPOINTS
 62
     0
 10
2323.554413298607
 20
4189.2758350898794
 30
0.0
  0
POINT
  5
96D6
  8
DEFPOINTS
 62
     0
 10
1939.5658883375791
 20
4189.2758350898803
 30
0.0
  0
ENDBLK
  5
9516
  8
0
  0
ENDSEC
  0
SECTION
  2
ENTITIES
  0
LINE
  5
7D25
  8
4
 10
7456.579952537023
 20
1946.153895204541
 30
0.0
 11
7456.579952537023
 21
1246.153895204541
 31
0.0
  0
LINE
  5
7D26
  8
4
 10
5006.579952537023
 20
1946.153895204541
 30
0.0
 11
5006.579952537023
 21
1246.153895204541
 31
0.0
  0
LINE
  5
7D27
  8
4
 10
3256.579952537023
 20
1946.153895204541
 30
0.0
 11
3256.579952537023
 21
1246.153895204541
 31
0.0
  0
LINE
  5
7D2A
  8
4
 10
3256.579952537023
 20
1246.153895204541
 30
0.0
 11
7456.579952537023
 21
1246.153895204541
 31
0.0
  0
LINE
  5
7D2B
  8
4
 10
3256.579952537023
 20
1596.153895204541
 30
0.0
 11
7456.579952537023
 21
1596.153895204541
 31
0.0
  0
TEXT
  5
7D2C
  8
4
 10
3391.3372355011788
 20
1706.554485737686
 30
0.0
 40
175.0
  1
機器名称
  0
TEXT
  5
7D2D
  8
4
 10
3383.4833236238151
 20
1321.911943766579
 30
0.0
 40
175.0
  1
機器型番
  0
TEXT
  5
7D2E
  8
4
 10
5103.4555617438509
 20
1675.1550865560309
 30
0.0
 40
175.0
  1
ミツヤ軸流排煙ファン
  0
TEXT
  5
7D2F
  8
4
 10
5134.8706870862052
 20
1306.212440184343
 30
0.0
 40
175.0
  1
APE#1400-3R
  0
TEXT
  5
7D31
  8
4
 10
4148.3301316680372
 20
8538.1548398683462
 30
0.0
 40
188.99999999999989
  1
床置ベット
  0
TEXT
  5
7D32
  8
4
 10
2088.1665291900858
 20
9064.7373119020849
 30
0.0
 40
252.0
  1
電動機直動立形軸流式排煙ファン
  0
LINE
  5
7D33
  8
4
 10
1856.579952537023
 20
8839.0845351313583
 30
0.0
 11
7456.579952537023
 21
8839.0845351313583
 31
0.0
  0
LINE
  5
7D34
  8
4
 10
1856.579952537023
 20
9539.0845351313583
 30
0.0
 11
7456.579952537023
 21
9539.0845351313583
 31
0.0
  0
LINE
  5
7D35
  8
4
 10
3256.579952537023
 20
1946.153895204541
 30
0.0
 11
7456.579952537023
 21
1946.153895204541
 31
0.0
  0
LINE
  5
7D36
  8
4
 10
1856.579952537023
 20
9539.0845351313583
 30
0.0
 11
1856.579952537023
 21
8839.0845351313583
 31
0.0
  0
TEXT
  5
7D37
  8
4
 10
2174.4265772723411
 20
8554.6369622831953
 30
0.0
 40
188.99999999999989
  1
左回転前方吐出
  0
TEXT
  5
7D38
  8
4
 10
6122.9734099095394
 20
9667.3676804381212
 30
0.0
 40
196.0
  1
No.
  0
TEXT
  5
7D39
  8
4
 10
5571.1161716370689
 20
8538.1548398683462
 30
0.0
 40
188.99999999999989
  1
縮尺：1/35
  0
LINE
  5
7D3A
  8
4
 10
7456.579952537023
 20
9539.0845351313583
 30
0.0
 11
7456.579952537023
 21
8839.0845351313583
 31
0.0
  0
LINE
  5
7D3B
  8
4
 10
8331.5799525370239
 20
10521.153895204539
 30
0.0
 11
8331.5799525370239
 21
10521.153895204539
 31
0.0
  0
LINE
  5
7D3C
  8
4
 10
6023.7409307965499
 20
9580.5764361434449
 30
0.0
 11
6023.7409307965499
 21
9949.4368106286747
 31
0.0
  0
LINE
  5
7D3D
  8
4
 10
6023.7409307965499
 20
9949.4368106286747
 30
0.0
 11
7456.579952537023
 21
9949.4368106286747
 31
0.0
  0
LINE
  5
7D3E
  8
4
 10
7456.579952537023
 20
9949.4368106286747
 30
0.0
 11
7456.579952537023
 21
9580.5764361434449
 31
0.0
  0
LINE
  5
7D3F
  8
4
 10
7456.579952537023
 20
9580.5764361434449
 30
0.0
 11
6023.7409307965499
 21
9580.5764361434449
 31
0.0
  0
LINE
  5
7D40
  8
4
 10
981.57995253702393
 20
196.1538952045411
 30
0.0
 11
981.57995253702393
 21
10521.153895204539
 31
0.0
  0
LINE
  5
7D41
  8
4
 10
981.57995253702393
 20
10521.153895204539
 30
0.0
 11
8331.5799525370239
 21
10521.153895204539
 31
0.0
  0
LINE
  5
7D42
  8
4
 10
8331.5799525370239
 20
10521.153895204539
 30
0.0
 11
8331.5799525370239
 21
196.1538952045411
 31
0.0
  0
LINE
  5
7D43
  8
4
 10
8331.5799525370239
 20
196.1538952045411
 30
0.0
 11
981.57995253702393
 21
196.1538952045411
 31
0.0
  0
LINE
  5
8C8E
  8
FUTO
 10
2661.8700343698961
 20
5213.2758350898803
 30
0.0
 11
2478.524796578336
 21
5469.2758350898812
 31
0.0
  0
LINE
  5
8C91
  8
FUTO
 10
2323.554413298607
 20
4339.2758350898794
 30
0.0
 11
4132.5544132986061
 21
4339.2758350898775
 31
0.0
  0
LINE
  5
8C92
  8
FUTO
 10
2323.554413298607
 20
4189.2758350898794
 30
0.0
 11
4132.5544132986061
 21
4189.2758350898794
 31
0.0
  0
LINE
  5
8C93
  8
KL
 10
2328.054413298607
 20
4325.2758350898794
 30
0.0
 11
4128.054413298607
 21
4325.2758350898794
 31
0.0
  0
LINE
  5
8C95
  8
KL
 10
2328.054413298607
 20
4319.2758350898794
 30
0.0
 11
4128.054413298607
 21
4319.2758350898794
 31
0.0
  0
LINE
  5
8C99
  8
FUTO
 10
4628.054413298607
 20
5469.2758350898812
 30
0.0
 11
1828.0544132986061
 21
5469.2758350898812
 31
0.0
  0
LINE
  5
8C9A
  8
FUTO
 10
1828.0544132986061
 20
6119.2758350898794
 30
0.0
 11
4628.054413298607
 21
6119.2758350898794
 31
0.0
  0
LINE
  5
8C9C
  8
KL
 10
2528.0544132986061
 20
5469.2758350898812
 30
0.0
 11
2528.0544132986061
 21
4319.2758350898794
 31
0.0
  0
LINE
  5
8C9D
  8
FUTO
 10
2522.054413298607
 20
5408.4966077992431
 30
0.0
 11
2522.054413298607
 21
4526.4293926527889
 31
0.0
  0
CIRCLE
  5
8CB2
  8
FUTO
 10
2528.0544132986061
 20
4239.2758350898803
 30
0.0
 40
12.5
  0
LINE
  5
8CB3
  8
CT
 10
2528.0544132986061
 20
4259.2758350898794
 30
0.0
 11
2528.0544132986061
 21
4219.2758350898794
 31
0.0
  0
LINE
  5
8CB4
  8
KL
 10
2328.054413298607
 20
4339.2758350898794
 30
0.0
 11
2328.054413298607
 21
4189.2758350898794
 31
0.0
  0
LINE
  5
8CB5
  8
FUTO
 10
2323.554413298607
 20
4339.2758350898794
 30
0.0
 11
2323.554413298607
 21
4189.2758350898794
 31
0.0
  0
LINE
  5
8CB6
  8
CT
 10
2508.054413298607
 20
4239.2758350898803
 30
0.0
 11
2548.0544132986061
 21
4239.2758350898803
 31
0.0
  0
LINE
  5
8CB7
  8
FUTO
 10
2328.054413298607
 20
4389.2758350898794
 30
0.0
 11
2328.0544132986079
 21
4339.2758350898794
 31
0.0
  0
LINE
  5
8CB9
  8
KL
 10
2478.054413298607
 20
4325.2758350898794
 30
0.0
 11
2478.054413298607
 21
4319.2758350898794
 31
0.0
  0
LINE
  5
8CBF
  8
FUTO
 10
1828.0544132986061
 20
5369.2758350898794
 30
0.0
 11
1828.054413298607
 21
6119.2758350898794
 31
0.0
  0
LINE
  5
8CC1
  8
FUTO
 10
1830.3544132986069
 20
5369.2758350898794
 30
0.0
 11
1830.3544132986069
 21
5469.2758350898812
 31
0.0
  0
LINE
  5
8CC2
  8
FUTO
 10
1830.3544132986069
 20
5369.2758350898803
 30
0.0
 11
1828.0544132986061
 21
5369.2758350898794
 31
0.0
  0
LINE
  5
8CC9
  8
FUTO
 10
2711.8700343698961
 20
4625.2758350898794
 30
0.0
 11
2711.8700343698961
 21
4365.7889485100668
 31
0.0
  0
LINE
  5
8CCA
  8
KL
 10
3928.0544132986088
 20
5469.2758350898812
 30
0.0
 11
3928.054413298607
 21
4319.2758350898794
 31
0.0
  0
LINE
  5
8CCB
  8
FUTO
 10
3934.054413298607
 20
5408.4966077992403
 30
0.0
 11
3934.054413298607
 21
4526.4293926527898
 31
0.0
  0
LINE
  5
8CCC
  8
CT
 10
3228.054413298607
 20
6219.2758350898794
 30
0.0
 11
3228.054413298607
 21
4140.0325055378444
 31
0.0
  0
LINE
  5
8CCE
  8
FUTO
 10
2781.8700343698979
 20
4370.6243898978682
 30
0.0
 11
3674.2387922273192
 21
4370.6243898978682
 31
0.0
  0
LINE
  5
8CD0
  8
CT
 10
3908.054413298607
 20
4239.2758350898803
 30
0.0
 11
3948.0544132986061
 21
4239.2758350898803
 31
0.0
  0
CIRCLE
  5
8CD2
  8
FUTO
 10
3928.054413298607
 20
4239.2758350898803
 30
0.0
 40
12.5
  0
LINE
  5
8CD3
  8
CT
 10
3928.054413298607
 20
4259.2758350898794
 30
0.0
 11
3928.054413298607
 21
4219.2758350898794
 31
0.0
  0
LINE
  5
8CD4
  8
FUTO
 10
4132.5544132986061
 20
4339.2758350898794
 30
0.0
 11
4132.5544132986061
 21
4189.2758350898794
 31
0.0
  0
LINE
  5
8CD5
  8
KL
 10
4128.054413298607
 20
4339.2758350898794
 30
0.0
 11
4128.054413298607
 21
4189.2758350898794
 31
0.0
  0
LINE
  5
8CD6
  8
FUTO
 10
4128.054413298607
 20
4389.2758350898794
 30
0.0
 11
4128.054413298607
 21
4339.2758350898794
 31
0.0
  0
LINE
  5
8CD8
  8
KL
 10
3978.054413298607
 20
4325.2758350898794
 30
0.0
 11
3978.054413298607
 21
4319.2758350898794
 31
0.0
  0
LINE
  5
8CDC
  8
FUTO
 10
2711.8700343698961
 20
4625.2758350898794
 30
0.0
 11
2661.8700343698961
 21
4625.2758350898794
 31
0.0
  0
LINE
  5
8CDD
  8
FUTO
 10
2711.8700343698961
 20
5213.2758350898803
 30
0.0
 11
2711.8700343698961
 21
5469.2758350898794
 31
0.0
  0
LINE
  5
8CDE
  8
FUTO
 10
2711.8700343698961
 20
5213.2758350898803
 30
0.0
 11
2661.8700343698961
 21
5213.2758350898803
 31
0.0
  0
LINE
  5
8CE0
  8
FUTO
 10
3794.2387922273192
 20
5213.2758350898803
 30
0.0
 11
3977.5840300188802
 21
5469.2758350898812
 31
0.0
  0
LINE
  5
8CE1
  8
FUTO
 10
3744.2387922273192
 20
5213.2758350898803
 30
0.0
 11
3744.2387922273192
 21
5469.2758350898794
 31
0.0
  0
LINE
  5
8CE2
  8
FUTO
 10
3744.2387922273192
 20
5213.2758350898803
 30
0.0
 11
3794.2387922273192
 21
5213.2758350898803
 31
0.0
  0
LINE
  5
8CE8
  8
FUTO
 10
4628.054413298607
 20
6119.2758350898794
 30
0.0
 11
4628.054413298607
 21
5369.2758350898794
 31
0.0
  0
LINE
  5
8CEB
  8
FUTO
 10
4625.7544132986068
 20
5469.2758350898812
 30
0.0
 11
4625.7544132986068
 21
5369.2758350898794
 31
0.0
  0
LINE
  5
8CEC
  8
FUTO
 10
4628.054413298607
 20
5369.2758350898794
 30
0.0
 11
4625.7544132986068
 21
5369.2758350898803
 31
0.0
  0
LINE
  5
8F7D
  8
FUTO
 10
4014.6564320227922
 20
4974.2758350898803
 30
0.0
 11
4014.6564320227922
 21
4854.2758350898794
 31
0.0
  0
LINE
  5
8F7E
  8
FUTO
 10
4019.6564320227922
 20
4979.2758350898794
 30
0.0
 11
4019.6564320227922
 21
4849.2758350898803
 31
0.0
  0
LINE
  5
8F7F
  8
FUTO
 10
4032.0713490227931
 20
4990.1005420898791
 30
0.0
 11
4150.942382022793
 21
4770.1695110898781
 31
0.0
  0
LINE
  5
8F80
  8
FUTO
 10
4028.9043570227909
 20
4988.3887500898791
 30
0.0
 11
4147.7753900227908
 21
4768.457719089879
 31
0.0
  0
LINE
  5
8F81
  8
FUTO
 10
4019.6564320227922
 20
4859.2758350898803
 30
0.0
 11
4019.6564320227922
 21
4976.2947550898798
 31
0.0
  0
ARC
  5
8F82
  8
FUTO
 10
4107.4006950227922
 20
4942.0846720898799
 30
0.0
 40
40.0
 50
5.1561989999999991
 51
86.309096999999994
  0
LINE
  5
8F83
  8
CT
 10
3995.6365350227929
 20
4919.2758350898794
 30
0.0
 11
4036.9505000227909
 21
4919.2758350898794
 31
0.0
  0
ARC
  5
8F84
  8
FUTO
 10
3151.285461022791
 20
4855.8070850898794
 30
0.0
 40
1000.0
 50
355.73046899999991
 51
5.156280999999999
  0
LINE
  5
8F85
  8
FUTO
 10
4019.6564320227922
 20
4859.2758350898803
 30
0.0
 11
4028.561462022793
 21
4788.0354780898788
 31
0.0
  0
LINE
  5
8F86
  8
FUTO
 10
4141.9282830227921
 20
4779.2758350898794
 30
0.0
 11
4038.4842520227899
 21
4779.2758350898794
 31
0.0
  0
ARC
  5
8F87
  8
FUTO
 10
4038.484191022791
 20
4789.2758350898794
 30
0.0
 40
9.9999520000000004
 50
187.12510700000001
 51
270.0
  0
ARC
  5
8F88
  8
FUTO
 10
4150.0626210227929
 20
4769.6939250898786
 30
0.0
 40
0.999915
 50
298.39218099999999
 51
28.395019999999999
  0
ARC
  5
8F89
  8
FUTO
 10
4148.655151022791
 20
4768.93318308988
 30
0.0
 40
0.999915
 50
208.39218099999999
 51
298.39501999999999
  0
LINE
  5
8F8A
  8
FUTO
 10
4149.1307360227911
 20
4768.0534220898799
 30
0.0
 11
4150.5382070227934
 21
4768.8142870898791
 31
0.0
  0
LINE
  5
8F8B
  8
FUTO
 10
4145.7120350227924
 20
4779.8463910898799
 30
0.0
 11
4148.5103750227936
 21
4781.3588420898786
 31
0.0
  0
ARC
  5
8F8C
  8
FUTO
 10
4024.65631002279
 20
4976.2947550898798
 30
0.0
 40
4.9998969999999989
 50
118.39019
 51
180.0
  0
LINE
  5
8F8D
  8
FUTO
 10
4030.6254260227902
 20
4985.2045460898798
 30
0.0
 11
4022.2789910227898
 21
4980.6933150898803
 31
0.0
  0
ARC
  5
8F8E
  8
FUTO
 10
4029.7841180227911
 20
4988.8642130898797
 30
0.0
 40
1.0000219999999991
 50
118.388863
 51
208.38885499999989
  0
ARC
  5
8F8F
  8
FUTO
 10
4031.191711022791
 20
4989.6250780898799
 30
0.0
 40
0.999915
 50
28.392186999999989
 51
118.39501199999999
  0
LINE
  5
8F90
  8
FUTO
 10
4030.7161250227909
 20
4990.5047160898803
 30
0.0
 11
4029.3086540227919
 21
4989.743974089879
 31
0.0
  0
LINE
  5
8F91
  8
FUTO
 10
4033.7925410227908
 20
4986.9162150898801
 30
0.0
 11
4109.9756460227909
 21
4982.0016650898779
 31
0.0
  0
LINE
  5
8FA3
  8
FUTO
 10
4014.6564320227922
 20
4944.2758350898803
 30
0.0
 11
3934.054413298607
 21
4944.2758350898794
 31
0.0
  0
LINE
  5
8FA4
  8
FUTO
 10
4019.6564320227922
 20
4979.2758350898803
 30
0.0
 11
3934.054413298607
 21
4979.2758350898794
 31
0.0
  0
LINE
  5
8FA5
  8
FUTO
 10
4014.6564320227922
 20
4974.2758350898803
 30
0.0
 11
3934.054413298607
 21
4974.2758350898775
 31
0.0
  0
LINE
  5
8FA6
  8
FUTO
 10
4014.6564320227922
 20
4884.2758350898803
 30
0.0
 11
3934.054413298607
 21
4884.2758350898803
 31
0.0
  0
LINE
  5
8FA7
  8
FUTO
 10
4014.6564320227922
 20
4854.2758350898794
 30
0.0
 11
3934.054413298607
 21
4854.2758350898794
 31
0.0
  0
LINE
  5
8FA8
  8
FUTO
 10
4019.6564320227922
 20
4849.2758350898803
 30
0.0
 11
3934.054413298607
 21
4849.2758350898803
 31
0.0
  0
LINE
  5
92B6
  8
FUTO
 10
2328.0544132986079
 20
4339.2758350898794
 30
0.0
 11
2781.8700343698979
 21
4370.6243898978682
 31
0.0
  0
LINE
  5
92B8
  8
FUTO
 10
3744.2387922273169
 20
4625.2758350898794
 30
0.0
 11
3744.2387922273169
 21
4365.7889485100659
 31
0.0
  0
LINE
  5
92B9
  8
FUTO
 10
3744.2387922273169
 20
4625.2758350898794
 30
0.0
 11
3794.2387922273169
 21
4625.2758350898794
 31
0.0
  0
LINE
  5
92BB
  8
FUTO
 10
3674.2387922273192
 20
4370.6243898978682
 30
0.0
 11
4128.054413298607
 21
4339.2758350898794
 31
0.0
  0
LINE
  5
9318
  8
FUTO
 10
2328.054413298607
 20
4389.2758350898794
 30
0.0
 11
2661.8700343698961
 21
4625.2758350898794
 31
0.0
  0
LINE
  5
9319
  8
FUTO
 10
3794.2387922273169
 20
4625.2758350898794
 30
0.0
 11
4128.054413298607
 21
4389.2758350898794
 31
0.0
  0
LINE
  5
9327
  8
FUTO
 10
5851.214022738026
 20
6119.2758350898794
 30
0.0
 11
7604.894803859188
 21
6119.2758350898794
 31
0.0
  0
LINE
  5
9328
  8
FUTO
 10
7825.7544132986068
 20
5469.2758350898812
 30
0.0
 11
5630.3544132986081
 21
5469.2758350898812
 31
0.0
  0
LINE
  5
9329
  8
FUTO
 10
7434.054413298607
 20
5408.4966077992403
 30
0.0
 11
7434.054413298607
 21
4526.4293926527898
 31
0.0
  0
LINE
  5
932A
  8
FUTO
 10
7294.2387922273201
 20
5213.2758350898803
 30
0.0
 11
7477.5840300188793
 21
5469.2758350898812
 31
0.0
  0
LINE
  5
932B
  8
FUTO
 10
7244.2387922273201
 20
5213.2758350898803
 30
0.0
 11
7244.2387922273201
 21
5469.2758350898794
 31
0.0
  0
LINE
  5
932C
  8
FUTO
 10
6022.054413298607
 20
5408.4966077992431
 30
0.0
 11
6022.054413298607
 21
4526.4293926527889
 31
0.0
  0
LINE
  5
932D
  8
FUTO
 10
6161.8700343698974
 20
5213.2758350898803
 30
0.0
 11
5978.5247965783356
 21
5469.2758350898812
 31
0.0
  0
LINE
  5
932E
  8
FUTO
 10
6211.8700343698974
 20
5213.2758350898803
 30
0.0
 11
6211.8700343698974
 21
5469.2758350898794
 31
0.0
  0
LINE
  5
932F
  8
KL
 10
7428.0544132986088
 20
5469.2758350898812
 30
0.0
 11
7428.054413298607
 21
4319.2758350898794
 31
0.0
  0
LINE
  5
9330
  8
KL
 10
6028.0544132986061
 20
5469.2758350898812
 30
0.0
 11
6028.054413298607
 21
4319.2758350898794
 31
0.0
  0
LINE
  5
9331
  8
CT
 10
6728.054413298607
 20
6219.2758350898794
 30
0.0
 11
6728.054413298607
 21
4140.0325055378444
 31
0.0
  0
LINE
  5
9332
  8
FUTO
 10
6281.8700343698983
 20
4370.6243898978682
 30
0.0
 11
7174.2387922273201
 21
4370.6243898978682
 31
0.0
  0
LINE
  5
9333
  8
KL
 10
5828.054413298607
 20
4319.2758350898794
 30
0.0
 11
7628.0544132986061
 21
4319.2758350898794
 31
0.0
  0
LINE
  5
9334
  8
KL
 10
5828.054413298607
 20
4325.2758350898794
 30
0.0
 11
7628.0544132986061
 21
4325.2758350898794
 31
0.0
  0
LINE
  5
9335
  8
FUTO
 10
5823.554413298607
 20
4189.2758350898794
 30
0.0
 11
7632.5544132986061
 21
4189.2758350898794
 31
0.0
  0
LINE
  5
9336
  8
FUTO
 10
5823.554413298607
 20
4339.2758350898794
 30
0.0
 11
7632.5544132986061
 21
4339.2758350898775
 31
0.0
  0
LINE
  5
9337
  8
FUTO
 10
5828.054413298607
 20
4389.2758350898794
 30
0.0
 11
6161.8700343698974
 21
4625.2758350898794
 31
0.0
  0
LINE
  5
9338
  8
FUTO
 10
5828.0544132986088
 20
4339.2758350898794
 30
0.0
 11
6281.8700343698983
 21
4370.6243898978682
 31
0.0
  0
LINE
  5
9339
  8
FUTO
 10
5823.554413298607
 20
4339.2758350898794
 30
0.0
 11
5823.554413298607
 21
4189.2758350898794
 31
0.0
  0
LINE
  5
933A
  8
KL
 10
5828.054413298607
 20
4339.2758350898794
 30
0.0
 11
5828.054413298607
 21
4189.2758350898794
 31
0.0
  0
LINE
  5
933B
  8
FUTO
 10
5828.054413298607
 20
4389.2758350898794
 30
0.0
 11
5828.0544132986088
 21
4339.2758350898794
 31
0.0
  0
LINE
  5
933C
  8
FUTO
 10
6211.8700343698974
 20
4625.2758350898794
 30
0.0
 11
6211.8700343698974
 21
4365.7889485100668
 31
0.0
  0
LINE
  5
933D
  8
CT
 10
6028.054413298607
 20
4259.2758350898794
 30
0.0
 11
6028.054413298607
 21
4219.2758350898794
 31
0.0
  0
CIRCLE
  5
933E
  8
FUTO
 10
6028.054413298607
 20
4239.2758350898803
 30
0.0
 40
12.5
  0
LINE
  5
933F
  8
KL
 10
5978.054413298607
 20
4325.2758350898794
 30
0.0
 11
5978.054413298607
 21
4319.2758350898794
 31
0.0
  0
LINE
  5
9340
  8
CT
 10
6008.054413298607
 20
4239.2758350898803
 30
0.0
 11
6048.054413298607
 21
4239.2758350898803
 31
0.0
  0
LINE
  5
9341
  8
FUTO
 10
6211.8700343698974
 20
4625.2758350898794
 30
0.0
 11
6161.8700343698974
 21
4625.2758350898794
 31
0.0
  0
LINE
  5
9342
  8
FUTO
 10
6211.8700343698974
 20
5213.2758350898803
 30
0.0
 11
6161.8700343698974
 21
5213.2758350898803
 31
0.0
  0
LINE
  5
9343
  8
FUTO
 10
7174.2387922273201
 20
4370.6243898978682
 30
0.0
 11
7628.0544132986061
 21
4339.2758350898794
 31
0.0
  0
LINE
  5
9344
  8
FUTO
 10
7294.2387922273174
 20
4625.2758350898794
 30
0.0
 11
7628.0544132986061
 21
4389.2758350898794
 31
0.0
  0
LINE
  5
9345
  8
FUTO
 10
7244.2387922273174
 20
4625.2758350898794
 30
0.0
 11
7244.2387922273174
 21
4365.7889485100659
 31
0.0
  0
LINE
  5
9346
  8
CT
 10
7428.054413298607
 20
4259.2758350898794
 30
0.0
 11
7428.054413298607
 21
4219.2758350898794
 31
0.0
  0
CIRCLE
  5
9347
  8
FUTO
 10
7428.054413298607
 20
4239.2758350898803
 30
0.0
 40
12.5
  0
LINE
  5
9348
  8
CT
 10
7408.054413298607
 20
4239.2758350898803
 30
0.0
 11
7448.0544132986061
 21
4239.2758350898803
 31
0.0
  0
LINE
  5
9349
  8
KL
 10
7478.054413298607
 20
4325.2758350898794
 30
0.0
 11
7478.054413298607
 21
4319.2758350898794
 31
0.0
  0
LINE
  5
934A
  8
KL
 10
7628.0544132986061
 20
4339.2758350898794
 30
0.0
 11
7628.0544132986061
 21
4189.2758350898794
 31
0.0
  0
LINE
  5
934B
  8
FUTO
 10
7632.5544132986061
 20
4339.2758350898794
 30
0.0
 11
7632.5544132986061
 21
4189.2758350898794
 31
0.0
  0
LINE
  5
934C
  8
FUTO
 10
7628.0544132986061
 20
4389.2758350898794
 30
0.0
 11
7628.0544132986061
 21
4339.2758350898794
 31
0.0
  0
LINE
  5
9353
  8
FUTO
 10
7244.2387922273174
 20
4625.2758350898794
 30
0.0
 11
7294.2387922273174
 21
4625.2758350898794
 31
0.0
  0
LINE
  5
9356
  8
FUTO
 10
7244.2387922273201
 20
5213.2758350898803
 30
0.0
 11
7294.2387922273201
 21
5213.2758350898803
 31
0.0
  0
LINE
  5
9372
  8
FUTO
 10
5958.054413298607
 20
6119.2758350898794
 30
0.0
 11
5988.054413298607
 21
6119.2758350898794
 31
0.0
  0
LINE
  5
9373
  8
FUTO
 10
5988.054413298607
 20
6119.2758350898794
 30
0.0
 11
5983.8937528344686
 21
6142.8721131377442
 31
0.0
  0
LINE
  5
9374
  8
CT
 10
5973.054413298607
 20
6216.2758350898803
 30
0.0
 11
5973.054413298607
 21
6108.15124738141
 31
0.0
  0
LINE
  5
9375
  8
FUTO
 10
5958.054413298607
 20
6119.2758350898794
 30
0.0
 11
5962.2150737627444
 21
6142.8721131377442
 31
0.0
  0
LINE
  5
937F
  8
CT
 10
5913.054413298607
 20
6171.2758350898794
 30
0.0
 11
6033.054413298607
 21
6171.2758350898794
 31
0.0
  0
CIRCLE
  5
9381
  8
FUTO
 10
5973.054413298607
 20
6171.2758350898794
 30
0.0
 40
25.0
  0
ARC
  5
9383
  8
FUTO
 10
5973.054413298607
 20
6171.2758350898794
 30
0.0
 40
40.0
 50
288.25391686615802
 51
251.74608313384189
  0
ARC
  5
9385
  8
FUTO
 10
7483.054413298607
 20
6171.2758350898794
 30
0.0
 40
40.0
 50
288.25391686615802
 51
251.74608313384189
  0
CIRCLE
  5
9386
  8
FUTO
 10
7483.054413298607
 20
6171.2758350898794
 30
0.0
 40
25.0
  0
LINE
  5
9387
  8
CT
 10
7543.054413298607
 20
6171.2758350898794
 30
0.0
 11
7423.054413298607
 21
6171.2758350898794
 31
0.0
  0
LINE
  5
9388
  8
CT
 10
7483.054413298607
 20
6216.2758350898803
 30
0.0
 11
7483.054413298607
 21
6108.15124738141
 31
0.0
  0
LINE
  5
9389
  8
FUTO
 10
7498.054413298607
 20
6119.2758350898794
 30
0.0
 11
7493.8937528344704
 21
6142.8721131377442
 31
0.0
  0
LINE
  5
938A
  8
FUTO
 10
7468.054413298607
 20
6119.2758350898794
 30
0.0
 11
7472.2150737627444
 21
6142.8721131377442
 31
0.0
  0
LINE
  5
938B
  8
FUTO
 10
7498.054413298607
 20
6119.2758350898794
 30
0.0
 11
7468.054413298607
 21
6119.2758350898794
 31
0.0
  0
LINE
  5
9390
  8
FUTO
 10
5328.054413298607
 20
5643.8088214659047
 30
0.0
 11
5630.3544132986081
 21
5469.2758350898812
 31
0.0
  0
LINE
  5
9391
  8
FUTO
 10
5381.3677123450698
 20
5790.2859067526961
 30
0.0
 11
5328.054413298607
 21
5643.8088214659047
 31
0.0
  0
ARC
  5
9392
  8
FUTO
 10
5851.2140227380251
 20
5619.2758350898794
 30
0.0
 40
500.0
 50
89.999999999999915
 51
160.00000000000171
  0
LINE
  5
9394
  8
FUTO
 10
8128.0544132986061
 20
5643.8088214659047
 30
0.0
 11
7825.7544132986068
 21
5469.2758350898812
 31
0.0
  0
LINE
  5
9395
  8
FUTO
 10
8074.7411142521432
 20
5790.2859067526961
 30
0.0
 11
8128.0544132986061
 21
5643.8088214659047
 31
0.0
  0
ARC
  5
9396
  8
FUTO
 10
7604.894803859188
 20
5619.2758350898794
 30
0.0
 40
500.0
 50
19.999999999998199
 51
90.000000000000099
  0
DIMENSION
  5
9397
  8
3
  2
*D1
 10
1621.697290647855
 20
5369.2758350898794
 30
0.0
 11
1534.1972906478541
 21
5744.2758350898794
 31
0.0
 70
     0
 13
1828.054413298607
 23
6119.2758350898794
 33
0.0
 14
1828.0544132986061
 24
5369.2758350898794
 34
0.0
 50
90.0
1001
ACAD
1000
DSTYLE
1002
{
1070
   287
1070
     3
1070
   287
1070
     3
1070
   287
1070
     3
1070
   287
1070
     3
1070
    40
1040
35.0
1070
   143
1040
0.039
1070
   271
1070
     0
1070
   279
1070
     0
1002
}
  0
DIMENSION
  5
93A4
  8
3
  2
*D2
 10
1621.697290647855
 20
4339.2758350898803
 30
0.0
 11
1534.1972906478541
 21
4854.2758350898803
 31
0.0
 70
     0
 13
1828.0544132986061
 23
5369.2758350898794
 33
0.0
 14
2323.554413298607
 24
4339.2758350898794
 34
0.0
 50
90.0
1001
ACAD
1000
DSTYLE
1002
{
1070
   287
1070
     3
1070
   287
1070
     3
1070
   287
1070
     3
1070
   287
1070
     3
1070
    40
1040
35.0
1070
   143
1040
0.039
1070
   271
1070
     0
1070
   279
1070
     0
1002
}
  0
DIMENSION
  5
93B1
  8
3
  2
*D3
 10
1621.697290647855
 20
4189.2758350898803
 30
0.0
 11
1534.1972906478541
 21
3889.2758350898798
 31
0.0
 70
     0
 13
2323.554413298607
 23
4339.2758350898794
 33
0.0
 14
2323.554413298607
 24
4189.2758350898794
 34
0.0
 50
90.0
1001
ACAD
1000
DSTYLE
1002
{
1070
   287
1070
     3
1070
   287
1070
     3
1070
   287
1070
     3
1070
   287
1070
     3
1070
    40
1040
35.0
1070
   143
1040
0.039
1070
   271
1070
     0
1070
   279
1070
     0
1002
}
  0
DIMENSION
  5
93BF
  8
3
  2
*D4
 10
1315.697501299815
 20
4189.2758350898803
 30
0.0
 11
1228.1975012998139
 21
5154.2758350898803
 31
0.0
 70
     0
 13
1828.054413298607
 23
6119.2758350898794
 33
0.0
 14
2323.554413298607
 24
4189.2758350898794
 34
0.0
 50
90.0
1001
ACAD
1000
DSTYLE
1002
{
1070
   287
1070
     3
1070
   287
1070
     3
1070
   287
1070
     3
1070
   287
1070
     3
1070
    40
1040
35.0
1070
   143
1040
0.039
1070
   271
1070
     0
1070
   279
1070
     0
1002
}
  0
DIMENSION
  5
9416
  8
3
  2
*D5
 10
3928.054413298607
 20
3861.754562094317
 30
0.0
 11
3228.054413298607
 21
3949.254562094317
 31
0.0
 70
     0
 13
2528.0544132986061
 23
4219.2758350898794
 33
0.0
 14
3928.054413298607
 24
4219.2758350898794
 34
0.0
1001
ACAD
1000
DSTYLE
1002
{
1070
   287
1070
     3
1070
   287
1070
     3
1070
   287
1070
     3
1070
   287
1070
     3
1070
    40
1040
35.0
1070
   143
1040
0.039
1070
   271
1070
     0
1070
   279
1070
     0
1002
}
  0
DIMENSION
  5
9423
  8
3
  2
*D6
 10
4128.054413298607
 20
3560.2766899783119
 30
0.0
 11
3228.054413298607
 21
3647.7766899783128
 31
0.0
 70
     0
 13
2328.054413298607
 23
4189.2758350898794
 33
0.0
 14
4128.054413298607
 24
4189.2758350898794
 34
0.0
1001
ACAD
1000
DSTYLE
1002
{
1070
   287
1070
     3
1070
   287
1070
     3
1070
   287
1070
     3
1070
   287
1070
     3
1070
    40
1040
35.0
1070
   143
1040
0.039
1070
   271
1070
     0
1070
   279
1070
     0
1002
}
  0
DIMENSION
  5
9430
  8
3
  2
*D7
 10
4628.054413298607
 20
6521.283026671048
 30
0.0
 11
3228.054413298607
 21
6608.783026671048
 31
0.0
 70
     0
 13
1828.054413298607
 23
6119.2758350898794
 33
0.0
 14
4628.054413298607
 24
6119.2758350898794
 34
0.0
1001
ACAD
1000
DSTYLE
1002
{
1070
   287
1070
     3
1070
   287
1070
     3
1070
   287
1070
     3
1070
   287
1070
     3
1070
    40
1040
35.0
1070
   143
1040
0.039
1070
   271
1070
     0
1070
   279
1070
     0
1002
}
  0
DIMENSION
  5
943D
  8
3
  2
*D8
 10
8128.0544132986061
 20
6478.6177343552454
 30
0.0
 11
6728.054413298607
 21
6566.1177343552454
 31
0.0
 70
     0
 13
5328.054413298607
 23
5643.8088214659047
 33
0.0
 14
8128.0544132986061
 24
5643.8088214659047
 34
0.0
1001
ACAD
1000
DSTYLE
1002
{
1070
   287
1070
     3
1070
   287
1070
     3
1070
   287
1070
     3
1070
   287
1070
     3
1070
    40
1040
35.0
1070
   143
1040
0.039
1070
   271
1070
     0
1070
   279
1070
     0
1002
}
  0
DIMENSION
  5
9458
  8
3
  2
*D9
 10
7428.054413298607
 20
3864.6417858277991
 30
0.0
 11
6728.054413298607
 21
3952.1417858278
 31
0.0
 70
     0
 13
6028.054413298607
 23
4219.2758350898794
 33
0.0
 14
7428.054413298607
 24
4219.2758350898794
 34
0.0
1001
ACAD
1000
DSTYLE
1002
{
1070
   287
1070
     3
1070
   287
1070
     3
1070
   287
1070
     3
1070
   287
1070
     3
1070
    40
1040
35.0
1070
   143
1040
0.039
1070
   271
1070
     0
1070
   279
1070
     0
1002
}
  0
DIMENSION
  5
9465
  8
3
  2
*D10
 10
7628.0544132986061
 20
3542.0063972344828
 30
0.0
 11
6728.054413298607
 21
3629.5063972344828
 31
0.0
 70
     0
 13
5828.054413298607
 23
4189.2758350898794
 33
0.0
 14
7628.0544132986061
 24
4189.2758350898794
 34
0.0
1001
ACAD
1000
DSTYLE
1002
{
1070
   287
1070
     3
1070
   287
1070
     3
1070
   287
1070
     3
1070
   287
1070
     3
1070
    40
1040
35.0
1070
   143
1040
0.039
1070
   271
1070
     0
1070
   279
1070
     0
1002
}
  0
DIMENSION
  5
9509
  8
3
  2
*D11
 10
1939.5658883375791
 20
4189.2758350898803
 30
0.0
 11
1852.0658883375791
 21
3929.2758350898798
 31
0.0
 70
     0
 13
2508.054413298607
 23
4239.2758350898803
 33
0.0
 14
2323.554413298607
 24
4189.2758350898794
 34
0.0
 50
90.0
1001
ACAD
1000
DSTYLE
1002
{
1070
   287
1070
     3
1070
   287
1070
     3
1070
   287
1070
     3
1070
    40
1040
35.0
1070
   143
1040
0.039
1070
   271
1070
     0
1070
   279
1070
     0
1002
}
  0
LINE
  5
9647
  8
FUTO
 10
2458.054413298607
 20
6119.2758350898794
 30
0.0
 11
2488.054413298607
 21
6119.2758350898794
 31
0.0
  0
LINE
  5
9648
  8
FUTO
 10
2488.054413298607
 20
6119.2758350898794
 30
0.0
 11
2483.89375283447
 21
6142.8721131377442
 31
0.0
  0
LINE
  5
9649
  8
CT
 10
2473.054413298607
 20
6197.8196393870239
 30
0.0
 11
2473.054413298607
 21
6113.1512473814091
 31
0.0
  0
LINE
  5
964A
  8
FUTO
 10
2458.054413298607
 20
6119.2758350898794
 30
0.0
 11
2462.2150737627439
 21
6142.8721131377442
 31
0.0
  0
LINE
  5
964B
  8
FUTO
 10
2479.3044132986029
 20
6185.0258283324929
 30
0.0
 11
2479.3043619150699
 21
6137.5004916180123
 31
0.0
  0
LINE
  5
964C
  8
FUTO
 10
2466.8044132986111
 20
6185.0258283324929
 30
0.0
 11
2466.8044646821431
 21
6137.5004916180123
 31
0.0
  0
ARC
  5
964D
  8
FUTO
 10
2473.054413298607
 20
6137.5258350898803
 30
0.0
 40
6.25
 50
180.23233247289559
 51
359.76766752710432
  0
LINE
  5
964E
  8
FUTO
 10
2462.2150737627439
 20
6142.8721131377442
 30
0.0
 11
2465.054413298607
 21
6145.7114526736059
 31
0.0
  0
LINE
  5
964F
  8
FUTO
 10
2462.2150737627439
 20
6142.8721131377442
 30
0.0
 11
2466.8044588744428
 21
6142.8721131377442
 31
0.0
  0
LINE
  5
9650
  8
FUTO
 10
2465.054413298607
 20
6145.7114526736059
 30
0.0
 11
2466.8044558046008
 21
6145.7114526736059
 31
0.0
  0
LINE
  5
9651
  8
FUTO
 10
2479.3043677227702
 20
6142.8721131377442
 30
0.0
 11
2483.89375283447
 21
6142.8721131377442
 31
0.0
  0
LINE
  5
9652
  8
FUTO
 10
2483.89375283447
 20
6142.8721131377442
 30
0.0
 11
2481.054413298607
 21
6145.7114526736059
 31
0.0
  0
LINE
  5
9653
  8
FUTO
 10
2479.3043707926131
 20
6145.7114526736059
 30
0.0
 11
2481.054413298607
 21
6145.7114526736059
 31
0.0
  0
LINE
  5
9654
  8
CT
 10
2461.4656707100862
 20
6161.2758350898794
 30
0.0
 11
2485.4157383075999
 21
6161.2758350898794
 31
0.0
  0
ARC
  5
9655
  8
FUTO
 10
2473.054413298607
 20
6185.0258350898803
 30
0.0
 40
6.25
 50
359.9999380528414
 51
180.00006194715851
  0
LINE
  5
9656
  8
FUTO
 10
3968.054413298607
 20
6119.2758350898794
 30
0.0
 11
3998.054413298607
 21
6119.2758350898794
 31
0.0
  0
LINE
  5
9657
  8
FUTO
 10
3998.054413298607
 20
6119.2758350898794
 30
0.0
 11
3993.8937528344691
 21
6142.8721131377442
 31
0.0
  0
LINE
  5
9658
  8
CT
 10
3983.0544132986061
 20
6197.8196393870239
 30
0.0
 11
3983.0544132986061
 21
6113.1512473814091
 31
0.0
  0
LINE
  5
9659
  8
FUTO
 10
3968.054413298607
 20
6119.2758350898794
 30
0.0
 11
3972.2150737627439
 21
6142.8721131377442
 31
0.0
  0
LINE
  5
965A
  8
FUTO
 10
3989.3044132986029
 20
6185.0258283324929
 30
0.0
 11
3989.3043619150699
 21
6137.5004916180123
 31
0.0
  0
LINE
  5
965B
  8
FUTO
 10
3976.8044132986101
 20
6185.0258283324929
 30
0.0
 11
3976.8044646821431
 21
6137.5004916180123
 31
0.0
  0
ARC
  5
965C
  8
FUTO
 10
3983.0544132986061
 20
6137.5258350898803
 30
0.0
 40
6.25
 50
180.23233247289559
 51
359.76766752710432
  0
LINE
  5
965D
  8
FUTO
 10
3972.2150737627439
 20
6142.8721131377442
 30
0.0
 11
3975.054413298607
 21
6145.7114526736059
 31
0.0
  0
LINE
  5
965E
  8
FUTO
 10
3972.2150737627439
 20
6142.8721131377442
 30
0.0
 11
3976.8044588744428
 21
6142.8721131377442
 31
0.0
  0
LINE
  5
965F
  8
FUTO
 10
3975.054413298607
 20
6145.7114526736059
 30
0.0
 11
3976.8044558046008
 21
6145.7114526736059
 31
0.0
  0
LINE
  5
9660
  8
FUTO
 10
3989.3043677227702
 20
6142.8721131377442
 30
0.0
 11
3993.8937528344691
 21
6142.8721131377442
 31
0.0
  0
LINE
  5
9661
  8
FUTO
 10
3993.8937528344691
 20
6142.8721131377442
 30
0.0
 11
3991.0544132986061
 21
6145.7114526736059
 31
0.0
  0
LINE
  5
9662
  8
FUTO
 10
3989.3043707926122
 20
6145.7114526736059
 30
0.0
 11
3991.0544132986061
 21
6145.7114526736059
 31
0.0
  0
LINE
  5
9663
  8
CT
 10
3971.4656707100849
 20
6161.2758350898794
 30
0.0
 11
3995.4157383075999
 21
6161.2758350898794
 31
0.0
  0
ARC
  5
9664
  8
FUTO
 10
3983.0544132986061
 20
6185.0258350898803
 30
0.0
 40
6.25
 50
359.9999380528414
 51
180.00006194715851
  0
ENDSEC
  0
EOF
