  0
SECTION
  2
HEADER
  9
$ACADVER
  1
AC1009
  9
$INSBASE
 10
0.0
 20
0.0
 30
0.0
  9
$EXTMIN
 10
0.0
 20
0.0
 30
0.0
  9
$EXTMAX
 10
5250.0
 20
7375.0
 30
0.0
  9
$LIMMIN
 10
0.0
 20
0.0
  9
$LIMMAX
 10
297.0
 20
210.0
  9
$ORTHOMODE
 70
     0
  9
$REGENMODE
 70
     1
  9
$FILLMODE
 70
     1
  9
$QTEXTMODE
 70
     0
  9
$MIRRTEXT
 70
     0
  9
$DRAGMODE
 70
     2
  9
$LTSCALE
 40
125.0
  9
$OSMODE
 70
    37
  9
$ATTMODE
 70
     1
  9
$TEXTSIZE
 40
3.5
  9
$TRACEWID
 40
0.05
  9
$TEXTSTYLE
  7
STANDARD
  9
$CLAYER
  8
SP
  9
$CELTYPE
  6
BYLAYER
  9
$CECOLOR
 62
   256
  9
$DIMSCALE
 40
25.0
  9
$DIMASZ
 40
2.5
  9
$DIMEXO
 40
1.0
  9
$DIMDLI
 40
7.0
  9
$DIMRND
 40
0.0
  9
$DIMDLE
 40
0.0
  9
$DIMEXE
 40
1.0
  9
$DIMTP
 40
0.0
  9
$DIMTM
 40
0.0
  9
$DIMTXT
 40
3.0
  9
$DIMCEN
 40
0.0
  9
$DIMTSZ
 40
0.0
  9
$DIMTOL
 70
     0
  9
$DIMLIM
 70
     0
  9
$DIMTIH
 70
     0
  9
$DIMTOH
 70
     0
  9
$DIMSE1
 70
     0
  9
$DIMSE2
 70
     0
  9
$DIMTAD
 70
     1
  9
$DIMZIN
 70
     8
  9
$DIMBLK
  1

  9
$DIMASO
 70
     1
  9
$DIMSHO
 70
     1
  9
$DIMPOST
  1

  9
$DIMAPOST
  1

  9
$DIMALT
 70
     0
  9
$DIMALTD
 70
     2
  9
$DIMALTF
 40
0.03937
  9
$DIMLFAC
 40
1.0
  9
$DIMTOFL
 70
     1
  9
$DIMTVP
 40
0.0
  9
$DIMTIX
 70
     0
  9
$DIMSOXD
 70
     0
  9
$DIMSAH
 70
     1
  9
$DIMBLK1
  1
OPEN
  9
$DIMBLK2
  1
OPEN
  9
$DIMSTYLE
  2
GOD
  9
$DIMCLRD
 70
   256
  9
$DIMCLRE
 70
   256
  9
$DIMCLRT
 70
   256
  9
$DIMTFAC
 40
1.0
  9
$DIMGAP
 40
1.0
  9
$LUNITS
 70
     2
  9
$LUPREC
 70
     3
  9
$SKETCHINC
 40
0.1
  9
$FILLETRAD
 40
0.0
  9
$AUNITS
 70
     0
  9
$AUPREC
 70
     2
  9
$MENU
  1
acad
  9
$ELEVATION
 40
0.0
  9
$PELEVATION
 40
0.0
  9
$THICKNESS
 40
0.0
  9
$LIMCHECK
 70
     0
  9
$BLIPMODE
 70
     0
  9
$CHAMFERA
 40
0.0
  9
$CHAMFERB
 40
0.0
  9
$SKPOLY
 70
     0
  9
$TDCREATE
 40
2454942.6188268168
  9
$TDUPDATE
 40
2454953.6345925462
  9
$TDINDWG
 40
0.0327948958
  9
$TDUSRTIMER
 40
0.0327948958
  9
$USRTIMER
 70
     1
  9
$ANGBASE
 50
0.0
  9
$ANGDIR
 70
     0
  9
$PDMODE
 70
     0
  9
$PDSIZE
 40
1.0
  9
$PLINEWID
 40
0.0
  9
$COORDS
 70
     1
  9
$SPLFRAME
 70
     0
  9
$SPLINETYPE
 70
     6
  9
$SPLINESEGS
 70
     8
  9
$ATTDIA
 70
     0
  9
$ATTREQ
 70
     1
  9
$HANDLING
 70
 10241
  9
$HANDSEED
  5
2468
  9
$SURFTAB1
 70
     6
  9
$SURFTAB2
 70
     6
  9
$SURFTYPE
 70
     6
  9
$SURFU
 70
     6
  9
$SURFV
 70
     6
  9
$UCSNAME
  2

  9
$UCSORG
 10
0.0
 20
0.0
 30
0.0
  9
$UCSXDIR
 10
1.0
 20
0.0
 30
0.0
  9
$UCSYDIR
 10
0.0
 20
1.0
 30
0.0
  9
$PUCSNAME
  2

  9
$PUCSORG
 10
0.0
 20
0.0
 30
0.0
  9
$PUCSXDIR
 10
1.0
 20
0.0
 30
0.0
  9
$PUCSYDIR
 10
0.0
 20
1.0
 30
0.0
  9
$USERI1
 70
     0
  9
$USERI2
 70
     0
  9
$USERI3
 70
     0
  9
$USERI4
 70
     0
  9
$USERI5
 70
     0
  9
$USERR1
 40
0.0
  9
$USERR2
 40
0.0
  9
$USERR3
 40
0.0
  9
$USERR4
 40
0.0
  9
$USERR5
 40
0.0
  9
$WORLDVIEW
 70
     1
  9
$SHADEDGE
 70
     3
  9
$SHADEDIF
 70
    70
  9
$TILEMODE
 70
     1
  9
$MAXACTVP
 70
    16
  9
$PLIMCHECK
 70
     0
  9
$PEXTMIN
 10
1.0000000000000000E+020
 20
1.0000000000000000E+020
 30
1.0000000000000000E+020
  9
$PEXTMAX
 10
-1.0000000000000000E+020
 20
-1.0000000000000000E+020
 30
-1.0000000000000000E+020
  9
$PLIMMIN
 10
0.0
 20
0.0
  9
$PLIMMAX
 10
12.0
 20
9.0
  9
$UNITMODE
 70
     0
  9
$VISRETAIN
 70
     0
  9
$PLINEGEN
 70
     0
  9
$PSLTSCALE
 70
     0
  0
ENDSEC
  0
SECTION
  2
TABLES
  0
TABLE
  2
VPORT
 70
     2
  0
VPORT
  2
*ACTIVE
 70
     0
 10
0.0
 20
0.0
 11
1.0
 21
1.0
 12
4558.057370397305
 22
900.51238507496953
 13
0.0
 23
0.0
 14
5.0
 24
5.0
 15
0.0
 25
0.0
 16
0.0
 26
0.0
 36
1.0
 17
0.0
 27
0.0
 37
0.0
 40
2289.7444166537489
 41
3.1666666666666661
 42
50.0
 43
0.0
 44
0.0
 50
0.0
 51
0.0
 71
     0
 72
   100
 73
     1
 74
     0
 75
     0
 76
     0
 77
     0
 78
     0
  0
ENDTAB
  0
TABLE
  2
LTYPE
 70
     4
  0
LTYPE
  2
CONTINUOUS
 70
     0
  3
Solid line
 72
    65
 73
     0
 40
0.0
  0
LTYPE
  2
CENTER
 70
     0
  3
____ _ ____ _ ____ _ ____ _ ____ _ ____ _ ____ 
 72
    65
 73
     4
 40
2.0
 49
1.25
 49
-0.25
 49
0.25
 49
-0.25
  0
LTYPE
  2
HIDDEN
 70
     0
  3
__ __ __ __ __ __ __ __ __ __ __ __ __ __ __ __
 72
    65
 73
     2
 40
0.375
 49
0.25
 49
-0.125
  0
LTYPE
  2
PHANTOM
 70
     0
  3
______  __  __  ______  __  __  ______  __  __ 
 72
    65
 73
     6
 40
2.5
 49
1.25
 49
-0.25
 49
0.25
 49
-0.25
 49
0.25
 49
-0.25
  0
ENDTAB
  0
TABLE
  2
LAYER
 70
    13
  0
LAYER
  2
0
 70
     0
 62
     7
  6
CONTINUOUS
  0
LAYER
  2
CT
 70
     0
 62
     3
  6
CENTER
  0
LAYER
  2
FUTO
 70
     0
 62
     4
  6
CONTINUOUS
  0
LAYER
  2
HOSO
 70
     0
 62
     7
  6
CONTINUOUS
  0
LAYER
  2
KL
 70
     0
 62
     7
  6
HIDDEN
  0
LAYER
  2
MOJI
 70
     0
 62
     3
  6
CONTINUOUS
  0
LAYER
  2
SL
 70
     0
 62
     1
  6
PHANTOM
  0
LAYER
  2
SP
 70
     0
 62
     2
  6
CONTINUOUS
  0
LAYER
  2
DEFPOINTS
 70
     0
 62
     7
  6
CONTINUOUS
  0
LAYER
  2
3
 70
     0
 62
     2
  6
CONTINUOUS
  0
LAYER
  2
2
 70
     0
 62
     3
  6
CENTER
  0
LAYER
  2
1
 70
     0
 62
     4
  6
CONTINUOUS
  0
LAYER
  2
4
 70
     0
 62
     7
  6
CONTINUOUS
  0
ENDTAB
  0
TABLE
  2
STYLE
 70
     2
  0
STYLE
  2
STANDARD
 70
     0
 40
0.0
 41
1.0
 50
15.0
 71
     0
 42
3.5
  3
C:\Program Files\AutoCAD LT\simplex.shx
  4
C:\Program Files\AutoCAD LT\extfont.shx
  0
STYLE
  2

 70
     1
 40
0.0
 41
1.0
 50
0.0
 71
     0
 42
3.5
  3
ltypeshp.shx
  4

  0
ENDTAB
  0
TABLE
  2
VIEW
 70
     0
  0
ENDTAB
  0
TABLE
  2
UCS
 70
     0
  0
ENDTAB
  0
TABLE
  2
APPID
 70
     1
  0
APPID
  2
ACAD
 70
     0
  0
ENDTAB
  0
TABLE
  2
DIMSTYLE
 70
     3
  0
DIMSTYLE
  2
STANDARD
 70
     0
  3

  4

  5

  6

  7

 40
1.0
 41
0.18
 42
0.0625
 43
0.38
 44
0.18
 45
0.0
 46
0.0
 47
0.0
 48
0.0
140
0.18
141
0.09
142
0.0
143
25.399999999999999
144
1.0
145
0.0
146
1.0
147
0.09
 71
     0
 72
     0
 73
     1
 74
     1
 75
     0
 76
     0
 77
     0
 78
     0
170
     0
171
     2
172
     0
173
     0
174
     0
175
     0
176
     0
177
     0
178
     0
  0
DIMSTYLE
  2
GOD
 70
     0
  3

  4

  5

  6
OPEN
  7
OPEN
 40
25.0
 41
2.5
 42
1.0
 43
7.0
 44
1.0
 45
0.0
 46
0.0
 47
0.0
 48
0.0
140
3.0
141
0.0
142
0.0
143
0.03937
144
1.0
145
0.0
146
1.0
147
1.0
 71
     0
 72
     0
 73
     0
 74
     0
 75
     0
 76
     0
 77
     1
 78
     8
170
     0
171
     2
172
     1
173
     1
174
     0
175
     0
176
   256
177
   256
178
   256
  0
DIMSTYLE
  2
IGA
 70
     0
  3

  4

  5

  6
OPEN
  7
OPEN
 40
2.0
 41
2.0
 42
0.5
 43
10.0
 44
1.0
 45
0.0
 46
0.0
 47
1.0
 48
1.0
140
3.0
141
0.0
142
0.0
143
0.03937
144
1.0
145
0.0
146
10.0
147
1.0
 71
     0
 72
     0
 73
     0
 74
     0
 75
     0
 76
     0
 77
     1
 78
     8
170
     0
171
     2
172
     0
173
     1
174
     0
175
     0
176
     0
177
     0
178
     0
  0
ENDTAB
  0
ENDSEC
  0
SECTION
  2
BLOCKS
  0
BLOCK
  8
0
  2
$MODEL_SPACE
 70
     0
 10
0.0
 20
0.0
 30
0.0
  3
$MODEL_SPACE
  1

  0
ENDBLK
  5
1B
  8
0
  0
BLOCK
 67
     1
  8
0
  2
$PAPER_SPACE
 70
     0
 10
0.0
 20
0.0
 30
0.0
  3
$PAPER_SPACE
  1

  0
ENDBLK
  5
18
 67
     1
  8
0
  0
BLOCK
  8
0
  2
_OPEN
 70
     0
 10
0.0
 20
0.0
 30
0.0
  3
_OPEN
  1

  0
LINE
  5
1E81
  8
0
  6
BYBLOCK
 62
     0
 10
-1.0
 20
0.1666666666666666
 30
0.0
 11
0.0
 21
0.0
 31
0.0
  0
LINE
  5
1E82
  8
0
  6
BYBLOCK
 62
     0
 10
0.0
 20
0.0
 30
0.0
 11
-1.0
 21
-0.1666666666666666
 31
0.0
  0
LINE
  5
1E83
  8
0
  6
BYBLOCK
 62
     0
 10
0.0
 20
0.0
 30
0.0
 11
-1.0
 21
0.0
 31
0.0
  0
ENDBLK
  5
1E84
  8
0
  0
BLOCK
  8
0
  2
_DOT
 70
     0
 10
0.0
 20
0.0
 30
0.0
  3
_DOT
  1

  0
LINE
  5
1EC3
  8
0
  6
BYBLOCK
 62
     0
 10
0.0
 20
0.0
 30
0.0
 11
-1.0
 21
-0.0000000000000284
 31
0.0
  0
POLYLINE
  5
1EC4
  8
0
  6
BYBLOCK
 62
     0
 66
     1
 10
0.0
 20
0.0
 30
0.0
 70
     1
 40
0.1666666666666666
 41
0.1666666666666666
  0
VERTEX
  5
2465
  8
0
  6
BYBLOCK
 62
     0
 10
-0.0833333333333286
 20
-0.0000000000000284
 30
0.0
 42
1.0
  0
VERTEX
  5
2466
  8
0
  6
BYBLOCK
 62
     0
 10
0.0833333333333286
 20
-0.0000000000000284
 30
0.0
 42
1.0
  0
SEQEND
  5
2467
  8
0
  6
BYBLOCK
 62
     0
  0
ENDBLK
  5
1EB8
  8
0
  0
BLOCK
  8
0
  2
*D2
 70
     1
 10
0.0
 20
0.0
 30
0.0
  3
*D2
  1

  0
LINE
  5
23FF
  8
SP
 10
3004.7852383584991
 20
3387.2365768750901
 30
0.0
 11
3004.7852383584991
 21
4372.9657495649553
 31
0.0
  0
LINE
  5
2400
  8
SP
 10
4504.7852383584996
 20
3387.2365768750901
 30
0.0
 11
4504.7852383584996
 21
4372.9657495649553
 31
0.0
  0
LINE
  5
2401
  8
SP
 10
3067.2852383584991
 20
4347.9657495649553
 30
0.0
 11
4442.2852383584996
 21
4347.9657495649553
 31
0.0
  0
INSERT
  5
2402
  8
SP
  2
_OPEN
 10
3004.7852383584991
 20
4347.9657495649553
 30
0.0
 41
62.5
 42
62.5
 43
62.5
 50
180.0
  0
INSERT
  5
2403
  8
SP
  2
_OPEN
 10
4504.7852383584996
 20
4347.9657495649553
 30
0.0
 41
62.5
 42
62.5
 43
62.5
  0
TEXT
  5
2404
  8
SP
 10
3615.3026088180391
 20
4372.9657495649553
 30
0.0
 40
75.0
  1
1500
 51
15.0
  0
POINT
  5
2405
  8
DEFPOINTS
 62
     0
 10
3004.7852383584991
 20
3362.2365768750901
 30
0.0
  0
POINT
  5
2406
  8
DEFPOINTS
 62
     0
 10
4504.7852383584996
 20
3362.2365768750901
 30
0.0
  0
POINT
  5
2407
  8
DEFPOINTS
 62
     0
 10
4504.7852383584996
 20
4347.9657495649553
 30
0.0
  0
ENDBLK
  5
23F4
  8
0
  0
BLOCK
  8
0
  2
*D3
 70
     1
 10
0.0
 20
0.0
 30
0.0
  3
*D3
  1

  0
LINE
  5
240A
  8
SP
 10
4379.7852383584996
 20
2537.2365768750901
 30
0.0
 11
4379.7852383584996
 21
2254.863076711586
 31
0.0
  0
LINE
  5
240B
  8
SP
 10
3129.7852383584991
 20
2537.2365768750901
 30
0.0
 11
3129.7852383584991
 21
2254.863076711586
 31
0.0
  0
LINE
  5
240C
  8
SP
 10
4317.2852383584996
 20
2279.863076711586
 30
0.0
 11
3192.2852383584991
 21
2279.863076711586
 31
0.0
  0
INSERT
  5
240D
  8
SP
  2
_OPEN
 10
4379.7852383584996
 20
2279.863076711586
 30
0.0
 41
62.5
 42
62.5
 43
62.5
  0
INSERT
  5
240E
  8
SP
  2
_OPEN
 10
3129.7852383584991
 20
2279.863076711586
 30
0.0
 41
62.5
 42
62.5
 43
62.5
 50
180.0
  0
TEXT
  5
240F
  8
SP
 10
3615.3026088180382
 20
2304.863076711586
 30
0.0
 40
75.0
  1
1250
 51
15.0
  0
POINT
  5
2410
  8
DEFPOINTS
 62
     0
 10
4379.7852383584996
 20
2562.2365768750901
 30
0.0
  0
POINT
  5
2411
  8
DEFPOINTS
 62
     0
 10
3129.7852383584991
 20
2562.2365768750901
 30
0.0
  0
POINT
  5
2412
  8
DEFPOINTS
 62
     0
 10
3129.7852383584991
 20
2279.863076711586
 30
0.0
  0
ENDBLK
  5
2414
  8
0
  0
BLOCK
  8
0
  2
*D4
 70
     1
 10
0.0
 20
0.0
 30
0.0
  3
*D4
  1

  0
LINE
  5
2417
  8
SP
 10
4404.7852383584986
 20
2562.2365768750901
 30
0.0
 11
4915.9291558544137
 21
2562.2365768750901
 31
0.0
  0
LINE
  5
2418
  8
SP
 10
4686.0352383584977
 20
3362.2365768750901
 30
0.0
 11
4915.9291558544137
 21
3362.2365768750901
 31
0.0
  0
LINE
  5
2419
  8
SP
 10
4890.9291558544137
 20
2624.7365768750901
 30
0.0
 11
4890.9291558544137
 21
3299.7365768750901
 31
0.0
  0
INSERT
  5
241A
  8
SP
  2
_OPEN
 10
4890.9291558544137
 20
2562.2365768750901
 30
0.0
 41
62.5
 42
62.5
 43
62.5
 50
270.0
  0
INSERT
  5
241B
  8
SP
  2
_OPEN
 10
4890.9291558544137
 20
3362.2365768750901
 30
0.0
 41
62.5
 42
62.5
 43
62.5
 50
90.0
  0
TEXT
  5
241C
  8
SP
 10
4865.9291558544128
 20
2857.5456250160669
 30
0.0
 40
75.0
  1
800
 50
90.0
 51
15.0
  0
POINT
  5
241D
  8
DEFPOINTS
 62
     0
 10
4379.7852383584996
 20
2562.2365768750901
 30
0.0
  0
POINT
  5
241E
  8
DEFPOINTS
 62
     0
 10
4661.0352383584986
 20
3362.2365768750901
 30
0.0
  0
POINT
  5
241F
  8
DEFPOINTS
 62
     0
 10
4890.9291558544137
 20
3362.2365768750901
 30
0.0
  0
ENDBLK
  5
2421
  8
0
  0
BLOCK
  8
0
  2
*D5
 70
     1
 10
0.0
 20
0.0
 30
0.0
  3
*D5
  1

  0
LINE
  5
2430
  8
SP
 10
680.8234322960451
 20
4137.2365768750897
 30
0.0
 11
680.8234322960451
 21
4372.9657495649553
 31
0.0
  0
LINE
  5
2431
  8
SP
 10
1880.823432296045
 20
4137.2365768750897
 30
0.0
 11
1880.823432296045
 21
4372.9657495649553
 31
0.0
  0
LINE
  5
2432
  8
SP
 10
743.3234322960451
 20
4347.9657495649553
 30
0.0
 11
1818.323432296045
 21
4347.9657495649553
 31
0.0
  0
INSERT
  5
2433
  8
SP
  2
_OPEN
 10
680.8234322960451
 20
4347.9657495649553
 30
0.0
 41
62.5
 42
62.5
 43
62.5
 50
180.0
  0
INSERT
  5
2434
  8
SP
  2
_OPEN
 10
1880.823432296045
 20
4347.9657495649553
 30
0.0
 41
62.5
 42
62.5
 43
62.5
  0
TEXT
  5
2435
  8
SP
 10
1141.340802755584
 20
4372.9657495649553
 30
0.0
 40
75.0
  1
1200
 51
15.0
  0
POINT
  5
2436
  8
DEFPOINTS
 62
     0
 10
680.8234322960451
 20
4112.2365768750897
 30
0.0
  0
POINT
  5
2437
  8
DEFPOINTS
 62
     0
 10
1880.823432296045
 20
4112.2365768750897
 30
0.0
  0
POINT
  5
2438
  8
DEFPOINTS
 62
     0
 10
1880.823432296045
 20
4347.9657495649553
 30
0.0
  0
ENDBLK
  5
243A
  8
0
  0
BLOCK
  8
0
  2
*D6
 70
     1
 10
0.0
 20
0.0
 30
0.0
  3
*D6
  1

  0
LINE
  5
2448
  8
SP
 10
1905.823432296045
 20
4062.2365768750901
 30
0.0
 11
2151.9620909056762
 21
4062.2365768750901
 31
0.0
  0
LINE
  5
2449
  8
SP
 10
1899.823432296045
 20
2662.2365768750901
 30
0.0
 11
2151.9620909056762
 21
2662.2365768750901
 31
0.0
  0
LINE
  5
244A
  8
SP
 10
2126.9620909056762
 20
3999.7365768750901
 30
0.0
 11
2126.9620909056762
 21
2724.7365768750901
 31
0.0
  0
INSERT
  5
244B
  8
SP
  2
_OPEN
 10
2126.9620909056762
 20
4062.2365768750901
 30
0.0
 41
62.5
 42
62.5
 43
62.5
 50
90.0
  0
INSERT
  5
244C
  8
SP
  2
_OPEN
 10
2126.9620909056762
 20
2662.2365768750901
 30
0.0
 41
62.5
 42
62.5
 43
62.5
 50
270.0
  0
TEXT
  5
244D
  8
SP
 10
2101.9620909056748
 20
3196.7374841531068
 30
0.0
 40
75.0
  1
φ1400
 50
90.0
 51
15.0
  0
POINT
  5
244E
  8
DEFPOINTS
 62
     0
 10
1880.823432296045
 20
4062.2365768750901
 30
0.0
  0
POINT
  5
244F
  8
DEFPOINTS
 62
     0
 10
1874.823432296045
 20
2662.2365768750901
 30
0.0
  0
POINT
  5
2450
  8
DEFPOINTS
 62
     0
 10
2126.9620909056762
 20
2662.2365768750901
 30
0.0
  0
ENDBLK
  5
2447
  8
0
  0
ENDSEC
  0
SECTION
  2
ENTITIES
  0
TEXT
  5
1FC0
  8
4
  6
CONTINUOUS
 10
1040.9500435445841
 20
6334.7024394120117
 30
0.0
 40
180.0
  1
電動機直動横形軸流式排煙ファン
  0
TEXT
  5
1FC1
  8
4
 10
2107.6030655346399
 20
5958.5721033312893
 30
0.0
 40
134.99999999999989
  1
床置ベッド型
  0
LINE
  5
1FC2
  8
4
 10
1125.0
 20
1250.0
 30
0.0
 11
4125.0
 21
1250.0
 31
0.0
  0
LINE
  5
1FC3
  8
4
 10
1125.0
 20
1000.0
 30
0.0
 11
4125.0
 21
1000.0
 31
0.0
  0
LINE
  5
1FC4
  8
4
 10
1125.0
 20
750.0
 30
0.0
 11
4125.0
 21
750.0
 31
0.0
  0
LINE
  5
1FC6
  8
4
 10
5250.0
 20
0.0
 30
0.0
 11
0.0
 21
0.0
 31
0.0
  0
LINE
  5
1FC7
  8
4
 10
0.0
 20
7375.0
 30
0.0
 11
5250.0
 21
7375.0
 31
0.0
  0
LINE
  5
1FC8
  8
4
 10
625.0
 20
6673.5218856620122
 30
0.0
 11
4625.0
 21
6673.5218856620122
 31
0.0
  0
LINE
  5
1FC9
  8
4
 10
625.0
 20
6173.5218856620122
 30
0.0
 11
4625.0
 21
6173.5218856620122
 31
0.0
  0
LINE
  5
1FCA
  8
4
 10
0.0
 20
0.0
 30
0.0
 11
0.0
 21
7375.0
 31
0.0
  0
TEXT
  5
1FCB
  8
4
 10
1215.6452650619931
 20
804.11289183002725
 30
0.0
 40
125.0
  1
機器型番
  0
TEXT
  5
1FCC
  8
4
 10
1221.2552021172539
 20
1078.857564666532
 30
0.0
 40
125.0
  1
機器名称
  0
LINE
  5
1FCE
  8
4
 10
1125.0
 20
1250.0
 30
0.0
 11
1125.0
 21
750.0
 31
0.0
  0
LINE
  5
1FCF
  8
4
 10
625.0
 20
6673.5218856620122
 30
0.0
 11
625.0
 21
6173.5218856620122
 31
0.0
  0
TEXT
  5
1FD0
  8
4
 10
788.13895364992266
 20
5955.7986938658578
 30
0.0
 40
134.99999999999989
  1
左回転前方吐出
  0
TEXT
  5
1FD2
  8
4
 10
2466.6362389637011
 20
798.36173218841839
 30
0.0
 40
125.0
  1
APE＃1400-1M
  0
TEXT
  5
1FD3
  8
4
 10
2444.1968637191621
 20
1056.429422393921
 30
0.0
 40
125.0
  1
ミツヤ軸流排煙ファン
  0
LINE
  5
1FD4
  8
4
 10
2375.0
 20
1250.0
 30
0.0
 11
2375.0
 21
750.0
 31
0.0
  0
LINE
  5
1FD5
  8
4
 10
4125.0
 20
1250.0
 30
0.0
 11
4125.0
 21
750.0
 31
0.0
  0
TEXT
  5
1FD6
  8
4
 10
3423.9831957167189
 20
5958.5721033312893
 30
0.0
 40
134.99999999999989
  1
縮尺：1/25
  0
TEXT
  5
1FD7
  8
4
 10
3672.4238981232238
 20
6765.1527037382721
 30
0.0
 40
140.0
  1
No.
  0
LINE
  5
1FD8
  8
4
 10
4625.0
 20
6703.1589578135026
 30
0.0
 11
3601.543555899661
 21
6703.1589578135026
 31
0.0
  0
LINE
  5
1FD9
  8
4
 10
3601.543555899661
 20
6966.6306538743811
 30
0.0
 11
4625.0
 21
6966.6306538743811
 31
0.0
  0
LINE
  5
1FDA
  8
4
 10
3601.543555899661
 20
6703.1589578135026
 30
0.0
 11
3601.543555899661
 21
6966.6306538743811
 31
0.0
  0
LINE
  5
1FDB
  8
4
 10
4625.0
 20
6673.5218856620122
 30
0.0
 11
4625.0
 21
6173.5218856620122
 31
0.0
  0
LINE
  5
1FDC
  8
4
 10
4625.0
 20
6966.6306538743811
 30
0.0
 11
4625.0
 21
6703.1589578135026
 31
0.0
  0
LINE
  5
1FDD
  8
4
 10
5250.0
 20
7375.0
 30
0.0
 11
5250.0
 21
0.0
 31
0.0
  0
LINE
  5
1FDE
  8
4
 10
5250.0
 20
7375.0
 30
0.0
 11
5250.0
 21
7375.0
 31
0.0
  0
LINE
  5
2194
  8
2
  6
CENTER
 10
597.74334313682994
 20
3362.2365768750901
 30
0.0
 11
1928.611549493816
 21
3362.2365768750901
 31
0.0
  0
LINE
  5
2195
  8
2
  6
CENTER
 10
3754.7852383584991
 20
2467.9585997568679
 30
0.0
 11
3754.7852383584991
 21
4225.116410467047
 31
0.0
  0
LINE
  5
2196
  8
2
  6
CENTER
 10
2848.5352383584991
 20
3362.2365768750901
 30
0.0
 11
4661.0352383584986
 21
3362.2365768750901
 31
0.0
  0
LINE
  5
223E
  8
1
 10
951.39767904549717
 20
4049.7365768750901
 30
0.0
 11
982.64767904549717
 21
3774.7365768750901
 31
0.0
  0
LINE
  5
223F
  8
1
 10
763.89767904549717
 20
4049.7365768750901
 30
0.0
 11
732.64767904549717
 21
3774.7365768750901
 31
0.0
  0
LINE
  5
2240
  8
1
  6
CONTINUOUS
 10
732.64767904549717
 20
2949.736576875091
 30
0.0
 11
732.64767904549717
 21
3774.7365768750901
 31
0.0
  0
LINE
  5
2241
  8
1
  6
CONTINUOUS
 10
982.64767904549717
 20
2949.736576875091
 30
0.0
 11
982.64767904549717
 21
3774.7365768750901
 31
0.0
  0
LINE
  5
2242
  8
1
 10
732.64767904549717
 20
3774.7365768750901
 30
0.0
 11
982.64767904549717
 21
3774.7365768750901
 31
0.0
  0
LINE
  5
2243
  8
1
 10
763.89767904549717
 20
4049.7365768750901
 30
0.0
 11
951.39767904549717
 21
4049.7365768750901
 31
0.0
  0
LINE
  5
2244
  8
1
 10
732.64767904549717
 20
2949.736576875091
 30
0.0
 11
982.64767904549717
 21
2949.736576875091
 31
0.0
  0
LINE
  5
2245
  8
1
 10
951.39767904549717
 20
2674.736576875091
 30
0.0
 11
982.64767904549717
 21
2949.7365768750892
 31
0.0
  0
LINE
  5
2246
  8
1
 10
763.89767904549717
 20
2674.736576875091
 30
0.0
 11
732.64767904549717
 21
2949.7365768750892
 31
0.0
  0
LINE
  5
2247
  8
1
 10
763.89767904549717
 20
2674.736576875091
 30
0.0
 11
951.39767904549717
 21
2674.736576875091
 31
0.0
  0
LINE
  5
2335
  8
SP
 10
733.04575089517004
 20
4865.641050191507
 30
0.0
 11
859.61808882685727
 21
4792.5644768146858
 31
0.0
  0
LINE
  5
2336
  8
SP
 10
1304.8384519948081
 20
4831.897051948441
 30
0.0
 11
607.11143500153185
 21
4831.897051948441
 31
0.0
  0
LINE
  5
2337
  8
SP
 10
607.11143500153185
 20
4831.897051948441
 30
0.0
 11
733.04575089517004
 21
4865.641050191507
 31
0.0
  0
CIRCLE
  5
23E2
  8
FUTO
 10
3754.7852383584991
 20
3362.2365768750901
 30
0.0
 40
700.0
  0
LINE
  5
23E3
  8
FUTO
 10
3129.7852383584991
 20
2562.2365768750901
 30
0.0
 11
3129.7852383584991
 21
2947.6584780806652
 31
0.0
  0
LINE
  5
23E4
  8
FUTO
 10
4379.7852383584996
 20
2562.2365768750901
 30
0.0
 11
4379.7852383584996
 21
2947.658478080667
 31
0.0
  0
LINE
  5
23E5
  8
FUTO
 10
3129.7852383584991
 20
2562.2365768750901
 30
0.0
 11
4379.7852383584996
 21
2562.2365768750901
 31
0.0
  0
DIMENSION
  5
23E8
  8
SP
  2
*D2
 10
4504.7852383584996
 20
4347.9657495649553
 30
0.0
 11
3754.7852383584991
 21
4410.4657495649553
 31
0.0
 70
     0
 13
3004.7852383584991
 23
3362.2365768750901
 33
0.0
 14
4504.7852383584996
 24
3362.2365768750901
 34
0.0
  0
CIRCLE
  5
23F5
  8
FUTO
 10
3754.7852383584991
 20
3362.2365768750901
 30
0.0
 40
750.0
  0
DIMENSION
  5
2408
  8
SP
  2
*D3
 10
3129.7852383584991
 20
2279.863076711586
 30
0.0
 11
3754.7852383584991
 21
2342.363076711586
 31
0.0
 70
     0
 13
4379.7852383584996
 23
2562.2365768750901
 33
0.0
 14
3129.7852383584991
 24
2562.2365768750901
 34
0.0
  0
DIMENSION
  5
2415
  8
SP
  2
*D4
 10
4890.9291558544137
 20
3362.2365768750901
 30
0.0
 11
4828.4291558544119
 21
2962.236576875091
 31
0.0
 70
     0
 13
4379.7852383584996
 23
2562.2365768750901
 33
0.0
 14
4661.0352383584986
 24
3362.2365768750901
 34
0.0
 50
90.0
  0
LINE
  5
2424
  8
FUTO
 10
680.8234322960451
 20
4112.2365768750897
 30
0.0
 11
680.82343229604487
 21
2612.236576875091
 31
0.0
  0
LINE
  5
2425
  8
FUTO
 10
1880.823432296045
 20
4112.2365768750897
 30
0.0
 11
1880.823432296045
 21
2612.236576875091
 31
0.0
  0
LINE
  5
2426
  8
FUTO
 10
1880.823432296045
 20
4062.2365768750901
 30
0.0
 11
680.8234322960451
 21
4062.2365768750901
 31
0.0
  0
LINE
  5
2427
  8
FUTO
 10
1880.823432296045
 20
2662.2365768750901
 30
0.0
 11
680.8234322960451
 21
2662.2365768750901
 31
0.0
  0
LINE
  5
2429
  8
FUTO
 10
686.82343229604476
 20
2562.236576875091
 30
0.0
 11
1874.823432296045
 21
2562.236576875091
 31
0.0
  0
LINE
  5
242B
  8
FUTO
 10
1874.823432296045
 20
2962.236576875091
 30
0.0
 11
1874.823432296045
 21
2562.2365768750901
 31
0.0
  0
LINE
  5
242D
  8
FUTO
 10
686.82343229604487
 20
2962.236576875091
 30
0.0
 11
686.82343229604476
 21
2562.236576875091
 31
0.0
  0
DIMENSION
  5
242E
  8
SP
  2
*D5
 10
1880.823432296045
 20
4347.9657495649553
 30
0.0
 11
1280.823432296045
 21
4410.4657495649553
 31
0.0
 70
     0
 13
680.8234322960451
 23
4112.2365768750897
 33
0.0
 14
1880.823432296045
 24
4112.2365768750897
 34
0.0
  0
DIMENSION
  5
243B
  8
SP
  2
*D6
 10
2126.9620909056762
 20
2662.2365768750901
 30
0.0
 11
2064.4620909056748
 21
3362.236576875091
 31
0.0
 70
     0
 13
1880.823432296045
 23
4062.2365768750901
 33
0.0
 14
1874.823432296045
 24
2662.2365768750901
 34
0.0
 50
90.0
1001
ACAD
1000
DSTYLE
1002
{
1070
     3
1000
φ<>
1002
}
  0
ENDSEC
  0
EOF
