  0
SECTION
  2
HEADER
  9
$ACADVER
  1
AC1009
  9
$INSBASE
 10
0.0
 20
0.0
 30
0.0
  9
$EXTMIN
 10
981.57995253702393
 20
196.1538952045411
 30
0.0
  9
$EXTMAX
 10
8331.5799525370239
 20
10521.153895204539
 30
0.0
  9
$LIMMIN
 10
0.0
 20
0.0
  9
$LIMMAX
 10
297.0
 20
210.0
  9
$ORTHOMODE
 70
     0
  9
$REGENMODE
 70
     1
  9
$FILLMODE
 70
     0
  9
$QTEXTMODE
 70
     0
  9
$MIRRTEXT
 70
     1
  9
$DRAGMODE
 70
     2
  9
$LTSCALE
 40
100.0
  9
$OSMODE
 70
    37
  9
$ATTMODE
 70
     1
  9
$TEXTSIZE
 40
180.0
  9
$TRACEWID
 40
0.05
  9
$TEXTSTYLE
  7
STANDARD
  9
$CLAYER
  8
3
  9
$CELTYPE
  6
BYLAYER
  9
$CECOLOR
 62
   256
  9
$DIMSCALE
 40
35.0
  9
$DIMASZ
 40
2.0
  9
$DIMEXO
 40
0.5
  9
$DIMDLI
 40
10.0
  9
$DIMRND
 40
0.0
  9
$DIMDLE
 40
0.0
  9
$DIMEXE
 40
1.0
  9
$DIMTP
 40
1.0
  9
$DIMTM
 40
1.0
  9
$DIMTXT
 40
3.0
  9
$DIMCEN
 40
0.0
  9
$DIMTSZ
 40
0.0
  9
$DIMTOL
 70
     0
  9
$DIMLIM
 70
     0
  9
$DIMTIH
 70
     0
  9
$DIMTOH
 70
     0
  9
$DIMSE1
 70
     0
  9
$DIMSE2
 70
     0
  9
$DIMTAD
 70
     1
  9
$DIMZIN
 70
     8
  9
$DIMBLK
  1

  9
$DIMASO
 70
     1
  9
$DIMSHO
 70
     1
  9
$DIMPOST
  1

  9
$DIMAPOST
  1

  9
$DIMALT
 70
     0
  9
$DIMALTD
 70
     2
  9
$DIMALTF
 40
0.039
  9
$DIMLFAC
 40
1.0
  9
$DIMTOFL
 70
     1
  9
$DIMTVP
 40
0.0
  9
$DIMTIX
 70
     0
  9
$DIMSOXD
 70
     0
  9
$DIMSAH
 70
     1
  9
$DIMBLK1
  1
OPEN
  9
$DIMBLK2
  1
OPEN
  9
$DIMSTYLE
  2
IGA
  9
$DIMCLRD
 70
     0
  9
$DIMCLRE
 70
     0
  9
$DIMCLRT
 70
     0
  9
$DIMTFAC
 40
10.0
  9
$DIMGAP
 40
1.0
  9
$LUNITS
 70
     2
  9
$LUPREC
 70
     3
  9
$SKETCHINC
 40
0.1
  9
$FILLETRAD
 40
50.0
  9
$AUNITS
 70
     0
  9
$AUPREC
 70
     0
  9
$MENU
  1
acad
  9
$ELEVATION
 40
0.0
  9
$PELEVATION
 40
0.0
  9
$THICKNESS
 40
0.0
  9
$LIMCHECK
 70
     0
  9
$BLIPMODE
 70
     0
  9
$CHAMFERA
 40
0.5
  9
$CHAMFERB
 40
0.5
  9
$SKPOLY
 70
     0
  9
$TDCREATE
 40
2452571.4627275462
  9
$TDUPDATE
 40
2454953.6360054971
  9
$TDINDWG
 40
0.0243397685
  9
$TDUSRTIMER
 40
0.0243397685
  9
$USRTIMER
 70
     1
  9
$ANGBASE
 50
0.0
  9
$ANGDIR
 70
     0
  9
$PDMODE
 70
     0
  9
$PDSIZE
 40
0.0
  9
$PLINEWID
 40
0.0
  9
$COORDS
 70
     1
  9
$SPLFRAME
 70
     0
  9
$SPLINETYPE
 70
     6
  9
$SPLINESEGS
 70
     8
  9
$ATTDIA
 70
     0
  9
$ATTREQ
 70
     1
  9
$HANDLING
 70
 10241
  9
$HANDSEED
  5
7EF0
  9
$SURFTAB1
 70
     6
  9
$SURFTAB2
 70
     6
  9
$SURFTYPE
 70
     6
  9
$SURFU
 70
     6
  9
$SURFV
 70
     6
  9
$UCSNAME
  2

  9
$UCSORG
 10
0.0
 20
0.0
 30
0.0
  9
$UCSXDIR
 10
1.0
 20
0.0
 30
0.0
  9
$UCSYDIR
 10
0.0
 20
1.0
 30
0.0
  9
$PUCSNAME
  2

  9
$PUCSORG
 10
0.0
 20
0.0
 30
0.0
  9
$PUCSXDIR
 10
1.0
 20
0.0
 30
0.0
  9
$PUCSYDIR
 10
0.0
 20
1.0
 30
0.0
  9
$USERI1
 70
     0
  9
$USERI2
 70
     0
  9
$USERI3
 70
     0
  9
$USERI4
 70
     0
  9
$USERI5
 70
     0
  9
$USERR1
 40
0.0
  9
$USERR2
 40
0.0
  9
$USERR3
 40
0.0
  9
$USERR4
 40
0.0
  9
$USERR5
 40
0.0
  9
$WORLDVIEW
 70
     1
  9
$SHADEDGE
 70
     3
  9
$SHADEDIF
 70
    70
  9
$TILEMODE
 70
     1
  9
$MAXACTVP
 70
    16
  9
$PLIMCHECK
 70
     0
  9
$PEXTMIN
 10
1.0000000000000000E+020
 20
1.0000000000000000E+020
 30
1.0000000000000000E+020
  9
$PEXTMAX
 10
-1.0000000000000000E+020
 20
-1.0000000000000000E+020
 30
-1.0000000000000000E+020
  9
$PLIMMIN
 10
0.0
 20
0.0
  9
$PLIMMAX
 10
12.0
 20
9.0
  9
$UNITMODE
 70
     0
  9
$VISRETAIN
 70
     0
  9
$PLINEGEN
 70
     0
  9
$PSLTSCALE
 70
     1
  0
ENDSEC
  0
SECTION
  2
TABLES
  0
TABLE
  2
VPORT
 70
     2
  0
VPORT
  2
*ACTIVE
 70
     0
 10
0.0
 20
0.0
 11
1.0
 21
1.0
 12
7853.2773299688788
 22
1375.9159907635681
 13
0.0
 23
0.0
 14
10.0
 24
10.0
 15
10.0
 25
10.0
 16
0.0
 26
0.0
 36
1.0
 17
0.0
 27
0.0
 37
0.0
 40
3044.7240111708079
 41
3.1666666666666661
 42
50.0
 43
0.0
 44
0.0
 50
0.0
 51
0.0
 71
     0
 72
   100
 73
     1
 74
     0
 75
     0
 76
     0
 77
     0
 78
     0
  0
ENDTAB
  0
TABLE
  2
LTYPE
 70
     2
  0
LTYPE
  2
CONTINUOUS
 70
     0
  3
Solid line
 72
    65
 73
     0
 40
0.0
  0
LTYPE
  2
CENTER
 70
     0
  3
____ _ ____ _ ____ _ ____ _ ____ _ ____ _ ____ 
 72
    65
 73
     4
 40
2.0
 49
1.25
 49
-0.25
 49
0.25
 49
-0.25
  0
ENDTAB
  0
TABLE
  2
LAYER
 70
     6
  0
LAYER
  2
0
 70
     0
 62
     7
  6
CONTINUOUS
  0
LAYER
  2
3
 70
     0
 62
     2
  6
CONTINUOUS
  0
LAYER
  2
2
 70
     0
 62
     3
  6
CENTER
  0
LAYER
  2
1
 70
     0
 62
     4
  6
CONTINUOUS
  0
LAYER
  2
4
 70
     0
 62
     7
  6
CONTINUOUS
  0
LAYER
  2
DEFPOINTS
 70
     0
 62
     7
  6
CONTINUOUS
  0
ENDTAB
  0
TABLE
  2
STYLE
 70
     1
  0
STYLE
  2
STANDARD
 70
     0
 40
0.0
 41
1.0
 50
0.0
 71
     0
 42
180.0
  3
simplex.shx
  4
extfont.shx
  0
ENDTAB
  0
TABLE
  2
VIEW
 70
     0
  0
ENDTAB
  0
TABLE
  2
UCS
 70
     0
  0
ENDTAB
  0
TABLE
  2
APPID
 70
     1
  0
APPID
  2
ACAD
 70
     0
  0
ENDTAB
  0
TABLE
  2
DIMSTYLE
 70
     1
  0
DIMSTYLE
  2
IGA
 70
     0
  3

  4

  5

  6
OPEN
  7
OPEN
 40
2.0
 41
2.0
 42
0.5
 43
10.0
 44
1.0
 45
0.0
 46
0.0
 47
1.0
 48
1.0
140
3.0
141
0.0
142
0.0
143
0.03937
144
1.0
145
0.0
146
10.0
147
1.0
 71
     0
 72
     0
 73
     0
 74
     0
 75
     0
 76
     0
 77
     1
 78
     8
170
     0
171
     2
172
     0
173
     1
174
     0
175
     0
176
     0
177
     0
178
     0
  0
ENDTAB
  0
ENDSEC
  0
SECTION
  2
BLOCKS
  0
BLOCK
  8
0
  2
$MODEL_SPACE
 70
     0
 10
0.0
 20
0.0
 30
0.0
  3
$MODEL_SPACE
  1

  0
ENDBLK
  5
1B
  8
0
  0
BLOCK
 67
     1
  8
0
  2
$PAPER_SPACE
 70
     0
 10
0.0
 20
0.0
 30
0.0
  3
$PAPER_SPACE
  1

  0
ENDBLK
  5
18
 67
     1
  8
0
  0
BLOCK
  8
0
  2
_OPEN
 70
     0
 10
0.0
 20
0.0
 30
0.0
  3
_OPEN
  1

  0
LINE
  5
79FD
  8
0
  6
BYBLOCK
 62
     0
 10
-1.0
 20
0.1666666666666666
 30
0.0
 11
0.0
 21
0.0
 31
0.0
  0
LINE
  5
79FE
  8
0
  6
BYBLOCK
 62
     0
 10
0.0
 20
0.0
 30
0.0
 11
-1.0
 21
-0.1666666666666666
 31
0.0
  0
LINE
  5
79FF
  8
0
  6
BYBLOCK
 62
     0
 10
0.0
 20
0.0
 30
0.0
 11
-1.0
 21
0.0
 31
0.0
  0
ENDBLK
  5
7A01
  8
0
  0
BLOCK
  8
0
  2
*D1
 70
     1
 10
0.0
 20
0.0
 30
0.0
  3
*D1
  1

  0
LINE
  5
7E7E
  8
3
 62
     0
 10
2218.3750119484539
 20
5476.1538470081568
 30
0.0
 11
2008.375011948453
 21
5476.1538470081587
 31
0.0
  0
LINE
  5
7E7F
  8
3
 62
     0
 10
2218.3750119484539
 20
6126.1538470081578
 30
0.0
 11
2008.375011948453
 21
6126.1538470081587
 31
0.0
  0
LINE
  5
7E80
  8
3
 62
     0
 10
2043.375011948453
 20
5546.1538470081587
 30
0.0
 11
2043.375011948453
 21
6056.1538470081578
 31
0.0
  0
INSERT
  5
7E81
  8
3
 62
     0
  2
_OPEN
 10
2043.375011948453
 20
5476.1538470081587
 30
0.0
 41
70.0
 42
70.0
 43
70.0
 50
270.0
  0
INSERT
  5
7E82
  8
3
 62
     0
  2
_OPEN
 10
2043.375011948453
 20
6126.1538470081587
 30
0.0
 41
70.0
 42
70.0
 43
70.0
 50
90.0
  0
TEXT
  8
3
  40
105
  5
7EE5
  62
0
  72
0
  71
0
 10
1745.88
 20
5615.30
 30
0.000000
  1
650
  0
POINT
  5
7E84
  8
DEFPOINTS
 62
     0
 10
2235.8750119484539
 20
5476.1538470081568
 30
0.0
  0
POINT
  5
7E85
  8
DEFPOINTS
 62
     0
 10
2235.8750119484539
 20
6126.1538470081578
 30
0.0
  0
POINT
  5
7E86
  8
DEFPOINTS
 62
     0
 10
2043.375011948453
 20
6126.1538470081587
 30
0.0
  0
ENDBLK
  5
7D5B
  8
0
  0
BLOCK
  8
0
  2
*D2
 70
     1
 10
0.0
 20
0.0
 30
0.0
  3
*D2
  1

  0
LINE
  5
7E87
  8
3
 62
     0
 10
2218.3750119484539
 20
5476.1538470081568
 30
0.0
 11
2008.3750119484539
 21
5476.1538470081587
 31
0.0
  0
LINE
  5
7E88
  8
3
 62
     0
 10
2638.3750119484539
 20
4546.1538470081578
 30
0.0
 11
2008.375011948453
 21
4546.1538470081587
 31
0.0
  0
LINE
  5
7E89
  8
3
 62
     0
 10
2043.3750119484539
 20
5406.1538470081587
 30
0.0
 11
2043.3750119484539
 21
4616.1538470081587
 31
0.0
  0
INSERT
  5
7E8A
  8
3
 62
     0
  2
_OPEN
 10
2043.3750119484539
 20
5476.1538470081587
 30
0.0
 41
70.0
 42
70.0
 43
70.0
 50
90.0
  0
INSERT
  5
7E8B
  8
3
 62
     0
  2
_OPEN
 10
2043.375011948453
 20
4546.1538470081587
 30
0.0
 41
70.0
 42
70.0
 43
70.0
 50
270.0
  0
TEXT
  8
3
  40
105
  5
7EE6
  62
0
  72
0
  71
0
 10
1745.88
 20
4825.30
 30
0.000000
  1
930
  0
POINT
  5
7E8D
  8
DEFPOINTS
 62
     0
 10
2235.8750119484539
 20
5476.1538470081568
 30
0.0
  0
POINT
  5
7E8E
  8
DEFPOINTS
 62
     0
 10
2655.8750119484539
 20
4546.1538470081578
 30
0.0
  0
POINT
  5
7E8F
  8
DEFPOINTS
 62
     0
 10
2043.375011948453
 20
4546.1538470081587
 30
0.0
  0
ENDBLK
  5
7D66
  8
0
  0
BLOCK
  8
0
  2
*D3
 70
     1
 10
0.0
 20
0.0
 30
0.0
  3
*D3
  1

  0
LINE
  5
7E90
  8
3
 62
     0
 10
2638.3750119484539
 20
4546.1538470081578
 30
0.0
 11
2008.3750119484539
 21
4546.1538470081587
 31
0.0
  0
LINE
  5
7E91
  8
3
 62
     0
 10
2633.8750119484539
 20
4396.1538470081568
 30
0.0
 11
2008.3750119484539
 21
4396.1538470081578
 31
0.0
  0
LINE
  5
7E92
  8
3
 62
     0
 10
2043.375011948455
 20
4616.1538470081587
 30
0.0
 11
2043.375011948455
 21
4686.1538470081587
 31
0.0
  0
LINE
  5
7E93
  8
3
 62
     0
 10
2043.3750119484539
 20
4326.1538470081587
 30
0.0
 11
2043.3750119484539
 21
3936.1538470081582
 31
0.0
  0
LINE
  5
7E94
  8
3
 62
     0
 10
2043.3750119484539
 20
4546.1538470081587
 30
0.0
 11
2043.3750119484539
 21
4396.1538470081578
 31
0.0
  0
INSERT
  5
7E95
  8
3
 62
     0
  2
_OPEN
 10
2043.3750119484539
 20
4546.1538470081587
 30
0.0
 41
70.0
 42
70.0
 43
70.0
 50
270.0
  0
INSERT
  5
7E96
  8
3
 62
     0
  2
_OPEN
 10
2043.3750119484539
 20
4396.1538470081578
 30
0.0
 41
70.0
 42
70.0
 43
70.0
 50
90.0
  0
TEXT
  8
3
  40
105
  5
7EE7
  62
0
  72
0
  71
0
 10
1745.88
 20
3910.30
 30
0.000000
  1
150
  0
POINT
  5
7E98
  8
DEFPOINTS
 62
     0
 10
2655.8750119484539
 20
4546.1538470081578
 30
0.0
  0
POINT
  5
7E99
  8
DEFPOINTS
 62
     0
 10
2651.3750119484539
 20
4396.1538470081568
 30
0.0
  0
POINT
  5
7E9A
  8
DEFPOINTS
 62
     0
 10
2043.3750119484539
 20
4396.1538470081578
 30
0.0
  0
ENDBLK
  5
7D7E
  8
0
  0
BLOCK
  8
0
  2
*D4
 70
     1
 10
0.0
 20
0.0
 30
0.0
  3
*D4
  1

  0
LINE
  5
7E9B
  8
3
 62
     0
 10
2633.8750119484539
 20
4396.1538470081568
 30
0.0
 11
1758.375011948453
 21
4396.1538470081578
 31
0.0
  0
LINE
  5
7E9C
  8
3
 62
     0
 10
2218.3750119484539
 20
6126.1538470081578
 30
0.0
 11
1758.375011948453
 21
6126.1538470081587
 31
0.0
  0
LINE
  5
7E9D
  8
3
 62
     0
 10
1793.375011948453
 20
4466.1538470081578
 30
0.0
 11
1793.375011948453
 21
6056.1538470081578
 31
0.0
  0
INSERT
  5
7E9E
  8
3
 62
     0
  2
_OPEN
 10
1793.375011948453
 20
4396.1538470081578
 30
0.0
 41
70.0
 42
70.0
 43
70.0
 50
270.0
  0
INSERT
  5
7E9F
  8
3
 62
     0
  2
_OPEN
 10
1793.375011948453
 20
6126.1538470081587
 30
0.0
 41
70.0
 42
70.0
 43
70.0
 50
90.0
  0
TEXT
  8
3
  40
105
  5
7EE8
  62
0
  72
0
  71
0
 10
1495.88
 20
5075.30
 30
0.000000
  1
1730
  0
POINT
  5
7EA1
  8
DEFPOINTS
 62
     0
 10
2651.3750119484539
 20
4396.1538470081568
 30
0.0
  0
POINT
  5
7EA2
  8
DEFPOINTS
 62
     0
 10
2235.8750119484539
 20
6126.1538470081578
 30
0.0
  0
POINT
  5
7EA3
  8
DEFPOINTS
 62
     0
 10
1793.375011948453
 20
6126.1538470081587
 30
0.0
  0
ENDBLK
  5
7D71
  8
0
  0
BLOCK
  8
0
  2
*D5
 70
     1
 10
0.0
 20
0.0
 30
0.0
  3
*D5
  1

  0
LINE
  5
7EA4
  8
3
 62
     0
 10
2235.8750119484539
 20
6143.6538470081578
 30
0.0
 11
2235.8750119484539
 21
6431.1538470081568
 31
0.0
  0
LINE
  5
7EA5
  8
3
 62
     0
 10
4475.8750119484539
 20
6143.6538470081578
 30
0.0
 11
4475.8750119484539
 21
6431.1538470081568
 31
0.0
  0
LINE
  5
7EA6
  8
3
 62
     0
 10
2305.8750119484539
 20
6396.1538470081568
 30
0.0
 11
4405.8750119484539
 21
6396.1538470081568
 31
0.0
  0
INSERT
  5
7EA7
  8
3
 62
     0
  2
_OPEN
 10
2235.8750119484539
 20
6396.1538470081568
 30
0.0
 41
70.0
 42
70.0
 43
70.0
 50
180.0
  0
INSERT
  5
7EA8
  8
3
 62
     0
  2
_OPEN
 10
4475.8750119484539
 20
6396.1538470081568
 30
0.0
 41
70.0
 42
70.0
 43
70.0
  0
TEXT
  8
3
  40
105
  5
7EE9
  62
0
  72
0
  71
0
 10
3145.88
 20
6297.80
 30
0.000000
  1
2240
  0
POINT
  5
7EAA
  8
DEFPOINTS
 62
     0
 10
2235.8750119484539
 20
6126.1538470081578
 30
0.0
  0
POINT
  5
7EAB
  8
DEFPOINTS
 62
     0
 10
4475.8750119484539
 20
6126.1538470081578
 30
0.0
  0
POINT
  5
7EAC
  8
DEFPOINTS
 62
     0
 10
4475.8750119484539
 20
6396.1538470081568
 30
0.0
  0
ENDBLK
  5
7D50
  8
0
  0
BLOCK
  8
0
  2
*D6
 70
     1
 10
0.0
 20
0.0
 30
0.0
  3
*D6
  1

  0
LINE
  5
7EAD
  8
3
 62
     0
 10
5223.6225167416633
 20
5573.6538470081578
 30
0.0
 11
5223.6225167416633
 21
6431.1538470081568
 31
0.0
  0
LINE
  5
7EAE
  8
3
 62
     0
 10
7463.6225167416642
 20
5573.6538470081578
 30
0.0
 11
7463.6225167416642
 21
6431.1538470081568
 31
0.0
  0
LINE
  5
7EAF
  8
3
 62
     0
 10
5293.6225167416633
 20
6396.1538470081568
 30
0.0
 11
7393.6225167416642
 21
6396.1538470081568
 31
0.0
  0
INSERT
  5
7EB0
  8
3
 62
     0
  2
_OPEN
 10
5223.6225167416633
 20
6396.1538470081568
 30
0.0
 41
70.0
 42
70.0
 43
70.0
 50
180.0
  0
INSERT
  5
7EB1
  8
3
 62
     0
  2
_OPEN
 10
7463.6225167416642
 20
6396.1538470081568
 30
0.0
 41
70.0
 42
70.0
 43
70.0
  0
TEXT
  8
3
  40
105
  5
7EEA
  62
0
  72
0
  71
0
 10
6133.62
 20
6297.80
 30
0.000000
  1
2240
  0
POINT
  5
7EB3
  8
DEFPOINTS
 62
     0
 10
5223.6225167416633
 20
5556.1538470081568
 30
0.0
  0
POINT
  5
7EB4
  8
DEFPOINTS
 62
     0
 10
7463.6225167416642
 20
5556.1538470081568
 30
0.0
  0
POINT
  5
7EB5
  8
DEFPOINTS
 62
     0
 10
7463.6225167416642
 20
6396.1538470081568
 30
0.0
  0
ENDBLK
  5
7D96
  8
0
  0
BLOCK
  8
0
  2
*D7
 70
     1
 10
0.0
 20
0.0
 30
0.0
  3
*D7
  1

  0
LINE
  5
7EB6
  8
3
 62
     0
 10
2583.8750119484539
 20
4446.1538470081568
 30
0.0
 11
2497.7856929868722
 21
4446.1538470081568
 31
0.0
  0
LINE
  5
7EB7
  8
3
 62
     0
 10
2633.8750119484539
 20
4396.1538470081568
 30
0.0
 11
2497.7856929868722
 21
4396.1538470081568
 31
0.0
  0
LINE
  5
7EB8
  8
3
 62
     0
 10
2532.7856929868722
 20
4516.1538470081568
 30
0.0
 11
2532.7856929868722
 21
4586.1538470081568
 31
0.0
  0
LINE
  5
7EB9
  8
3
 62
     0
 10
2532.7856929868722
 20
4326.1538470081568
 30
0.0
 11
2532.7856929868722
 21
4016.1538470081568
 31
0.0
  0
LINE
  5
7EBA
  8
3
 62
     0
 10
2532.7856929868722
 20
4446.1538470081568
 30
0.0
 11
2532.7856929868722
 21
4396.1538470081568
 31
0.0
  0
INSERT
  5
7EBB
  8
3
 62
     0
  2
_OPEN
 10
2532.7856929868722
 20
4446.1538470081568
 30
0.0
 41
70.0
 42
70.0
 43
70.0
 50
270.0
  0
INSERT
  5
7EBC
  8
3
 62
     0
  2
_OPEN
 10
2532.7856929868722
 20
4396.1538470081568
 30
0.0
 41
70.0
 42
70.0
 43
70.0
 50
90.0
  0
TEXT
  8
3
  40
105
  5
7EEB
  62
0
  72
0
  71
0
 10
2235.29
 20
3950.30
 30
0.000000
  1
50
  0
POINT
  5
7EBE
  8
DEFPOINTS
 62
     0
 10
2601.3750119484539
 20
4446.1538470081568
 30
0.0
  0
POINT
  5
7EBF
  8
DEFPOINTS
 62
     0
 10
2651.3750119484539
 20
4396.1538470081568
 30
0.0
  0
POINT
  5
7EC0
  8
DEFPOINTS
 62
     0
 10
2532.7856929868722
 20
4396.1538470081568
 30
0.0
  0
ENDBLK
  5
7D8B
  8
0
  0
BLOCK
  8
0
  2
*D8
 70
     1
 10
0.0
 20
0.0
 30
0.0
  3
*D8
  1

  0
LINE
  5
7EC1
  8
3
 62
     0
 10
5643.6225167416642
 20
4378.6538470081578
 30
0.0
 11
5643.6225167416642
 21
3822.3155177414919
 31
0.0
  0
LINE
  5
7EC2
  8
3
 62
     0
 10
7043.6225167416633
 20
4378.6538470081578
 30
0.0
 11
7043.6225167416633
 21
3822.3155177414919
 31
0.0
  0
LINE
  5
7EC3
  8
3
 62
     0
 10
5713.6225167416633
 20
3857.3155177414919
 30
0.0
 11
6973.6225167416633
 21
3857.3155177414919
 31
0.0
  0
INSERT
  5
7EC4
  8
3
 62
     0
  2
_OPEN
 10
5643.6225167416642
 20
3857.3155177414919
 30
0.0
 41
70.0
 42
70.0
 43
70.0
 50
180.0
  0
INSERT
  5
7EC5
  8
3
 62
     0
  2
_OPEN
 10
7043.6225167416633
 20
3857.3155177414919
 30
0.0
 41
70.0
 42
70.0
 43
70.0
  0
TEXT
  8
3
  40
105
  5
7EEC
  62
0
  72
0
  71
0
 10
6126.31
 20
3758.97
 30
0.000000
  1
1400
  0
POINT
  5
7EC7
  8
DEFPOINTS
 62
     0
 10
5643.6225167416642
 20
4396.1538470081568
 30
0.0
  0
POINT
  5
7EC8
  8
DEFPOINTS
 62
     0
 10
7043.6225167416633
 20
4396.1538470081568
 30
0.0
  0
POINT
  5
7EC9
  8
DEFPOINTS
 62
     0
 10
7043.6225167416633
 20
3857.3155177414919
 30
0.0
  0
ENDBLK
  5
7E5A
  8
0
  0
BLOCK
  8
0
  2
*D9
 70
     1
 10
0.0
 20
0.0
 30
0.0
  3
*D9
  1

  0
LINE
  5
7ECA
  8
3
 62
     0
 10
2655.8750119484539
 20
4378.6538470081578
 30
0.0
 11
2655.8750119484539
 21
3822.3155177414919
 31
0.0
  0
LINE
  5
7ECB
  8
3
 62
     0
 10
4055.8750119484539
 20
4378.6538470081578
 30
0.0
 11
4055.8750119484539
 21
3822.3155177414919
 31
0.0
  0
LINE
  5
7ECC
  8
3
 62
     0
 10
2725.8750119484539
 20
3857.3155177414919
 30
0.0
 11
3985.8750119484539
 21
3857.3155177414919
 31
0.0
  0
INSERT
  5
7ECD
  8
3
 62
     0
  2
_OPEN
 10
2655.8750119484539
 20
3857.3155177414919
 30
0.0
 41
70.0
 42
70.0
 43
70.0
 50
180.0
  0
INSERT
  5
7ECE
  8
3
 62
     0
  2
_OPEN
 10
4055.8750119484539
 20
3857.3155177414919
 30
0.0
 41
70.0
 42
70.0
 43
70.0
  0
TEXT
  8
3
  40
105
  5
7EED
  62
0
  72
0
  71
0
 10
3134.91
 20
3758.97
 30
0.000000
  1
1400
  0
POINT
  5
7ED0
  8
DEFPOINTS
 62
     0
 10
2655.8750119484539
 20
4396.1538470081568
 30
0.0
  0
POINT
  5
7ED1
  8
DEFPOINTS
 62
     0
 10
4055.8750119484539
 20
4396.1538470081568
 30
0.0
  0
POINT
  5
7ED2
  8
DEFPOINTS
 62
     0
 10
4055.8750119484539
 20
3857.3155177414919
 30
0.0
  0
ENDBLK
  5
7E44
  8
0
  0
BLOCK
  8
0
  2
*D10
 70
     1
 10
0.0
 20
0.0
 30
0.0
  3
*D10
  1

  0
LINE
  5
7ED3
  8
3
 62
     0
 10
2795.875011948453
 20
4508.6538470081568
 30
0.0
 11
2795.875011948453
 21
3994.7417387221062
 31
0.0
  0
LINE
  5
7ED4
  8
3
 62
     0
 10
3915.8750119484539
 20
4508.6538470081568
 30
0.0
 11
3915.8750119484539
 21
3994.7417387221062
 31
0.0
  0
LINE
  5
7ED5
  8
3
 62
     0
 10
2865.8750119484539
 20
4029.7417387221071
 30
0.0
 11
3845.8750119484539
 21
4029.7417387221071
 31
0.0
  0
INSERT
  5
7ED6
  8
3
 62
     0
  2
_OPEN
 10
2795.875011948453
 20
4029.7417387221071
 30
0.0
 41
70.0
 42
70.0
 43
70.0
 50
180.0
  0
INSERT
  5
7ED7
  8
3
 62
     0
  2
_OPEN
 10
3915.8750119484539
 20
4029.7417387221071
 30
0.0
 41
70.0
 42
70.0
 43
70.0
  0
TEXT
  8
3
  40
105
  5
7EEE
  62
0
  72
0
  71
0
 10
3123.36
 20
3931.39
 30
0.000000
  1
φ1120
  0
POINT
  5
7ED9
  8
DEFPOINTS
 62
     0
 10
2795.875011948453
 20
4526.1538470081568
 30
0.0
  0
POINT
  5
7EDA
  8
DEFPOINTS
 62
     0
 10
3915.8750119484539
 20
4526.1538470081568
 30
0.0
  0
POINT
  5
7EDB
  8
DEFPOINTS
 62
     0
 10
3915.8750119484539
 20
4029.7417387221071
 30
0.0
  0
ENDBLK
  5
7E0D
  8
0
  0
BLOCK
  8
0
  2
*D11
 70
     1
 10
0.0
 20
0.0
 30
0.0
  3
*D11
  1

  0
LINE
  5
7EDC
  8
3
 62
     0
 10
5783.6225167416633
 20
4508.6538470081568
 30
0.0
 11
5783.6225167416633
 21
3991.2078534119569
 31
0.0
  0
LINE
  5
7EDD
  8
3
 62
     0
 10
6903.6225167416633
 20
4508.6538470081568
 30
0.0
 11
6903.6225167416633
 21
3991.2078534119569
 31
0.0
  0
LINE
  5
7EDE
  8
3
 62
     0
 10
5853.6225167416633
 20
4026.2078534119569
 30
0.0
 11
6833.6225167416624
 21
4026.2078534119569
 31
0.0
  0
INSERT
  5
7EDF
  8
3
 62
     0
  2
_OPEN
 10
5783.6225167416633
 20
4026.2078534119569
 30
0.0
 41
70.0
 42
70.0
 43
70.0
 50
180.0
  0
INSERT
  5
7EE0
  8
3
 62
     0
  2
_OPEN
 10
6903.6225167416633
 20
4026.2078534119569
 30
0.0
 41
70.0
 42
70.0
 43
70.0
  0
TEXT
  8
3
  40
105
  5
7EEF
  62
0
  72
0
  71
0
 10
6120.56
 20
3927.86
 30
0.000000
  1
φ1120
  0
POINT
  5
7EE2
  8
DEFPOINTS
 62
     0
 10
5783.6225167416633
 20
4526.1538470081568
 30
0.0
  0
POINT
  5
7EE3
  8
DEFPOINTS
 62
     0
 10
6903.6225167416633
 20
4526.1538470081568
 30
0.0
  0
POINT
  5
7EE4
  8
DEFPOINTS
 62
     0
 10
6903.6225167416633
 20
4026.2078534119569
 30
0.0
  0
ENDBLK
  5
7E23
  8
0
  0
ENDSEC
  0
SECTION
  2
ENTITIES
  0
LINE
  5
7B71
  8
1
 10
2651.3750119484539
 20
4396.1538470081568
 30
0.0
 11
4060.3750119484539
 21
4396.1538470081568
 31
0.0
  0
LINE
  5
7B72
  8
2
 10
3355.8750119484539
 20
4326.1538470081568
 30
0.0
 11
3355.8750119484539
 21
6176.1538470081578
 31
0.0
  0
LINE
  5
7B73
  8
1
 10
2235.8750119484539
 20
6126.1538470081578
 30
0.0
 11
4475.8750119484539
 21
6126.1538470081578
 31
0.0
  0
LINE
  5
7B74
  8
1
 10
4475.8750119484539
 20
5476.1538470081568
 30
0.0
 11
4475.8750119484539
 21
6126.1538470081578
 31
0.0
  0
LINE
  5
7B75
  8
1
 10
2235.8750119484539
 20
5476.1538470081568
 30
0.0
 11
2235.8750119484539
 21
6126.1538470081578
 31
0.0
  0
LINE
  5
7B76
  8
1
 10
2655.8750119484539
 20
4526.1538470081568
 30
0.0
 11
4055.8750119484539
 21
4526.1538470081568
 31
0.0
  0
LINE
  5
7B77
  8
1
 10
3915.8750119484539
 20
4762.9585228138039
 30
0.0
 11
3915.8750119484539
 21
5496.6541822105046
 31
0.0
  0
LINE
  5
7B78
  8
1
 10
2795.875011948453
 20
4757.2974862558231
 30
0.0
 11
2795.875011948453
 21
5496.6541822105046
 31
0.0
  0
LINE
  5
7B7A
  8
1
 10
2789.8750119484539
 20
4749.2915715784384
 30
0.0
 11
2789.8750119484539
 21
4754.9526081364183
 31
0.0
  0
LINE
  5
7B7B
  8
1
 10
2655.8750119484539
 20
4532.1538470081568
 30
0.0
 11
4055.8750119484539
 21
4532.1538470081568
 31
0.0
  0
LINE
  5
7B7C
  8
1
 10
3025.875011948453
 20
5356.1538470081578
 30
0.0
 11
3685.8750119484539
 21
5356.1538470081578
 31
0.0
  0
LINE
  5
7B7D
  8
1
 10
3025.875011948453
 20
4626.1538470081568
 30
0.0
 11
3685.8750119484539
 21
4626.1538470081568
 31
0.0
  0
LINE
  5
7B7E
  8
1
 10
3685.8750119484539
 20
4626.1538470081568
 30
0.0
 11
3685.8750119484539
 21
5356.1538470081578
 31
0.0
  0
LINE
  5
7B7F
  8
1
 10
3025.875011948453
 20
4626.1538470081568
 30
0.0
 11
3025.875011948453
 21
5356.1538470081578
 31
0.0
  0
LINE
  5
7B80
  8
1
 10
3033.8750119484539
 20
4626.1538470081568
 30
0.0
 11
3033.8750119484539
 21
5356.1538470081578
 31
0.0
  0
LINE
  5
7B81
  8
1
 10
3677.8750119484539
 20
4626.1538470081568
 30
0.0
 11
3677.8750119484539
 21
5356.1538470081578
 31
0.0
  0
LINE
  5
7B82
  8
2
 10
3125.875011948453
 20
5141.6538470081568
 30
0.0
 11
3656.8750119484539
 21
5141.6538470081568
 31
0.0
  0
LINE
  5
7B83
  8
1
 10
3546.8750119484539
 20
4802.6538470081578
 30
0.0
 11
3179.8750119484539
 21
4802.6538470081578
 31
0.0
  0
LINE
  5
7B84
  8
1
 10
3308.3750119484539
 20
5396.1538470081568
 30
0.0
 11
3403.375011948453
 21
5396.1538470081568
 31
0.0
  0
LINE
  5
7B85
  8
1
 10
3278.875011948453
 20
5392.1538470081578
 30
0.0
 11
3432.875011948453
 21
5392.1538470081578
 31
0.0
  0
LINE
  5
7B86
  8
1
 10
3208.875011948453
 20
5310.6538470081578
 30
0.0
 11
3355.8750119484539
 21
5310.6538470081578
 31
0.0
  0
LINE
  5
7B87
  8
1
 10
3546.8750119484539
 20
4942.6538470081578
 30
0.0
 11
3179.8750119484539
 21
4942.6538470081578
 31
0.0
  0
LINE
  5
7B88
  8
1
 10
3546.8750119484539
 20
5310.6538470081578
 30
0.0
 11
3179.8750119484539
 21
5310.6538470081578
 31
0.0
  0
LINE
  5
7B89
  8
1
 10
3410.8750119484539
 20
5402.1538470081578
 30
0.0
 11
3300.8750119484539
 21
5402.1538470081578
 31
0.0
  0
LINE
  5
7B8A
  8
1
 10
3383.3750119484539
 20
5512.1538470081578
 30
0.0
 11
3328.3750119484539
 21
5512.1538470081578
 31
0.0
  0
LINE
  5
7B8B
  8
1
 10
3175.8750119484539
 20
4969.6538470081568
 30
0.0
 11
3175.8750119484539
 21
5313.6538470081578
 31
0.0
  0
LINE
  5
7B8C
  8
1
 10
3195.875011948453
 20
5300.6538470081578
 30
0.0
 11
3195.875011948453
 21
5243.6538470081568
 31
0.0
  0
LINE
  5
7B8D
  8
1
 10
3196.943615948454
 20
5107.0948870081593
 30
0.0
 11
3195.875011948453
 21
5039.6538470081578
 31
0.0
  0
LINE
  5
7B8E
  8
1
 10
3179.8750119484539
 20
4802.6538470081578
 30
0.0
 11
3179.8750119484539
 21
4979.6538470081578
 31
0.0
  0
LINE
  5
7B8F
  8
1
 10
3195.875011948453
 20
4982.6538470081578
 30
0.0
 11
3195.875011948453
 21
5039.6538470081578
 31
0.0
  0
LINE
  5
7B90
  8
1
 10
3245.8750119484539
 20
5002.1538470081587
 30
0.0
 11
3125.875011948453
 21
5002.1538470081559
 31
0.0
  0
LINE
  5
7B91
  8
1
 10
3192.8750119484539
 20
4979.6538470081578
 30
0.0
 11
3175.8750119484539
 21
4979.6538470081578
 31
0.0
  0
ARC
  5
7B92
  8
1
 10
3192.8750119484539
 20
4982.6538470081578
 30
0.0
 40
3.0
 50
270.0
 51
0.0
  0
ARC
  5
7B93
  8
1
 10
3243.750621948453
 20
5161.6538470081578
 30
0.0
 40
5.0
 50
270.0
 51
0.0
  0
LINE
  5
7B94
  8
1
 10
3243.750621948453
 20
5156.6538470081578
 30
0.0
 11
3217.3577999484551
 21
5156.6538470081578
 31
0.0
  0
ARC
  5
7B95
  8
1
 10
3243.750621948453
 20
5121.6538470081578
 30
0.0
 40
5.0
 50
0.0
 51
90.0
  0
LINE
  5
7B96
  8
1
 10
3243.750621948453
 20
5126.6538470081568
 30
0.0
 11
3216.9387329484521
 21
5126.6538470081568
 31
0.0
  0
LINE
  5
7B97
  8
1
 10
3181.8750119484539
 20
5216.1538470081578
 30
0.0
 11
3181.8750119484539
 21
5141.6538470081568
 31
0.0
  0
ARC
  5
7B98
  8
1
 10
3217.3577999484551
 20
5176.6538470081568
 30
0.0
 40
20.0
 50
181.26357999999991
 51
270.0
  0
ARC
  5
7B99
  8
1
 10
3216.9387329484521
 20
5106.6538470081578
 30
0.0
 40
19.999980999999998
 50
90.0
 51
178.73642000000001
  0
LINE
  5
7B9A
  8
1
 10
3181.8750119484539
 20
5067.1538470081578
 30
0.0
 11
3181.8750119484539
 21
5141.6538470081568
 31
0.0
  0
LINE
  5
7B9B
  8
1
 10
3176.8750119484539
 20
5062.1538470081578
 30
0.0
 11
3175.8750119484539
 21
5062.1538470081578
 31
0.0
  0
ARC
  5
7B9C
  8
1
 10
3176.8750119484539
 20
5067.1538470081578
 30
0.0
 40
5.0
 50
270.0
 51
0.0
  0
LINE
  5
7B9D
  8
1
 10
3195.875011948453
 20
5243.6538470081568
 30
0.0
 11
3197.3626829484529
 21
5176.2128070081581
 31
0.0
  0
ARC
  5
7B9E
  8
1
 10
3176.8750119484539
 20
5216.1538470081578
 30
0.0
 40
5.0
 50
0.0
 51
90.0
  0
LINE
  5
7B9F
  8
1
 10
3176.8750119484539
 20
5221.1538470081568
 30
0.0
 11
3175.8750119484539
 21
5221.1538470081568
 31
0.0
  0
LINE
  5
7BA0
  8
1
 10
3328.3750119484539
 20
5402.1538470081578
 30
0.0
 11
3328.3750119484539
 21
5512.1538470081578
 31
0.0
  0
LINE
  5
7BA1
  8
1
 10
3245.8750119484539
 20
5281.1538470081578
 30
0.0
 11
3125.875011948453
 21
5281.1538470081578
 31
0.0
  0
LINE
  5
7BA2
  8
1
 10
3192.8750119484539
 20
5303.6538470081578
 30
0.0
 11
3175.8750119484539
 21
5303.6538470081578
 31
0.0
  0
ARC
  5
7BA3
  8
1
 10
3192.8750119484539
 20
5300.6538470081578
 30
0.0
 40
3.0
 50
0.0
 51
90.0
  0
LINE
  5
7BA4
  8
1
 10
3278.875011948453
 20
5380.556789241291
 30
0.0
 11
3278.875011948453
 21
5392.1538470081578
 31
0.0
  0
LINE
  5
7BA5
  8
1
 10
3308.3750119484539
 20
5396.1538470081568
 30
0.0
 11
3308.3750119484539
 21
5392.1538470081578
 31
0.0
  0
LINE
  5
7BA6
  8
1
 10
3325.8750119484539
 20
5396.1538470081568
 30
0.0
 11
3325.8750119484539
 21
5402.1538470081578
 31
0.0
  0
LINE
  5
7BA7
  8
1
 10
3546.8750119484539
 20
5380.7256949654484
 30
0.0
 11
3546.8750119484539
 21
4802.6538470081578
 31
0.0
  0
ARC
  5
7BA8
  8
1
 10
3576.8750119484539
 20
5141.6538470081568
 30
0.0
 40
30.0
 50
215.6853789999999
 51
90.0
  0
ARC
  5
7BA9
  8
1
 10
3576.8750119484539
 20
5141.6538470081568
 30
0.0
 40
29.99996599999999
 50
90.0
 51
144.314606
  0
ARC
  5
7BAA
  8
1
 10
3556.0650759484538
 20
5154.6538470081578
 30
0.0
 40
2.0
 50
5.7099000000000117
 51
90.0
  0
ARC
  5
7BAB
  8
1
 10
3556.0650759484538
 20
5128.6538470081578
 30
0.0
 40
1.9999130000000001
 50
270.0
 51
354.2901
  0
LINE
  5
7BAC
  8
1
 10
3546.8750119484539
 20
5126.6538470081568
 30
0.0
 11
3546.8750119484539
 21
5156.6538470081578
 31
0.0
  0
ARC
  5
7BAD
  8
1
 10
3547.6346559484541
 20
5120.6538470081568
 30
0.0
 40
6.0
 50
35.685245999999992
 51
90.0
  0
LINE
  5
7BAE
  8
1
 10
3546.8750119484539
 20
5126.6538470081568
 30
0.0
 11
3556.0650759484538
 21
5126.6538470081568
 31
0.0
  0
ARC
  5
7BAF
  8
1
 10
3547.6346559484541
 20
5162.6538470081578
 30
0.0
 40
6.000013
 50
270.0
 51
324.314751
  0
LINE
  5
7BB0
  8
1
 10
3546.8750119484539
 20
5156.6538470081578
 30
0.0
 11
3556.0650759484538
 21
5156.6538470081578
 31
0.0
  0
CIRCLE
  5
7BB1
  8
1
 10
3576.8750119484539
 20
5141.6538470081568
 30
0.0
 40
17.5
  0
LINE
  5
7BB2
  8
1
 10
3558.0550659484538
 20
5128.4548720081566
 30
0.0
 11
3558.0550659484538
 21
5154.8528210081577
 31
0.0
  0
LINE
  5
7BB3
  8
1
 10
3559.3927119484538
 20
5141.8310930081579
 30
0.0
 11
3558.0550659484538
 21
5128.4548720081566
 31
0.0
  0
LINE
  5
7BB4
  8
1
 10
3559.3540159484542
 20
5141.8636860081569
 30
0.0
 11
3558.0550659484538
 21
5154.8528210081577
 31
0.0
  0
LINE
  5
7BB5
  8
1
 10
3383.3750119484539
 20
5402.1538470081578
 30
0.0
 11
3383.3750119484539
 21
5512.1538470081578
 31
0.0
  0
LINE
  5
7BB6
  8
1
 10
3385.8750119484539
 20
5396.1538470081568
 30
0.0
 11
3385.8750119484539
 21
5402.1538470081578
 31
0.0
  0
LINE
  5
7BB7
  8
1
 10
3403.375011948453
 20
5396.1538470081568
 30
0.0
 11
3403.375011948453
 21
5392.1538470081578
 31
0.0
  0
LINE
  5
7BB8
  8
1
 10
3432.875011948453
 20
5392.1538470081578
 30
0.0
 11
3432.875011948453
 21
5380.6538470081578
 31
0.0
  0
LINE
  5
7BB9
  8
1
 10
3179.8750119484539
 20
5380.4943949625922
 30
0.0
 11
3546.8750119484539
 21
5380.7256949654484
 31
0.0
  0
LINE
  5
7BBA
  8
1
 10
3179.8750119484539
 20
5303.6538470081578
 30
0.0
 11
3179.8750119484539
 21
5380.4943949625922
 31
0.0
  0
LINE
  5
7BBB
  8
1
 10
3169.8750119484539
 20
4952.1538470081578
 30
0.0
 11
3169.8750119484539
 21
5332.1538470081568
 31
0.0
  0
LINE
  5
7BBC
  8
1
 10
3157.875011948453
 20
5332.1538470081568
 30
0.0
 11
3169.8750119484539
 21
5332.1538470081568
 31
0.0
  0
LINE
  5
7BBD
  8
1
 10
3157.875011948453
 20
4952.1538470081578
 30
0.0
 11
3169.8750119484539
 21
4952.1538470081578
 31
0.0
  0
LINE
  5
7BBE
  8
1
 10
3157.875011948453
 20
4952.1538470081578
 30
0.0
 11
3157.875011948453
 21
5332.1538470081568
 31
0.0
  0
LINE
  5
7BBF
  8
1
 10
3175.8750119484539
 20
5313.6538470081578
 30
0.0
 11
3169.8750119484539
 21
5313.6538470081578
 31
0.0
  0
LINE
  5
7BC0
  8
1
 10
3175.8750119484539
 20
4969.6538470081568
 30
0.0
 11
3169.8750119484539
 21
4969.6538470081568
 31
0.0
  0
LINE
  5
7BC1
  8
1
 10
3157.875011948453
 20
5322.1538470081568
 30
0.0
 11
3033.8750119484539
 21
5322.1538470081568
 31
0.0
  0
LINE
  5
7BC2
  8
1
 10
3157.875011948453
 20
4962.1538470081578
 30
0.0
 11
3033.8750119484539
 21
4962.1538470081578
 31
0.0
  0
LINE
  5
7BC3
  8
1
 10
3410.8750119484539
 20
5517.1538470081578
 30
0.0
 11
3300.8750119484539
 21
5517.1538470081578
 31
0.0
  0
LINE
  5
7BC4
  8
1
 10
3410.8750119484539
 20
5402.1538470081578
 30
0.0
 11
3410.8750119484539
 21
5517.1538470081578
 31
0.0
  0
LINE
  5
7BC5
  8
1
 10
3300.8750119484539
 20
5402.1538470081578
 30
0.0
 11
3300.8750119484539
 21
5517.1538470081578
 31
0.0
  0
LINE
  5
7BC6
  8
1
 10
3025.875011948453
 20
5376.1538470081578
 30
0.0
 11
3685.8750119484539
 21
5376.1538470081578
 31
0.0
  0
LINE
  5
7BC7
  8
1
 10
3025.875011948453
 20
5556.1538470081568
 30
0.0
 11
3025.875011948453
 21
5376.1538470081578
 31
0.0
  0
LINE
  5
7BC8
  8
1
 10
3685.8750119484539
 20
5556.1538470081568
 30
0.0
 11
3685.8750119484539
 21
5376.1538470081578
 31
0.0
  0
LINE
  5
7BC9
  8
1
 10
2655.8750119484539
 20
4396.1538470081568
 30
0.0
 11
2655.8750119484539
 21
4546.1538470081578
 31
0.0
  0
LINE
  5
7BCA
  8
1
 10
3025.875011948453
 20
5545.1538470081578
 30
0.0
 11
2799.8750119484539
 21
5515.4003825534064
 31
0.0
  0
LINE
  5
7BCB
  8
1
 10
3025.875011948453
 20
5437.1538470081578
 30
0.0
 11
2799.8750119484539
 21
5466.9073114629091
 31
0.0
  0
LINE
  5
7BCC
  8
1
 10
2799.8750119484539
 20
5466.9073114629091
 30
0.0
 11
2799.8750119484539
 21
5515.4003825534064
 31
0.0
  0
LINE
  5
7BCD
  8
1
 10
3685.8750119484539
 20
5437.1538470081578
 30
0.0
 11
3911.875011948453
 21
5466.9073114629091
 31
0.0
  0
LINE
  5
7BCE
  8
1
 10
3685.8750119484539
 20
5545.1538470081578
 30
0.0
 11
3911.875011948453
 21
5515.4003825534064
 31
0.0
  0
LINE
  5
7BCF
  8
1
 10
3911.875011948453
 20
5466.9073114629091
 30
0.0
 11
3911.875011948453
 21
5515.4003825534064
 31
0.0
  0
LINE
  5
7BD0
  8
1
 10
2651.3750119484539
 20
4550.277337291237
 30
0.0
 11
2957.7795160536152
 21
4577.0842578537204
 31
0.0
  0
LINE
  5
7BD1
  8
1
 10
2651.3750119484539
 20
4396.1538470081568
 30
0.0
 11
2651.3750119484539
 21
4550.277337291237
 31
0.0
  0
LINE
  5
7BD2
  8
1
 10
2957.7795160536152
 20
4926.1538470081578
 30
0.0
 11
2957.7795160536152
 21
4577.0842578537204
 31
0.0
  0
LINE
  5
7BD3
  8
1
 10
2660.1176526355739
 20
4551.0422192406386
 30
0.0
 11
2660.1176526355739
 21
4576.1538470081568
 31
0.0
  0
LINE
  5
7BD4
  8
1
 10
2655.8750119484539
 20
4576.1538470081568
 30
0.0
 11
2660.1176526355739
 21
4576.1538470081568
 31
0.0
  0
LINE
  5
7BD5
  8
1
 10
2918.1810799773948
 20
4926.1538470081568
 30
0.0
 11
2957.7795160536152
 21
4926.1538470081578
 31
0.0
  0
LINE
  5
7BD6
  8
1
 10
2655.8750119484539
 20
4550.6710362771028
 30
0.0
 11
2655.8750119484539
 21
4576.1538470081568
 31
0.0
  0
LINE
  5
7BD7
  8
1
 10
2922.4237206645139
 20
4926.1538470081578
 30
0.0
 11
2660.1176526355739
 21
4576.1538470081568
 31
0.0
  0
LINE
  5
7BD8
  8
1
 10
2918.1810799773948
 20
4926.1538470081578
 30
0.0
 11
2655.8750119484539
 21
4576.1538470081568
 31
0.0
  0
LINE
  5
7BD9
  8
1
 10
3793.5689439195121
 20
4926.1538470081578
 30
0.0
 11
4055.8750119484539
 21
4576.1538470081568
 31
0.0
  0
LINE
  5
7BDA
  8
1
 10
3789.326303232393
 20
4926.1538470081578
 30
0.0
 11
4051.6323712613339
 21
4576.1538470081568
 31
0.0
  0
LINE
  5
7BDB
  8
1
 10
3753.9705078432921
 20
4926.1538470081578
 30
0.0
 11
3753.9705078432921
 21
4577.0842578537204
 31
0.0
  0
LINE
  5
7BDC
  8
1
 10
3793.5689439195121
 20
4926.1538470081568
 30
0.0
 11
3753.9705078432921
 21
4926.1538470081578
 31
0.0
  0
LINE
  5
7BDD
  8
1
 10
4060.3750119484539
 20
4550.277337291237
 30
0.0
 11
3753.9705078432921
 21
4577.0842578537204
 31
0.0
  0
ARC
  5
7BDE
  8
1
 10
3355.8750119484539
 20
9963.9811061175442
 30
0.0
 40
5401.5865889279667
 50
265.7734842142691
 51
274.2265157857309
  0
LINE
  5
7BDF
  8
1
 10
2651.3750119484539
 20
4550.277337291237
 30
0.0
 11
4060.3750119484539
 21
4550.277337291237
 31
0.0
  0
LINE
  5
7BE0
  8
1
 10
2789.8750119484539
 20
4754.9526081364183
 30
0.0
 11
2789.8750119484539
 21
5505.4109187197737
 31
0.0
  0
LINE
  5
7BE1
  8
1
 10
3921.8750119484539
 20
4754.9526081364183
 30
0.0
 11
3921.8750119484539
 21
5505.4109187197737
 31
0.0
  0
LINE
  5
7BE2
  8
1
 10
3915.8750119484539
 20
4428.1538470081568
 30
0.0
 11
3915.8750119484539
 21
4464.1538470081578
 31
0.0
  0
LINE
  5
7BE3
  8
1
 10
3897.875011948453
 20
4446.1538470081568
 30
0.0
 11
3933.875011948453
 21
4446.1538470081568
 31
0.0
  0
CIRCLE
  5
7BE4
  8
1
 10
3915.8750119484539
 20
4446.1538470081568
 30
0.0
 40
9.0
  0
LINE
  5
7BE5
  8
1
 10
2795.875011948453
 20
4428.1538470081568
 30
0.0
 11
2795.875011948453
 21
4464.1538470081578
 31
0.0
  0
LINE
  5
7BE6
  8
1
 10
2813.8750119484539
 20
4446.1538470081568
 30
0.0
 11
2777.8750119484539
 21
4446.1538470081568
 31
0.0
  0
CIRCLE
  5
7BE7
  8
1
 10
2795.875011948453
 20
4446.1538470081568
 30
0.0
 40
9.0
  0
LINE
  5
7BE8
  8
1
 10
4060.3750119484539
 20
4396.1538470081568
 30
0.0
 11
4060.3750119484539
 21
4550.277337291237
 31
0.0
  0
LINE
  5
7BE9
  8
1
 10
4055.8750119484539
 20
4396.1538470081568
 30
0.0
 11
4055.8750119484539
 21
4546.1538470081578
 31
0.0
  0
LINE
  5
7BEA
  8
1
 10
4055.8750119484539
 20
4550.6710362771028
 30
0.0
 11
4055.8750119484539
 21
4576.1538470081568
 31
0.0
  0
LINE
  5
7BEB
  8
1
 10
4051.6323712613339
 20
4551.0422192406386
 30
0.0
 11
4051.6323712613339
 21
4576.1538470081568
 31
0.0
  0
LINE
  5
7BEC
  8
1
 10
4055.8750119484539
 20
4576.1538470081568
 30
0.0
 11
4051.6323712613339
 21
4576.1538470081568
 31
0.0
  0
LINE
  5
7BED
  8
2
 10
2717.375011948453
 20
4446.1538470081578
 30
0.0
 11
2601.3750119484539
 21
4446.1538470081568
 31
0.0
  0
LINE
  5
7BEE
  8
2
 10
3994.3750119484539
 20
4446.1538470081578
 30
0.0
 11
4110.3750119484539
 21
4446.1538470081568
 31
0.0
  0
LINE
  5
7BEF
  8
1
 10
2235.8750119484539
 20
5556.1538470081568
 30
0.0
 11
4475.8750119484539
 21
5556.1538470081568
 31
0.0
  0
LINE
  5
7BF0
  8
1
 10
2238.1750119484532
 20
5476.1538470081568
 30
0.0
 11
2238.1750119484532
 21
5556.1538470081568
 31
0.0
  0
LINE
  5
7BF1
  8
1
 10
4473.5750119484537
 20
5476.1538470081568
 30
0.0
 11
4473.5750119484537
 21
5556.1538470081568
 31
0.0
  0
LINE
  5
7BF2
  8
1
 10
2957.7795160536152
 20
5318.1538470081578
 30
0.0
 11
2957.7795160536152
 21
5556.1538470081568
 31
0.0
  0
LINE
  5
7BF3
  8
1
 10
2918.1810799773948
 20
5318.1538470081578
 30
0.0
 11
2957.7795160536152
 21
5318.1538470081578
 31
0.0
  0
LINE
  5
7BF4
  8
1
 10
2922.4237206645139
 20
5318.1538470081578
 30
0.0
 11
2759.3492695275449
 21
5556.1538470081568
 31
0.0
  0
LINE
  5
7BF5
  8
1
 10
2918.1810799773948
 20
5318.1538470081578
 30
0.0
 11
2755.1066288404249
 21
5556.1538470081568
 31
0.0
  0
LINE
  5
7BF6
  8
1
 10
3793.5689439195121
 20
5318.1538470081578
 30
0.0
 11
3956.6433950564819
 21
5556.1538470081568
 31
0.0
  0
LINE
  5
7BF7
  8
1
 10
3789.326303232393
 20
5318.1538470081578
 30
0.0
 11
3952.4007543693619
 21
5556.1538470081568
 31
0.0
  0
LINE
  5
7BF8
  8
1
 10
3753.9705078432921
 20
5318.1538470081578
 30
0.0
 11
3753.9705078432921
 21
5556.1538470081568
 31
0.0
  0
LINE
  5
7BF9
  8
1
 10
3793.5689439195121
 20
5318.1538470081578
 30
0.0
 11
3753.9705078432921
 21
5318.1538470081578
 31
0.0
  0
ARC
  5
7BFC
  8
1
 10
3355.8750119484539
 20
4832.1948306147151
 30
0.0
 40
389.04098360655729
 50
211.97927947462509
 51
328.02072052537483
  0
LINE
  5
7BFD
  8
1
 10
3025.875011948453
 20
4646.1538470081568
 30
0.0
 11
3685.8750119484539
 21
4646.1538470081568
 31
0.0
  0
DIMENSION
  5
7BFE
  8
3
  2
*D1
 10
2043.375011948453
 20
6126.1538470081587
 30
0.0
 11
1955.8750119484521
 21
5801.1538470081578
 31
0.0
 70
     0
 13
2235.8750119484539
 23
5476.1538470081568
 33
0.0
 14
2235.8750119484539
 24
6126.1538470081578
 34
0.0
 50
90.0
1001
ACAD
1000
DSTYLE
1002
{
1070
   287
1070
     3
1070
    40
1040
35.0
1070
   143
1040
0.039
1070
   172
1070
     1
1070
   271
1070
     0
1070
   279
1070
     0
1070
   288
1070
     1
1002
}
  0
DIMENSION
  5
7BFF
  8
3
  2
*D2
 10
2043.375011948453
 20
4546.1538470081587
 30
0.0
 11
1955.875011948453
 21
5011.1538470081587
 31
0.0
 70
     0
 13
2235.8750119484539
 23
5476.1538470081568
 33
0.0
 14
2655.8750119484539
 24
4546.1538470081578
 34
0.0
 50
90.0
1001
ACAD
1000
DSTYLE
1002
{
1070
   287
1070
     3
1070
    40
1040
35.0
1070
   143
1040
0.039
1070
   172
1070
     1
1070
   271
1070
     0
1070
   279
1070
     0
1070
   288
1070
     1
1002
}
  0
DIMENSION
  5
7C00
  8
3
  2
*D3
 10
2043.3750119484539
 20
4396.1538470081578
 30
0.0
 11
2043.375011948453
 21
4096.1538470081578
 31
0.0
 70
   128
 13
2655.8750119484539
 23
4546.1538470081578
 33
0.0
 14
2651.3750119484539
 24
4396.1538470081568
 34
0.0
 50
90.0
1001
ACAD
1000
DSTYLE
1002
{
1070
   287
1070
     3
1070
    40
1040
35.0
1070
   143
1040
0.039
1070
   172
1070
     1
1070
   271
1070
     0
1070
   279
1070
     0
1070
   288
1070
     1
1002
}
  0
DIMENSION
  5
7C01
  8
3
  2
*D4
 10
1793.375011948453
 20
6126.1538470081587
 30
0.0
 11
1705.8750119484521
 21
5261.1538470081587
 31
0.0
 70
     0
 13
2651.3750119484539
 23
4396.1538470081568
 33
0.0
 14
2235.8750119484539
 24
6126.1538470081578
 34
0.0
 50
90.0
1001
ACAD
1000
DSTYLE
1002
{
1070
   287
1070
     3
1070
    40
1040
35.0
1070
   143
1040
0.039
1070
   172
1070
     1
1070
   271
1070
     0
1070
   279
1070
     0
1070
   288
1070
     1
1002
}
  0
ARC
  5
7C02
  8
1
 10
6343.6225167416642
 20
9963.9811061175442
 30
0.0
 40
5401.5865889279667
 50
265.7734842142691
 51
274.2265157857309
  0
LINE
  5
7C03
  8
1
 10
5639.1225167416642
 20
4396.1538470081568
 30
0.0
 11
7048.1225167416633
 21
4396.1538470081568
 31
0.0
  0
LINE
  5
7C04
  8
1
 10
5639.1225167416642
 20
4550.277337291237
 30
0.0
 11
7048.1225167416633
 21
4550.277337291237
 31
0.0
  0
LINE
  5
7C05
  8
1
 10
5643.6225167416642
 20
4526.1538470081568
 30
0.0
 11
7043.6225167416633
 21
4526.1538470081568
 31
0.0
  0
LINE
  5
7C06
  8
1
 10
5643.6225167416642
 20
4532.1538470081568
 30
0.0
 11
7043.6225167416633
 21
4532.1538470081568
 31
0.0
  0
LINE
  5
7C07
  8
1
 10
5733.6225167416642
 20
6126.1538470081578
 30
0.0
 11
6953.6225167416633
 21
6126.1538470081578
 31
0.0
  0
LINE
  5
7C08
  8
2
 10
6343.6225167416642
 20
4326.1538470081568
 30
0.0
 11
6343.6225167416642
 21
6176.1538470081578
 31
0.0
  0
LINE
  5
7C09
  8
1
 10
5783.6225167416633
 20
4757.2974862558249
 30
0.0
 11
5783.6225167416633
 21
5476.1538470081568
 31
0.0
  0
LINE
  5
7C0A
  8
1
 10
5777.6225167416633
 20
4754.9526081364183
 30
0.0
 11
5777.6225167416633
 21
5476.1538470081568
 31
0.0
  0
LINE
  5
7C0B
  8
1
 10
5945.5270208468237
 20
4926.1538470081578
 30
0.0
 11
5945.5270208468237
 21
4577.0842578537204
 31
0.0
  0
LINE
  5
7C0C
  8
1
 10
5910.1712254577233
 20
4926.1538470081578
 30
0.0
 11
5647.8651574287824
 21
4576.1538470081568
 31
0.0
  0
LINE
  5
7C0D
  8
1
 10
5905.9285847706051
 20
4926.1538470081578
 30
0.0
 11
5643.6225167416642
 21
4576.1538470081568
 31
0.0
  0
LINE
  5
7C0F
  8
1
 10
5639.1225167416642
 20
4550.277337291237
 30
0.0
 11
5945.5270208468237
 21
4577.0842578537204
 31
0.0
  0
LINE
  5
7C10
  8
1
 10
5643.6225167416642
 20
4396.1538470081568
 30
0.0
 11
5643.6225167416642
 21
4546.1538470081578
 31
0.0
  0
LINE
  5
7C11
  8
1
 10
5639.1225167416642
 20
4396.1538470081568
 30
0.0
 11
5639.1225167416642
 21
4550.277337291237
 31
0.0
  0
LINE
  5
7C12
  8
1
 10
5783.6225167416633
 20
4428.1538470081568
 30
0.0
 11
5783.6225167416633
 21
4464.1538470081578
 31
0.0
  0
LINE
  5
7C13
  8
2
 10
5705.1225167416633
 20
4446.1538470081578
 30
0.0
 11
5589.1225167416642
 21
4446.1538470081568
 31
0.0
  0
LINE
  5
7C14
  8
1
 10
5801.6225167416633
 20
4446.1538470081568
 30
0.0
 11
5765.6225167416642
 21
4446.1538470081568
 31
0.0
  0
CIRCLE
  5
7C15
  8
1
 10
5783.6225167416633
 20
4446.1538470081568
 30
0.0
 40
9.0
  0
LINE
  5
7C16
  8
1
 10
5643.6225167416642
 20
4576.1538470081568
 30
0.0
 11
5647.8651574287824
 21
4576.1538470081568
 31
0.0
  0
LINE
  5
7C17
  8
1
 10
5647.8651574287824
 20
4551.0422192406386
 30
0.0
 11
5647.8651574287824
 21
4576.1538470081568
 31
0.0
  0
LINE
  5
7C18
  8
1
 10
5643.6225167416642
 20
4550.6710362771028
 30
0.0
 11
5643.6225167416642
 21
4576.1538470081568
 31
0.0
  0
LINE
  5
7C19
  8
1
 10
5905.9285847706042
 20
4926.1538470081568
 30
0.0
 11
5945.5270208468237
 21
4926.1538470081578
 31
0.0
  0
LINE
  5
7C1A
  8
1
 10
5223.6225167416633
 20
5476.1538470081568
 30
0.0
 11
5223.6225167416633
 21
5556.1538470081568
 31
0.0
  0
LINE
  5
7C1B
  8
1
 10
5910.1712254577233
 20
5318.1538470081578
 30
0.0
 11
5801.9117158793988
 21
5476.1538470081568
 31
0.0
  0
LINE
  5
7C1C
  8
1
 10
5905.9285847706051
 20
5318.1538470081578
 30
0.0
 11
5797.6690751922788
 21
5476.1538470081568
 31
0.0
  0
LINE
  5
7C1D
  8
1
 10
5945.5270208468237
 20
5318.1538470081578
 30
0.0
 11
5945.5270208468228
 21
5476.1538470081568
 31
0.0
  0
LINE
  5
7C1E
  8
1
 10
5905.9285847706042
 20
5318.1538470081578
 30
0.0
 11
5945.5270208468237
 21
5318.1538470081578
 31
0.0
  0
LINE
  5
7C1F
  8
1
 10
6903.6225167416633
 20
4762.958522813803
 30
0.0
 11
6903.6225167416633
 21
5476.1538470081568
 31
0.0
  0
LINE
  5
7C20
  8
1
 10
6909.6225167416633
 20
4754.9526081364183
 30
0.0
 11
6909.6225167416633
 21
5476.1538470081568
 31
0.0
  0
LINE
  5
7C21
  8
1
 10
6777.0738080256042
 20
4926.1538470081578
 30
0.0
 11
7039.3798760545433
 21
4576.1538470081568
 31
0.0
  0
LINE
  5
7C22
  8
1
 10
6741.7180126365029
 20
4926.1538470081578
 30
0.0
 11
6741.7180126365029
 21
4577.0842578537204
 31
0.0
  0
LINE
  5
7C24
  8
1
 10
6781.3164487127206
 20
4926.1538470081578
 30
0.0
 11
7043.6225167416633
 21
4576.1538470081568
 31
0.0
  0
LINE
  5
7C25
  8
2
 10
6982.1225167416633
 20
4446.1538470081578
 30
0.0
 11
7098.1225167416642
 21
4446.1538470081568
 31
0.0
  0
LINE
  5
7C26
  8
1
 10
7048.1225167416633
 20
4396.1538470081568
 30
0.0
 11
7048.1225167416633
 21
4550.277337291237
 31
0.0
  0
LINE
  5
7C27
  8
1
 10
7043.6225167416633
 20
4396.1538470081568
 30
0.0
 11
7043.6225167416633
 21
4546.1538470081578
 31
0.0
  0
LINE
  5
7C28
  8
1
 10
6903.6225167416633
 20
4428.1538470081568
 30
0.0
 11
6903.6225167416633
 21
4464.1538470081578
 31
0.0
  0
CIRCLE
  5
7C29
  8
1
 10
6903.6225167416633
 20
4446.1538470081568
 30
0.0
 40
9.0
  0
LINE
  5
7C2A
  8
1
 10
6885.6225167416642
 20
4446.1538470081568
 30
0.0
 11
6921.6225167416633
 21
4446.1538470081568
 31
0.0
  0
LINE
  5
7C2B
  8
1
 10
7048.1225167416633
 20
4550.277337291237
 30
0.0
 11
6741.7180126365029
 21
4577.0842578537204
 31
0.0
  0
LINE
  5
7C2C
  8
1
 10
7043.6225167416633
 20
4550.6710362771028
 30
0.0
 11
7043.6225167416633
 21
4576.1538470081568
 31
0.0
  0
LINE
  5
7C2D
  8
1
 10
7039.3798760545433
 20
4551.0422192406386
 30
0.0
 11
7039.3798760545433
 21
4576.1538470081568
 31
0.0
  0
LINE
  5
7C2E
  8
1
 10
7043.6225167416633
 20
4576.1538470081568
 30
0.0
 11
7039.3798760545433
 21
4576.1538470081568
 31
0.0
  0
LINE
  5
7C2F
  8
1
 10
6781.3164487127224
 20
4926.1538470081568
 30
0.0
 11
6741.7180126365029
 21
4926.1538470081578
 31
0.0
  0
LINE
  5
7C30
  8
1
 10
7463.6225167416642
 20
5476.1538470081568
 30
0.0
 11
7463.6225167416642
 21
5556.1538470081568
 31
0.0
  0
LINE
  5
7C31
  8
1
 10
6781.3164487127224
 20
5318.1538470081578
 30
0.0
 11
6741.7180126365029
 21
5318.1538470081578
 31
0.0
  0
LINE
  5
7C32
  8
1
 10
6741.7180126365029
 20
5318.1538470081578
 30
0.0
 11
6741.7180126365029
 21
5476.1538470081568
 31
0.0
  0
LINE
  5
7C33
  8
1
 10
6781.3164487127206
 20
5318.1538470081578
 30
0.0
 11
6889.5759582910468
 21
5476.1538470081568
 31
0.0
  0
LINE
  5
7C34
  8
1
 10
6777.0738080256042
 20
5318.1538470081578
 30
0.0
 11
6885.3333176039268
 21
5476.1538470081568
 31
0.0
  0
LINE
  5
7C35
  8
1
 10
5223.6225167416633
 20
5476.1538470081568
 30
0.0
 11
7463.6225167416642
 21
5476.1538470081568
 31
0.0
  0
ARC
  5
7C36
  8
1
 10
5733.6225167416642
 20
5776.1538470081568
 30
0.0
 40
350.0
 50
90.0
 51
152.39485877133319
  0
LINE
  5
7C37
  8
1
 10
5223.6225167416633
 20
5556.1538470081568
 30
0.0
 11
5423.4658155248562
 21
5938.3352907380377
 31
0.0
  0
LINE
  5
7C38
  8
1
 10
7463.6225167416642
 20
5556.1538470081568
 30
0.0
 11
7263.7792179584712
 21
5938.3352907380377
 31
0.0
  0
ARC
  5
7C39
  8
1
 10
6953.6225167416633
 20
5776.1538470081568
 30
0.0
 40
350.0
 50
27.605141228666689
 51
90.0
  0
DIMENSION
  5
7C3A
  8
3
  2
*D5
 10
4475.8750119484539
 20
6396.1538470081568
 30
0.0
 11
3355.8750119484539
 21
6483.6538470081578
 31
0.0
 70
     0
 13
2235.8750119484539
 23
6126.1538470081578
 33
0.0
 14
4475.8750119484539
 24
6126.1538470081578
 34
0.0
1001
ACAD
1000
DSTYLE
1002
{
1070
   287
1070
     3
1070
    40
1040
35.0
1070
   143
1040
0.039
1070
   172
1070
     1
1070
   271
1070
     0
1070
   279
1070
     0
1070
   288
1070
     1
1002
}
  0
DIMENSION
  5
7C3B
  8
3
  2
*D6
 10
7463.6225167416642
 20
6396.1538470081568
 30
0.0
 11
6343.6225167416642
 21
6483.6538470081578
 31
0.0
 70
     0
 13
5223.6225167416633
 23
5556.1538470081568
 33
0.0
 14
7463.6225167416642
 24
5556.1538470081568
 34
0.0
1001
ACAD
1000
DSTYLE
1002
{
1070
   287
1070
     3
1070
    40
1040
35.0
1070
   143
1040
0.039
1070
   172
1070
     1
1070
   271
1070
     0
1070
   279
1070
     0
1070
   288
1070
     1
1002
}
  0
LINE
  5
7C42
  8
1
 10
6288.6225167416642
 20
4676.1538470081578
 30
0.0
 11
6398.6225167416642
 21
4676.1538470081578
 31
0.0
  0
LINE
  5
7C43
  8
1
 10
6398.6225167416642
 20
4676.1538470081578
 30
0.0
 11
6398.6225167416642
 21
4776.1538470081568
 31
0.0
  0
LINE
  5
7C44
  8
1
 10
6288.6225167416642
 20
4676.1538470081578
 30
0.0
 11
6288.6225167416642
 21
4776.1538470081568
 31
0.0
  0
LINE
  5
7C45
  8
1
 10
6288.6225167416642
 20
4776.1538470081568
 30
0.0
 11
6398.6225167416642
 21
4776.1538470081568
 31
0.0
  0
LINE
  5
7C46
  8
1
 10
6290.9225167416644
 20
4676.1538470081578
 30
0.0
 11
6290.9225167416644
 21
4776.1538470081568
 31
0.0
  0
LINE
  5
7C47
  8
1
 10
6396.3225167416631
 20
4676.1538470081578
 30
0.0
 11
6396.3225167416631
 21
4776.1538470081568
 31
0.0
  0
LINE
  5
7C4A
  8
1
 10
7140.744525741663
 20
5217.8511130081579
 30
0.0
 11
7151.1430857416644
 21
5174.1770410081581
 31
0.0
  0
ARC
  5
7C4B
  8
1
 10
6982.822467741662
 20
5208.1204000081589
 30
0.0
 40
8.1999940000000002
 50
107.30986
 51
180.0
  0
LINE
  5
7C4C
  8
1
 10
6991.4151197416631
 20
5251.5156640081577
 30
0.0
 11
7140.1651807416629
 21
4993.8730850081574
 31
0.0
  0
LINE
  5
7C4D
  8
1
 10
6985.8725167416642
 20
5248.3157120081578
 30
0.0
 11
7134.622577741663
 21
4990.6731340081578
 31
0.0
  0
LINE
  5
7C4E
  8
1
 10
6995.0210767416638
 20
5016.6538470081568
 30
0.0
 11
7119.6224557416645
 21
5016.6538470081568
 31
0.0
  0
LINE
  5
7C4F
  8
1
 10
6997.6225167416633
 20
4986.6538470081578
 30
0.0
 11
7117.6224557416626
 21
4986.6538470081578
 31
0.0
  0
LINE
  5
7C50
  8
1
 10
6974.6225167416642
 20
5070.3279190081566
 30
0.0
 11
6974.6225167416642
 21
5208.1204000081589
 31
0.0
  0
ARC
  5
7C51
  8
1
 10
6984.6225167416633
 20
5070.3279190081566
 30
0.0
 40
10.0
 50
180.0
 51
193.392303
  0
LINE
  5
7C52
  8
1
 10
6997.6225167416633
 20
4986.6538470081578
 30
0.0
 11
6997.6225167416633
 21
5016.6538470081568
 31
0.0
  0
ARC
  5
7C53
  8
1
 10
6995.0210767416638
 20
5026.6538470081578
 30
0.0
 40
9.9999559999999992
 50
193.392303
 51
270.0
  0
LINE
  5
7C54
  8
1
 10
6974.8944897416641
 20
5068.0117570081566
 30
0.0
 11
6985.2930487416634
 21
5024.3376850081568
 31
0.0
  0
LINE
  5
7C55
  8
1
 10
7151.415180741662
 20
5034.0682760081581
 30
0.0
 11
7151.415180741662
 21
5171.8608780081577
 31
0.0
  0
LINE
  5
7C56
  8
1
 10
7145.6549267416631
 20
5026.2396630081575
 30
0.0
 11
7127.5521427416634
 21
5020.597817008158
 31
0.0
  0
ARC
  5
7C57
  8
1
 10
7128.1473577416637
 20
5018.6883930081576
 30
0.0
 40
2.0000450000000001
 50
107.313553
 51
209.9981839999999
  0
LINE
  5
7C58
  8
1
 10
7140.1651807416629
 20
4993.8730850081574
 30
0.0
 11
7134.622577741663
 21
4990.6731340081578
 31
0.0
  0
LINE
  5
7C59
  8
1
 10
7117.6224557416626
 20
4986.6538470081578
 30
0.0
 11
7117.6224557416626
 21
5016.6538470081568
 31
0.0
  0
ARC
  5
7C5A
  8
1
 10
7143.214984741664
 20
5034.0682760081581
 30
0.0
 40
8.2000299999999982
 50
287.31066900000002
 51
0.0
  0
ARC
  5
7C5B
  8
1
 10
7141.414447741663
 20
5171.8607560081573
 30
0.0
 40
10.000731999999999
 50
0.0
 51
13.39201199999999
  0
LINE
  5
7C5C
  8
1
 10
6991.4151197416631
 20
5251.5156640081577
 30
0.0
 11
6985.8725167416642
 21
5248.3157120081578
 31
0.0
  0
ARC
  5
7C5D
  8
1
 10
6997.8902167416627
 20
5223.5002830081567
 30
0.0
 40
2.000008999999999
 50
287.31021099999992
 51
29.999931000000011
  0
LINE
  5
7C5E
  8
1
 10
6998.4853097416626
 20
5221.5908590081581
 30
0.0
 11
6980.3826487416636
 21
5215.9490130081576
 31
0.0
  0
LINE
  5
7C5F
  8
1
 10
7131.016498741662
 20
5225.5349510081578
 30
0.0
 11
7006.4150577416622
 21
5225.5349510081578
 31
0.0
  0
ARC
  5
7C60
  8
1
 10
7131.016498741662
 20
5215.5349510081578
 30
0.0
 40
9.9999559999999992
 50
13.392303
 51
90.0
  0
LINE
  5
7C61
  8
1
 10
6909.6225167416633
 20
5206.6538470081578
 30
0.0
 11
6974.6225167416642
 21
5206.6538470081578
 31
0.0
  0
LINE
  5
7C62
  8
1
 10
6909.6225167416633
 20
5076.6538470081578
 30
0.0
 11
6974.6225167416642
 21
5076.6538470081578
 31
0.0
  0
ARC
  5
7C63
  8
1
 10
2765.8750119484539
 20
6179.9038470081578
 30
0.0
 40
6.25
 50
0.0
 51
180.0
  0
LINE
  5
7C64
  8
1
 10
2780.8750119484539
 20
6126.1538470081578
 30
0.0
 11
2780.8750119484539
 21
6137.1538470081578
 31
0.0
  0
LINE
  5
7C65
  8
1
 10
2750.875011948453
 20
6126.1538470081578
 30
0.0
 11
2750.875011948453
 21
6137.1538470081578
 31
0.0
  0
LINE
  5
7C66
  8
1
 10
2750.875011948453
 20
6137.1538470081578
 30
0.0
 11
2759.6250119484539
 21
6137.1538470081578
 31
0.0
  0
LINE
  5
7C67
  8
1
 10
2759.6250119484539
 20
6132.4038470081568
 30
0.0
 11
2759.6250119484539
 21
6179.9038470081578
 31
0.0
  0
LINE
  5
7C68
  8
1
 10
2772.1250119484539
 20
6179.9038470081578
 30
0.0
 11
2772.1250119484539
 21
6132.4038470081568
 31
0.0
  0
LINE
  5
7C69
  8
1
 10
2772.1250119484539
 20
6137.1538470081578
 30
0.0
 11
2780.8750119484539
 21
6137.1538470081578
 31
0.0
  0
LINE
  5
7C6A
  8
1
 10
3939.6250119484539
 20
6137.1538470081578
 30
0.0
 11
3930.8750119484539
 21
6137.1538470081578
 31
0.0
  0
LINE
  5
7C6B
  8
1
 10
3960.8750119484539
 20
6137.1538470081578
 30
0.0
 11
3952.1250119484539
 21
6137.1538470081578
 31
0.0
  0
LINE
  5
7C6C
  8
1
 10
3930.8750119484539
 20
6126.1538470081578
 30
0.0
 11
3930.8750119484539
 21
6137.1538470081578
 31
0.0
  0
LINE
  5
7C6D
  8
1
 10
3960.8750119484539
 20
6126.1538470081578
 30
0.0
 11
3960.8750119484539
 21
6137.1538470081578
 31
0.0
  0
ARC
  5
7C6E
  8
1
 10
3945.8750119484539
 20
6179.9038470081578
 30
0.0
 40
6.25
 50
0.0
 51
180.0
  0
LINE
  5
7C6F
  8
1
 10
3939.6250119484539
 20
6179.9038470081578
 30
0.0
 11
3939.6250119484539
 21
6132.4038470081568
 31
0.0
  0
LINE
  5
7C70
  8
1
 10
3952.1250119484539
 20
6132.4038470081568
 30
0.0
 11
3952.1250119484539
 21
6179.9038470081578
 31
0.0
  0
LINE
  5
7C71
  8
1
 10
5768.6225167416642
 20
6126.1538470081578
 30
0.0
 11
5768.6225167416642
 21
6137.1538470081578
 31
0.0
  0
LINE
  5
7C72
  8
1
 10
5738.6225167416642
 20
6126.1538470081578
 30
0.0
 11
5738.6225167416642
 21
6137.1538470081578
 31
0.0
  0
CIRCLE
  5
7C73
  8
1
 10
5753.6225167416633
 20
6156.1538470081578
 30
0.0
 40
17.5
  0
ARC
  5
7C74
  8
1
 10
5753.6225167416633
 20
6156.1538470081578
 30
0.0
 40
30.0
 50
299.99999999999989
 51
240.00000000000011
  0
LINE
  5
7C75
  8
1
 10
5738.6225167416642
 20
6137.1538470081578
 30
0.0
 11
5768.6225167416642
 21
6137.1538470081578
 31
0.0
  0
ARC
  5
7C76
  8
1
 10
6933.6225167416633
 20
6156.1538470081578
 30
0.0
 40
30.0
 50
299.99999999999989
 51
240.00000000000011
  0
LINE
  5
7C77
  8
1
 10
6948.6225167416633
 20
6126.1538470081578
 30
0.0
 11
6948.6225167416633
 21
6137.1538470081578
 31
0.0
  0
LINE
  5
7C78
  8
1
 10
6918.6225167416633
 20
6126.1538470081578
 30
0.0
 11
6918.6225167416633
 21
6137.1538470081578
 31
0.0
  0
LINE
  5
7C79
  8
1
 10
6948.6225167416633
 20
6137.1538470081578
 30
0.0
 11
6918.6225167416633
 21
6137.1538470081578
 31
0.0
  0
CIRCLE
  5
7C7A
  8
1
 10
6933.6225167416633
 20
6156.1538470081578
 30
0.0
 40
17.5
  0
DIMENSION
  5
7C7B
  8
3
  2
*D7
 10
2532.7856929868722
 20
4396.1538470081568
 30
0.0
 11
2532.7856929868722
 21
4136.1538470081578
 31
0.0
 70
   128
 13
2601.3750119484539
 23
4446.1538470081568
 33
0.0
 14
2651.3750119484539
 24
4396.1538470081568
 34
0.0
 50
90.0
1001
ACAD
1000
DSTYLE
1002
{
1070
   287
1070
     3
1070
    40
1040
35.0
1070
   143
1040
0.039
1070
   172
1070
     1
1070
   271
1070
     0
1070
   279
1070
     0
1070
   288
1070
     1
1002
}
  0
LINE
  5
7D25
  8
4
 10
7456.579952537023
 20
1946.153895204541
 30
0.0
 11
7456.579952537023
 21
1246.153895204541
 31
0.0
  0
LINE
  5
7D26
  8
4
 10
5006.579952537023
 20
1946.153895204541
 30
0.0
 11
5006.579952537023
 21
1246.153895204541
 31
0.0
  0
LINE
  5
7D27
  8
4
 10
3256.579952537023
 20
1946.153895204541
 30
0.0
 11
3256.579952537023
 21
1246.153895204541
 31
0.0
  0
LINE
  5
7D2A
  8
4
 10
3256.579952537023
 20
1246.153895204541
 30
0.0
 11
7456.579952537023
 21
1246.153895204541
 31
0.0
  0
LINE
  5
7D2B
  8
4
 10
3256.579952537023
 20
1596.153895204541
 30
0.0
 11
7456.579952537023
 21
1596.153895204541
 31
0.0
  0
TEXT
  5
7D2C
  8
4
 10
3391.3372355011788
 20
1706.554485737686
 30
0.0
 40
175.0
  1
機器名称
  0
TEXT
  5
7D2D
  8
4
 10
3383.4833236238151
 20
1321.911943766579
 30
0.0
 40
175.0
  1
機器型番
  0
TEXT
  5
7D2E
  8
4
 10
5103.4555617438509
 20
1675.1550865560309
 30
0.0
 40
175.0
  1
ミツヤ軸流排煙ファン
  0
TEXT
  5
7D2F
  8
4
 10
5134.8706870862052
 20
1306.212440184343
 30
0.0
 40
175.0
  1
APE#1120-3R
  0
TEXT
  5
7D31
  8
4
 10
4148.3301316680372
 20
8538.1548398683462
 30
0.0
 40
188.99999999999989
  1
床置ベット
  0
TEXT
  5
7D32
  8
4
 10
2088.1665291900858
 20
9064.7373119020849
 30
0.0
 40
252.0
  1
電動機直動横形軸流式排煙ファン
  0
LINE
  5
7D33
  8
4
 10
1856.579952537023
 20
8839.0845351313583
 30
0.0
 11
7456.579952537023
 21
8839.0845351313583
 31
0.0
  0
LINE
  5
7D34
  8
4
 10
1856.579952537023
 20
9539.0845351313583
 30
0.0
 11
7456.579952537023
 21
9539.0845351313583
 31
0.0
  0
LINE
  5
7D35
  8
4
 10
3256.579952537023
 20
1946.153895204541
 30
0.0
 11
7456.579952537023
 21
1946.153895204541
 31
0.0
  0
LINE
  5
7D36
  8
4
 10
1856.579952537023
 20
9539.0845351313583
 30
0.0
 11
1856.579952537023
 21
8839.0845351313583
 31
0.0
  0
TEXT
  5
7D37
  8
4
 10
2174.4265772723411
 20
8554.6369622831953
 30
0.0
 40
188.99999999999989
  1
左回転前方吐出
  0
TEXT
  5
7D38
  8
4
 10
6122.9734099095394
 20
9667.3676804381212
 30
0.0
 40
196.0
  1
No.
  0
TEXT
  5
7D39
  8
4
 10
5571.1161716370689
 20
8538.1548398683462
 30
0.0
 40
188.99999999999989
  1
縮尺：1/35
  0
LINE
  5
7D3A
  8
4
 10
7456.579952537023
 20
9539.0845351313583
 30
0.0
 11
7456.579952537023
 21
8839.0845351313583
 31
0.0
  0
LINE
  5
7D3B
  8
4
 10
8331.5799525370239
 20
10521.153895204539
 30
0.0
 11
8331.5799525370239
 21
10521.153895204539
 31
0.0
  0
LINE
  5
7D3C
  8
4
 10
6023.7409307965499
 20
9580.5764361434449
 30
0.0
 11
6023.7409307965499
 21
9949.4368106286747
 31
0.0
  0
LINE
  5
7D3D
  8
4
 10
6023.7409307965499
 20
9949.4368106286747
 30
0.0
 11
7456.579952537023
 21
9949.4368106286747
 31
0.0
  0
LINE
  5
7D3E
  8
4
 10
7456.579952537023
 20
9949.4368106286747
 30
0.0
 11
7456.579952537023
 21
9580.5764361434449
 31
0.0
  0
LINE
  5
7D3F
  8
4
 10
7456.579952537023
 20
9580.5764361434449
 30
0.0
 11
6023.7409307965499
 21
9580.5764361434449
 31
0.0
  0
LINE
  5
7D40
  8
4
 10
981.57995253702393
 20
196.1538952045411
 30
0.0
 11
981.57995253702393
 21
10521.153895204539
 31
0.0
  0
LINE
  5
7D41
  8
4
 10
981.57995253702393
 20
10521.153895204539
 30
0.0
 11
8331.5799525370239
 21
10521.153895204539
 31
0.0
  0
LINE
  5
7D42
  8
4
 10
8331.5799525370239
 20
10521.153895204539
 30
0.0
 11
8331.5799525370239
 21
196.1538952045411
 31
0.0
  0
LINE
  5
7D43
  8
4
 10
8331.5799525370239
 20
196.1538952045411
 30
0.0
 11
981.57995253702393
 21
196.1538952045411
 31
0.0
  0
DIMENSION
  5
7DA3
  8
3
  2
*D8
 10
7043.6225167416633
 20
3857.3155177414919
 30
0.0
 11
6336.3137399121042
 21
3857.3155177414919
 31
0.0
 70
   128
 13
5643.6225167416642
 23
4396.1538470081568
 33
0.0
 14
7043.6225167416633
 24
4396.1538470081568
 34
0.0
1001
ACAD
1000
DSTYLE
1002
{
1070
   287
1070
     3
1070
    40
1040
35.0
1070
   143
1040
0.039
1070
   172
1070
     1
1070
   271
1070
     0
1070
   279
1070
     0
1070
   288
1070
     1
1002
}
  0
DIMENSION
  5
7DBB
  8
3
  2
*D9
 10
4055.8750119484539
 20
3857.3155177414919
 30
0.0
 11
3344.9056511720769
 21
3857.3155177414919
 31
0.0
 70
   128
 13
2655.8750119484539
 23
4396.1538470081568
 33
0.0
 14
4055.8750119484539
 24
4396.1538470081568
 34
0.0
1001
ACAD
1000
DSTYLE
1002
{
1070
   287
1070
     3
1070
    40
1040
35.0
1070
   143
1040
0.039
1070
   172
1070
     1
1070
   271
1070
     0
1070
   279
1070
     0
1070
   288
1070
     1
1002
}
  0
DIMENSION
  5
7DDE
  8
3
  2
*D10
 10
3915.8750119484539
 20
4029.7417387221071
 30
0.0
 11
3333.3574074753051
 21
4029.7417387221071
 31
0.0
 70
   128
 13
2795.875011948453
 23
4526.1538470081568
 33
0.0
 14
3915.8750119484539
 24
4526.1538470081568
 34
0.0
1001
ACAD
1000
DSTYLE
1002
{
1070
   287
1070
     3
1070
     3
1000
φ<>
1070
    40
1040
35.0
1070
   143
1040
0.039
1070
   172
1070
     1
1070
   271
1070
     0
1070
   279
1070
     0
1070
   288
1070
     1
1002
}
  0
DIMENSION
  5
7DF6
  8
3
  2
*D11
 10
6903.6225167416633
 20
4026.2078534119569
 30
0.0
 11
6330.560319275588
 21
4026.2078534119569
 31
0.0
 70
   128
 13
5783.6225167416633
 23
4526.1538470081568
 33
0.0
 14
6903.6225167416633
 24
4526.1538470081568
 34
0.0
1001
ACAD
1000
DSTYLE
1002
{
1070
   287
1070
     3
1070
     3
1000
φ<>
1070
    40
1040
35.0
1070
   143
1040
0.039
1070
   172
1070
     1
1070
   271
1070
     0
1070
   279
1070
     0
1070
   288
1070
     1
1002
}
  0
ENDSEC
  0
EOF
