  0
SECTION
  2
HEADER
  9
$ACADVER
  1
AC1009
  9
$INSBASE
 10
0.0
 20
0.0
 30
0.0
  9
$EXTMIN
 10
0.0
 20
0.0
 30
0.0
  9
$EXTMAX
 10
4200.0000000000009
 20
5900.0
 30
0.0
  9
$LIMMIN
 10
0.0
 20
0.0
  9
$LIMMAX
 10
297.0
 20
210.0
  9
$ORTHOMODE
 70
     0
  9
$REGENMODE
 70
     1
  9
$FILLMODE
 70
     1
  9
$QTEXTMODE
 70
     0
  9
$MIRRTEXT
 70
     0
  9
$DRAGMODE
 70
     2
  9
$LTSCALE
 40
100.0
  9
$OSMODE
 70
    37
  9
$ATTMODE
 70
     1
  9
$TEXTSIZE
 40
3.5
  9
$TRACEWID
 40
0.05
  9
$TEXTSTYLE
  7
STANDARD
  9
$CLAYER
  8
SP
  9
$CELTYPE
  6
BYLAYER
  9
$CECOLOR
 62
   256
  9
$DIMSCALE
 40
20.0
  9
$DIMASZ
 40
2.5
  9
$DIMEXO
 40
1.0
  9
$DIMDLI
 40
7.0
  9
$DIMRND
 40
0.0
  9
$DIMDLE
 40
0.0
  9
$DIMEXE
 40
1.0
  9
$DIMTP
 40
0.0
  9
$DIMTM
 40
0.0
  9
$DIMTXT
 40
3.0
  9
$DIMCEN
 40
0.0
  9
$DIMTSZ
 40
0.0
  9
$DIMTOL
 70
     0
  9
$DIMLIM
 70
     0
  9
$DIMTIH
 70
     0
  9
$DIMTOH
 70
     0
  9
$DIMSE1
 70
     0
  9
$DIMSE2
 70
     0
  9
$DIMTAD
 70
     1
  9
$DIMZIN
 70
     8
  9
$DIMBLK
  1

  9
$DIMASO
 70
     1
  9
$DIMSHO
 70
     1
  9
$DIMPOST
  1

  9
$DIMAPOST
  1

  9
$DIMALT
 70
     0
  9
$DIMALTD
 70
     2
  9
$DIMALTF
 40
0.03937
  9
$DIMLFAC
 40
1.0
  9
$DIMTOFL
 70
     1
  9
$DIMTVP
 40
0.0
  9
$DIMTIX
 70
     0
  9
$DIMSOXD
 70
     0
  9
$DIMSAH
 70
     1
  9
$DIMBLK1
  1
OPEN
  9
$DIMBLK2
  1
OPEN
  9
$DIMSTYLE
  2
GOD
  9
$DIMCLRD
 70
   256
  9
$DIMCLRE
 70
   256
  9
$DIMCLRT
 70
   256
  9
$DIMTFAC
 40
1.0
  9
$DIMGAP
 40
1.0
  9
$LUNITS
 70
     2
  9
$LUPREC
 70
     3
  9
$SKETCHINC
 40
0.1
  9
$FILLETRAD
 40
0.0
  9
$AUNITS
 70
     0
  9
$AUPREC
 70
     2
  9
$MENU
  1
acad
  9
$ELEVATION
 40
0.0
  9
$PELEVATION
 40
0.0
  9
$THICKNESS
 40
0.0
  9
$LIMCHECK
 70
     0
  9
$BLIPMODE
 70
     0
  9
$CHAMFERA
 40
0.0
  9
$CHAMFERB
 40
0.0
  9
$SKPOLY
 70
     0
  9
$TDCREATE
 40
2454942.6188268168
  9
$TDUPDATE
 40
2454953.6344905552
  9
$TDINDWG
 40
0.0091420139
  9
$TDUSRTIMER
 40
0.0091420139
  9
$USRTIMER
 70
     1
  9
$ANGBASE
 50
0.0
  9
$ANGDIR
 70
     0
  9
$PDMODE
 70
     0
  9
$PDSIZE
 40
1.0
  9
$PLINEWID
 40
0.0
  9
$COORDS
 70
     1
  9
$SPLFRAME
 70
     0
  9
$SPLINETYPE
 70
     6
  9
$SPLINESEGS
 70
     8
  9
$ATTDIA
 70
     0
  9
$ATTREQ
 70
     1
  9
$HANDLING
 70
 10241
  9
$HANDSEED
  5
229E
  9
$SURFTAB1
 70
     6
  9
$SURFTAB2
 70
     6
  9
$SURFTYPE
 70
     6
  9
$SURFU
 70
     6
  9
$SURFV
 70
     6
  9
$UCSNAME
  2

  9
$UCSORG
 10
0.0
 20
0.0
 30
0.0
  9
$UCSXDIR
 10
1.0
 20
0.0
 30
0.0
  9
$UCSYDIR
 10
0.0
 20
1.0
 30
0.0
  9
$PUCSNAME
  2

  9
$PUCSORG
 10
0.0
 20
0.0
 30
0.0
  9
$PUCSXDIR
 10
1.0
 20
0.0
 30
0.0
  9
$PUCSYDIR
 10
0.0
 20
1.0
 30
0.0
  9
$USERI1
 70
     0
  9
$USERI2
 70
     0
  9
$USERI3
 70
     0
  9
$USERI4
 70
     0
  9
$USERI5
 70
     0
  9
$USERR1
 40
0.0
  9
$USERR2
 40
0.0
  9
$USERR3
 40
0.0
  9
$USERR4
 40
0.0
  9
$USERR5
 40
0.0
  9
$WORLDVIEW
 70
     1
  9
$SHADEDGE
 70
     3
  9
$SHADEDIF
 70
    70
  9
$TILEMODE
 70
     1
  9
$MAXACTVP
 70
    16
  9
$PLIMCHECK
 70
     0
  9
$PEXTMIN
 10
1.0000000000000000E+020
 20
1.0000000000000000E+020
 30
1.0000000000000000E+020
  9
$PEXTMAX
 10
-1.0000000000000000E+020
 20
-1.0000000000000000E+020
 30
-1.0000000000000000E+020
  9
$PLIMMIN
 10
0.0
 20
0.0
  9
$PLIMMAX
 10
12.0
 20
9.0
  9
$UNITMODE
 70
     0
  9
$VISRETAIN
 70
     0
  9
$PLINEGEN
 70
     0
  9
$PSLTSCALE
 70
     0
  0
ENDSEC
  0
SECTION
  2
TABLES
  0
TABLE
  2
VPORT
 70
     2
  0
VPORT
  2
*ACTIVE
 70
     0
 10
0.0
 20
0.0
 11
1.0
 21
1.0
 12
3572.5455514957162
 22
751.86334608858863
 13
0.0
 23
0.0
 14
5.0
 24
5.0
 15
0.0
 25
0.0
 16
0.0
 26
0.0
 36
1.0
 17
0.0
 27
0.0
 37
0.0
 40
1780.0557812463569
 41
3.1666666666666661
 42
50.0
 43
0.0
 44
0.0
 50
0.0
 51
0.0
 71
     0
 72
   100
 73
     1
 74
     0
 75
     0
 76
     0
 77
     0
 78
     0
  0
ENDTAB
  0
TABLE
  2
LTYPE
 70
     4
  0
LTYPE
  2
CONTINUOUS
 70
     0
  3
Solid line
 72
    65
 73
     0
 40
0.0
  0
LTYPE
  2
CENTER
 70
     0
  3
____ _ ____ _ ____ _ ____ _ ____ _ ____ _ ____ 
 72
    65
 73
     4
 40
2.0
 49
1.25
 49
-0.25
 49
0.25
 49
-0.25
  0
LTYPE
  2
HIDDEN
 70
     0
  3
__ __ __ __ __ __ __ __ __ __ __ __ __ __ __ __
 72
    65
 73
     2
 40
0.375
 49
0.25
 49
-0.125
  0
LTYPE
  2
PHANTOM
 70
     0
  3
______  __  __  ______  __  __  ______  __  __ 
 72
    65
 73
     6
 40
2.5
 49
1.25
 49
-0.25
 49
0.25
 49
-0.25
 49
0.25
 49
-0.25
  0
ENDTAB
  0
TABLE
  2
LAYER
 70
    13
  0
LAYER
  2
0
 70
     0
 62
     7
  6
CONTINUOUS
  0
LAYER
  2
CT
 70
     0
 62
     3
  6
CENTER
  0
LAYER
  2
FUTO
 70
     0
 62
     4
  6
CONTINUOUS
  0
LAYER
  2
HOSO
 70
     0
 62
     7
  6
CONTINUOUS
  0
LAYER
  2
KL
 70
     0
 62
     7
  6
HIDDEN
  0
LAYER
  2
MOJI
 70
     0
 62
     3
  6
CONTINUOUS
  0
LAYER
  2
SL
 70
     0
 62
     1
  6
PHANTOM
  0
LAYER
  2
SP
 70
     0
 62
     2
  6
CONTINUOUS
  0
LAYER
  2
DEFPOINTS
 70
     0
 62
     7
  6
CONTINUOUS
  0
LAYER
  2
3
 70
     0
 62
     2
  6
CONTINUOUS
  0
LAYER
  2
2
 70
     0
 62
     3
  6
CENTER
  0
LAYER
  2
1
 70
     0
 62
     4
  6
CONTINUOUS
  0
LAYER
  2
4
 70
     0
 62
     7
  6
CONTINUOUS
  0
ENDTAB
  0
TABLE
  2
STYLE
 70
     1
  0
STYLE
  2
STANDARD
 70
     0
 40
0.0
 41
1.0
 50
15.0
 71
     0
 42
3.5
  3
C:\Program Files\AutoCAD LT\simplex.shx
  4
C:\Program Files\AutoCAD LT\extfont.shx
  0
ENDTAB
  0
TABLE
  2
VIEW
 70
     0
  0
ENDTAB
  0
TABLE
  2
UCS
 70
     0
  0
ENDTAB
  0
TABLE
  2
APPID
 70
     1
  0
APPID
  2
ACAD
 70
     0
  0
ENDTAB
  0
TABLE
  2
DIMSTYLE
 70
     3
  0
DIMSTYLE
  2
STANDARD
 70
     0
  3

  4

  5

  6

  7

 40
1.0
 41
0.18
 42
0.0625
 43
0.38
 44
0.18
 45
0.0
 46
0.0
 47
0.0
 48
0.0
140
0.18
141
0.09
142
0.0
143
25.399999999999999
144
1.0
145
0.0
146
1.0
147
0.09
 71
     0
 72
     0
 73
     1
 74
     1
 75
     0
 76
     0
 77
     0
 78
     0
170
     0
171
     2
172
     0
173
     0
174
     0
175
     0
176
     0
177
     0
178
     0
  0
DIMSTYLE
  2
GOD
 70
     0
  3

  4

  5

  6
OPEN
  7
OPEN
 40
20.0
 41
2.5
 42
1.0
 43
7.0
 44
1.0
 45
0.0
 46
0.0
 47
0.0
 48
0.0
140
3.0
141
0.0
142
0.0
143
0.03937
144
1.0
145
0.0
146
1.0
147
1.0
 71
     0
 72
     0
 73
     0
 74
     0
 75
     0
 76
     0
 77
     1
 78
     8
170
     0
171
     2
172
     1
173
     1
174
     0
175
     0
176
   256
177
   256
178
   256
  0
DIMSTYLE
  2
IGA
 70
     0
  3

  4

  5

  6
OPEN
  7
OPEN
 40
2.0
 41
2.0
 42
0.5
 43
10.0
 44
1.0
 45
0.0
 46
0.0
 47
1.0
 48
1.0
140
3.0
141
0.0
142
0.0
143
0.03937
144
1.0
145
0.0
146
10.0
147
1.0
 71
     0
 72
     0
 73
     0
 74
     0
 75
     0
 76
     0
 77
     1
 78
     8
170
     0
171
     2
172
     0
173
     1
174
     0
175
     0
176
     0
177
     0
178
     0
  0
ENDTAB
  0
ENDSEC
  0
SECTION
  2
BLOCKS
  0
BLOCK
  8
0
  2
$MODEL_SPACE
 70
     0
 10
0.0
 20
0.0
 30
0.0
  3
$MODEL_SPACE
  1

  0
ENDBLK
  5
1B
  8
0
  0
BLOCK
 67
     1
  8
0
  2
$PAPER_SPACE
 70
     0
 10
0.0
 20
0.0
 30
0.0
  3
$PAPER_SPACE
  1

  0
ENDBLK
  5
18
 67
     1
  8
0
  0
BLOCK
  8
0
  2
_OPEN
 70
     0
 10
0.0
 20
0.0
 30
0.0
  3
_OPEN
  1

  0
LINE
  5
1E81
  8
0
  6
BYBLOCK
 62
     0
 10
-1.0
 20
0.1666666666666666
 30
0.0
 11
0.0
 21
0.0
 31
0.0
  0
LINE
  5
1E82
  8
0
  6
BYBLOCK
 62
     0
 10
0.0
 20
0.0
 30
0.0
 11
-1.0
 21
-0.1666666666666666
 31
0.0
  0
LINE
  5
1E83
  8
0
  6
BYBLOCK
 62
     0
 10
0.0
 20
0.0
 30
0.0
 11
-1.0
 21
0.0
 31
0.0
  0
ENDBLK
  5
1E84
  8
0
  0
BLOCK
  8
0
  2
_DOT
 70
     0
 10
0.0
 20
0.0
 30
0.0
  3
_DOT
  1

  0
LINE
  5
1EC3
  8
0
  6
BYBLOCK
 62
     0
 10
0.0
 20
0.0
 30
0.0
 11
-1.0
 21
-0.0000000000000284
 31
0.0
  0
POLYLINE
  5
1EC4
  8
0
  6
BYBLOCK
 62
     0
 66
     1
 10
0.0
 20
0.0
 30
0.0
 70
     1
 40
0.1666666666666666
 41
0.1666666666666666
  0
VERTEX
  5
2269
  8
0
  6
BYBLOCK
 62
     0
 10
-0.0833333333333286
 20
-0.0000000000000284
 30
0.0
 42
1.0
  0
VERTEX
  5
226A
  8
0
  6
BYBLOCK
 62
     0
 10
0.0833333333333286
 20
-0.0000000000000284
 30
0.0
 42
1.0
  0
SEQEND
  5
226B
  8
0
  6
BYBLOCK
 62
     0
  0
ENDBLK
  5
1EB8
  8
0
  0
BLOCK
  8
0
  2
*D2
 70
     1
 10
0.0
 20
0.0
 30
0.0
  3
*D2
  1

  0
LINE
  5
226C
  8
SP
 62
     0
 10
1551.7082415384971
 20
3139.8748032893509
 30
0.0
 11
1828.2562973869999
 21
3139.8748032893509
 31
0.0
  0
LINE
  5
226D
  8
SP
 62
     0
 10
1551.7082415384971
 20
2019.8748032893509
 30
0.0
 11
1828.2562973869999
 21
2019.8748032893509
 31
0.0
  0
LINE
  5
226E
  8
SP
 62
     0
 10
1808.2562973869999
 20
3099.8748032893509
 30
0.0
 11
1808.2562973869999
 21
2059.8748032893509
 31
0.0
  0
INSERT
  5
226F
  8
SP
 62
     0
  2
_OPEN
 10
1808.2562973869999
 20
3139.8748032893509
 30
0.0
 41
40.0
 42
40.0
 43
40.0
 50
90.0
  0
INSERT
  5
2270
  8
SP
 62
     0
  2
_OPEN
 10
1808.2562973869999
 20
2019.8748032893509
 30
0.0
 41
40.0
 42
40.0
 43
40.0
 50
270.0
  0
TEXT
  8
0
  40
60
  5
2299
  62
0
  72
0
  71
0
 10
1638.26
 20
2473.67
 30
0.000000
  1
φ1120
  0
POINT
  5
2272
  8
DEFPOINTS
 62
     0
 10
1541.7082415384971
 20
3139.8748032893509
 30
0.0
  0
POINT
  5
2273
  8
DEFPOINTS
 62
     0
 10
1541.7082415384971
 20
2019.8748032893509
 30
0.0
  0
POINT
  5
2274
  8
DEFPOINTS
 62
     0
 10
1808.2562973869999
 20
2019.8748032893509
 30
0.0
  0
ENDBLK
  5
1FEA
  8
0
  0
BLOCK
  8
0
  2
*D3
 70
     1
 10
0.0
 20
0.0
 30
0.0
  3
*D3
  1

  0
LINE
  5
2275
  8
SP
 62
     0
 10
441.70824153849702
 20
3199.8748032893509
 30
0.0
 11
441.70824153849702
 21
3327.1729104885758
 31
0.0
  0
LINE
  5
2276
  8
SP
 62
     0
 10
1541.7082415384971
 20
3199.8748032893509
 30
0.0
 11
1541.7082415384971
 21
3327.1729104885758
 31
0.0
  0
LINE
  5
2277
  8
SP
 62
     0
 10
481.70824153849702
 20
3307.1729104885758
 30
0.0
 11
1501.7082415384971
 21
3307.1729104885758
 31
0.0
  0
INSERT
  5
2278
  8
SP
 62
     0
  2
_OPEN
 10
441.70824153849702
 20
3307.1729104885758
 30
0.0
 41
40.0
 42
40.0
 43
40.0
 50
180.0
  0
INSERT
  5
2279
  8
SP
 62
     0
  2
_OPEN
 10
1541.7082415384971
 20
3307.1729104885758
 30
0.0
 41
40.0
 42
40.0
 43
40.0
  0
TEXT
  8
0
  40
60
  5
229A
  62
0
  72
0
  71
0
 10
871.708
 20
3250.97
 30
0.000000
  1
1100
  0
POINT
  5
227B
  8
DEFPOINTS
 62
     0
 10
441.70824153849702
 20
3189.8748032893509
 30
0.0
  0
POINT
  5
227C
  8
DEFPOINTS
 62
     0
 10
1541.7082415384971
 20
3189.8748032893509
 30
0.0
  0
POINT
  5
227D
  8
DEFPOINTS
 62
     0
 10
1541.7082415384971
 20
3307.1729104885758
 30
0.0
  0
ENDBLK
  5
2002
  8
0
  0
BLOCK
  8
0
  2
*D4
 70
     1
 10
0.0
 20
0.0
 30
0.0
  3
*D4
  1

  0
LINE
  5
227E
  8
SP
 62
     0
 10
2492.6682893292809
 20
2589.8748032893509
 30
0.0
 11
2492.6682893292809
 21
3327.1729104885758
 31
0.0
  0
LINE
  5
227F
  8
SP
 62
     0
 10
3712.6682893292809
 20
2589.8748032893509
 30
0.0
 11
3712.6682893292809
 21
3327.1729104885758
 31
0.0
  0
LINE
  5
2280
  8
SP
 62
     0
 10
2532.6682893292809
 20
3307.1729104885758
 30
0.0
 11
3672.6682893292818
 21
3307.1729104885758
 31
0.0
  0
INSERT
  5
2281
  8
SP
 62
     0
  2
_OPEN
 10
2492.6682893292809
 20
3307.1729104885758
 30
0.0
 41
40.0
 42
40.0
 43
40.0
 50
180.0
  0
INSERT
  5
2282
  8
SP
 62
     0
  2
_OPEN
 10
3712.6682893292809
 20
3307.1729104885758
 30
0.0
 41
40.0
 42
40.0
 43
40.0
  0
TEXT
  8
0
  40
60
  5
229B
  62
0
  72
0
  71
0
 10
2980.17
 20
3250.97
 30
0.000000
  1
1220
  0
POINT
  5
2284
  8
DEFPOINTS
 62
     0
 10
2492.6682893292809
 20
2579.8748032893509
 30
0.0
  0
POINT
  5
2285
  8
DEFPOINTS
 62
     0
 10
3712.6682893292809
 20
2579.8748032893509
 30
0.0
  0
POINT
  5
2286
  8
DEFPOINTS
 62
     0
 10
3712.6682893292809
 20
3307.1729104885758
 30
0.0
  0
ENDBLK
  5
200E
  8
0
  0
BLOCK
  8
0
  2
*D5
 70
     1
 10
0.0
 20
0.0
 30
0.0
  3
*D5
  1

  0
LINE
  5
2287
  8
SP
 62
     0
 10
2602.6682893292809
 20
1869.8748032893509
 30
0.0
 11
2602.6682893292809
 21
1614.465211711954
 31
0.0
  0
LINE
  5
2288
  8
SP
 62
     0
 10
3602.6682893292818
 20
1869.8748032893509
 30
0.0
 11
3602.6682893292818
 21
1614.465211711954
 31
0.0
  0
LINE
  5
2289
  8
SP
 62
     0
 10
2642.6682893292809
 20
1634.465211711954
 30
0.0
 11
3562.6682893292818
 21
1634.465211711954
 31
0.0
  0
INSERT
  5
228A
  8
SP
 62
     0
  2
_OPEN
 10
2602.6682893292809
 20
1634.465211711954
 30
0.0
 41
40.0
 42
40.0
 43
40.0
 50
180.0
  0
INSERT
  5
228B
  8
SP
 62
     0
  2
_OPEN
 10
3602.6682893292818
 20
1634.465211711954
 30
0.0
 41
40.0
 42
40.0
 43
40.0
  0
TEXT
  8
0
  40
60
  5
229C
  62
0
  72
0
  71
0
 10
2982.67
 20
1578.27
 30
0.000000
  1
1000
  0
POINT
  5
228D
  8
DEFPOINTS
 62
     0
 10
2602.6682893292809
 20
1879.8748032893509
 30
0.0
  0
POINT
  5
228E
  8
DEFPOINTS
 62
     0
 10
3602.6682893292818
 20
1879.8748032893509
 30
0.0
  0
POINT
  5
228F
  8
DEFPOINTS
 62
     0
 10
3602.6682893292818
 20
1634.465211711954
 30
0.0
  0
ENDBLK
  5
201A
  8
0
  0
BLOCK
  8
0
  2
*D6
 70
     1
 10
0.0
 20
0.0
 30
0.0
  3
*D6
  1

  0
LINE
  5
2290
  8
SP
 62
     0
 10
2409.044404923302
 20
2579.8748032893509
 30
0.0
 11
2319.817752485334
 21
2579.8748032893509
 31
0.0
  0
LINE
  5
2291
  8
SP
 62
     0
 10
2592.6682893292809
 20
1879.8748032893509
 30
0.0
 11
2319.817752485334
 21
1879.8748032893509
 31
0.0
  0
LINE
  5
2292
  8
SP
 62
     0
 10
2339.817752485334
 20
2539.8748032893509
 30
0.0
 11
2339.817752485334
 21
1919.8748032893509
 31
0.0
  0
INSERT
  5
2293
  8
SP
 62
     0
  2
_OPEN
 10
2339.817752485334
 20
2579.8748032893509
 30
0.0
 41
40.0
 42
40.0
 43
40.0
 50
90.0
  0
INSERT
  5
2294
  8
SP
 62
     0
  2
_OPEN
 10
2339.817752485334
 20
1879.8748032893509
 30
0.0
 41
40.0
 42
40.0
 43
40.0
 50
270.0
  0
TEXT
  8
0
  40
60
  5
229D
  62
0
  72
0
  71
0
 10
2169.82
 20
2123.67
 30
0.000000
  1
700
  0
POINT
  5
2296
  8
DEFPOINTS
 62
     0
 10
2419.044404923301
 20
2579.8748032893509
 30
0.0
  0
POINT
  5
2297
  8
DEFPOINTS
 62
     0
 10
2602.6682893292809
 20
1879.8748032893509
 30
0.0
  0
POINT
  5
2298
  8
DEFPOINTS
 62
     0
 10
2339.817752485334
 20
1879.8748032893509
 30
0.0
  0
ENDBLK
  5
2026
  8
0
  0
BLOCK
  8
0
  2
*D7
 70
     1
 10
0.0
 20
0.0
 30
0.0
  3
*D7
  1

  0
LINE
  5
223E
  8
SP
 10
441.70824153849702
 20
3209.8748032893509
 30
0.0
 11
441.70824153849702
 21
3466.876309705774
 31
0.0
  0
LINE
  5
223F
  8
SP
 10
1631.7082415384971
 20
2599.8748032893509
 30
0.0
 11
1631.7082415384971
 21
3466.876309705774
 31
0.0
  0
LINE
  5
2240
  8
SP
 10
491.70824153849702
 20
3446.8763097057731
 30
0.0
 11
1581.7082415384959
 21
3446.8763097057731
 31
0.0
  0
INSERT
  5
2241
  8
SP
  2
_OPEN
 10
441.70824153849702
 20
3446.8763097057731
 30
0.0
 41
50.0
 42
50.0
 43
50.0
 50
180.0
  0
INSERT
  5
2242
  8
SP
  2
_OPEN
 10
1631.7082415384971
 20
3446.8763097057731
 30
0.0
 41
50.0
 42
50.0
 43
50.0
  0
TEXT
  5
2243
  8
SP
 10
930.83642362041394
 20
3466.876309705774
 30
0.0
 40
60.0
  1
1190
 51
15.0
  0
POINT
  5
2244
  8
DEFPOINTS
 62
     0
 10
441.70824153849702
 20
3189.8748032893509
 30
0.0
  0
POINT
  5
2245
  8
DEFPOINTS
 62
     0
 10
1631.7082415384971
 20
2579.8748032893509
 30
0.0
  0
POINT
  5
2246
  8
DEFPOINTS
 62
     0
 10
1631.7082415384971
 20
3446.8763097057731
 30
0.0
  0
ENDBLK
  5
2248
  8
0
  0
ENDSEC
  0
SECTION
  2
ENTITIES
  0
DIMENSION
  5
1F8F
  8
SP
  2
*D2
 10
1808.2562973869999
 20
2019.8748032893509
 30
0.0
 11
1758.2562973869999
 21
2579.8748032893509
 31
0.0
 70
     0
 13
1541.7082415384971
 23
3139.8748032893509
 33
0.0
 14
1541.7082415384971
 24
2019.8748032893509
 34
0.0
 50
90.0
1001
ACAD
1000
DSTYLE
1002
{
1070
   287
1070
     3
1070
     3
1000
φ<>
1070
    40
1040
20.0
1070
   143
1040
0.039
1070
   172
1070
     1
1070
   271
1070
     0
1070
   279
1070
     0
1002
}
  0
ARC
  5
1F96
  8
1
 10
1240.130358480485
 20
2579.8748032893509
 30
0.0
 40
391.57788305801182
 50
320.3683186773348
 51
39.631681322665067
  0
LINE
  5
1F97
  8
1
  6
CONTINUOUS
 10
631.70824153849787
 20
2249.8748032893509
 30
0.0
 11
631.70824153849787
 21
2909.8748032893509
 31
0.0
  0
LINE
  5
1F98
  8
1
  6
CONTINUOUS
 10
461.70824153849702
 20
2249.8748032893509
 30
0.0
 11
461.70824153849702
 21
2909.8748032893509
 31
0.0
  0
LINE
  5
1F99
  8
1
  6
CONTINUOUS
 10
1541.7082415384971
 20
1969.8748032893509
 30
0.0
 11
1541.7082415384971
 21
3189.8748032893509
 31
0.0
  0
LINE
  5
1F9A
  8
1
  6
CONTINUOUS
 10
441.70824153849702
 20
1969.8748032893509
 30
0.0
 11
441.70824153849702
 21
3189.8748032893509
 31
0.0
  0
LINE
  5
1F9B
  8
1
 10
486.70824153849787
 20
2029.8748032893509
 30
0.0
 11
606.70824153849787
 21
2029.8748032893509
 31
0.0
  0
LINE
  5
1F9C
  8
1
 10
461.70824153849702
 20
2249.8748032893509
 30
0.0
 11
631.70824153849787
 21
2249.8748032893509
 31
0.0
  0
LINE
  5
1F9D
  8
1
 10
447.70824153849708
 20
1879.8748032893509
 30
0.0
 11
1535.7082415384959
 21
1879.8748032893509
 31
0.0
  0
LINE
  5
1F9E
  8
1
 10
441.70824153849702
 20
2019.8748032893509
 30
0.0
 11
1541.7082415384971
 21
2019.8748032893509
 31
0.0
  0
LINE
  5
1F9F
  8
2
  6
CENTER
 10
395.29521269160568
 20
2579.8748032893509
 30
0.0
 11
1666.8093876916039
 21
2579.8748032893509
 31
0.0
  0
LINE
  5
1FA0
  8
1
 10
486.70824153849787
 20
2029.8748032893509
 30
0.0
 11
461.70824153849702
 21
2249.87480328935
 31
0.0
  0
LINE
  5
1FA1
  8
1
  6
CONTINUOUS
 10
447.70824153849787
 20
1879.8748032893509
 30
0.0
 11
447.70824153849708
 21
2327.6843990309799
 31
0.0
  0
LINE
  5
1FA5
  8
1
 10
606.70824153849787
 20
2029.8748032893509
 30
0.0
 11
631.70824153849787
 21
2249.87480328935
 31
0.0
  0
LINE
  5
1FA6
  8
1
  6
CONTINUOUS
 10
1535.7082415384971
 20
1879.8748032893509
 30
0.0
 11
1535.7082415384959
 21
2327.6843990309799
 31
0.0
  0
DIMENSION
  5
1FA7
  8
SP
  2
*D3
 10
1541.7082415384971
 20
3307.1729104885758
 30
0.0
 11
991.70824153849708
 21
3357.1729104885758
 31
0.0
 70
     0
 13
441.70824153849702
 23
3189.8748032893509
 33
0.0
 14
1541.7082415384971
 24
3189.8748032893509
 34
0.0
1001
ACAD
1000
DSTYLE
1002
{
1070
   287
1070
     3
1070
    40
1040
20.0
1070
   143
1040
0.039
1070
   172
1070
     1
1070
   271
1070
     0
1070
   279
1070
     0
1002
}
  0
LINE
  5
1FA8
  8
1
 10
486.70824153849787
 20
3129.8748032893509
 30
0.0
 11
606.70824153849787
 21
3129.87480328935
 31
0.0
  0
LINE
  5
1FA9
  8
1
 10
461.70824153849702
 20
2909.8748032893509
 30
0.0
 11
631.70824153849696
 21
2909.8748032893509
 31
0.0
  0
LINE
  5
1FAA
  8
1
 10
441.70824153849702
 20
3139.8748032893509
 30
0.0
 11
1541.7082415384971
 21
3139.8748032893509
 31
0.0
  0
LINE
  5
1FAB
  8
1
 10
486.70824153849787
 20
3129.8748032893509
 30
0.0
 11
461.70824153849702
 21
2909.8748032893509
 31
0.0
  0
LINE
  5
1FAD
  8
1
 10
606.70824153849787
 20
3129.8748032893509
 30
0.0
 11
631.70824153849787
 21
2909.8748032893509
 31
0.0
  0
DIMENSION
  5
1FB0
  8
SP
  2
*D4
 10
3712.6682893292809
 20
3307.1729104885758
 30
0.0
 11
3100.1672995452241
 21
3307.1729104885758
 31
0.0
 70
   128
 13
2492.6682893292809
 23
2579.8748032893509
 33
0.0
 14
3712.6682893292809
 24
2579.8748032893509
 34
0.0
1001
ACAD
1000
DSTYLE
1002
{
1070
   287
1070
     3
1070
    40
1040
20.0
1070
   143
1040
0.039
1070
   172
1070
     1
1070
   271
1070
     0
1070
   279
1070
     0
1070
   288
1070
     1
1002
}
  0
CIRCLE
  5
1FB1
  8
1
 10
3102.6682893292809
 20
2579.8748032893509
 30
0.0
 40
330.0
  0
CIRCLE
  5
1FB2
  8
1
 10
3102.6682893292809
 20
2579.8748032893509
 30
0.0
 40
610.0
  0
CIRCLE
  5
1FB3
  8
1
 10
3102.6682893292809
 20
2579.8748032893509
 30
0.0
 40
560.0
  0
LINE
  5
1FB4
  8
2
  6
CENTER
 10
3102.6682893292809
 20
1818.519791399618
 30
0.0
 11
3102.6682893292809
 21
3242.35427224973
 31
0.0
  0
DIMENSION
  5
1FB5
  8
SP
  2
*D5
 10
3602.6682893292818
 20
1634.465211711954
 30
0.0
 11
3102.6682893292809
 21
1684.465211711954
 31
0.0
 70
     0
 13
2602.6682893292809
 23
1879.8748032893509
 33
0.0
 14
3602.6682893292818
 24
1879.8748032893509
 34
0.0
1001
ACAD
1000
DSTYLE
1002
{
1070
   287
1070
     3
1070
    40
1040
20.0
1070
   143
1040
0.039
1070
   172
1070
     1
1070
   271
1070
     0
1070
   279
1070
     0
1002
}
  0
LINE
  5
1FB6
  8
1
 10
2602.6682893292818
 20
1879.8748032893509
 30
0.0
 11
3602.6682893292818
 21
1879.8748032893509
 31
0.0
  0
LINE
  5
1FB7
  8
2
  6
CENTER
 10
2419.044404923301
 20
2579.8748032893509
 30
0.0
 11
3786.2921737352599
 21
2579.8748032893509
 31
0.0
  0
DIMENSION
  5
1FBC
  8
SP
  2
*D6
 10
2339.817752485334
 20
1879.8748032893509
 30
0.0
 11
2289.8177524853331
 21
2229.8748032893509
 31
0.0
 70
     0
 13
2419.044404923301
 23
2579.8748032893509
 33
0.0
 14
2602.6682893292809
 24
1879.8748032893509
 34
0.0
 50
90.0
1001
ACAD
1000
DSTYLE
1002
{
1070
   287
1070
     3
1070
    40
1040
20.0
1070
   143
1040
0.039
1070
   172
1070
     1
1070
   271
1070
     0
1070
   279
1070
     0
1002
}
  0
LINE
  5
1FBD
  8
1
 10
2602.6682893292809
 20
1879.8748032893509
 30
0.0
 11
2602.6682893292809
 21
2230.4466990962278
 31
0.0
  0
LINE
  5
1FBF
  8
1
 10
3602.6682893292818
 20
1879.8748032893509
 30
0.0
 11
3602.6682893292818
 21
2230.4466990962292
 31
0.0
  0
TEXT
  5
1FC0
  8
4
  6
CONTINUOUS
 10
832.76003483566728
 20
5067.7619515296101
 30
0.0
 40
144.0
  1
電動機直動横形軸流式排煙ファン
  0
TEXT
  5
1FC1
  8
4
 10
1686.082452427712
 20
4766.8576826650306
 30
0.0
 40
107.9999999999999
  1
床置ベッド型
  0
LINE
  5
1FC2
  8
4
 10
900.0
 20
1000.0
 30
0.0
 11
3300.0
 21
1000.0
 31
0.0
  0
LINE
  5
1FC3
  8
4
 10
900.0
 20
800.0
 30
0.0
 11
3300.0
 21
800.0
 31
0.0
  0
LINE
  5
1FC4
  8
4
 10
900.0
 20
600.0
 30
0.0
 11
3300.0
 21
600.0
 31
0.0
  0
LINE
  5
1FC6
  8
4
 10
4200.0000000000009
 20
0.0
 30
0.0
 11
0.0
 21
0.0
 31
0.0
  0
LINE
  5
1FC7
  8
4
 10
0.0
 20
5900.0
 30
0.0
 11
4200.0000000000009
 21
5900.0
 31
0.0
  0
LINE
  5
1FC8
  8
4
 10
500.0
 20
5338.8175085296098
 30
0.0
 11
3700.0
 21
5338.8175085296098
 31
0.0
  0
LINE
  5
1FC9
  8
4
 10
500.0
 20
4938.8175085296089
 30
0.0
 11
3700.0
 21
4938.8175085296089
 31
0.0
  0
LINE
  5
1FCA
  8
4
 10
0.0
 20
0.0
 30
0.0
 11
0.0
 21
5900.0
 31
0.0
  0
TEXT
  5
1FCB
  8
4
 10
972.51621204959508
 20
643.29031346402189
 30
0.0
 40
100.0
  1
機器型番
  0
TEXT
  5
1FCC
  8
4
 10
977.00416169380333
 20
863.08605173322564
 30
0.0
 40
100.0
  1
機器名称
  0
LINE
  5
1FCE
  8
4
 10
900.0
 20
1000.0
 30
0.0
 11
900.0
 21
600.0
 31
0.0
  0
LINE
  5
1FCF
  8
4
 10
500.0
 20
5338.8175085296098
 30
0.0
 11
500.0
 21
4938.8175085296089
 31
0.0
  0
TEXT
  5
1FD0
  8
4
 10
630.51116291993822
 20
4764.638955092687
 30
0.0
 40
107.9999999999999
  1
左回転前方吐出
  0
TEXT
  5
1FD2
  8
4
 10
1973.308991170961
 20
638.6893857507348
 30
0.0
 40
100.0
  1
APE＃1120-1M
  0
TEXT
  5
1FD3
  8
4
 10
1955.357490975329
 20
845.14353791513713
 30
0.0
 40
100.0
  1
ミツヤ軸流排煙ファン
  0
LINE
  5
1FD4
  8
4
 10
1900.0
 20
1000.0
 30
0.0
 11
1900.0
 21
600.0
 31
0.0
  0
LINE
  5
1FD5
  8
4
 10
3300.0
 20
1000.0
 30
0.0
 11
3300.0
 21
600.0
 31
0.0
  0
TEXT
  5
1FD6
  8
4
 10
2739.1865565733751
 20
4766.8576826650306
 30
0.0
 40
107.9999999999999
  1
縮尺：1/20
  0
TEXT
  5
1FD7
  8
4
 10
2937.9391184985789
 20
5412.1221629906177
 30
0.0
 40
112.0
  1
No.
  0
LINE
  5
1FD8
  8
4
 10
3700.0
 20
5362.5271662508021
 30
0.0
 11
2881.2348447197292
 21
5362.5271662508021
 31
0.0
  0
LINE
  5
1FD9
  8
4
 10
2881.2348447197292
 20
5573.3045230995049
 30
0.0
 11
3700.0
 21
5573.3045230995049
 31
0.0
  0
LINE
  5
1FDA
  8
4
 10
2881.2348447197292
 20
5362.5271662508021
 30
0.0
 11
2881.2348447197292
 21
5573.3045230995049
 31
0.0
  0
LINE
  5
1FDB
  8
4
 10
3700.0
 20
5338.8175085296098
 30
0.0
 11
3700.0
 21
4938.8175085296089
 31
0.0
  0
LINE
  5
1FDC
  8
4
 10
3700.0
 20
5573.3045230995049
 30
0.0
 11
3700.0
 21
5362.5271662508021
 31
0.0
  0
LINE
  5
1FDD
  8
4
 10
4200.0000000000009
 20
5900.0
 30
0.0
 11
4200.0000000000009
 21
0.0
 31
0.0
  0
LINE
  5
1FDE
  8
4
 10
4200.0000000000009
 20
5900.0
 30
0.0
 11
4200.0000000000009
 21
5900.0
 31
0.0
  0
LINE
  5
2194
  8
SP
 10
1038.8509760764989
 20
3694.8091930732448
 30
0.0
 11
480.66936248187812
 21
3694.8091930732448
 31
0.0
  0
LINE
  5
2195
  8
SP
 10
480.66936248187812
 20
3694.8091930732448
 30
0.0
 11
581.41681519678866
 21
3721.8043916676979
 31
0.0
  0
LINE
  5
2196
  8
SP
 10
581.41681519678866
 20
3721.8043916676979
 30
0.0
 11
682.67468554213826
 21
3663.3431329662408
 31
0.0
  0
DIMENSION
  5
223C
  8
SP
  2
*D7
 10
1631.7082415384971
 20
3446.8763097057731
 30
0.0
 11
1036.7082415384971
 21
3496.876309705774
 31
0.0
 70
     0
 13
441.70824153849702
 23
3189.8748032893509
 33
0.0
 14
1631.7082415384971
 24
2579.8748032893509
 34
0.0
  0
ENDSEC
  0
EOF
