  0
SECTION
  2
HEADER
  9
$ACADVER
  1
AC1009
  9
$INSBASE
 10
0.0
 20
0.0
 30
0.0
  9
$EXTMIN
 10
0.0
 20
0.0
 30
-0.00000001
  9
$EXTMAX
 10
7350.0
 20
10325.0
 30
0.00000001
  9
$LIMMIN
 10
0.0
 20
0.0
  9
$LIMMAX
 10
297.0
 20
210.0
  9
$ORTHOMODE
 70
     0
  9
$REGENMODE
 70
     1
  9
$FILLMODE
 70
     0
  9
$QTEXTMODE
 70
     0
  9
$MIRRTEXT
 70
     1
  9
$DRAGMODE
 70
     2
  9
$LTSCALE
 40
100.0
  9
$OSMODE
 70
    37
  9
$ATTMODE
 70
     1
  9
$TEXTSIZE
 40
180.0
  9
$TRACEWID
 40
0.05
  9
$TEXTSTYLE
  7
STANDARD
  9
$CLAYER
  8
1
  9
$CELTYPE
  6
BYLAYER
  9
$CECOLOR
 62
   256
  9
$DIMSCALE
 40
35.0
  9
$DIMASZ
 40
2.0
  9
$DIMEXO
 40
0.5
  9
$DIMDLI
 40
10.0
  9
$DIMRND
 40
0.0
  9
$DIMDLE
 40
0.0
  9
$DIMEXE
 40
1.0
  9
$DIMTP
 40
1.0
  9
$DIMTM
 40
1.0
  9
$DIMTXT
 40
3.0
  9
$DIMCEN
 40
0.0
  9
$DIMTSZ
 40
0.0
  9
$DIMTOL
 70
     0
  9
$DIMLIM
 70
     0
  9
$DIMTIH
 70
     0
  9
$DIMTOH
 70
     0
  9
$DIMSE1
 70
     0
  9
$DIMSE2
 70
     0
  9
$DIMTAD
 70
     1
  9
$DIMZIN
 70
     8
  9
$DIMBLK
  1

  9
$DIMASO
 70
     1
  9
$DIMSHO
 70
     1
  9
$DIMPOST
  1

  9
$DIMAPOST
  1

  9
$DIMALT
 70
     0
  9
$DIMALTD
 70
     2
  9
$DIMALTF
 40
0.039
  9
$DIMLFAC
 40
1.0
  9
$DIMTOFL
 70
     1
  9
$DIMTVP
 40
0.0
  9
$DIMTIX
 70
     0
  9
$DIMSOXD
 70
     0
  9
$DIMSAH
 70
     1
  9
$DIMBLK1
  1
OPEN
  9
$DIMBLK2
  1
OPEN
  9
$DIMSTYLE
  2
IGA
  9
$DIMCLRD
 70
     0
  9
$DIMCLRE
 70
     0
  9
$DIMCLRT
 70
     0
  9
$DIMTFAC
 40
10.0
  9
$DIMGAP
 40
1.0
  9
$LUNITS
 70
     2
  9
$LUPREC
 70
     3
  9
$SKETCHINC
 40
0.1
  9
$FILLETRAD
 40
50.0
  9
$AUNITS
 70
     0
  9
$AUPREC
 70
     0
  9
$MENU
  1
acad
  9
$ELEVATION
 40
0.0
  9
$PELEVATION
 40
0.0
  9
$THICKNESS
 40
0.0
  9
$LIMCHECK
 70
     0
  9
$BLIPMODE
 70
     0
  9
$CHAMFERA
 40
0.5
  9
$CHAMFERB
 40
0.5
  9
$SKPOLY
 70
     0
  9
$TDCREATE
 40
2453179.5928328699
  9
$TDUPDATE
 40
2454953.6359535879
  9
$TDINDWG
 40
0.017126088
  9
$TDUSRTIMER
 40
0.017126088
  9
$USRTIMER
 70
     1
  9
$ANGBASE
 50
0.0
  9
$ANGDIR
 70
     0
  9
$PDMODE
 70
     0
  9
$PDSIZE
 40
0.0
  9
$PLINEWID
 40
0.0
  9
$COORDS
 70
     1
  9
$SPLFRAME
 70
     0
  9
$SPLINETYPE
 70
     6
  9
$SPLINESEGS
 70
     8
  9
$ATTDIA
 70
     0
  9
$ATTREQ
 70
     1
  9
$HANDLING
 70
 10241
  9
$HANDSEED
  5
87E2
  9
$SURFTAB1
 70
     6
  9
$SURFTAB2
 70
     6
  9
$SURFTYPE
 70
     6
  9
$SURFU
 70
     6
  9
$SURFV
 70
     6
  9
$UCSNAME
  2

  9
$UCSORG
 10
0.0
 20
0.0
 30
0.0
  9
$UCSXDIR
 10
1.0
 20
0.0
 30
0.0
  9
$UCSYDIR
 10
0.0
 20
1.0
 30
0.0
  9
$PUCSNAME
  2

  9
$PUCSORG
 10
0.0
 20
0.0
 30
0.0
  9
$PUCSXDIR
 10
1.0
 20
0.0
 30
0.0
  9
$PUCSYDIR
 10
0.0
 20
1.0
 30
0.0
  9
$USERI1
 70
     0
  9
$USERI2
 70
     0
  9
$USERI3
 70
     0
  9
$USERI4
 70
     0
  9
$USERI5
 70
     0
  9
$USERR1
 40
0.0
  9
$USERR2
 40
0.0
  9
$USERR3
 40
0.0
  9
$USERR4
 40
0.0
  9
$USERR5
 40
0.0
  9
$WORLDVIEW
 70
     1
  9
$SHADEDGE
 70
     3
  9
$SHADEDIF
 70
    70
  9
$TILEMODE
 70
     1
  9
$MAXACTVP
 70
    16
  9
$PLIMCHECK
 70
     0
  9
$PEXTMIN
 10
1.0000000000000000E+020
 20
1.0000000000000000E+020
 30
1.0000000000000000E+020
  9
$PEXTMAX
 10
-1.0000000000000000E+020
 20
-1.0000000000000000E+020
 30
-1.0000000000000000E+020
  9
$PLIMMIN
 10
0.0
 20
0.0
  9
$PLIMMAX
 10
12.0
 20
9.0
  9
$UNITMODE
 70
     0
  9
$VISRETAIN
 70
     0
  9
$PLINEGEN
 70
     0
  9
$PSLTSCALE
 70
     1
  0
ENDSEC
  0
SECTION
  2
TABLES
  0
TABLE
  2
VPORT
 70
     2
  0
VPORT
  2
*ACTIVE
 70
     0
 10
0.0
 20
0.0
 11
1.0
 21
1.0
 12
6941.6607408871241
 22
1229.9647440325371
 13
0.0
 23
0.0
 14
10.0
 24
10.0
 15
10.0
 25
10.0
 16
0.0
 26
0.0
 36
1.0
 17
0.0
 27
0.0
 37
0.0
 40
3099.4852255401552
 41
3.1666666666666661
 42
50.0
 43
0.0
 44
0.0
 50
0.0
 51
0.0
 71
     0
 72
   100
 73
     1
 74
     0
 75
     0
 76
     0
 77
     0
 78
     0
  0
ENDTAB
  0
TABLE
  2
LTYPE
 70
     2
  0
LTYPE
  2
CONTINUOUS
 70
     0
  3
Solid line
 72
    65
 73
     0
 40
0.0
  0
LTYPE
  2
CENTER
 70
     0
  3
____ _ ____ _ ____ _ ____ _ ____ _ ____ _ ____ 
 72
    65
 73
     4
 40
2.0
 49
1.25
 49
-0.25
 49
0.25
 49
-0.25
  0
ENDTAB
  0
TABLE
  2
LAYER
 70
     6
  0
LAYER
  2
0
 70
     0
 62
     7
  6
CONTINUOUS
  0
LAYER
  2
3
 70
     0
 62
     2
  6
CONTINUOUS
  0
LAYER
  2
2
 70
     0
 62
     3
  6
CENTER
  0
LAYER
  2
1
 70
     0
 62
     4
  6
CONTINUOUS
  0
LAYER
  2
4
 70
     0
 62
     7
  6
CONTINUOUS
  0
LAYER
  2
DEFPOINTS
 70
     0
 62
     7
  6
CONTINUOUS
  0
ENDTAB
  0
TABLE
  2
STYLE
 70
     1
  0
STYLE
  2
STANDARD
 70
     0
 40
0.0
 41
1.0
 50
0.0
 71
     0
 42
180.0
  3
simplex.shx
  4
extfont.shx
  0
ENDTAB
  0
TABLE
  2
VIEW
 70
     0
  0
ENDTAB
  0
TABLE
  2
UCS
 70
     0
  0
ENDTAB
  0
TABLE
  2
APPID
 70
     1
  0
APPID
  2
ACAD
 70
     0
  0
ENDTAB
  0
TABLE
  2
DIMSTYLE
 70
     1
  0
DIMSTYLE
  2
IGA
 70
     0
  3

  4

  5

  6
OPEN
  7
OPEN
 40
2.0
 41
2.0
 42
0.5
 43
10.0
 44
1.0
 45
0.0
 46
0.0
 47
1.0
 48
1.0
140
3.0
141
0.0
142
0.0
143
0.03937
144
1.0
145
0.0
146
10.0
147
1.0
 71
     0
 72
     0
 73
     0
 74
     0
 75
     0
 76
     0
 77
     1
 78
     8
170
     0
171
     2
172
     0
173
     1
174
     0
175
     0
176
     0
177
     0
178
     0
  0
ENDTAB
  0
ENDSEC
  0
SECTION
  2
BLOCKS
  0
BLOCK
  8
0
  2
$MODEL_SPACE
 70
     0
 10
0.0
 20
0.0
 30
0.0
  3
$MODEL_SPACE
  1

  0
ENDBLK
  5
1B
  8
0
  0
BLOCK
 67
     1
  8
0
  2
$PAPER_SPACE
 70
     0
 10
0.0
 20
0.0
 30
0.0
  3
$PAPER_SPACE
  1

  0
ENDBLK
  5
18
 67
     1
  8
0
  0
BLOCK
  8
0
  2
_OPEN
 70
     0
 10
0.0
 20
0.0
 30
0.0
  3
_OPEN
  1

  0
LINE
  5
79FD
  8
0
  6
BYBLOCK
 62
     0
 10
-1.0
 20
0.1666666666666666
 30
0.0
 11
0.0
 21
0.0
 31
0.0
  0
LINE
  5
79FE
  8
0
  6
BYBLOCK
 62
     0
 10
0.0
 20
0.0
 30
0.0
 11
-1.0
 21
-0.1666666666666666
 31
0.0
  0
LINE
  5
79FF
  8
0
  6
BYBLOCK
 62
     0
 10
0.0
 20
0.0
 30
0.0
 11
-1.0
 21
0.0
 31
0.0
  0
ENDBLK
  5
7A01
  8
0
  0
BLOCK
  8
0
  2
YA_N
 70
     0
 10
0.0
 20
0.0
 30
0.0
  3
YA_N
  1

  0
ENDBLK
  5
7A0E
  8
0
  0
BLOCK
  8
0
  2
*D2
 70
     1
 10
0.0
 20
0.0
 30
0.0
  3
*D2
  1

  0
LINE
  5
8029
  8
3
 62
     0
 10
1293.299160975977
 20
5767.2246584301411
 30
0.0
 11
1293.299160975977
 21
6197.910246517662
 31
0.0
  0
LINE
  5
802A
  8
3
 62
     0
 10
3293.2991609759779
 20
5767.2246584301411
 30
0.0
 11
3293.2991609759779
 21
6197.910246517662
 31
0.0
  0
LINE
  5
802B
  8
3
 62
     0
 10
1363.299160975977
 20
6162.910246517662
 30
0.0
 11
3223.2991609759779
 21
6162.910246517662
 31
0.0
  0
INSERT
  5
802C
  8
3
 62
     0
  2
_OPEN
 10
1293.299160975977
 20
6162.910246517662
 30
0.0
 41
70.0
 42
70.0
 43
70.0
 50
180.0
  0
INSERT
  5
802D
  8
3
 62
     0
  2
_OPEN
 10
3293.2991609759779
 20
6162.910246517662
 30
0.0
 41
70.0
 42
70.0
 43
70.0
  0
TEXT
  8
3
  40
105
  5
808F
  62
0
  72
0
  71
0
 10
2086.12
 20
6064.56
 30
0.000000
  1
2000
  0
POINT
  5
802F
  8
DEFPOINTS
 62
     0
 10
1293.299160975977
 20
5749.724658430142
 30
0.0
  0
POINT
  5
8030
  8
DEFPOINTS
 62
     0
 10
3293.2991609759779
 20
5749.724658430142
 30
0.0
  0
POINT
  5
8031
  8
DEFPOINTS
 62
     0
 10
3293.2991609759779
 20
6162.910246517662
 30
0.0
  0
ENDBLK
  5
7EEC
  8
0
  0
BLOCK
  8
0
  2
*D3
 70
     1
 10
0.0
 20
0.0
 30
0.0
  3
*D3
  1

  0
LINE
  5
8032
  8
3
 62
     0
 10
4302.8413139490694
 20
5317.6890819598539
 30
0.0
 11
4302.8413139490694
 21
6191.4834560153431
 31
0.0
  0
LINE
  5
8033
  8
3
 62
     0
 10
6302.8413139490758
 20
5317.6890819598539
 30
0.0
 11
6302.8413139490758
 21
6191.4834560153431
 31
0.0
  0
LINE
  5
8034
  8
3
 62
     0
 10
4372.8413139490676
 20
6156.483456015344
 30
0.0
 11
6232.8413139490758
 21
6156.483456015344
 31
0.0
  0
INSERT
  5
8035
  8
3
 62
     0
  2
_OPEN
 10
4302.8413139490694
 20
6156.483456015344
 30
0.0
 41
70.0
 42
70.0
 43
70.0
 50
180.0
  0
INSERT
  5
8036
  8
3
 62
     0
  2
_OPEN
 10
6302.8413139490758
 20
6156.483456015344
 30
0.0
 41
70.0
 42
70.0
 43
70.0
  0
TEXT
  8
3
  40
105
  5
8090
  62
0
  72
0
  71
0
 10
5090.55
 20
6058.13
 30
0.000000
  1
2000
  0
POINT
  5
8038
  8
DEFPOINTS
 62
     0
 10
4302.8413139490694
 20
5300.1890819598539
 30
0.0
  0
POINT
  5
8039
  8
DEFPOINTS
 62
     0
 10
6302.8413139490758
 20
5300.1890819598539
 30
0.0
  0
POINT
  5
803A
  8
DEFPOINTS
 62
     0
 10
6302.8413139490758
 20
6156.483456015344
 30
0.0
  0
ENDBLK
  5
7EF9
  8
0
  0
BLOCK
  8
0
  2
*D4
 70
     1
 10
0.0
 20
0.0
 30
0.0
  3
*D4
  1

  0
LINE
  5
803B
  8
3
 62
     0
 10
1275.799160975977
 20
5749.724658430142
 30
0.0
 11
871.14197115155639
 21
5749.724658430142
 31
0.0
  0
LINE
  5
803C
  8
3
 62
     0
 10
1275.799160975977
 20
5199.724658430142
 30
0.0
 11
871.14197115155616
 21
5199.724658430142
 31
0.0
  0
LINE
  5
803D
  8
3
 62
     0
 10
906.14197115155628
 20
5679.7246584301411
 30
0.0
 11
906.14197115155628
 21
5269.7246584301411
 31
0.0
  0
INSERT
  5
803E
  8
3
 62
     0
  2
_OPEN
 10
906.14197115155628
 20
5749.724658430142
 30
0.0
 41
70.0
 42
70.0
 43
70.0
 50
90.0
  0
INSERT
  5
803F
  8
3
 62
     0
  2
_OPEN
 10
906.14197115155628
 20
5199.724658430142
 30
0.0
 41
70.0
 42
70.0
 43
70.0
 50
270.0
  0
TEXT
  8
3
  40
105
  5
8091
  62
0
  72
0
  71
0
 10
608.642
 20
5323.87
 30
0.000000
  1
550
  0
POINT
  5
8041
  8
DEFPOINTS
 62
     0
 10
1293.299160975977
 20
5749.724658430142
 30
0.0
  0
POINT
  5
8042
  8
DEFPOINTS
 62
     0
 10
1293.299160975977
 20
5199.724658430142
 30
0.0
  0
POINT
  5
8043
  8
DEFPOINTS
 62
     0
 10
906.14197115155628
 20
5199.724658430142
 30
0.0
  0
ENDBLK
  5
7F06
  8
0
  0
BLOCK
  8
0
  2
*D5
 70
     1
 10
0.0
 20
0.0
 30
0.0
  3
*D5
  1

  0
LINE
  5
8044
  8
3
 62
     0
 10
1650.799160975977
 20
4559.7246584301402
 30
0.0
 11
871.14197115155548
 21
4559.7246584301402
 31
0.0
  0
LINE
  5
8045
  8
3
 62
     0
 10
906.14197115155559
 20
5129.7246584301411
 30
0.0
 11
906.14197115155537
 21
4629.7246584301411
 31
0.0
  0
INSERT
  5
8046
  8
3
 62
     0
  2
_OPEN
 10
906.14197115155559
 20
5199.724658430142
 30
0.0
 41
70.0
 42
70.0
 43
70.0
 50
90.0
  0
INSERT
  5
8047
  8
3
 62
     0
  2
_OPEN
 10
906.14197115155537
 20
4559.7246584301402
 30
0.0
 41
70.0
 42
70.0
 43
70.0
 50
270.0
  0
TEXT
  8
3
  40
105
  5
8092
  62
0
  72
0
  71
0
 10
608.642
 20
4693.87
 30
0.000000
  1
640
  0
POINT
  5
8049
  8
DEFPOINTS
 62
     0
 10
1293.299160975977
 20
5199.724658430142
 30
0.0
  0
POINT
  5
804A
  8
DEFPOINTS
 62
     0
 10
1668.299160975977
 20
4559.7246584301402
 30
0.0
  0
POINT
  5
804B
  8
DEFPOINTS
 62
     0
 10
906.14197115155537
 20
4559.7246584301402
 30
0.0
  0
ENDBLK
  5
7F63
  8
0
  0
BLOCK
  8
0
  2
*D6
 70
     1
 10
0.0
 20
0.0
 30
0.0
  3
*D6
  1

  0
LINE
  5
804C
  8
3
 62
     0
 10
1650.799160975977
 20
4559.7246584301402
 30
0.0
 11
871.14197115155548
 21
4559.7246584301402
 31
0.0
  0
LINE
  5
804D
  8
3
 62
     0
 10
1650.799160975977
 20
4409.724658430142
 30
0.0
 11
871.14197115155548
 21
4409.724658430142
 31
0.0
  0
LINE
  5
804E
  8
3
 62
     0
 10
906.14197115155537
 20
4629.7246584301411
 30
0.0
 11
906.14197115155537
 21
4699.7246584301411
 31
0.0
  0
LINE
  5
804F
  8
3
 62
     0
 10
906.14197115155525
 20
4339.7246584301411
 30
0.0
 11
906.14197115155525
 21
3949.724658430142
 31
0.0
  0
LINE
  5
8050
  8
3
 62
     0
 10
906.14197115155537
 20
4559.7246584301402
 30
0.0
 11
906.14197115155537
 21
4409.724658430142
 31
0.0
  0
INSERT
  5
8051
  8
3
 62
     0
  2
_OPEN
 10
906.14197115155537
 20
4559.7246584301402
 30
0.0
 41
70.0
 42
70.0
 43
70.0
 50
270.0
  0
INSERT
  5
8052
  8
3
 62
     0
  2
_OPEN
 10
906.14197115155537
 20
4409.724658430142
 30
0.0
 41
70.0
 42
70.0
 43
70.0
 50
90.0
  0
TEXT
  8
3
  40
105
  5
8093
  62
0
  72
0
  71
0
 10
608.642
 20
3923.87
 30
0.000000
  1
150
  0
POINT
  5
8054
  8
DEFPOINTS
 62
     0
 10
1668.299160975977
 20
4559.7246584301402
 30
0.0
  0
POINT
  5
8055
  8
DEFPOINTS
 62
     0
 10
1668.299160975977
 20
4409.724658430142
 30
0.0
  0
POINT
  5
8056
  8
DEFPOINTS
 62
     0
 10
906.14197115155537
 20
4409.724658430142
 30
0.0
  0
ENDBLK
  5
7F7D
  8
0
  0
BLOCK
  8
0
  2
*D7
 70
     1
 10
0.0
 20
0.0
 30
0.0
  3
*D7
  1

  0
LINE
  5
8057
  8
3
 62
     0
 10
1757.799160975977
 20
4459.7246584301411
 30
0.0
 11
1404.168809390191
 21
4459.7246584301411
 31
0.0
  0
LINE
  5
8058
  8
3
 62
     0
 10
1650.799160975977
 20
4409.724658430142
 30
0.0
 11
1404.168809390191
 21
4409.724658430142
 31
0.0
  0
LINE
  5
8059
  8
3
 62
     0
 10
1439.168809390191
 20
4529.7246584301411
 30
0.0
 11
1439.168809390191
 21
4599.7246584301411
 31
0.0
  0
LINE
  5
805A
  8
3
 62
     0
 10
1439.168809390191
 20
4339.7246584301411
 30
0.0
 11
1439.168809390191
 21
4024.7246584301411
 31
0.0
  0
LINE
  5
805B
  8
3
 62
     0
 10
1439.168809390191
 20
4459.7246584301411
 30
0.0
 11
1439.168809390191
 21
4409.724658430142
 31
0.0
  0
INSERT
  5
805C
  8
3
 62
     0
  2
_OPEN
 10
1439.168809390191
 20
4459.7246584301411
 30
0.0
 41
70.0
 42
70.0
 43
70.0
 50
270.0
  0
INSERT
  5
805D
  8
3
 62
     0
  2
_OPEN
 10
1439.168809390191
 20
4409.724658430142
 30
0.0
 41
70.0
 42
70.0
 43
70.0
 50
90.0
  0
TEXT
  8
3
  40
105
  5
8094
  62
0
  72
0
  71
0
 10
1141.67
 20
3958.87
 30
0.000000
  1
50
  0
POINT
  5
805F
  8
DEFPOINTS
 62
     0
 10
1775.299160975977
 20
4459.7246584301411
 30
0.0
  0
POINT
  5
8060
  8
DEFPOINTS
 62
     0
 10
1668.299160975977
 20
4409.724658430142
 30
0.0
  0
POINT
  5
8061
  8
DEFPOINTS
 62
     0
 10
1439.168809390191
 20
4409.724658430142
 30
0.0
  0
ENDBLK
  5
7F70
  8
0
  0
BLOCK
  8
0
  2
*D8
 70
     1
 10
0.0
 20
0.0
 30
0.0
  3
*D8
  1

  0
LINE
  5
8062
  8
3
 62
     0
 10
1668.299160975977
 20
4392.224658430142
 30
0.0
 11
1668.299160975977
 21
3865.6800618203588
 31
0.0
  0
LINE
  5
8063
  8
3
 62
     0
 10
2918.2991609759761
 20
4392.2246584301411
 30
0.0
 11
2918.2991609759761
 21
3865.6800618203588
 31
0.0
  0
LINE
  5
8064
  8
3
 62
     0
 10
1738.299160975977
 20
3900.6800618203588
 30
0.0
 11
2848.2991609759761
 21
3900.6800618203588
 31
0.0
  0
INSERT
  5
8065
  8
3
 62
     0
  2
_OPEN
 10
1668.299160975977
 20
3900.6800618203588
 30
0.0
 41
70.0
 42
70.0
 43
70.0
 50
180.0
  0
INSERT
  5
8066
  8
3
 62
     0
  2
_OPEN
 10
2918.2991609759761
 20
3900.6800618203588
 30
0.0
 41
70.0
 42
70.0
 43
70.0
  0
TEXT
  8
3
  40
105
  5
8095
  62
0
  72
0
  71
0
 10
2086.12
 20
3802.33
 30
0.000000
  1
1250
  0
POINT
  5
8068
  8
DEFPOINTS
 62
     0
 10
1668.299160975977
 20
4409.724658430142
 30
0.0
  0
POINT
  5
8069
  8
DEFPOINTS
 62
     0
 10
2918.2991609759761
 20
4409.7246584301411
 30
0.0
  0
POINT
  5
806A
  8
DEFPOINTS
 62
     0
 10
2918.2991609759761
 20
3900.6800618203588
 30
0.0
  0
ENDBLK
  5
7F93
  8
0
  0
BLOCK
  8
0
  2
*D9
 70
     1
 10
0.0
 20
0.0
 30
0.0
  3
*D9
  1

  0
LINE
  5
806B
  8
3
 62
     0
 10
4677.8413139490722
 20
4392.2246584301411
 30
0.0
 11
4677.8413139490722
 21
3859.2532713180408
 31
0.0
  0
LINE
  5
806C
  8
3
 62
     0
 10
5927.8413139490722
 20
4392.2246584301411
 30
0.0
 11
5927.8413139490722
 21
3859.2532713180408
 31
0.0
  0
LINE
  5
806D
  8
3
 62
     0
 10
4747.8413139490722
 20
3894.2532713180399
 30
0.0
 11
5857.8413139490722
 21
3894.2532713180399
 31
0.0
  0
INSERT
  5
806E
  8
3
 62
     0
  2
_OPEN
 10
4677.8413139490722
 20
3894.2532713180399
 30
0.0
 41
70.0
 42
70.0
 43
70.0
 50
180.0
  0
INSERT
  5
806F
  8
3
 62
     0
  2
_OPEN
 10
5927.8413139490722
 20
3894.2532713180399
 30
0.0
 41
70.0
 42
70.0
 43
70.0
  0
TEXT
  8
3
  40
105
  5
8096
  62
0
  72
0
  71
0
 10
5089.91
 20
3795.90
 30
0.000000
  1
1250
  0
POINT
  5
8071
  8
DEFPOINTS
 62
     0
 10
4677.8413139490722
 20
4409.7246584301411
 30
0.0
  0
POINT
  5
8072
  8
DEFPOINTS
 62
     0
 10
5927.8413139490722
 20
4409.7246584301411
 30
0.0
  0
POINT
  5
8073
  8
DEFPOINTS
 62
     0
 10
5927.8413139490722
 20
3894.2532713180399
 30
0.0
  0
ENDBLK
  5
7FB7
  8
0
  0
BLOCK
  8
0
  2
*D10
 70
     1
 10
0.0
 20
0.0
 30
0.0
  3
*D10
  1

  0
LINE
  5
8074
  8
3
 62
     0
 10
1793.2991609759761
 20
4424.2246584301411
 30
0.0
 11
1793.2991609759761
 21
4089.7064540683782
 31
0.0
  0
LINE
  5
8075
  8
3
 62
     0
 10
2793.2991609759761
 20
4424.2246584301411
 30
0.0
 11
2793.2991609759761
 21
4089.7064540683782
 31
0.0
  0
LINE
  5
8076
  8
3
 62
     0
 10
1863.2991609759761
 20
4124.7064540683787
 30
0.0
 11
2723.2991609759761
 21
4124.7064540683787
 31
0.0
  0
INSERT
  5
8077
  8
3
 62
     0
  2
_OPEN
 10
1793.2991609759761
 20
4124.7064540683787
 30
0.0
 41
70.0
 42
70.0
 43
70.0
 50
180.0
  0
INSERT
  5
8078
  8
3
 62
     0
  2
_OPEN
 10
2793.2991609759761
 20
4124.7064540683787
 30
0.0
 41
70.0
 42
70.0
 43
70.0
  0
TEXT
  8
3
  40
105
  5
8097
  62
0
  72
0
  71
0
 10
2083.52
 20
4026.36
 30
0.000000
  1
φ1000
  0
POINT
  5
807A
  8
DEFPOINTS
 62
     0
 10
1793.2991609759761
 20
4441.7246584301411
 30
0.0
  0
POINT
  5
807B
  8
DEFPOINTS
 62
     0
 10
2793.2991609759761
 20
4441.7246584301411
 30
0.0
  0
POINT
  5
807C
  8
DEFPOINTS
 62
     0
 10
2793.2991609759761
 20
4124.7064540683787
 30
0.0
  0
ENDBLK
  5
7FCF
  8
0
  0
BLOCK
  8
0
  2
*D11
 70
     1
 10
0.0
 20
0.0
 30
0.0
  3
*D11
  1

  0
LINE
  5
807D
  8
3
 62
     0
 10
4802.8413139490722
 20
4424.2246584301411
 30
0.0
 11
4802.8413139490722
 21
4096.0684574067709
 31
0.0
  0
LINE
  5
807E
  8
3
 62
     0
 10
5802.8413139490722
 20
4424.2246584301411
 30
0.0
 11
5802.8413139490722
 21
4096.0684574067709
 31
0.0
  0
LINE
  5
807F
  8
3
 62
     0
 10
4872.8413139490731
 20
4131.0684574067709
 30
0.0
 11
5732.8413139490722
 21
4131.0684574067709
 31
0.0
  0
INSERT
  5
8080
  8
3
 62
     0
  2
_OPEN
 10
4802.8413139490722
 20
4131.0684574067709
 30
0.0
 41
70.0
 42
70.0
 43
70.0
 50
180.0
  0
INSERT
  5
8081
  8
3
 62
     0
  2
_OPEN
 10
5802.8413139490722
 20
4131.0684574067709
 30
0.0
 41
70.0
 42
70.0
 43
70.0
  0
TEXT
  8
3
  40
105
  5
8098
  62
0
  72
0
  71
0
 10
5093.59
 20
4032.72
 30
0.000000
  1
φ1000
  0
POINT
  5
8083
  8
DEFPOINTS
 62
     0
 10
4802.8413139490722
 20
4441.7246584301411
 30
0.0
  0
POINT
  5
8084
  8
DEFPOINTS
 62
     0
 10
5802.8413139490722
 20
4441.7246584301411
 30
0.0
  0
POINT
  5
8085
  8
DEFPOINTS
 62
     0
 10
5802.8413139490722
 20
4131.0684574067709
 30
0.0
  0
ENDBLK
  5
7FE7
  8
0
  0
BLOCK
  8
0
  2
*D12
 70
     1
 10
0.0
 20
0.0
 30
0.0
  3
*D12
  1

  0
LINE
  5
8086
  8
3
 62
     0
 10
1275.799160975977
 20
5749.724658430142
 30
0.0
 11
603.94851770678451
 21
5749.724658430142
 31
0.0
  0
LINE
  5
8087
  8
3
 62
     0
 10
1653.799160975977
 20
4409.724658430142
 30
0.0
 11
603.94851770678417
 21
4409.724658430142
 31
0.0
  0
LINE
  5
8088
  8
3
 62
     0
 10
638.94851770678451
 20
5679.7246584301411
 30
0.0
 11
638.94851770678417
 21
4479.724658430142
 31
0.0
  0
INSERT
  5
8089
  8
3
 62
     0
  2
_OPEN
 10
638.94851770678451
 20
5749.724658430142
 30
0.0
 41
70.0
 42
70.0
 43
70.0
 50
90.0
  0
INSERT
  5
808A
  8
3
 62
     0
  2
_OPEN
 10
638.94851770678417
 20
4409.724658430142
 30
0.0
 41
70.0
 42
70.0
 43
70.0
 50
270.0
  0
TEXT
  8
3
  40
105
  5
8099
  62
0
  72
0
  71
0
 10
341.449
 20
4886.33
 30
0.000000
  1
1340
  0
POINT
  5
808C
  8
DEFPOINTS
 62
     0
 10
1293.299160975977
 20
5749.724658430142
 30
0.0
  0
POINT
  5
808D
  8
DEFPOINTS
 62
     0
 10
1671.299160975977
 20
4409.724658430142
 30
0.0
  0
POINT
  5
808E
  8
DEFPOINTS
 62
     0
 10
638.94851770678417
 20
4409.724658430142
 30
0.0
  0
ENDBLK
  5
8004
  8
0
  0
ENDSEC
  0
SECTION
  2
ENTITIES
  0
INSERT
  5
7C76
  8
0
  2
YA_N
 10
-10260.59955742845
 20
76.950762440165931
 30
0.0
  0
INSERT
  5
7C77
  8
0
  2
YA_N
 10
-9939.9915186077124
 20
-345.27812366356642
 30
0.0
 41
1.0833333333333319
 42
1.0833333333333319
 43
1.0833333333333319
  0
INSERT
  5
7C78
  8
0
  2
YA_N
 10
-9939.9915186077124
 20
-345.27812366356642
 30
0.0
 41
1.0833333333333319
 42
1.0833333333333319
 43
1.0833333333333319
  0
INSERT
  5
7C79
  8
0
  2
YA_N
 10
-6897.4083056071213
 20
2021.7872662173399
 30
0.0
 41
1.0833333333333319
 42
1.0833333333333319
 43
1.0833333333333319
  0
INSERT
  5
7C7A
  8
0
  2
YA_N
 10
-6347.2259333820211
 20
3703.8604122542429
 30
0.0
 41
1.0833333333333319
 42
1.0833333333333319
 43
1.0833333333333319
  0
INSERT
  5
7C7B
  8
0
  2
YA_N
 10
-9868.4915186077124
 20
-285.6947903302331
 30
0.0
 41
12.999999999999989
 42
12.999999999999989
 43
12.999999999999989
  0
INSERT
  5
7C7C
  8
0
  2
YA_N
 10
-5239.5572876290898
 20
3162.4416815956079
 30
0.0
 41
1.0833333333333319
 42
1.0833333333333319
 43
1.0833333333333319
  0
INSERT
  5
7C7D
  8
0
  2
YA_N
 10
-501.3417593373569
 20
6322.9857214484364
 30
0.0
 41
1.0833333333333319
 42
1.0833333333333319
 43
1.0833333333333319
  0
INSERT
  5
7C7E
  8
0
  2
YA_N
 10
-501.3417593373569
 20
6322.9857214484364
 30
0.0
 41
1.0833333333333319
 42
1.0833333333333319
 43
1.0833333333333319
  0
INSERT
  5
7C7F
  8
0
  2
YA_N
 10
2541.2414536632341
 20
8690.0511113293433
 30
0.0
 41
1.0833333333333319
 42
1.0833333333333319
 43
1.0833333333333319
  0
INSERT
  5
7C80
  8
0
  2
YA_N
 10
3091.4238258883329
 20
10372.12425736624
 30
0.0
 41
1.0833333333333319
 42
1.0833333333333319
 43
1.0833333333333319
  0
INSERT
  5
7C82
  8
0
  2
YA_N
 10
-4246.7226866239462
 20
79.1328017691377
 30
0.0
  0
INSERT
  5
7C83
  8
0
  2
YA_N
 10
-3926.1146478032001
 20
-343.09608433459459
 30
0.0
 41
1.0833333333333319
 42
1.0833333333333319
 43
1.0833333333333319
  0
INSERT
  5
7C84
  8
0
  2
YA_N
 10
-3926.1146478032001
 20
-343.09608433459459
 30
0.0
 41
1.0833333333333319
 42
1.0833333333333319
 43
1.0833333333333319
  0
INSERT
  5
7C85
  8
0
  2
YA_N
 10
-883.5314348026086
 20
2023.9693055463119
 30
0.0
 41
1.0833333333333319
 42
1.0833333333333319
 43
1.0833333333333319
  0
INSERT
  5
7C86
  8
0
  2
YA_N
 10
-333.3490625775093
 20
3706.0424515832142
 30
0.0
 41
1.0833333333333319
 42
1.0833333333333319
 43
1.0833333333333319
  0
INSERT
  5
7C87
  8
0
  2
YA_N
 10
-3854.614647803201
 20
-283.51275100126128
 30
0.0
 41
12.999999999999989
 42
12.999999999999989
 43
12.999999999999989
  0
INSERT
  5
7C88
  8
0
  2
YA_N
 10
774.31958317542103
 20
3164.6237209245801
 30
0.0
 41
1.0833333333333319
 42
1.0833333333333319
 43
1.0833333333333319
  0
INSERT
  5
7C89
  8
0
  2
YA_N
 10
5512.5351114671548
 20
6325.1677607774081
 30
0.0
 41
1.0833333333333319
 42
1.0833333333333319
 43
1.0833333333333319
  0
INSERT
  5
7C8A
  8
0
  2
YA_N
 10
5512.5351114671548
 20
6325.1677607774081
 30
0.0
 41
1.0833333333333319
 42
1.0833333333333319
 43
1.0833333333333319
  0
INSERT
  5
7C8B
  8
0
  2
YA_N
 10
8555.118324467745
 20
8692.2331506583141
 30
0.0
 41
1.0833333333333319
 42
1.0833333333333319
 43
1.0833333333333319
  0
INSERT
  5
7C8C
  8
0
  2
YA_N
 10
9105.3006966928442
 20
10374.306296695209
 30
0.0
 41
1.0833333333333319
 42
1.0833333333333319
 43
1.0833333333333319
  0
LINE
  5
7C8E
  8
1
 10
4997.8413139490704
 20
4549.7246584291488
 30
0.0
 11
5607.8413139490704
 21
4549.7246584291461
 31
0.0
  0
ARC
  5
7C8F
  8
1
 10
5302.8413139490722
 20
4795.8246584301414
 30
0.0
 40
394.19999999999999
 50
218.83323563485629
 51
245.1093970431784
  0
LINE
  5
7C90
  8
1
 10
4994.8413139490731
 20
4570.2246584301392
 30
0.0
 11
5610.8413139490722
 21
4570.2246584301411
 31
0.0
  0
LINE
  5
7C91
  8
1
 10
4680.8413139490704
 20
4539.7246584301411
 30
0.0
 11
5924.8413139490704
 21
4539.7246584301411
 31
0.0
  0
LINE
  5
7C94
  8
1
 10
5007.8413139490722
 20
5194.7246584291497
 30
0.0
 11
5247.8413139490731
 21
5194.7246584291497
 31
0.0
  0
LINE
  5
7C95
  8
1
 10
5007.8413139490722
 20
5189.7246584291497
 30
0.0
 11
5247.8413139490731
 21
5189.7246584291497
 31
0.0
  0
LINE
  5
7C96
  8
1
 10
5002.8413139490731
 20
5169.7246584291488
 30
0.0
 11
5247.8413139490731
 21
5169.7246584291488
 31
0.0
  0
LINE
  5
7C99
  8
1
 10
4997.8413139490731
 20
5149.7246584291497
 30
0.0
 11
5607.8413139490722
 21
5149.7246584291479
 31
0.0
  0
POLYLINE
  5
7C9A
  8
1
 10
5432.2508365003314
 20
4609.4746584301411
 30
0.0
 66
     1
 70
     8
  0
VERTEX
  8
1
  5
809A
 10
5432.25
 20
4609.47
 30
0.000000
  70
    32
  0
VERTEX
  8
1
  5
809B
 10
5430.83
 20
4609.51
 30
0.000000
  70
    32
  0
VERTEX
  8
1
  5
809C
 10
5429.41
 20
4609.62
 30
0.000000
  70
    32
  0
VERTEX
  8
1
  5
809D
 10
5428.00
 20
4609.80
 30
0.000000
  70
    32
  0
VERTEX
  8
1
  5
809E
 10
5426.60
 20
4610.06
 30
0.000000
  70
    32
  0
VERTEX
  8
1
  5
809F
 10
5425.21
 20
4610.38
 30
0.000000
  70
    32
  0
VERTEX
  8
1
  5
80A0
 10
5423.84
 20
4610.78
 30
0.000000
  70
    32
  0
VERTEX
  8
1
  5
80A1
 10
5422.49
 20
4611.24
 30
0.000000
  70
    32
  0
VERTEX
  8
1
  5
80A2
 10
5421.16
 20
4611.78
 30
0.000000
  70
    32
  0
VERTEX
  8
1
  5
80A3
 10
5419.86
 20
4612.38
 30
0.000000
  70
    32
  0
VERTEX
  8
1
  5
80A4
 10
5418.59
 20
4613.05
 30
0.000000
  70
    32
  0
VERTEX
  8
1
  5
80A5
 10
5417.35
 20
4613.78
 30
0.000000
  70
    32
  0
VERTEX
  8
1
  5
80A6
 10
5416.15
 20
4614.57
 30
0.000000
  70
    32
  0
VERTEX
  8
1
  5
80A7
 10
5414.99
 20
4615.43
 30
0.000000
  70
    32
  0
VERTEX
  8
1
  5
80A8
 10
5413.86
 20
4616.34
 30
0.000000
  70
    32
  0
VERTEX
  8
1
  5
80A9
 10
5412.79
 20
4617.31
 30
0.000000
  70
    32
  0
VERTEX
  8
1
  5
80AA
 10
5411.76
 20
4618.33
 30
0.000000
  70
    32
  0
VERTEX
  8
1
  5
80AB
 10
5410.78
 20
4619.41
 30
0.000000
  70
    32
  0
VERTEX
  8
1
  5
80AC
 10
5409.85
 20
4620.53
 30
0.000000
  70
    32
  0
VERTEX
  8
1
  5
80AD
 10
5408.97
 20
4621.70
 30
0.000000
  70
    32
  0
VERTEX
  8
1
  5
80AE
 10
5408.15
 20
4622.92
 30
0.000000
  70
    32
  0
VERTEX
  8
1
  5
80AF
 10
5407.39
 20
4624.17
 30
0.000000
  70
    32
  0
VERTEX
  8
1
  5
80B0
 10
5406.69
 20
4625.46
 30
0.000000
  70
    32
  0
VERTEX
  8
1
  5
80B1
 10
5406.05
 20
4626.79
 30
0.000000
  70
    32
  0
VERTEX
  8
1
  5
80B2
 10
5405.47
 20
4628.15
 30
0.000000
  70
    32
  0
VERTEX
  8
1
  5
80B3
 10
5404.96
 20
4629.53
 30
0.000000
  70
    32
  0
VERTEX
  8
1
  5
80B4
 10
5404.52
 20
4630.94
 30
0.000000
  70
    32
  0
VERTEX
  8
1
  5
80B5
 10
5404.14
 20
4632.37
 30
0.000000
  70
    32
  0
VERTEX
  8
1
  5
80B6
 10
5403.83
 20
4633.82
 30
0.000000
  70
    32
  0
VERTEX
  8
1
  5
80B7
 10
5403.58
 20
4635.29
 30
0.000000
  70
    32
  0
VERTEX
  8
1
  5
80B8
 10
5403.41
 20
4636.76
 30
0.000000
  70
    32
  0
VERTEX
  8
1
  5
80B9
 10
5403.30
 20
4638.24
 30
0.000000
  70
    32
  0
VERTEX
  8
1
  5
80BA
 10
5403.27
 20
4639.72
 30
0.000000
  70
    32
  0
VERTEX
  8
1
  5
80BB
 10
5403.30
 20
4641.21
 30
0.000000
  70
    32
  0
VERTEX
  8
1
  5
80BC
 10
5403.41
 20
4642.69
 30
0.000000
  70
    32
  0
VERTEX
  8
1
  5
80BD
 10
5403.58
 20
4644.16
 30
0.000000
  70
    32
  0
VERTEX
  8
1
  5
80BE
 10
5403.83
 20
4645.63
 30
0.000000
  70
    32
  0
VERTEX
  8
1
  5
80BF
 10
5404.14
 20
4647.07
 30
0.000000
  70
    32
  0
VERTEX
  8
1
  5
80C0
 10
5404.52
 20
4648.51
 30
0.000000
  70
    32
  0
VERTEX
  8
1
  5
80C1
 10
5404.96
 20
4649.92
 30
0.000000
  70
    32
  0
VERTEX
  8
1
  5
80C2
 10
5405.47
 20
4651.30
 30
0.000000
  70
    32
  0
VERTEX
  8
1
  5
80C3
 10
5406.05
 20
4652.66
 30
0.000000
  70
    32
  0
VERTEX
  8
1
  5
80C4
 10
5406.69
 20
4653.98
 30
0.000000
  70
    32
  0
VERTEX
  8
1
  5
80C5
 10
5407.39
 20
4655.28
 30
0.000000
  70
    32
  0
VERTEX
  8
1
  5
80C6
 10
5408.15
 20
4656.53
 30
0.000000
  70
    32
  0
VERTEX
  8
1
  5
80C7
 10
5408.97
 20
4657.74
 30
0.000000
  70
    32
  0
VERTEX
  8
1
  5
80C8
 10
5409.85
 20
4658.92
 30
0.000000
  70
    32
  0
VERTEX
  8
1
  5
80C9
 10
5410.78
 20
4660.04
 30
0.000000
  70
    32
  0
VERTEX
  8
1
  5
80CA
 10
5411.76
 20
4661.11
 30
0.000000
  70
    32
  0
VERTEX
  8
1
  5
80CB
 10
5412.79
 20
4662.14
 30
0.000000
  70
    32
  0
VERTEX
  8
1
  5
80CC
 10
5413.86
 20
4663.11
 30
0.000000
  70
    32
  0
VERTEX
  8
1
  5
80CD
 10
5414.99
 20
4664.02
 30
0.000000
  70
    32
  0
VERTEX
  8
1
  5
80CE
 10
5416.15
 20
4664.88
 30
0.000000
  70
    32
  0
VERTEX
  8
1
  5
80CF
 10
5417.35
 20
4665.67
 30
0.000000
  70
    32
  0
VERTEX
  8
1
  5
80D0
 10
5418.59
 20
4666.40
 30
0.000000
  70
    32
  0
VERTEX
  8
1
  5
80D1
 10
5419.86
 20
4667.07
 30
0.000000
  70
    32
  0
VERTEX
  8
1
  5
80D2
 10
5421.16
 20
4667.67
 30
0.000000
  70
    32
  0
VERTEX
  8
1
  5
80D3
 10
5422.49
 20
4668.21
 30
0.000000
  70
    32
  0
VERTEX
  8
1
  5
80D4
 10
5423.84
 20
4668.67
 30
0.000000
  70
    32
  0
VERTEX
  8
1
  5
80D5
 10
5425.21
 20
4669.07
 30
0.000000
  70
    32
  0
VERTEX
  8
1
  5
80D6
 10
5426.60
 20
4669.39
 30
0.000000
  70
    32
  0
VERTEX
  8
1
  5
80D7
 10
5428.00
 20
4669.65
 30
0.000000
  70
    32
  0
VERTEX
  8
1
  5
80D8
 10
5429.41
 20
4669.83
 30
0.000000
  70
    32
  0
VERTEX
  8
1
  5
80D9
 10
5430.83
 20
4669.94
 30
0.000000
  70
    32
  0
VERTEX
  8
1
  5
80DA
 10
5432.25
 20
4669.97
 30
0.000000
  70
    32
  0
VERTEX
  8
1
  5
80DB
 10
5433.67
 20
4669.94
 30
0.000000
  70
    32
  0
VERTEX
  8
1
  5
80DC
 10
5435.09
 20
4669.83
 30
0.000000
  70
    32
  0
VERTEX
  8
1
  5
80DD
 10
5436.50
 20
4669.65
 30
0.000000
  70
    32
  0
VERTEX
  8
1
  5
80DE
 10
5437.90
 20
4669.39
 30
0.000000
  70
    32
  0
VERTEX
  8
1
  5
80DF
 10
5439.29
 20
4669.07
 30
0.000000
  70
    32
  0
VERTEX
  8
1
  5
80E0
 10
5440.66
 20
4668.67
 30
0.000000
  70
    32
  0
VERTEX
  8
1
  5
80E1
 10
5442.01
 20
4668.21
 30
0.000000
  70
    32
  0
VERTEX
  8
1
  5
80E2
 10
5443.34
 20
4667.67
 30
0.000000
  70
    32
  0
VERTEX
  8
1
  5
80E3
 10
5444.64
 20
4667.07
 30
0.000000
  70
    32
  0
VERTEX
  8
1
  5
80E4
 10
5445.91
 20
4666.40
 30
0.000000
  70
    32
  0
VERTEX
  8
1
  5
80E5
 10
5447.15
 20
4665.67
 30
0.000000
  70
    32
  0
VERTEX
  8
1
  5
80E6
 10
5448.35
 20
4664.88
 30
0.000000
  70
    32
  0
VERTEX
  8
1
  5
80E7
 10
5449.52
 20
4664.02
 30
0.000000
  70
    32
  0
VERTEX
  8
1
  5
80E8
 10
5450.64
 20
4663.11
 30
0.000000
  70
    32
  0
VERTEX
  8
1
  5
80E9
 10
5451.71
 20
4662.14
 30
0.000000
  70
    32
  0
VERTEX
  8
1
  5
80EA
 10
5452.74
 20
4661.11
 30
0.000000
  70
    32
  0
VERTEX
  8
1
  5
80EB
 10
5453.73
 20
4660.04
 30
0.000000
  70
    32
  0
VERTEX
  8
1
  5
80EC
 10
5454.65
 20
4658.92
 30
0.000000
  70
    32
  0
VERTEX
  8
1
  5
80ED
 10
5455.53
 20
4657.74
 30
0.000000
  70
    32
  0
VERTEX
  8
1
  5
80EE
 10
5456.35
 20
4656.53
 30
0.000000
  70
    32
  0
VERTEX
  8
1
  5
80EF
 10
5457.11
 20
4655.28
 30
0.000000
  70
    32
  0
VERTEX
  8
1
  5
80F0
 10
5457.81
 20
4653.98
 30
0.000000
  70
    32
  0
VERTEX
  8
1
  5
80F1
 10
5458.45
 20
4652.66
 30
0.000000
  70
    32
  0
VERTEX
  8
1
  5
80F2
 10
5459.03
 20
4651.30
 30
0.000000
  70
    32
  0
VERTEX
  8
1
  5
80F3
 10
5459.54
 20
4649.92
 30
0.000000
  70
    32
  0
VERTEX
  8
1
  5
80F4
 10
5459.99
 20
4648.51
 30
0.000000
  70
    32
  0
VERTEX
  8
1
  5
80F5
 10
5460.36
 20
4647.07
 30
0.000000
  70
    32
  0
VERTEX
  8
1
  5
80F6
 10
5460.68
 20
4645.63
 30
0.000000
  70
    32
  0
VERTEX
  8
1
  5
80F7
 10
5460.92
 20
4644.16
 30
0.000000
  70
    32
  0
VERTEX
  8
1
  5
80F8
 10
5461.09
 20
4642.69
 30
0.000000
  70
    32
  0
VERTEX
  8
1
  5
80F9
 10
5461.20
 20
4641.21
 30
0.000000
  70
    32
  0
VERTEX
  8
1
  5
80FA
 10
5461.23
 20
4639.72
 30
0.000000
  70
    32
  0
VERTEX
  8
1
  5
80FB
 10
5461.20
 20
4638.24
 30
0.000000
  70
    32
  0
VERTEX
  8
1
  5
80FC
 10
5461.09
 20
4636.76
 30
0.000000
  70
    32
  0
VERTEX
  8
1
  5
80FD
 10
5460.92
 20
4635.29
 30
0.000000
  70
    32
  0
VERTEX
  8
1
  5
80FE
 10
5460.68
 20
4633.82
 30
0.000000
  70
    32
  0
VERTEX
  8
1
  5
80FF
 10
5460.36
 20
4632.37
 30
0.000000
  70
    32
  0
VERTEX
  8
1
  5
8100
 10
5459.99
 20
4630.94
 30
0.000000
  70
    32
  0
VERTEX
  8
1
  5
8101
 10
5459.54
 20
4629.53
 30
0.000000
  70
    32
  0
VERTEX
  8
1
  5
8102
 10
5459.03
 20
4628.15
 30
0.000000
  70
    32
  0
VERTEX
  8
1
  5
8103
 10
5458.45
 20
4626.79
 30
0.000000
  70
    32
  0
VERTEX
  8
1
  5
8104
 10
5457.81
 20
4625.46
 30
0.000000
  70
    32
  0
VERTEX
  8
1
  5
8105
 10
5457.11
 20
4624.17
 30
0.000000
  70
    32
  0
VERTEX
  8
1
  5
8106
 10
5456.35
 20
4622.92
 30
0.000000
  70
    32
  0
VERTEX
  8
1
  5
8107
 10
5455.53
 20
4621.70
 30
0.000000
  70
    32
  0
VERTEX
  8
1
  5
8108
 10
5454.65
 20
4620.53
 30
0.000000
  70
    32
  0
VERTEX
  8
1
  5
8109
 10
5453.73
 20
4619.41
 30
0.000000
  70
    32
  0
VERTEX
  8
1
  5
810A
 10
5452.74
 20
4618.33
 30
0.000000
  70
    32
  0
VERTEX
  8
1
  5
810B
 10
5451.71
 20
4617.31
 30
0.000000
  70
    32
  0
VERTEX
  8
1
  5
810C
 10
5450.64
 20
4616.34
 30
0.000000
  70
    32
  0
VERTEX
  8
1
  5
810D
 10
5449.52
 20
4615.43
 30
0.000000
  70
    32
  0
VERTEX
  8
1
  5
810E
 10
5448.35
 20
4614.57
 30
0.000000
  70
    32
  0
VERTEX
  8
1
  5
810F
 10
5447.15
 20
4613.78
 30
0.000000
  70
    32
  0
VERTEX
  8
1
  5
8110
 10
5445.91
 20
4613.05
 30
0.000000
  70
    32
  0
VERTEX
  8
1
  5
8111
 10
5444.64
 20
4612.38
 30
0.000000
  70
    32
  0
VERTEX
  8
1
  5
8112
 10
5443.34
 20
4611.78
 30
0.000000
  70
    32
  0
VERTEX
  8
1
  5
8113
 10
5442.01
 20
4611.24
 30
0.000000
  70
    32
  0
VERTEX
  8
1
  5
8114
 10
5440.66
 20
4610.78
 30
0.000000
  70
    32
  0
VERTEX
  8
1
  5
8115
 10
5439.29
 20
4610.38
 30
0.000000
  70
    32
  0
VERTEX
  8
1
  5
8116
 10
5437.90
 20
4610.06
 30
0.000000
  70
    32
  0
VERTEX
  8
1
  5
8117
 10
5436.50
 20
4609.80
 30
0.000000
  70
    32
  0
VERTEX
  8
1
  5
8118
 10
5435.09
 20
4609.62
 30
0.000000
  70
    32
  0
VERTEX
  8
1
  5
8119
 10
5433.67
 20
4609.51
 30
0.000000
  70
    32
  0
VERTEX
  8
1
  5
811A
 10
5432.25
 20
4609.47
 30
0.000000
  70
    32
  0
SEQEND
  8
1
  5
811B
  0
POLYLINE
  8
1
  5
811C
  66
     1
 10
0.000000
 20
0.000000
 30
0.000000
  70
     8
  0
VERTEX
  8
1
  5
811D
 10
5432.25
 20
4613.27
 30
0.000000
  70
    32
  0
VERTEX
  8
1
  5
811E
 10
5432.14
 20
4613.27
 30
0.000000
  70
    32
  0
VERTEX
  8
1
  5
811F
 10
5432.04
 20
4613.28
 30
0.000000
  70
    32
  0
VERTEX
  8
1
  5
8120
 10
5431.93
 20
4613.28
 30
0.000000
  70
    32
  0
VERTEX
  8
1
  5
8121
 10
5431.82
 20
4613.28
 30
0.000000
  70
    32
  0
VERTEX
  8
1
  5
8122
 10
5431.72
 20
4613.28
 30
0.000000
  70
    32
  0
VERTEX
  8
1
  5
8123
 10
5431.61
 20
4613.28
 30
0.000000
  70
    32
  0
VERTEX
  8
1
  5
8124
 10
5431.50
 20
4613.29
 30
0.000000
  70
    32
  0
VERTEX
  8
1
  5
8125
 10
5431.40
 20
4613.29
 30
0.000000
  70
    32
  0
VERTEX
  8
1
  5
8126
 10
5431.29
 20
4613.29
 30
0.000000
  70
    32
  0
VERTEX
  8
1
  5
8127
 10
5431.18
 20
4613.30
 30
0.000000
  70
    32
  0
VERTEX
  8
1
  5
8128
 10
5431.08
 20
4613.30
 30
0.000000
  70
    32
  0
VERTEX
  8
1
  5
8129
 10
5430.97
 20
4613.31
 30
0.000000
  70
    32
  0
VERTEX
  8
1
  5
812A
 10
5430.86
 20
4613.31
 30
0.000000
  70
    32
  0
VERTEX
  8
1
  5
812B
 10
5430.76
 20
4613.32
 30
0.000000
  70
    32
  0
VERTEX
  8
1
  5
812C
 10
5430.65
 20
4613.33
 30
0.000000
  70
    32
  0
VERTEX
  8
1
  5
812D
 10
5430.54
 20
4613.34
 30
0.000000
  70
    32
  0
VERTEX
  8
1
  5
812E
 10
5430.44
 20
4613.34
 30
0.000000
  70
    32
  0
VERTEX
  8
1
  5
812F
 10
5430.33
 20
4613.35
 30
0.000000
  70
    32
  0
VERTEX
  8
1
  5
8130
 10
5430.22
 20
4613.36
 30
0.000000
  70
    32
  0
VERTEX
  8
1
  5
8131
 10
5430.12
 20
4613.37
 30
0.000000
  70
    32
  0
VERTEX
  8
1
  5
8132
 10
5430.01
 20
4613.38
 30
0.000000
  70
    32
  0
VERTEX
  8
1
  5
8133
 10
5429.90
 20
4613.39
 30
0.000000
  70
    32
  0
VERTEX
  8
1
  5
8134
 10
5429.80
 20
4613.40
 30
0.000000
  70
    32
  0
VERTEX
  8
1
  5
8135
 10
5429.69
 20
4613.41
 30
0.000000
  70
    32
  0
VERTEX
  8
1
  5
8136
 10
5429.58
 20
4613.42
 30
0.000000
  70
    32
  0
VERTEX
  8
1
  5
8137
 10
5429.48
 20
4613.44
 30
0.000000
  70
    32
  0
VERTEX
  8
1
  5
8138
 10
5429.37
 20
4613.45
 30
0.000000
  70
    32
  0
VERTEX
  8
1
  5
8139
 10
5429.27
 20
4613.46
 30
0.000000
  70
    32
  0
VERTEX
  8
1
  5
813A
 10
5429.16
 20
4613.47
 30
0.000000
  70
    32
  0
VERTEX
  8
1
  5
813B
 10
5429.05
 20
4613.49
 30
0.000000
  70
    32
  0
VERTEX
  8
1
  5
813C
 10
5428.95
 20
4613.50
 30
0.000000
  70
    32
  0
VERTEX
  8
1
  5
813D
 10
5428.84
 20
4613.52
 30
0.000000
  70
    32
  0
VERTEX
  8
1
  5
813E
 10
5428.74
 20
4613.53
 30
0.000000
  70
    32
  0
VERTEX
  8
1
  5
813F
 10
5428.63
 20
4613.55
 30
0.000000
  70
    32
  0
VERTEX
  8
1
  5
8140
 10
5428.52
 20
4613.57
 30
0.000000
  70
    32
  0
VERTEX
  8
1
  5
8141
 10
5428.42
 20
4613.58
 30
0.000000
  70
    32
  0
VERTEX
  8
1
  5
8142
 10
5428.31
 20
4613.60
 30
0.000000
  70
    32
  0
VERTEX
  8
1
  5
8143
 10
5428.21
 20
4613.62
 30
0.000000
  70
    32
  0
VERTEX
  8
1
  5
8144
 10
5428.10
 20
4613.64
 30
0.000000
  70
    32
  0
VERTEX
  8
1
  5
8145
 10
5428.00
 20
4613.65
 30
0.000000
  70
    32
  0
VERTEX
  8
1
  5
8146
 10
5427.89
 20
4613.67
 30
0.000000
  70
    32
  0
VERTEX
  8
1
  5
8147
 10
5427.79
 20
4613.69
 30
0.000000
  70
    32
  0
VERTEX
  8
1
  5
8148
 10
5427.68
 20
4613.71
 30
0.000000
  70
    32
  0
VERTEX
  8
1
  5
8149
 10
5427.58
 20
4613.73
 30
0.000000
  70
    32
  0
VERTEX
  8
1
  5
814A
 10
5427.47
 20
4613.76
 30
0.000000
  70
    32
  0
VERTEX
  8
1
  5
814B
 10
5427.37
 20
4613.78
 30
0.000000
  70
    32
  0
VERTEX
  8
1
  5
814C
 10
5427.26
 20
4613.80
 30
0.000000
  70
    32
  0
VERTEX
  8
1
  5
814D
 10
5427.16
 20
4613.82
 30
0.000000
  70
    32
  0
VERTEX
  8
1
  5
814E
 10
5427.05
 20
4613.84
 30
0.000000
  70
    32
  0
VERTEX
  8
1
  5
814F
 10
5426.95
 20
4613.87
 30
0.000000
  70
    32
  0
VERTEX
  8
1
  5
8150
 10
5426.84
 20
4613.89
 30
0.000000
  70
    32
  0
VERTEX
  8
1
  5
8151
 10
5426.74
 20
4613.92
 30
0.000000
  70
    32
  0
VERTEX
  8
1
  5
8152
 10
5426.63
 20
4613.94
 30
0.000000
  70
    32
  0
VERTEX
  8
1
  5
8153
 10
5426.53
 20
4613.97
 30
0.000000
  70
    32
  0
VERTEX
  8
1
  5
8154
 10
5426.43
 20
4613.99
 30
0.000000
  70
    32
  0
VERTEX
  8
1
  5
8155
 10
5426.32
 20
4614.02
 30
0.000000
  70
    32
  0
VERTEX
  8
1
  5
8156
 10
5426.22
 20
4614.05
 30
0.000000
  70
    32
  0
VERTEX
  8
1
  5
8157
 10
5426.11
 20
4614.07
 30
0.000000
  70
    32
  0
VERTEX
  8
1
  5
8158
 10
5426.01
 20
4614.10
 30
0.000000
  70
    32
  0
VERTEX
  8
1
  5
8159
 10
5425.91
 20
4614.13
 30
0.000000
  70
    32
  0
VERTEX
  8
1
  5
815A
 10
5425.80
 20
4614.16
 30
0.000000
  70
    32
  0
VERTEX
  8
1
  5
815B
 10
5425.70
 20
4614.19
 30
0.000000
  70
    32
  0
VERTEX
  8
1
  5
815C
 10
5425.60
 20
4614.22
 30
0.000000
  70
    32
  0
VERTEX
  8
1
  5
815D
 10
5425.49
 20
4614.25
 30
0.000000
  70
    32
  0
VERTEX
  8
1
  5
815E
 10
5425.39
 20
4614.28
 30
0.000000
  70
    32
  0
VERTEX
  8
1
  5
815F
 10
5425.29
 20
4614.31
 30
0.000000
  70
    32
  0
VERTEX
  8
1
  5
8160
 10
5425.19
 20
4614.34
 30
0.000000
  70
    32
  0
VERTEX
  8
1
  5
8161
 10
5425.08
 20
4614.37
 30
0.000000
  70
    32
  0
VERTEX
  8
1
  5
8162
 10
5424.98
 20
4614.40
 30
0.000000
  70
    32
  0
VERTEX
  8
1
  5
8163
 10
5424.88
 20
4614.43
 30
0.000000
  70
    32
  0
VERTEX
  8
1
  5
8164
 10
5424.78
 20
4614.47
 30
0.000000
  70
    32
  0
VERTEX
  8
1
  5
8165
 10
5424.67
 20
4614.50
 30
0.000000
  70
    32
  0
VERTEX
  8
1
  5
8166
 10
5424.57
 20
4614.54
 30
0.000000
  70
    32
  0
VERTEX
  8
1
  5
8167
 10
5424.47
 20
4614.57
 30
0.000000
  70
    32
  0
VERTEX
  8
1
  5
8168
 10
5424.37
 20
4614.60
 30
0.000000
  70
    32
  0
VERTEX
  8
1
  5
8169
 10
5424.27
 20
4614.64
 30
0.000000
  70
    32
  0
VERTEX
  8
1
  5
816A
 10
5424.16
 20
4614.68
 30
0.000000
  70
    32
  0
VERTEX
  8
1
  5
816B
 10
5424.06
 20
4614.71
 30
0.000000
  70
    32
  0
VERTEX
  8
1
  5
816C
 10
5423.96
 20
4614.75
 30
0.000000
  70
    32
  0
VERTEX
  8
1
  5
816D
 10
5423.86
 20
4614.79
 30
0.000000
  70
    32
  0
VERTEX
  8
1
  5
816E
 10
5423.76
 20
4614.82
 30
0.000000
  70
    32
  0
VERTEX
  8
1
  5
816F
 10
5423.66
 20
4614.86
 30
0.000000
  70
    32
  0
VERTEX
  8
1
  5
8170
 10
5423.56
 20
4614.90
 30
0.000000
  70
    32
  0
VERTEX
  8
1
  5
8171
 10
5423.46
 20
4614.94
 30
0.000000
  70
    32
  0
VERTEX
  8
1
  5
8172
 10
5423.36
 20
4614.98
 30
0.000000
  70
    32
  0
VERTEX
  8
1
  5
8173
 10
5423.26
 20
4615.02
 30
0.000000
  70
    32
  0
VERTEX
  8
1
  5
8174
 10
5423.16
 20
4615.06
 30
0.000000
  70
    32
  0
VERTEX
  8
1
  5
8175
 10
5423.06
 20
4615.10
 30
0.000000
  70
    32
  0
VERTEX
  8
1
  5
8176
 10
5422.96
 20
4615.14
 30
0.000000
  70
    32
  0
VERTEX
  8
1
  5
8177
 10
5422.86
 20
4615.18
 30
0.000000
  70
    32
  0
VERTEX
  8
1
  5
8178
 10
5422.76
 20
4615.23
 30
0.000000
  70
    32
  0
VERTEX
  8
1
  5
8179
 10
5422.66
 20
4615.27
 30
0.000000
  70
    32
  0
VERTEX
  8
1
  5
817A
 10
5422.56
 20
4615.31
 30
0.000000
  70
    32
  0
VERTEX
  8
1
  5
817B
 10
5422.46
 20
4615.35
 30
0.000000
  70
    32
  0
VERTEX
  8
1
  5
817C
 10
5422.37
 20
4615.40
 30
0.000000
  70
    32
  0
VERTEX
  8
1
  5
817D
 10
5422.27
 20
4615.44
 30
0.000000
  70
    32
  0
VERTEX
  8
1
  5
817E
 10
5422.17
 20
4615.49
 30
0.000000
  70
    32
  0
VERTEX
  8
1
  5
817F
 10
5422.07
 20
4615.53
 30
0.000000
  70
    32
  0
VERTEX
  8
1
  5
8180
 10
5421.97
 20
4615.58
 30
0.000000
  70
    32
  0
VERTEX
  8
1
  5
8181
 10
5421.88
 20
4615.62
 30
0.000000
  70
    32
  0
VERTEX
  8
1
  5
8182
 10
5421.78
 20
4615.67
 30
0.000000
  70
    32
  0
VERTEX
  8
1
  5
8183
 10
5421.68
 20
4615.72
 30
0.000000
  70
    32
  0
VERTEX
  8
1
  5
8184
 10
5421.58
 20
4615.77
 30
0.000000
  70
    32
  0
VERTEX
  8
1
  5
8185
 10
5421.49
 20
4615.81
 30
0.000000
  70
    32
  0
VERTEX
  8
1
  5
8186
 10
5421.39
 20
4615.86
 30
0.000000
  70
    32
  0
VERTEX
  8
1
  5
8187
 10
5421.29
 20
4615.91
 30
0.000000
  70
    32
  0
VERTEX
  8
1
  5
8188
 10
5421.20
 20
4615.96
 30
0.000000
  70
    32
  0
VERTEX
  8
1
  5
8189
 10
5421.10
 20
4616.01
 30
0.000000
  70
    32
  0
VERTEX
  8
1
  5
818A
 10
5421.00
 20
4616.06
 30
0.000000
  70
    32
  0
VERTEX
  8
1
  5
818B
 10
5420.91
 20
4616.11
 30
0.000000
  70
    32
  0
VERTEX
  8
1
  5
818C
 10
5420.81
 20
4616.16
 30
0.000000
  70
    32
  0
VERTEX
  8
1
  5
818D
 10
5420.72
 20
4616.21
 30
0.000000
  70
    32
  0
VERTEX
  8
1
  5
818E
 10
5420.62
 20
4616.26
 30
0.000000
  70
    32
  0
VERTEX
  8
1
  5
818F
 10
5420.53
 20
4616.32
 30
0.000000
  70
    32
  0
VERTEX
  8
1
  5
8190
 10
5420.43
 20
4616.37
 30
0.000000
  70
    32
  0
VERTEX
  8
1
  5
8191
 10
5420.34
 20
4616.42
 30
0.000000
  70
    32
  0
VERTEX
  8
1
  5
8192
 10
5420.24
 20
4616.48
 30
0.000000
  70
    32
  0
VERTEX
  8
1
  5
8193
 10
5420.15
 20
4616.53
 30
0.000000
  70
    32
  0
VERTEX
  8
1
  5
8194
 10
5420.06
 20
4616.58
 30
0.000000
  70
    32
  0
VERTEX
  8
1
  5
8195
 10
5419.96
 20
4616.64
 30
0.000000
  70
    32
  0
VERTEX
  8
1
  5
8196
 10
5419.87
 20
4616.69
 30
0.000000
  70
    32
  0
VERTEX
  8
1
  5
8197
 10
5419.78
 20
4616.75
 30
0.000000
  70
    32
  0
VERTEX
  8
1
  5
8198
 10
5419.68
 20
4616.81
 30
0.000000
  70
    32
  0
VERTEX
  8
1
  5
8199
 10
5419.59
 20
4616.86
 30
0.000000
  70
    32
  0
VERTEX
  8
1
  5
819A
 10
5419.50
 20
4616.92
 30
0.000000
  70
    32
  0
VERTEX
  8
1
  5
819B
 10
5419.40
 20
4616.98
 30
0.000000
  70
    32
  0
VERTEX
  8
1
  5
819C
 10
5419.31
 20
4617.03
 30
0.000000
  70
    32
  0
VERTEX
  8
1
  5
819D
 10
5419.22
 20
4617.09
 30
0.000000
  70
    32
  0
VERTEX
  8
1
  5
819E
 10
5419.13
 20
4617.15
 30
0.000000
  70
    32
  0
VERTEX
  8
1
  5
819F
 10
5419.04
 20
4617.21
 30
0.000000
  70
    32
  0
VERTEX
  8
1
  5
81A0
 10
5418.95
 20
4617.27
 30
0.000000
  70
    32
  0
VERTEX
  8
1
  5
81A1
 10
5418.86
 20
4617.33
 30
0.000000
  70
    32
  0
VERTEX
  8
1
  5
81A2
 10
5418.76
 20
4617.39
 30
0.000000
  70
    32
  0
VERTEX
  8
1
  5
81A3
 10
5418.67
 20
4617.45
 30
0.000000
  70
    32
  0
VERTEX
  8
1
  5
81A4
 10
5418.58
 20
4617.51
 30
0.000000
  70
    32
  0
VERTEX
  8
1
  5
81A5
 10
5418.49
 20
4617.57
 30
0.000000
  70
    32
  0
VERTEX
  8
1
  5
81A6
 10
5418.40
 20
4617.63
 30
0.000000
  70
    32
  0
VERTEX
  8
1
  5
81A7
 10
5418.31
 20
4617.70
 30
0.000000
  70
    32
  0
VERTEX
  8
1
  5
81A8
 10
5418.23
 20
4617.76
 30
0.000000
  70
    32
  0
VERTEX
  8
1
  5
81A9
 10
5418.14
 20
4617.82
 30
0.000000
  70
    32
  0
VERTEX
  8
1
  5
81AA
 10
5418.05
 20
4617.88
 30
0.000000
  70
    32
  0
VERTEX
  8
1
  5
81AB
 10
5417.96
 20
4617.95
 30
0.000000
  70
    32
  0
VERTEX
  8
1
  5
81AC
 10
5417.87
 20
4618.01
 30
0.000000
  70
    32
  0
VERTEX
  8
1
  5
81AD
 10
5417.78
 20
4618.08
 30
0.000000
  70
    32
  0
VERTEX
  8
1
  5
81AE
 10
5417.70
 20
4618.14
 30
0.000000
  70
    32
  0
VERTEX
  8
1
  5
81AF
 10
5417.61
 20
4618.21
 30
0.000000
  70
    32
  0
VERTEX
  8
1
  5
81B0
 10
5417.52
 20
4618.27
 30
0.000000
  70
    32
  0
VERTEX
  8
1
  5
81B1
 10
5417.43
 20
4618.34
 30
0.000000
  70
    32
  0
VERTEX
  8
1
  5
81B2
 10
5417.35
 20
4618.41
 30
0.000000
  70
    32
  0
VERTEX
  8
1
  5
81B3
 10
5417.26
 20
4618.47
 30
0.000000
  70
    32
  0
VERTEX
  8
1
  5
81B4
 10
5417.17
 20
4618.54
 30
0.000000
  70
    32
  0
VERTEX
  8
1
  5
81B5
 10
5417.09
 20
4618.61
 30
0.000000
  70
    32
  0
VERTEX
  8
1
  5
81B6
 10
5417.00
 20
4618.68
 30
0.000000
  70
    32
  0
VERTEX
  8
1
  5
81B7
 10
5416.92
 20
4618.75
 30
0.000000
  70
    32
  0
VERTEX
  8
1
  5
81B8
 10
5416.83
 20
4618.81
 30
0.000000
  70
    32
  0
VERTEX
  8
1
  5
81B9
 10
5416.75
 20
4618.88
 30
0.000000
  70
    32
  0
VERTEX
  8
1
  5
81BA
 10
5416.66
 20
4618.95
 30
0.000000
  70
    32
  0
VERTEX
  8
1
  5
81BB
 10
5416.58
 20
4619.02
 30
0.000000
  70
    32
  0
VERTEX
  8
1
  5
81BC
 10
5416.49
 20
4619.09
 30
0.000000
  70
    32
  0
VERTEX
  8
1
  5
81BD
 10
5416.41
 20
4619.16
 30
0.000000
  70
    32
  0
VERTEX
  8
1
  5
81BE
 10
5416.33
 20
4619.24
 30
0.000000
  70
    32
  0
VERTEX
  8
1
  5
81BF
 10
5416.24
 20
4619.31
 30
0.000000
  70
    32
  0
VERTEX
  8
1
  5
81C0
 10
5416.16
 20
4619.38
 30
0.000000
  70
    32
  0
VERTEX
  8
1
  5
81C1
 10
5416.08
 20
4619.45
 30
0.000000
  70
    32
  0
VERTEX
  8
1
  5
81C2
 10
5416.00
 20
4619.52
 30
0.000000
  70
    32
  0
VERTEX
  8
1
  5
81C3
 10
5415.92
 20
4619.60
 30
0.000000
  70
    32
  0
VERTEX
  8
1
  5
81C4
 10
5415.83
 20
4619.67
 30
0.000000
  70
    32
  0
VERTEX
  8
1
  5
81C5
 10
5415.75
 20
4619.74
 30
0.000000
  70
    32
  0
VERTEX
  8
1
  5
81C6
 10
5415.67
 20
4619.82
 30
0.000000
  70
    32
  0
VERTEX
  8
1
  5
81C7
 10
5415.59
 20
4619.89
 30
0.000000
  70
    32
  0
VERTEX
  8
1
  5
81C8
 10
5415.51
 20
4619.97
 30
0.000000
  70
    32
  0
VERTEX
  8
1
  5
81C9
 10
5415.43
 20
4620.04
 30
0.000000
  70
    32
  0
VERTEX
  8
1
  5
81CA
 10
5415.35
 20
4620.12
 30
0.000000
  70
    32
  0
VERTEX
  8
1
  5
81CB
 10
5415.27
 20
4620.19
 30
0.000000
  70
    32
  0
VERTEX
  8
1
  5
81CC
 10
5415.19
 20
4620.27
 30
0.000000
  70
    32
  0
VERTEX
  8
1
  5
81CD
 10
5415.11
 20
4620.35
 30
0.000000
  70
    32
  0
VERTEX
  8
1
  5
81CE
 10
5415.03
 20
4620.42
 30
0.000000
  70
    32
  0
VERTEX
  8
1
  5
81CF
 10
5414.96
 20
4620.50
 30
0.000000
  70
    32
  0
VERTEX
  8
1
  5
81D0
 10
5414.88
 20
4620.58
 30
0.000000
  70
    32
  0
VERTEX
  8
1
  5
81D1
 10
5414.80
 20
4620.66
 30
0.000000
  70
    32
  0
VERTEX
  8
1
  5
81D2
 10
5414.72
 20
4620.74
 30
0.000000
  70
    32
  0
VERTEX
  8
1
  5
81D3
 10
5414.64
 20
4620.81
 30
0.000000
  70
    32
  0
VERTEX
  8
1
  5
81D4
 10
5414.57
 20
4620.89
 30
0.000000
  70
    32
  0
VERTEX
  8
1
  5
81D5
 10
5414.49
 20
4620.97
 30
0.000000
  70
    32
  0
VERTEX
  8
1
  5
81D6
 10
5414.42
 20
4621.05
 30
0.000000
  70
    32
  0
VERTEX
  8
1
  5
81D7
 10
5414.34
 20
4621.13
 30
0.000000
  70
    32
  0
VERTEX
  8
1
  5
81D8
 10
5414.26
 20
4621.21
 30
0.000000
  70
    32
  0
VERTEX
  8
1
  5
81D9
 10
5414.19
 20
4621.30
 30
0.000000
  70
    32
  0
VERTEX
  8
1
  5
81DA
 10
5414.11
 20
4621.38
 30
0.000000
  70
    32
  0
VERTEX
  8
1
  5
81DB
 10
5414.04
 20
4621.46
 30
0.000000
  70
    32
  0
VERTEX
  8
1
  5
81DC
 10
5413.97
 20
4621.54
 30
0.000000
  70
    32
  0
VERTEX
  8
1
  5
81DD
 10
5413.89
 20
4621.62
 30
0.000000
  70
    32
  0
VERTEX
  8
1
  5
81DE
 10
5413.82
 20
4621.70
 30
0.000000
  70
    32
  0
VERTEX
  8
1
  5
81DF
 10
5413.75
 20
4621.79
 30
0.000000
  70
    32
  0
VERTEX
  8
1
  5
81E0
 10
5413.67
 20
4621.87
 30
0.000000
  70
    32
  0
VERTEX
  8
1
  5
81E1
 10
5413.60
 20
4621.95
 30
0.000000
  70
    32
  0
VERTEX
  8
1
  5
81E2
 10
5413.53
 20
4622.04
 30
0.000000
  70
    32
  0
VERTEX
  8
1
  5
81E3
 10
5413.46
 20
4622.12
 30
0.000000
  70
    32
  0
VERTEX
  8
1
  5
81E4
 10
5413.38
 20
4622.21
 30
0.000000
  70
    32
  0
VERTEX
  8
1
  5
81E5
 10
5413.31
 20
4622.29
 30
0.000000
  70
    32
  0
VERTEX
  8
1
  5
81E6
 10
5413.24
 20
4622.38
 30
0.000000
  70
    32
  0
VERTEX
  8
1
  5
81E7
 10
5413.17
 20
4622.46
 30
0.000000
  70
    32
  0
VERTEX
  8
1
  5
81E8
 10
5413.10
 20
4622.55
 30
0.000000
  70
    32
  0
VERTEX
  8
1
  5
81E9
 10
5413.03
 20
4622.64
 30
0.000000
  70
    32
  0
VERTEX
  8
1
  5
81EA
 10
5412.96
 20
4622.72
 30
0.000000
  70
    32
  0
VERTEX
  8
1
  5
81EB
 10
5412.89
 20
4622.81
 30
0.000000
  70
    32
  0
VERTEX
  8
1
  5
81EC
 10
5412.83
 20
4622.90
 30
0.000000
  70
    32
  0
VERTEX
  8
1
  5
81ED
 10
5412.76
 20
4622.98
 30
0.000000
  70
    32
  0
VERTEX
  8
1
  5
81EE
 10
5412.69
 20
4623.07
 30
0.000000
  70
    32
  0
VERTEX
  8
1
  5
81EF
 10
5412.62
 20
4623.16
 30
0.000000
  70
    32
  0
VERTEX
  8
1
  5
81F0
 10
5412.55
 20
4623.25
 30
0.000000
  70
    32
  0
VERTEX
  8
1
  5
81F1
 10
5412.49
 20
4623.34
 30
0.000000
  70
    32
  0
VERTEX
  8
1
  5
81F2
 10
5412.42
 20
4623.42
 30
0.000000
  70
    32
  0
VERTEX
  8
1
  5
81F3
 10
5412.35
 20
4623.51
 30
0.000000
  70
    32
  0
VERTEX
  8
1
  5
81F4
 10
5412.29
 20
4623.60
 30
0.000000
  70
    32
  0
VERTEX
  8
1
  5
81F5
 10
5412.22
 20
4623.69
 30
0.000000
  70
    32
  0
VERTEX
  8
1
  5
81F6
 10
5412.16
 20
4623.78
 30
0.000000
  70
    32
  0
VERTEX
  8
1
  5
81F7
 10
5412.09
 20
4623.87
 30
0.000000
  70
    32
  0
VERTEX
  8
1
  5
81F8
 10
5412.03
 20
4623.97
 30
0.000000
  70
    32
  0
VERTEX
  8
1
  5
81F9
 10
5411.96
 20
4624.06
 30
0.000000
  70
    32
  0
VERTEX
  8
1
  5
81FA
 10
5411.90
 20
4624.15
 30
0.000000
  70
    32
  0
VERTEX
  8
1
  5
81FB
 10
5411.84
 20
4624.24
 30
0.000000
  70
    32
  0
VERTEX
  8
1
  5
81FC
 10
5411.77
 20
4624.33
 30
0.000000
  70
    32
  0
VERTEX
  8
1
  5
81FD
 10
5411.71
 20
4624.42
 30
0.000000
  70
    32
  0
VERTEX
  8
1
  5
81FE
 10
5411.65
 20
4624.52
 30
0.000000
  70
    32
  0
VERTEX
  8
1
  5
81FF
 10
5411.59
 20
4624.61
 30
0.000000
  70
    32
  0
VERTEX
  8
1
  5
8200
 10
5411.53
 20
4624.70
 30
0.000000
  70
    32
  0
VERTEX
  8
1
  5
8201
 10
5411.47
 20
4624.79
 30
0.000000
  70
    32
  0
VERTEX
  8
1
  5
8202
 10
5411.40
 20
4624.89
 30
0.000000
  70
    32
  0
VERTEX
  8
1
  5
8203
 10
5411.34
 20
4624.98
 30
0.000000
  70
    32
  0
VERTEX
  8
1
  5
8204
 10
5411.28
 20
4625.08
 30
0.000000
  70
    32
  0
VERTEX
  8
1
  5
8205
 10
5411.22
 20
4625.17
 30
0.000000
  70
    32
  0
VERTEX
  8
1
  5
8206
 10
5411.17
 20
4625.27
 30
0.000000
  70
    32
  0
VERTEX
  8
1
  5
8207
 10
5411.11
 20
4625.36
 30
0.000000
  70
    32
  0
VERTEX
  8
1
  5
8208
 10
5411.05
 20
4625.46
 30
0.000000
  70
    32
  0
VERTEX
  8
1
  5
8209
 10
5410.99
 20
4625.55
 30
0.000000
  70
    32
  0
VERTEX
  8
1
  5
820A
 10
5410.93
 20
4625.65
 30
0.000000
  70
    32
  0
VERTEX
  8
1
  5
820B
 10
5410.88
 20
4625.74
 30
0.000000
  70
    32
  0
VERTEX
  8
1
  5
820C
 10
5410.82
 20
4625.84
 30
0.000000
  70
    32
  0
VERTEX
  8
1
  5
820D
 10
5410.76
 20
4625.94
 30
0.000000
  70
    32
  0
VERTEX
  8
1
  5
820E
 10
5410.71
 20
4626.03
 30
0.000000
  70
    32
  0
VERTEX
  8
1
  5
820F
 10
5410.65
 20
4626.13
 30
0.000000
  70
    32
  0
VERTEX
  8
1
  5
8210
 10
5410.60
 20
4626.23
 30
0.000000
  70
    32
  0
VERTEX
  8
1
  5
8211
 10
5410.54
 20
4626.32
 30
0.000000
  70
    32
  0
VERTEX
  8
1
  5
8212
 10
5410.49
 20
4626.42
 30
0.000000
  70
    32
  0
VERTEX
  8
1
  5
8213
 10
5410.43
 20
4626.52
 30
0.000000
  70
    32
  0
VERTEX
  8
1
  5
8214
 10
5410.38
 20
4626.62
 30
0.000000
  70
    32
  0
VERTEX
  8
1
  5
8215
 10
5410.32
 20
4626.72
 30
0.000000
  70
    32
  0
VERTEX
  8
1
  5
8216
 10
5410.27
 20
4626.82
 30
0.000000
  70
    32
  0
VERTEX
  8
1
  5
8217
 10
5410.22
 20
4626.92
 30
0.000000
  70
    32
  0
VERTEX
  8
1
  5
8218
 10
5410.17
 20
4627.01
 30
0.000000
  70
    32
  0
VERTEX
  8
1
  5
8219
 10
5410.12
 20
4627.11
 30
0.000000
  70
    32
  0
VERTEX
  8
1
  5
821A
 10
5410.06
 20
4627.21
 30
0.000000
  70
    32
  0
VERTEX
  8
1
  5
821B
 10
5410.01
 20
4627.31
 30
0.000000
  70
    32
  0
VERTEX
  8
1
  5
821C
 10
5409.96
 20
4627.41
 30
0.000000
  70
    32
  0
VERTEX
  8
1
  5
821D
 10
5409.91
 20
4627.51
 30
0.000000
  70
    32
  0
VERTEX
  8
1
  5
821E
 10
5409.86
 20
4627.62
 30
0.000000
  70
    32
  0
VERTEX
  8
1
  5
821F
 10
5409.81
 20
4627.72
 30
0.000000
  70
    32
  0
VERTEX
  8
1
  5
8220
 10
5409.77
 20
4627.82
 30
0.000000
  70
    32
  0
VERTEX
  8
1
  5
8221
 10
5409.72
 20
4627.92
 30
0.000000
  70
    32
  0
VERTEX
  8
1
  5
8222
 10
5409.67
 20
4628.02
 30
0.000000
  70
    32
  0
VERTEX
  8
1
  5
8223
 10
5409.62
 20
4628.12
 30
0.000000
  70
    32
  0
VERTEX
  8
1
  5
8224
 10
5409.57
 20
4628.22
 30
0.000000
  70
    32
  0
VERTEX
  8
1
  5
8225
 10
5409.53
 20
4628.33
 30
0.000000
  70
    32
  0
VERTEX
  8
1
  5
8226
 10
5409.48
 20
4628.43
 30
0.000000
  70
    32
  0
VERTEX
  8
1
  5
8227
 10
5409.44
 20
4628.53
 30
0.000000
  70
    32
  0
VERTEX
  8
1
  5
8228
 10
5409.39
 20
4628.63
 30
0.000000
  70
    32
  0
VERTEX
  8
1
  5
8229
 10
5409.34
 20
4628.74
 30
0.000000
  70
    32
  0
VERTEX
  8
1
  5
822A
 10
5409.30
 20
4628.84
 30
0.000000
  70
    32
  0
VERTEX
  8
1
  5
822B
 10
5409.26
 20
4628.94
 30
0.000000
  70
    32
  0
VERTEX
  8
1
  5
822C
 10
5409.21
 20
4629.05
 30
0.000000
  70
    32
  0
VERTEX
  8
1
  5
822D
 10
5409.17
 20
4629.15
 30
0.000000
  70
    32
  0
VERTEX
  8
1
  5
822E
 10
5409.13
 20
4629.26
 30
0.000000
  70
    32
  0
VERTEX
  8
1
  5
822F
 10
5409.08
 20
4629.36
 30
0.000000
  70
    32
  0
VERTEX
  8
1
  5
8230
 10
5409.04
 20
4629.47
 30
0.000000
  70
    32
  0
VERTEX
  8
1
  5
8231
 10
5409.00
 20
4629.57
 30
0.000000
  70
    32
  0
VERTEX
  8
1
  5
8232
 10
5408.96
 20
4629.67
 30
0.000000
  70
    32
  0
VERTEX
  8
1
  5
8233
 10
5408.92
 20
4629.78
 30
0.000000
  70
    32
  0
VERTEX
  8
1
  5
8234
 10
5408.88
 20
4629.89
 30
0.000000
  70
    32
  0
VERTEX
  8
1
  5
8235
 10
5408.84
 20
4629.99
 30
0.000000
  70
    32
  0
VERTEX
  8
1
  5
8236
 10
5408.80
 20
4630.10
 30
0.000000
  70
    32
  0
VERTEX
  8
1
  5
8237
 10
5408.76
 20
4630.20
 30
0.000000
  70
    32
  0
VERTEX
  8
1
  5
8238
 10
5408.72
 20
4630.31
 30
0.000000
  70
    32
  0
VERTEX
  8
1
  5
8239
 10
5408.68
 20
4630.41
 30
0.000000
  70
    32
  0
VERTEX
  8
1
  5
823A
 10
5408.64
 20
4630.52
 30
0.000000
  70
    32
  0
VERTEX
  8
1
  5
823B
 10
5408.61
 20
4630.63
 30
0.000000
  70
    32
  0
VERTEX
  8
1
  5
823C
 10
5408.57
 20
4630.73
 30
0.000000
  70
    32
  0
VERTEX
  8
1
  5
823D
 10
5408.53
 20
4630.84
 30
0.000000
  70
    32
  0
VERTEX
  8
1
  5
823E
 10
5408.50
 20
4630.95
 30
0.000000
  70
    32
  0
VERTEX
  8
1
  5
823F
 10
5408.46
 20
4631.05
 30
0.000000
  70
    32
  0
VERTEX
  8
1
  5
8240
 10
5408.43
 20
4631.16
 30
0.000000
  70
    32
  0
VERTEX
  8
1
  5
8241
 10
5408.39
 20
4631.27
 30
0.000000
  70
    32
  0
VERTEX
  8
1
  5
8242
 10
5408.36
 20
4631.38
 30
0.000000
  70
    32
  0
VERTEX
  8
1
  5
8243
 10
5408.32
 20
4631.49
 30
0.000000
  70
    32
  0
VERTEX
  8
1
  5
8244
 10
5408.29
 20
4631.59
 30
0.000000
  70
    32
  0
VERTEX
  8
1
  5
8245
 10
5408.26
 20
4631.70
 30
0.000000
  70
    32
  0
VERTEX
  8
1
  5
8246
 10
5408.22
 20
4631.81
 30
0.000000
  70
    32
  0
VERTEX
  8
1
  5
8247
 10
5408.19
 20
4631.92
 30
0.000000
  70
    32
  0
VERTEX
  8
1
  5
8248
 10
5408.16
 20
4632.03
 30
0.000000
  70
    32
  0
VERTEX
  8
1
  5
8249
 10
5408.13
 20
4632.14
 30
0.000000
  70
    32
  0
VERTEX
  8
1
  5
824A
 10
5408.10
 20
4632.24
 30
0.000000
  70
    32
  0
VERTEX
  8
1
  5
824B
 10
5408.07
 20
4632.35
 30
0.000000
  70
    32
  0
VERTEX
  8
1
  5
824C
 10
5408.04
 20
4632.46
 30
0.000000
  70
    32
  0
VERTEX
  8
1
  5
824D
 10
5408.01
 20
4632.57
 30
0.000000
  70
    32
  0
VERTEX
  8
1
  5
824E
 10
5407.98
 20
4632.68
 30
0.000000
  70
    32
  0
VERTEX
  8
1
  5
824F
 10
5407.95
 20
4632.79
 30
0.000000
  70
    32
  0
VERTEX
  8
1
  5
8250
 10
5407.92
 20
4632.90
 30
0.000000
  70
    32
  0
VERTEX
  8
1
  5
8251
 10
5407.89
 20
4633.01
 30
0.000000
  70
    32
  0
VERTEX
  8
1
  5
8252
 10
5407.87
 20
4633.12
 30
0.000000
  70
    32
  0
VERTEX
  8
1
  5
8253
 10
5407.84
 20
4633.23
 30
0.000000
  70
    32
  0
VERTEX
  8
1
  5
8254
 10
5407.81
 20
4633.34
 30
0.000000
  70
    32
  0
VERTEX
  8
1
  5
8255
 10
5407.79
 20
4633.45
 30
0.000000
  70
    32
  0
VERTEX
  8
1
  5
8256
 10
5407.76
 20
4633.56
 30
0.000000
  70
    32
  0
VERTEX
  8
1
  5
8257
 10
5407.74
 20
4633.67
 30
0.000000
  70
    32
  0
VERTEX
  8
1
  5
8258
 10
5407.71
 20
4633.78
 30
0.000000
  70
    32
  0
VERTEX
  8
1
  5
8259
 10
5407.69
 20
4633.89
 30
0.000000
  70
    32
  0
VERTEX
  8
1
  5
825A
 10
5407.67
 20
4634.00
 30
0.000000
  70
    32
  0
VERTEX
  8
1
  5
825B
 10
5407.64
 20
4634.11
 30
0.000000
  70
    32
  0
VERTEX
  8
1
  5
825C
 10
5407.62
 20
4634.23
 30
0.000000
  70
    32
  0
VERTEX
  8
1
  5
825D
 10
5407.60
 20
4634.34
 30
0.000000
  70
    32
  0
VERTEX
  8
1
  5
825E
 10
5407.58
 20
4634.45
 30
0.000000
  70
    32
  0
VERTEX
  8
1
  5
825F
 10
5407.55
 20
4634.56
 30
0.000000
  70
    32
  0
VERTEX
  8
1
  5
8260
 10
5407.53
 20
4634.67
 30
0.000000
  70
    32
  0
VERTEX
  8
1
  5
8261
 10
5407.51
 20
4634.78
 30
0.000000
  70
    32
  0
VERTEX
  8
1
  5
8262
 10
5407.49
 20
4634.89
 30
0.000000
  70
    32
  0
VERTEX
  8
1
  5
8263
 10
5407.47
 20
4635.01
 30
0.000000
  70
    32
  0
VERTEX
  8
1
  5
8264
 10
5407.45
 20
4635.12
 30
0.000000
  70
    32
  0
VERTEX
  8
1
  5
8265
 10
5407.44
 20
4635.23
 30
0.000000
  70
    32
  0
VERTEX
  8
1
  5
8266
 10
5407.42
 20
4635.34
 30
0.000000
  70
    32
  0
VERTEX
  8
1
  5
8267
 10
5407.40
 20
4635.45
 30
0.000000
  70
    32
  0
VERTEX
  8
1
  5
8268
 10
5407.38
 20
4635.57
 30
0.000000
  70
    32
  0
VERTEX
  8
1
  5
8269
 10
5407.37
 20
4635.68
 30
0.000000
  70
    32
  0
VERTEX
  8
1
  5
826A
 10
5407.35
 20
4635.79
 30
0.000000
  70
    32
  0
VERTEX
  8
1
  5
826B
 10
5407.33
 20
4635.90
 30
0.000000
  70
    32
  0
VERTEX
  8
1
  5
826C
 10
5407.32
 20
4636.01
 30
0.000000
  70
    32
  0
VERTEX
  8
1
  5
826D
 10
5407.30
 20
4636.13
 30
0.000000
  70
    32
  0
VERTEX
  8
1
  5
826E
 10
5407.29
 20
4636.24
 30
0.000000
  70
    32
  0
VERTEX
  8
1
  5
826F
 10
5407.27
 20
4636.35
 30
0.000000
  70
    32
  0
VERTEX
  8
1
  5
8270
 10
5407.26
 20
4636.47
 30
0.000000
  70
    32
  0
VERTEX
  8
1
  5
8271
 10
5407.25
 20
4636.58
 30
0.000000
  70
    32
  0
VERTEX
  8
1
  5
8272
 10
5407.24
 20
4636.69
 30
0.000000
  70
    32
  0
VERTEX
  8
1
  5
8273
 10
5407.22
 20
4636.80
 30
0.000000
  70
    32
  0
VERTEX
  8
1
  5
8274
 10
5407.21
 20
4636.92
 30
0.000000
  70
    32
  0
VERTEX
  8
1
  5
8275
 10
5407.20
 20
4637.03
 30
0.000000
  70
    32
  0
VERTEX
  8
1
  5
8276
 10
5407.19
 20
4637.14
 30
0.000000
  70
    32
  0
VERTEX
  8
1
  5
8277
 10
5407.18
 20
4637.26
 30
0.000000
  70
    32
  0
VERTEX
  8
1
  5
8278
 10
5407.17
 20
4637.37
 30
0.000000
  70
    32
  0
VERTEX
  8
1
  5
8279
 10
5407.16
 20
4637.48
 30
0.000000
  70
    32
  0
VERTEX
  8
1
  5
827A
 10
5407.15
 20
4637.60
 30
0.000000
  70
    32
  0
VERTEX
  8
1
  5
827B
 10
5407.14
 20
4637.71
 30
0.000000
  70
    32
  0
VERTEX
  8
1
  5
827C
 10
5407.13
 20
4637.82
 30
0.000000
  70
    32
  0
VERTEX
  8
1
  5
827D
 10
5407.13
 20
4637.94
 30
0.000000
  70
    32
  0
VERTEX
  8
1
  5
827E
 10
5407.12
 20
4638.05
 30
0.000000
  70
    32
  0
VERTEX
  8
1
  5
827F
 10
5407.11
 20
4638.16
 30
0.000000
  70
    32
  0
VERTEX
  8
1
  5
8280
 10
5407.11
 20
4638.28
 30
0.000000
  70
    32
  0
VERTEX
  8
1
  5
8281
 10
5407.10
 20
4638.39
 30
0.000000
  70
    32
  0
VERTEX
  8
1
  5
8282
 10
5407.10
 20
4638.50
 30
0.000000
  70
    32
  0
VERTEX
  8
1
  5
8283
 10
5407.09
 20
4638.62
 30
0.000000
  70
    32
  0
VERTEX
  8
1
  5
8284
 10
5407.09
 20
4638.73
 30
0.000000
  70
    32
  0
VERTEX
  8
1
  5
8285
 10
5407.08
 20
4638.84
 30
0.000000
  70
    32
  0
VERTEX
  8
1
  5
8286
 10
5407.08
 20
4638.96
 30
0.000000
  70
    32
  0
VERTEX
  8
1
  5
8287
 10
5407.08
 20
4639.07
 30
0.000000
  70
    32
  0
VERTEX
  8
1
  5
8288
 10
5407.07
 20
4639.18
 30
0.000000
  70
    32
  0
VERTEX
  8
1
  5
8289
 10
5407.07
 20
4639.30
 30
0.000000
  70
    32
  0
VERTEX
  8
1
  5
828A
 10
5407.07
 20
4639.41
 30
0.000000
  70
    32
  0
VERTEX
  8
1
  5
828B
 10
5407.07
 20
4639.53
 30
0.000000
  70
    32
  0
VERTEX
  8
1
  5
828C
 10
5407.07
 20
4639.64
 30
0.000000
  70
    32
  0
VERTEX
  8
1
  5
828D
 10
5407.07
 20
4639.75
 30
0.000000
  70
    32
  0
VERTEX
  8
1
  5
828E
 10
5407.07
 20
4639.87
 30
0.000000
  70
    32
  0
VERTEX
  8
1
  5
828F
 10
5407.07
 20
4639.98
 30
0.000000
  70
    32
  0
VERTEX
  8
1
  5
8290
 10
5407.07
 20
4640.09
 30
0.000000
  70
    32
  0
VERTEX
  8
1
  5
8291
 10
5407.07
 20
4640.21
 30
0.000000
  70
    32
  0
VERTEX
  8
1
  5
8292
 10
5407.08
 20
4640.32
 30
0.000000
  70
    32
  0
VERTEX
  8
1
  5
8293
 10
5407.08
 20
4640.43
 30
0.000000
  70
    32
  0
VERTEX
  8
1
  5
8294
 10
5407.08
 20
4640.55
 30
0.000000
  70
    32
  0
VERTEX
  8
1
  5
8295
 10
5407.08
 20
4640.66
 30
0.000000
  70
    32
  0
VERTEX
  8
1
  5
8296
 10
5407.09
 20
4640.78
 30
0.000000
  70
    32
  0
VERTEX
  8
1
  5
8297
 10
5407.09
 20
4640.89
 30
0.000000
  70
    32
  0
VERTEX
  8
1
  5
8298
 10
5407.10
 20
4641.00
 30
0.000000
  70
    32
  0
VERTEX
  8
1
  5
8299
 10
5407.10
 20
4641.12
 30
0.000000
  70
    32
  0
VERTEX
  8
1
  5
829A
 10
5407.11
 20
4641.23
 30
0.000000
  70
    32
  0
VERTEX
  8
1
  5
829B
 10
5407.12
 20
4641.34
 30
0.000000
  70
    32
  0
VERTEX
  8
1
  5
829C
 10
5407.12
 20
4641.46
 30
0.000000
  70
    32
  0
VERTEX
  8
1
  5
829D
 10
5407.13
 20
4641.57
 30
0.000000
  70
    32
  0
VERTEX
  8
1
  5
829E
 10
5407.14
 20
4641.68
 30
0.000000
  70
    32
  0
VERTEX
  8
1
  5
829F
 10
5407.15
 20
4641.80
 30
0.000000
  70
    32
  0
VERTEX
  8
1
  5
82A0
 10
5407.15
 20
4641.91
 30
0.000000
  70
    32
  0
VERTEX
  8
1
  5
82A1
 10
5407.16
 20
4642.02
 30
0.000000
  70
    32
  0
VERTEX
  8
1
  5
82A2
 10
5407.17
 20
4642.14
 30
0.000000
  70
    32
  0
VERTEX
  8
1
  5
82A3
 10
5407.18
 20
4642.25
 30
0.000000
  70
    32
  0
VERTEX
  8
1
  5
82A4
 10
5407.19
 20
4642.36
 30
0.000000
  70
    32
  0
VERTEX
  8
1
  5
82A5
 10
5407.21
 20
4642.48
 30
0.000000
  70
    32
  0
VERTEX
  8
1
  5
82A6
 10
5407.22
 20
4642.59
 30
0.000000
  70
    32
  0
VERTEX
  8
1
  5
82A7
 10
5407.23
 20
4642.70
 30
0.000000
  70
    32
  0
VERTEX
  8
1
  5
82A8
 10
5407.24
 20
4642.81
 30
0.000000
  70
    32
  0
VERTEX
  8
1
  5
82A9
 10
5407.25
 20
4642.93
 30
0.000000
  70
    32
  0
VERTEX
  8
1
  5
82AA
 10
5407.27
 20
4643.04
 30
0.000000
  70
    32
  0
VERTEX
  8
1
  5
82AB
 10
5407.28
 20
4643.15
 30
0.000000
  70
    32
  0
VERTEX
  8
1
  5
82AC
 10
5407.30
 20
4643.27
 30
0.000000
  70
    32
  0
VERTEX
  8
1
  5
82AD
 10
5407.31
 20
4643.38
 30
0.000000
  70
    32
  0
VERTEX
  8
1
  5
82AE
 10
5407.33
 20
4643.49
 30
0.000000
  70
    32
  0
VERTEX
  8
1
  5
82AF
 10
5407.34
 20
4643.60
 30
0.000000
  70
    32
  0
VERTEX
  8
1
  5
82B0
 10
5407.36
 20
4643.72
 30
0.000000
  70
    32
  0
VERTEX
  8
1
  5
82B1
 10
5407.37
 20
4643.83
 30
0.000000
  70
    32
  0
VERTEX
  8
1
  5
82B2
 10
5407.39
 20
4643.94
 30
0.000000
  70
    32
  0
VERTEX
  8
1
  5
82B3
 10
5407.41
 20
4644.05
 30
0.000000
  70
    32
  0
VERTEX
  8
1
  5
82B4
 10
5407.43
 20
4644.16
 30
0.000000
  70
    32
  0
VERTEX
  8
1
  5
82B5
 10
5407.44
 20
4644.28
 30
0.000000
  70
    32
  0
VERTEX
  8
1
  5
82B6
 10
5407.46
 20
4644.39
 30
0.000000
  70
    32
  0
VERTEX
  8
1
  5
82B7
 10
5407.48
 20
4644.50
 30
0.000000
  70
    32
  0
VERTEX
  8
1
  5
82B8
 10
5407.50
 20
4644.61
 30
0.000000
  70
    32
  0
VERTEX
  8
1
  5
82B9
 10
5407.52
 20
4644.72
 30
0.000000
  70
    32
  0
VERTEX
  8
1
  5
82BA
 10
5407.54
 20
4644.83
 30
0.000000
  70
    32
  0
VERTEX
  8
1
  5
82BB
 10
5407.56
 20
4644.95
 30
0.000000
  70
    32
  0
VERTEX
  8
1
  5
82BC
 10
5407.59
 20
4645.06
 30
0.000000
  70
    32
  0
VERTEX
  8
1
  5
82BD
 10
5407.61
 20
4645.17
 30
0.000000
  70
    32
  0
VERTEX
  8
1
  5
82BE
 10
5407.63
 20
4645.28
 30
0.000000
  70
    32
  0
VERTEX
  8
1
  5
82BF
 10
5407.65
 20
4645.39
 30
0.000000
  70
    32
  0
VERTEX
  8
1
  5
82C0
 10
5407.68
 20
4645.50
 30
0.000000
  70
    32
  0
VERTEX
  8
1
  5
82C1
 10
5407.70
 20
4645.61
 30
0.000000
  70
    32
  0
VERTEX
  8
1
  5
82C2
 10
5407.73
 20
4645.72
 30
0.000000
  70
    32
  0
VERTEX
  8
1
  5
82C3
 10
5407.75
 20
4645.83
 30
0.000000
  70
    32
  0
VERTEX
  8
1
  5
82C4
 10
5407.78
 20
4645.94
 30
0.000000
  70
    32
  0
VERTEX
  8
1
  5
82C5
 10
5407.80
 20
4646.05
 30
0.000000
  70
    32
  0
VERTEX
  8
1
  5
82C6
 10
5407.83
 20
4646.16
 30
0.000000
  70
    32
  0
VERTEX
  8
1
  5
82C7
 10
5407.85
 20
4646.27
 30
0.000000
  70
    32
  0
VERTEX
  8
1
  5
82C8
 10
5407.88
 20
4646.38
 30
0.000000
  70
    32
  0
VERTEX
  8
1
  5
82C9
 10
5407.91
 20
4646.49
 30
0.000000
  70
    32
  0
VERTEX
  8
1
  5
82CA
 10
5407.94
 20
4646.60
 30
0.000000
  70
    32
  0
VERTEX
  8
1
  5
82CB
 10
5407.96
 20
4646.71
 30
0.000000
  70
    32
  0
VERTEX
  8
1
  5
82CC
 10
5407.99
 20
4646.82
 30
0.000000
  70
    32
  0
VERTEX
  8
1
  5
82CD
 10
5408.02
 20
4646.93
 30
0.000000
  70
    32
  0
VERTEX
  8
1
  5
82CE
 10
5408.05
 20
4647.04
 30
0.000000
  70
    32
  0
VERTEX
  8
1
  5
82CF
 10
5408.08
 20
4647.15
 30
0.000000
  70
    32
  0
VERTEX
  8
1
  5
82D0
 10
5408.11
 20
4647.26
 30
0.000000
  70
    32
  0
VERTEX
  8
1
  5
82D1
 10
5408.14
 20
4647.37
 30
0.000000
  70
    32
  0
VERTEX
  8
1
  5
82D2
 10
5408.18
 20
4647.48
 30
0.000000
  70
    32
  0
VERTEX
  8
1
  5
82D3
 10
5408.21
 20
4647.59
 30
0.000000
  70
    32
  0
VERTEX
  8
1
  5
82D4
 10
5408.24
 20
4647.69
 30
0.000000
  70
    32
  0
VERTEX
  8
1
  5
82D5
 10
5408.27
 20
4647.80
 30
0.000000
  70
    32
  0
VERTEX
  8
1
  5
82D6
 10
5408.31
 20
4647.91
 30
0.000000
  70
    32
  0
VERTEX
  8
1
  5
82D7
 10
5408.34
 20
4648.02
 30
0.000000
  70
    32
  0
VERTEX
  8
1
  5
82D8
 10
5408.37
 20
4648.13
 30
0.000000
  70
    32
  0
VERTEX
  8
1
  5
82D9
 10
5408.41
 20
4648.23
 30
0.000000
  70
    32
  0
VERTEX
  8
1
  5
82DA
 10
5408.44
 20
4648.34
 30
0.000000
  70
    32
  0
VERTEX
  8
1
  5
82DB
 10
5408.48
 20
4648.45
 30
0.000000
  70
    32
  0
VERTEX
  8
1
  5
82DC
 10
5408.51
 20
4648.56
 30
0.000000
  70
    32
  0
VERTEX
  8
1
  5
82DD
 10
5408.55
 20
4648.66
 30
0.000000
  70
    32
  0
VERTEX
  8
1
  5
82DE
 10
5408.59
 20
4648.77
 30
0.000000
  70
    32
  0
VERTEX
  8
1
  5
82DF
 10
5408.62
 20
4648.88
 30
0.000000
  70
    32
  0
VERTEX
  8
1
  5
82E0
 10
5408.66
 20
4648.98
 30
0.000000
  70
    32
  0
VERTEX
  8
1
  5
82E1
 10
5408.70
 20
4649.09
 30
0.000000
  70
    32
  0
VERTEX
  8
1
  5
82E2
 10
5408.74
 20
4649.19
 30
0.000000
  70
    32
  0
VERTEX
  8
1
  5
82E3
 10
5408.78
 20
4649.30
 30
0.000000
  70
    32
  0
VERTEX
  8
1
  5
82E4
 10
5408.82
 20
4649.41
 30
0.000000
  70
    32
  0
VERTEX
  8
1
  5
82E5
 10
5408.86
 20
4649.51
 30
0.000000
  70
    32
  0
VERTEX
  8
1
  5
82E6
 10
5408.90
 20
4649.62
 30
0.000000
  70
    32
  0
VERTEX
  8
1
  5
82E7
 10
5408.94
 20
4649.72
 30
0.000000
  70
    32
  0
VERTEX
  8
1
  5
82E8
 10
5408.98
 20
4649.83
 30
0.000000
  70
    32
  0
VERTEX
  8
1
  5
82E9
 10
5409.02
 20
4649.93
 30
0.000000
  70
    32
  0
VERTEX
  8
1
  5
82EA
 10
5409.06
 20
4650.04
 30
0.000000
  70
    32
  0
VERTEX
  8
1
  5
82EB
 10
5409.10
 20
4650.14
 30
0.000000
  70
    32
  0
VERTEX
  8
1
  5
82EC
 10
5409.15
 20
4650.25
 30
0.000000
  70
    32
  0
VERTEX
  8
1
  5
82ED
 10
5409.19
 20
4650.35
 30
0.000000
  70
    32
  0
VERTEX
  8
1
  5
82EE
 10
5409.23
 20
4650.45
 30
0.000000
  70
    32
  0
VERTEX
  8
1
  5
82EF
 10
5409.28
 20
4650.56
 30
0.000000
  70
    32
  0
VERTEX
  8
1
  5
82F0
 10
5409.32
 20
4650.66
 30
0.000000
  70
    32
  0
VERTEX
  8
1
  5
82F1
 10
5409.37
 20
4650.76
 30
0.000000
  70
    32
  0
VERTEX
  8
1
  5
82F2
 10
5409.41
 20
4650.87
 30
0.000000
  70
    32
  0
VERTEX
  8
1
  5
82F3
 10
5409.46
 20
4650.97
 30
0.000000
  70
    32
  0
VERTEX
  8
1
  5
82F4
 10
5409.50
 20
4651.07
 30
0.000000
  70
    32
  0
VERTEX
  8
1
  5
82F5
 10
5409.55
 20
4651.17
 30
0.000000
  70
    32
  0
VERTEX
  8
1
  5
82F6
 10
5409.60
 20
4651.28
 30
0.000000
  70
    32
  0
VERTEX
  8
1
  5
82F7
 10
5409.65
 20
4651.38
 30
0.000000
  70
    32
  0
VERTEX
  8
1
  5
82F8
 10
5409.69
 20
4651.48
 30
0.000000
  70
    32
  0
VERTEX
  8
1
  5
82F9
 10
5409.74
 20
4651.58
 30
0.000000
  70
    32
  0
VERTEX
  8
1
  5
82FA
 10
5409.79
 20
4651.68
 30
0.000000
  70
    32
  0
VERTEX
  8
1
  5
82FB
 10
5409.84
 20
4651.78
 30
0.000000
  70
    32
  0
VERTEX
  8
1
  5
82FC
 10
5409.89
 20
4651.88
 30
0.000000
  70
    32
  0
VERTEX
  8
1
  5
82FD
 10
5409.94
 20
4651.98
 30
0.000000
  70
    32
  0
VERTEX
  8
1
  5
82FE
 10
5409.99
 20
4652.08
 30
0.000000
  70
    32
  0
VERTEX
  8
1
  5
82FF
 10
5410.04
 20
4652.18
 30
0.000000
  70
    32
  0
VERTEX
  8
1
  5
8300
 10
5410.09
 20
4652.28
 30
0.000000
  70
    32
  0
VERTEX
  8
1
  5
8301
 10
5410.14
 20
4652.38
 30
0.000000
  70
    32
  0
VERTEX
  8
1
  5
8302
 10
5410.19
 20
4652.48
 30
0.000000
  70
    32
  0
VERTEX
  8
1
  5
8303
 10
5410.25
 20
4652.58
 30
0.000000
  70
    32
  0
VERTEX
  8
1
  5
8304
 10
5410.30
 20
4652.68
 30
0.000000
  70
    32
  0
VERTEX
  8
1
  5
8305
 10
5410.35
 20
4652.78
 30
0.000000
  70
    32
  0
VERTEX
  8
1
  5
8306
 10
5410.41
 20
4652.88
 30
0.000000
  70
    32
  0
VERTEX
  8
1
  5
8307
 10
5410.46
 20
4652.98
 30
0.000000
  70
    32
  0
VERTEX
  8
1
  5
8308
 10
5410.51
 20
4653.08
 30
0.000000
  70
    32
  0
VERTEX
  8
1
  5
8309
 10
5410.57
 20
4653.17
 30
0.000000
  70
    32
  0
VERTEX
  8
1
  5
830A
 10
5410.62
 20
4653.27
 30
0.000000
  70
    32
  0
VERTEX
  8
1
  5
830B
 10
5410.68
 20
4653.37
 30
0.000000
  70
    32
  0
VERTEX
  8
1
  5
830C
 10
5410.73
 20
4653.46
 30
0.000000
  70
    32
  0
VERTEX
  8
1
  5
830D
 10
5410.79
 20
4653.56
 30
0.000000
  70
    32
  0
VERTEX
  8
1
  5
830E
 10
5410.85
 20
4653.66
 30
0.000000
  70
    32
  0
VERTEX
  8
1
  5
830F
 10
5410.90
 20
4653.75
 30
0.000000
  70
    32
  0
VERTEX
  8
1
  5
8310
 10
5410.96
 20
4653.85
 30
0.000000
  70
    32
  0
VERTEX
  8
1
  5
8311
 10
5411.02
 20
4653.95
 30
0.000000
  70
    32
  0
VERTEX
  8
1
  5
8312
 10
5411.08
 20
4654.04
 30
0.000000
  70
    32
  0
VERTEX
  8
1
  5
8313
 10
5411.14
 20
4654.14
 30
0.000000
  70
    32
  0
VERTEX
  8
1
  5
8314
 10
5411.20
 20
4654.23
 30
0.000000
  70
    32
  0
VERTEX
  8
1
  5
8315
 10
5411.25
 20
4654.33
 30
0.000000
  70
    32
  0
VERTEX
  8
1
  5
8316
 10
5411.31
 20
4654.42
 30
0.000000
  70
    32
  0
VERTEX
  8
1
  5
8317
 10
5411.37
 20
4654.51
 30
0.000000
  70
    32
  0
VERTEX
  8
1
  5
8318
 10
5411.43
 20
4654.61
 30
0.000000
  70
    32
  0
VERTEX
  8
1
  5
8319
 10
5411.50
 20
4654.70
 30
0.000000
  70
    32
  0
VERTEX
  8
1
  5
831A
 10
5411.56
 20
4654.79
 30
0.000000
  70
    32
  0
VERTEX
  8
1
  5
831B
 10
5411.62
 20
4654.89
 30
0.000000
  70
    32
  0
VERTEX
  8
1
  5
831C
 10
5411.68
 20
4654.98
 30
0.000000
  70
    32
  0
VERTEX
  8
1
  5
831D
 10
5411.74
 20
4655.07
 30
0.000000
  70
    32
  0
VERTEX
  8
1
  5
831E
 10
5411.81
 20
4655.16
 30
0.000000
  70
    32
  0
VERTEX
  8
1
  5
831F
 10
5411.87
 20
4655.26
 30
0.000000
  70
    32
  0
VERTEX
  8
1
  5
8320
 10
5411.93
 20
4655.35
 30
0.000000
  70
    32
  0
VERTEX
  8
1
  5
8321
 10
5412.00
 20
4655.44
 30
0.000000
  70
    32
  0
VERTEX
  8
1
  5
8322
 10
5412.06
 20
4655.53
 30
0.000000
  70
    32
  0
VERTEX
  8
1
  5
8323
 10
5412.12
 20
4655.62
 30
0.000000
  70
    32
  0
VERTEX
  8
1
  5
8324
 10
5412.19
 20
4655.71
 30
0.000000
  70
    32
  0
VERTEX
  8
1
  5
8325
 10
5412.26
 20
4655.80
 30
0.000000
  70
    32
  0
VERTEX
  8
1
  5
8326
 10
5412.32
 20
4655.89
 30
0.000000
  70
    32
  0
VERTEX
  8
1
  5
8327
 10
5412.39
 20
4655.98
 30
0.000000
  70
    32
  0
VERTEX
  8
1
  5
8328
 10
5412.45
 20
4656.07
 30
0.000000
  70
    32
  0
VERTEX
  8
1
  5
8329
 10
5412.52
 20
4656.16
 30
0.000000
  70
    32
  0
VERTEX
  8
1
  5
832A
 10
5412.59
 20
4656.25
 30
0.000000
  70
    32
  0
VERTEX
  8
1
  5
832B
 10
5412.65
 20
4656.33
 30
0.000000
  70
    32
  0
VERTEX
  8
1
  5
832C
 10
5412.72
 20
4656.42
 30
0.000000
  70
    32
  0
VERTEX
  8
1
  5
832D
 10
5412.79
 20
4656.51
 30
0.000000
  70
    32
  0
VERTEX
  8
1
  5
832E
 10
5412.86
 20
4656.60
 30
0.000000
  70
    32
  0
VERTEX
  8
1
  5
832F
 10
5412.93
 20
4656.68
 30
0.000000
  70
    32
  0
VERTEX
  8
1
  5
8330
 10
5413.00
 20
4656.77
 30
0.000000
  70
    32
  0
VERTEX
  8
1
  5
8331
 10
5413.07
 20
4656.86
 30
0.000000
  70
    32
  0
VERTEX
  8
1
  5
8332
 10
5413.14
 20
4656.94
 30
0.000000
  70
    32
  0
VERTEX
  8
1
  5
8333
 10
5413.21
 20
4657.03
 30
0.000000
  70
    32
  0
VERTEX
  8
1
  5
8334
 10
5413.28
 20
4657.11
 30
0.000000
  70
    32
  0
VERTEX
  8
1
  5
8335
 10
5413.35
 20
4657.20
 30
0.000000
  70
    32
  0
VERTEX
  8
1
  5
8336
 10
5413.42
 20
4657.28
 30
0.000000
  70
    32
  0
VERTEX
  8
1
  5
8337
 10
5413.49
 20
4657.37
 30
0.000000
  70
    32
  0
VERTEX
  8
1
  5
8338
 10
5413.56
 20
4657.45
 30
0.000000
  70
    32
  0
VERTEX
  8
1
  5
8339
 10
5413.64
 20
4657.54
 30
0.000000
  70
    32
  0
VERTEX
  8
1
  5
833A
 10
5413.71
 20
4657.62
 30
0.000000
  70
    32
  0
VERTEX
  8
1
  5
833B
 10
5413.78
 20
4657.70
 30
0.000000
  70
    32
  0
VERTEX
  8
1
  5
833C
 10
5413.86
 20
4657.79
 30
0.000000
  70
    32
  0
VERTEX
  8
1
  5
833D
 10
5413.93
 20
4657.87
 30
0.000000
  70
    32
  0
VERTEX
  8
1
  5
833E
 10
5414.00
 20
4657.95
 30
0.000000
  70
    32
  0
VERTEX
  8
1
  5
833F
 10
5414.08
 20
4658.03
 30
0.000000
  70
    32
  0
VERTEX
  8
1
  5
8340
 10
5414.15
 20
4658.11
 30
0.000000
  70
    32
  0
VERTEX
  8
1
  5
8341
 10
5414.23
 20
4658.19
 30
0.000000
  70
    32
  0
VERTEX
  8
1
  5
8342
 10
5414.30
 20
4658.28
 30
0.000000
  70
    32
  0
VERTEX
  8
1
  5
8343
 10
5414.38
 20
4658.36
 30
0.000000
  70
    32
  0
VERTEX
  8
1
  5
8344
 10
5414.45
 20
4658.44
 30
0.000000
  70
    32
  0
VERTEX
  8
1
  5
8345
 10
5414.53
 20
4658.52
 30
0.000000
  70
    32
  0
VERTEX
  8
1
  5
8346
 10
5414.61
 20
4658.59
 30
0.000000
  70
    32
  0
VERTEX
  8
1
  5
8347
 10
5414.68
 20
4658.67
 30
0.000000
  70
    32
  0
VERTEX
  8
1
  5
8348
 10
5414.76
 20
4658.75
 30
0.000000
  70
    32
  0
VERTEX
  8
1
  5
8349
 10
5414.84
 20
4658.83
 30
0.000000
  70
    32
  0
VERTEX
  8
1
  5
834A
 10
5414.92
 20
4658.91
 30
0.000000
  70
    32
  0
VERTEX
  8
1
  5
834B
 10
5414.99
 20
4658.99
 30
0.000000
  70
    32
  0
VERTEX
  8
1
  5
834C
 10
5415.07
 20
4659.06
 30
0.000000
  70
    32
  0
VERTEX
  8
1
  5
834D
 10
5415.15
 20
4659.14
 30
0.000000
  70
    32
  0
VERTEX
  8
1
  5
834E
 10
5415.23
 20
4659.22
 30
0.000000
  70
    32
  0
VERTEX
  8
1
  5
834F
 10
5415.31
 20
4659.29
 30
0.000000
  70
    32
  0
VERTEX
  8
1
  5
8350
 10
5415.39
 20
4659.37
 30
0.000000
  70
    32
  0
VERTEX
  8
1
  5
8351
 10
5415.47
 20
4659.44
 30
0.000000
  70
    32
  0
VERTEX
  8
1
  5
8352
 10
5415.55
 20
4659.52
 30
0.000000
  70
    32
  0
VERTEX
  8
1
  5
8353
 10
5415.63
 20
4659.59
 30
0.000000
  70
    32
  0
VERTEX
  8
1
  5
8354
 10
5415.71
 20
4659.67
 30
0.000000
  70
    32
  0
VERTEX
  8
1
  5
8355
 10
5415.79
 20
4659.74
 30
0.000000
  70
    32
  0
VERTEX
  8
1
  5
8356
 10
5415.87
 20
4659.82
 30
0.000000
  70
    32
  0
VERTEX
  8
1
  5
8357
 10
5415.96
 20
4659.89
 30
0.000000
  70
    32
  0
VERTEX
  8
1
  5
8358
 10
5416.04
 20
4659.96
 30
0.000000
  70
    32
  0
VERTEX
  8
1
  5
8359
 10
5416.12
 20
4660.03
 30
0.000000
  70
    32
  0
VERTEX
  8
1
  5
835A
 10
5416.20
 20
4660.11
 30
0.000000
  70
    32
  0
VERTEX
  8
1
  5
835B
 10
5416.29
 20
4660.18
 30
0.000000
  70
    32
  0
VERTEX
  8
1
  5
835C
 10
5416.37
 20
4660.25
 30
0.000000
  70
    32
  0
VERTEX
  8
1
  5
835D
 10
5416.45
 20
4660.32
 30
0.000000
  70
    32
  0
VERTEX
  8
1
  5
835E
 10
5416.54
 20
4660.39
 30
0.000000
  70
    32
  0
VERTEX
  8
1
  5
835F
 10
5416.62
 20
4660.46
 30
0.000000
  70
    32
  0
VERTEX
  8
1
  5
8360
 10
5416.71
 20
4660.53
 30
0.000000
  70
    32
  0
VERTEX
  8
1
  5
8361
 10
5416.79
 20
4660.60
 30
0.000000
  70
    32
  0
VERTEX
  8
1
  5
8362
 10
5416.87
 20
4660.67
 30
0.000000
  70
    32
  0
VERTEX
  8
1
  5
8363
 10
5416.96
 20
4660.74
 30
0.000000
  70
    32
  0
VERTEX
  8
1
  5
8364
 10
5417.05
 20
4660.81
 30
0.000000
  70
    32
  0
VERTEX
  8
1
  5
8365
 10
5417.13
 20
4660.88
 30
0.000000
  70
    32
  0
VERTEX
  8
1
  5
8366
 10
5417.22
 20
4660.94
 30
0.000000
  70
    32
  0
VERTEX
  8
1
  5
8367
 10
5417.30
 20
4661.01
 30
0.000000
  70
    32
  0
VERTEX
  8
1
  5
8368
 10
5417.39
 20
4661.08
 30
0.000000
  70
    32
  0
VERTEX
  8
1
  5
8369
 10
5417.48
 20
4661.14
 30
0.000000
  70
    32
  0
VERTEX
  8
1
  5
836A
 10
5417.56
 20
4661.21
 30
0.000000
  70
    32
  0
VERTEX
  8
1
  5
836B
 10
5417.65
 20
4661.27
 30
0.000000
  70
    32
  0
VERTEX
  8
1
  5
836C
 10
5417.74
 20
4661.34
 30
0.000000
  70
    32
  0
VERTEX
  8
1
  5
836D
 10
5417.83
 20
4661.40
 30
0.000000
  70
    32
  0
VERTEX
  8
1
  5
836E
 10
5417.91
 20
4661.47
 30
0.000000
  70
    32
  0
VERTEX
  8
1
  5
836F
 10
5418.00
 20
4661.53
 30
0.000000
  70
    32
  0
VERTEX
  8
1
  5
8370
 10
5418.09
 20
4661.60
 30
0.000000
  70
    32
  0
VERTEX
  8
1
  5
8371
 10
5418.18
 20
4661.66
 30
0.000000
  70
    32
  0
VERTEX
  8
1
  5
8372
 10
5418.27
 20
4661.72
 30
0.000000
  70
    32
  0
VERTEX
  8
1
  5
8373
 10
5418.36
 20
4661.79
 30
0.000000
  70
    32
  0
VERTEX
  8
1
  5
8374
 10
5418.45
 20
4661.85
 30
0.000000
  70
    32
  0
VERTEX
  8
1
  5
8375
 10
5418.54
 20
4661.91
 30
0.000000
  70
    32
  0
VERTEX
  8
1
  5
8376
 10
5418.63
 20
4661.97
 30
0.000000
  70
    32
  0
VERTEX
  8
1
  5
8377
 10
5418.72
 20
4662.03
 30
0.000000
  70
    32
  0
VERTEX
  8
1
  5
8378
 10
5418.81
 20
4662.09
 30
0.000000
  70
    32
  0
VERTEX
  8
1
  5
8379
 10
5418.90
 20
4662.15
 30
0.000000
  70
    32
  0
VERTEX
  8
1
  5
837A
 10
5418.99
 20
4662.21
 30
0.000000
  70
    32
  0
VERTEX
  8
1
  5
837B
 10
5419.08
 20
4662.27
 30
0.000000
  70
    32
  0
VERTEX
  8
1
  5
837C
 10
5419.17
 20
4662.33
 30
0.000000
  70
    32
  0
VERTEX
  8
1
  5
837D
 10
5419.27
 20
4662.39
 30
0.000000
  70
    32
  0
VERTEX
  8
1
  5
837E
 10
5419.36
 20
4662.44
 30
0.000000
  70
    32
  0
VERTEX
  8
1
  5
837F
 10
5419.45
 20
4662.50
 30
0.000000
  70
    32
  0
VERTEX
  8
1
  5
8380
 10
5419.54
 20
4662.56
 30
0.000000
  70
    32
  0
VERTEX
  8
1
  5
8381
 10
5419.64
 20
4662.62
 30
0.000000
  70
    32
  0
VERTEX
  8
1
  5
8382
 10
5419.73
 20
4662.67
 30
0.000000
  70
    32
  0
VERTEX
  8
1
  5
8383
 10
5419.82
 20
4662.73
 30
0.000000
  70
    32
  0
VERTEX
  8
1
  5
8384
 10
5419.92
 20
4662.78
 30
0.000000
  70
    32
  0
VERTEX
  8
1
  5
8385
 10
5420.01
 20
4662.84
 30
0.000000
  70
    32
  0
VERTEX
  8
1
  5
8386
 10
5420.10
 20
4662.89
 30
0.000000
  70
    32
  0
VERTEX
  8
1
  5
8387
 10
5420.20
 20
4662.95
 30
0.000000
  70
    32
  0
VERTEX
  8
1
  5
8388
 10
5420.29
 20
4663.00
 30
0.000000
  70
    32
  0
VERTEX
  8
1
  5
8389
 10
5420.39
 20
4663.05
 30
0.000000
  70
    32
  0
VERTEX
  8
1
  5
838A
 10
5420.48
 20
4663.11
 30
0.000000
  70
    32
  0
VERTEX
  8
1
  5
838B
 10
5420.58
 20
4663.16
 30
0.000000
  70
    32
  0
VERTEX
  8
1
  5
838C
 10
5420.67
 20
4663.21
 30
0.000000
  70
    32
  0
VERTEX
  8
1
  5
838D
 10
5420.77
 20
4663.26
 30
0.000000
  70
    32
  0
VERTEX
  8
1
  5
838E
 10
5420.86
 20
4663.31
 30
0.000000
  70
    32
  0
VERTEX
  8
1
  5
838F
 10
5420.96
 20
4663.36
 30
0.000000
  70
    32
  0
VERTEX
  8
1
  5
8390
 10
5421.05
 20
4663.41
 30
0.000000
  70
    32
  0
VERTEX
  8
1
  5
8391
 10
5421.15
 20
4663.46
 30
0.000000
  70
    32
  0
VERTEX
  8
1
  5
8392
 10
5421.24
 20
4663.51
 30
0.000000
  70
    32
  0
VERTEX
  8
1
  5
8393
 10
5421.34
 20
4663.56
 30
0.000000
  70
    32
  0
VERTEX
  8
1
  5
8394
 10
5421.44
 20
4663.61
 30
0.000000
  70
    32
  0
VERTEX
  8
1
  5
8395
 10
5421.53
 20
4663.66
 30
0.000000
  70
    32
  0
VERTEX
  8
1
  5
8396
 10
5421.63
 20
4663.71
 30
0.000000
  70
    32
  0
VERTEX
  8
1
  5
8397
 10
5421.73
 20
4663.75
 30
0.000000
  70
    32
  0
VERTEX
  8
1
  5
8398
 10
5421.83
 20
4663.80
 30
0.000000
  70
    32
  0
VERTEX
  8
1
  5
8399
 10
5421.92
 20
4663.85
 30
0.000000
  70
    32
  0
VERTEX
  8
1
  5
839A
 10
5422.02
 20
4663.89
 30
0.000000
  70
    32
  0
VERTEX
  8
1
  5
839B
 10
5422.12
 20
4663.94
 30
0.000000
  70
    32
  0
VERTEX
  8
1
  5
839C
 10
5422.22
 20
4663.98
 30
0.000000
  70
    32
  0
VERTEX
  8
1
  5
839D
 10
5422.32
 20
4664.03
 30
0.000000
  70
    32
  0
VERTEX
  8
1
  5
839E
 10
5422.41
 20
4664.07
 30
0.000000
  70
    32
  0
VERTEX
  8
1
  5
839F
 10
5422.51
 20
4664.12
 30
0.000000
  70
    32
  0
VERTEX
  8
1
  5
83A0
 10
5422.61
 20
4664.16
 30
0.000000
  70
    32
  0
VERTEX
  8
1
  5
83A1
 10
5422.71
 20
4664.20
 30
0.000000
  70
    32
  0
VERTEX
  8
1
  5
83A2
 10
5422.81
 20
4664.24
 30
0.000000
  70
    32
  0
VERTEX
  8
1
  5
83A3
 10
5422.91
 20
4664.29
 30
0.000000
  70
    32
  0
VERTEX
  8
1
  5
83A4
 10
5423.01
 20
4664.33
 30
0.000000
  70
    32
  0
VERTEX
  8
1
  5
83A5
 10
5423.11
 20
4664.37
 30
0.000000
  70
    32
  0
VERTEX
  8
1
  5
83A6
 10
5423.21
 20
4664.41
 30
0.000000
  70
    32
  0
VERTEX
  8
1
  5
83A7
 10
5423.31
 20
4664.45
 30
0.000000
  70
    32
  0
VERTEX
  8
1
  5
83A8
 10
5423.41
 20
4664.49
 30
0.000000
  70
    32
  0
VERTEX
  8
1
  5
83A9
 10
5423.51
 20
4664.53
 30
0.000000
  70
    32
  0
VERTEX
  8
1
  5
83AA
 10
5423.61
 20
4664.57
 30
0.000000
  70
    32
  0
VERTEX
  8
1
  5
83AB
 10
5423.71
 20
4664.61
 30
0.000000
  70
    32
  0
VERTEX
  8
1
  5
83AC
 10
5423.81
 20
4664.64
 30
0.000000
  70
    32
  0
VERTEX
  8
1
  5
83AD
 10
5423.91
 20
4664.68
 30
0.000000
  70
    32
  0
VERTEX
  8
1
  5
83AE
 10
5424.01
 20
4664.72
 30
0.000000
  70
    32
  0
VERTEX
  8
1
  5
83AF
 10
5424.11
 20
4664.76
 30
0.000000
  70
    32
  0
VERTEX
  8
1
  5
83B0
 10
5424.22
 20
4664.79
 30
0.000000
  70
    32
  0
VERTEX
  8
1
  5
83B1
 10
5424.32
 20
4664.83
 30
0.000000
  70
    32
  0
VERTEX
  8
1
  5
83B2
 10
5424.42
 20
4664.86
 30
0.000000
  70
    32
  0
VERTEX
  8
1
  5
83B3
 10
5424.52
 20
4664.90
 30
0.000000
  70
    32
  0
VERTEX
  8
1
  5
83B4
 10
5424.62
 20
4664.93
 30
0.000000
  70
    32
  0
VERTEX
  8
1
  5
83B5
 10
5424.72
 20
4664.97
 30
0.000000
  70
    32
  0
VERTEX
  8
1
  5
83B6
 10
5424.83
 20
4665.00
 30
0.000000
  70
    32
  0
VERTEX
  8
1
  5
83B7
 10
5424.93
 20
4665.03
 30
0.000000
  70
    32
  0
VERTEX
  8
1
  5
83B8
 10
5425.03
 20
4665.06
 30
0.000000
  70
    32
  0
VERTEX
  8
1
  5
83B9
 10
5425.13
 20
4665.10
 30
0.000000
  70
    32
  0
VERTEX
  8
1
  5
83BA
 10
5425.24
 20
4665.13
 30
0.000000
  70
    32
  0
VERTEX
  8
1
  5
83BB
 10
5425.34
 20
4665.16
 30
0.000000
  70
    32
  0
VERTEX
  8
1
  5
83BC
 10
5425.44
 20
4665.19
 30
0.000000
  70
    32
  0
VERTEX
  8
1
  5
83BD
 10
5425.55
 20
4665.22
 30
0.000000
  70
    32
  0
VERTEX
  8
1
  5
83BE
 10
5425.65
 20
4665.25
 30
0.000000
  70
    32
  0
VERTEX
  8
1
  5
83BF
 10
5425.75
 20
4665.28
 30
0.000000
  70
    32
  0
VERTEX
  8
1
  5
83C0
 10
5425.86
 20
4665.31
 30
0.000000
  70
    32
  0
VERTEX
  8
1
  5
83C1
 10
5425.96
 20
4665.34
 30
0.000000
  70
    32
  0
VERTEX
  8
1
  5
83C2
 10
5426.06
 20
4665.36
 30
0.000000
  70
    32
  0
VERTEX
  8
1
  5
83C3
 10
5426.17
 20
4665.39
 30
0.000000
  70
    32
  0
VERTEX
  8
1
  5
83C4
 10
5426.27
 20
4665.42
 30
0.000000
  70
    32
  0
VERTEX
  8
1
  5
83C5
 10
5426.37
 20
4665.44
 30
0.000000
  70
    32
  0
VERTEX
  8
1
  5
83C6
 10
5426.48
 20
4665.47
 30
0.000000
  70
    32
  0
VERTEX
  8
1
  5
83C7
 10
5426.58
 20
4665.50
 30
0.000000
  70
    32
  0
VERTEX
  8
1
  5
83C8
 10
5426.69
 20
4665.52
 30
0.000000
  70
    32
  0
VERTEX
  8
1
  5
83C9
 10
5426.79
 20
4665.54
 30
0.000000
  70
    32
  0
VERTEX
  8
1
  5
83CA
 10
5426.89
 20
4665.57
 30
0.000000
  70
    32
  0
VERTEX
  8
1
  5
83CB
 10
5427.00
 20
4665.59
 30
0.000000
  70
    32
  0
VERTEX
  8
1
  5
83CC
 10
5427.10
 20
4665.62
 30
0.000000
  70
    32
  0
VERTEX
  8
1
  5
83CD
 10
5427.21
 20
4665.64
 30
0.000000
  70
    32
  0
VERTEX
  8
1
  5
83CE
 10
5427.31
 20
4665.66
 30
0.000000
  70
    32
  0
VERTEX
  8
1
  5
83CF
 10
5427.42
 20
4665.68
 30
0.000000
  70
    32
  0
VERTEX
  8
1
  5
83D0
 10
5427.52
 20
4665.70
 30
0.000000
  70
    32
  0
VERTEX
  8
1
  5
83D1
 10
5427.63
 20
4665.72
 30
0.000000
  70
    32
  0
VERTEX
  8
1
  5
83D2
 10
5427.73
 20
4665.75
 30
0.000000
  70
    32
  0
VERTEX
  8
1
  5
83D3
 10
5427.84
 20
4665.77
 30
0.000000
  70
    32
  0
VERTEX
  8
1
  5
83D4
 10
5427.94
 20
4665.78
 30
0.000000
  70
    32
  0
VERTEX
  8
1
  5
83D5
 10
5428.05
 20
4665.80
 30
0.000000
  70
    32
  0
VERTEX
  8
1
  5
83D6
 10
5428.15
 20
4665.82
 30
0.000000
  70
    32
  0
VERTEX
  8
1
  5
83D7
 10
5428.26
 20
4665.84
 30
0.000000
  70
    32
  0
VERTEX
  8
1
  5
83D8
 10
5428.37
 20
4665.86
 30
0.000000
  70
    32
  0
VERTEX
  8
1
  5
83D9
 10
5428.47
 20
4665.87
 30
0.000000
  70
    32
  0
VERTEX
  8
1
  5
83DA
 10
5428.58
 20
4665.89
 30
0.000000
  70
    32
  0
VERTEX
  8
1
  5
83DB
 10
5428.68
 20
4665.91
 30
0.000000
  70
    32
  0
VERTEX
  8
1
  5
83DC
 10
5428.79
 20
4665.92
 30
0.000000
  70
    32
  0
VERTEX
  8
1
  5
83DD
 10
5428.89
 20
4665.94
 30
0.000000
  70
    32
  0
VERTEX
  8
1
  5
83DE
 10
5429.00
 20
4665.95
 30
0.000000
  70
    32
  0
VERTEX
  8
1
  5
83DF
 10
5429.11
 20
4665.97
 30
0.000000
  70
    32
  0
VERTEX
  8
1
  5
83E0
 10
5429.21
 20
4665.98
 30
0.000000
  70
    32
  0
VERTEX
  8
1
  5
83E1
 10
5429.32
 20
4665.99
 30
0.000000
  70
    32
  0
VERTEX
  8
1
  5
83E2
 10
5429.43
 20
4666.01
 30
0.000000
  70
    32
  0
VERTEX
  8
1
  5
83E3
 10
5429.53
 20
4666.02
 30
0.000000
  70
    32
  0
VERTEX
  8
1
  5
83E4
 10
5429.64
 20
4666.03
 30
0.000000
  70
    32
  0
VERTEX
  8
1
  5
83E5
 10
5429.74
 20
4666.04
 30
0.000000
  70
    32
  0
VERTEX
  8
1
  5
83E6
 10
5429.85
 20
4666.05
 30
0.000000
  70
    32
  0
VERTEX
  8
1
  5
83E7
 10
5429.96
 20
4666.06
 30
0.000000
  70
    32
  0
VERTEX
  8
1
  5
83E8
 10
5430.06
 20
4666.07
 30
0.000000
  70
    32
  0
VERTEX
  8
1
  5
83E9
 10
5430.17
 20
4666.08
 30
0.000000
  70
    32
  0
VERTEX
  8
1
  5
83EA
 10
5430.28
 20
4666.09
 30
0.000000
  70
    32
  0
VERTEX
  8
1
  5
83EB
 10
5430.38
 20
4666.10
 30
0.000000
  70
    32
  0
VERTEX
  8
1
  5
83EC
 10
5430.49
 20
4666.11
 30
0.000000
  70
    32
  0
VERTEX
  8
1
  5
83ED
 10
5430.60
 20
4666.12
 30
0.000000
  70
    32
  0
VERTEX
  8
1
  5
83EE
 10
5430.70
 20
4666.12
 30
0.000000
  70
    32
  0
VERTEX
  8
1
  5
83EF
 10
5430.81
 20
4666.13
 30
0.000000
  70
    32
  0
VERTEX
  8
1
  5
83F0
 10
5430.92
 20
4666.14
 30
0.000000
  70
    32
  0
VERTEX
  8
1
  5
83F1
 10
5431.02
 20
4666.14
 30
0.000000
  70
    32
  0
VERTEX
  8
1
  5
83F2
 10
5431.13
 20
4666.15
 30
0.000000
  70
    32
  0
VERTEX
  8
1
  5
83F3
 10
5431.24
 20
4666.15
 30
0.000000
  70
    32
  0
VERTEX
  8
1
  5
83F4
 10
5431.34
 20
4666.16
 30
0.000000
  70
    32
  0
VERTEX
  8
1
  5
83F5
 10
5431.45
 20
4666.16
 30
0.000000
  70
    32
  0
VERTEX
  8
1
  5
83F6
 10
5431.56
 20
4666.16
 30
0.000000
  70
    32
  0
VERTEX
  8
1
  5
83F7
 10
5431.66
 20
4666.17
 30
0.000000
  70
    32
  0
VERTEX
  8
1
  5
83F8
 10
5431.77
 20
4666.17
 30
0.000000
  70
    32
  0
VERTEX
  8
1
  5
83F9
 10
5431.88
 20
4666.17
 30
0.000000
  70
    32
  0
VERTEX
  8
1
  5
83FA
 10
5431.98
 20
4666.17
 30
0.000000
  70
    32
  0
VERTEX
  8
1
  5
83FB
 10
5432.09
 20
4666.17
 30
0.000000
  70
    32
  0
VERTEX
  8
1
  5
83FC
 10
5432.20
 20
4666.17
 30
0.000000
  70
    32
  0
VERTEX
  8
1
  5
83FD
 10
5432.30
 20
4666.17
 30
0.000000
  70
    32
  0
VERTEX
  8
1
  5
83FE
 10
5432.41
 20
4666.17
 30
0.000000
  70
    32
  0
VERTEX
  8
1
  5
83FF
 10
5432.52
 20
4666.17
 30
0.000000
  70
    32
  0
VERTEX
  8
1
  5
8400
 10
5432.62
 20
4666.17
 30
0.000000
  70
    32
  0
VERTEX
  8
1
  5
8401
 10
5432.73
 20
4666.17
 30
0.000000
  70
    32
  0
VERTEX
  8
1
  5
8402
 10
5432.84
 20
4666.17
 30
0.000000
  70
    32
  0
VERTEX
  8
1
  5
8403
 10
5432.95
 20
4666.16
 30
0.000000
  70
    32
  0
VERTEX
  8
1
  5
8404
 10
5433.05
 20
4666.16
 30
0.000000
  70
    32
  0
VERTEX
  8
1
  5
8405
 10
5433.16
 20
4666.16
 30
0.000000
  70
    32
  0
VERTEX
  8
1
  5
8406
 10
5433.27
 20
4666.15
 30
0.000000
  70
    32
  0
VERTEX
  8
1
  5
8407
 10
5433.37
 20
4666.15
 30
0.000000
  70
    32
  0
VERTEX
  8
1
  5
8408
 10
5433.48
 20
4666.14
 30
0.000000
  70
    32
  0
VERTEX
  8
1
  5
8409
 10
5433.59
 20
4666.14
 30
0.000000
  70
    32
  0
VERTEX
  8
1
  5
840A
 10
5433.69
 20
4666.13
 30
0.000000
  70
    32
  0
VERTEX
  8
1
  5
840B
 10
5433.80
 20
4666.12
 30
0.000000
  70
    32
  0
VERTEX
  8
1
  5
840C
 10
5433.91
 20
4666.12
 30
0.000000
  70
    32
  0
VERTEX
  8
1
  5
840D
 10
5434.01
 20
4666.11
 30
0.000000
  70
    32
  0
VERTEX
  8
1
  5
840E
 10
5434.12
 20
4666.10
 30
0.000000
  70
    32
  0
VERTEX
  8
1
  5
840F
 10
5434.23
 20
4666.09
 30
0.000000
  70
    32
  0
VERTEX
  8
1
  5
8410
 10
5434.33
 20
4666.08
 30
0.000000
  70
    32
  0
VERTEX
  8
1
  5
8411
 10
5434.44
 20
4666.07
 30
0.000000
  70
    32
  0
VERTEX
  8
1
  5
8412
 10
5434.55
 20
4666.06
 30
0.000000
  70
    32
  0
VERTEX
  8
1
  5
8413
 10
5434.65
 20
4666.05
 30
0.000000
  70
    32
  0
VERTEX
  8
1
  5
8414
 10
5434.76
 20
4666.04
 30
0.000000
  70
    32
  0
VERTEX
  8
1
  5
8415
 10
5434.86
 20
4666.03
 30
0.000000
  70
    32
  0
VERTEX
  8
1
  5
8416
 10
5434.97
 20
4666.02
 30
0.000000
  70
    32
  0
VERTEX
  8
1
  5
8417
 10
5435.08
 20
4666.01
 30
0.000000
  70
    32
  0
VERTEX
  8
1
  5
8418
 10
5435.18
 20
4665.99
 30
0.000000
  70
    32
  0
VERTEX
  8
1
  5
8419
 10
5435.29
 20
4665.98
 30
0.000000
  70
    32
  0
VERTEX
  8
1
  5
841A
 10
5435.39
 20
4665.97
 30
0.000000
  70
    32
  0
VERTEX
  8
1
  5
841B
 10
5435.50
 20
4665.95
 30
0.000000
  70
    32
  0
VERTEX
  8
1
  5
841C
 10
5435.61
 20
4665.94
 30
0.000000
  70
    32
  0
VERTEX
  8
1
  5
841D
 10
5435.71
 20
4665.92
 30
0.000000
  70
    32
  0
VERTEX
  8
1
  5
841E
 10
5435.82
 20
4665.91
 30
0.000000
  70
    32
  0
VERTEX
  8
1
  5
841F
 10
5435.92
 20
4665.89
 30
0.000000
  70
    32
  0
VERTEX
  8
1
  5
8420
 10
5436.03
 20
4665.87
 30
0.000000
  70
    32
  0
VERTEX
  8
1
  5
8421
 10
5436.14
 20
4665.86
 30
0.000000
  70
    32
  0
VERTEX
  8
1
  5
8422
 10
5436.24
 20
4665.84
 30
0.000000
  70
    32
  0
VERTEX
  8
1
  5
8423
 10
5436.35
 20
4665.82
 30
0.000000
  70
    32
  0
VERTEX
  8
1
  5
8424
 10
5436.45
 20
4665.80
 30
0.000000
  70
    32
  0
VERTEX
  8
1
  5
8425
 10
5436.56
 20
4665.78
 30
0.000000
  70
    32
  0
VERTEX
  8
1
  5
8426
 10
5436.66
 20
4665.76
 30
0.000000
  70
    32
  0
VERTEX
  8
1
  5
8427
 10
5436.77
 20
4665.74
 30
0.000000
  70
    32
  0
VERTEX
  8
1
  5
8428
 10
5436.87
 20
4665.72
 30
0.000000
  70
    32
  0
VERTEX
  8
1
  5
8429
 10
5436.98
 20
4665.70
 30
0.000000
  70
    32
  0
VERTEX
  8
1
  5
842A
 10
5437.08
 20
4665.68
 30
0.000000
  70
    32
  0
VERTEX
  8
1
  5
842B
 10
5437.19
 20
4665.66
 30
0.000000
  70
    32
  0
VERTEX
  8
1
  5
842C
 10
5437.29
 20
4665.64
 30
0.000000
  70
    32
  0
VERTEX
  8
1
  5
842D
 10
5437.40
 20
4665.62
 30
0.000000
  70
    32
  0
VERTEX
  8
1
  5
842E
 10
5437.50
 20
4665.59
 30
0.000000
  70
    32
  0
VERTEX
  8
1
  5
842F
 10
5437.61
 20
4665.57
 30
0.000000
  70
    32
  0
VERTEX
  8
1
  5
8430
 10
5437.71
 20
4665.54
 30
0.000000
  70
    32
  0
VERTEX
  8
1
  5
8431
 10
5437.82
 20
4665.52
 30
0.000000
  70
    32
  0
VERTEX
  8
1
  5
8432
 10
5437.92
 20
4665.50
 30
0.000000
  70
    32
  0
VERTEX
  8
1
  5
8433
 10
5438.02
 20
4665.47
 30
0.000000
  70
    32
  0
VERTEX
  8
1
  5
8434
 10
5438.13
 20
4665.44
 30
0.000000
  70
    32
  0
VERTEX
  8
1
  5
8435
 10
5438.23
 20
4665.42
 30
0.000000
  70
    32
  0
VERTEX
  8
1
  5
8436
 10
5438.34
 20
4665.39
 30
0.000000
  70
    32
  0
VERTEX
  8
1
  5
8437
 10
5438.44
 20
4665.36
 30
0.000000
  70
    32
  0
VERTEX
  8
1
  5
8438
 10
5438.54
 20
4665.34
 30
0.000000
  70
    32
  0
VERTEX
  8
1
  5
8439
 10
5438.65
 20
4665.31
 30
0.000000
  70
    32
  0
VERTEX
  8
1
  5
843A
 10
5438.75
 20
4665.28
 30
0.000000
  70
    32
  0
VERTEX
  8
1
  5
843B
 10
5438.85
 20
4665.25
 30
0.000000
  70
    32
  0
VERTEX
  8
1
  5
843C
 10
5438.96
 20
4665.22
 30
0.000000
  70
    32
  0
VERTEX
  8
1
  5
843D
 10
5439.06
 20
4665.19
 30
0.000000
  70
    32
  0
VERTEX
  8
1
  5
843E
 10
5439.16
 20
4665.16
 30
0.000000
  70
    32
  0
VERTEX
  8
1
  5
843F
 10
5439.27
 20
4665.13
 30
0.000000
  70
    32
  0
VERTEX
  8
1
  5
8440
 10
5439.37
 20
4665.10
 30
0.000000
  70
    32
  0
VERTEX
  8
1
  5
8441
 10
5439.47
 20
4665.06
 30
0.000000
  70
    32
  0
VERTEX
  8
1
  5
8442
 10
5439.57
 20
4665.03
 30
0.000000
  70
    32
  0
VERTEX
  8
1
  5
8443
 10
5439.68
 20
4665.00
 30
0.000000
  70
    32
  0
VERTEX
  8
1
  5
8444
 10
5439.78
 20
4664.97
 30
0.000000
  70
    32
  0
VERTEX
  8
1
  5
8445
 10
5439.88
 20
4664.93
 30
0.000000
  70
    32
  0
VERTEX
  8
1
  5
8446
 10
5439.98
 20
4664.90
 30
0.000000
  70
    32
  0
VERTEX
  8
1
  5
8447
 10
5440.08
 20
4664.86
 30
0.000000
  70
    32
  0
VERTEX
  8
1
  5
8448
 10
5440.18
 20
4664.83
 30
0.000000
  70
    32
  0
VERTEX
  8
1
  5
8449
 10
5440.29
 20
4664.79
 30
0.000000
  70
    32
  0
VERTEX
  8
1
  5
844A
 10
5440.39
 20
4664.76
 30
0.000000
  70
    32
  0
VERTEX
  8
1
  5
844B
 10
5440.49
 20
4664.72
 30
0.000000
  70
    32
  0
VERTEX
  8
1
  5
844C
 10
5440.59
 20
4664.68
 30
0.000000
  70
    32
  0
VERTEX
  8
1
  5
844D
 10
5440.69
 20
4664.64
 30
0.000000
  70
    32
  0
VERTEX
  8
1
  5
844E
 10
5440.79
 20
4664.61
 30
0.000000
  70
    32
  0
VERTEX
  8
1
  5
844F
 10
5440.89
 20
4664.57
 30
0.000000
  70
    32
  0
VERTEX
  8
1
  5
8450
 10
5440.99
 20
4664.53
 30
0.000000
  70
    32
  0
VERTEX
  8
1
  5
8451
 10
5441.09
 20
4664.49
 30
0.000000
  70
    32
  0
VERTEX
  8
1
  5
8452
 10
5441.19
 20
4664.45
 30
0.000000
  70
    32
  0
VERTEX
  8
1
  5
8453
 10
5441.29
 20
4664.41
 30
0.000000
  70
    32
  0
VERTEX
  8
1
  5
8454
 10
5441.39
 20
4664.37
 30
0.000000
  70
    32
  0
VERTEX
  8
1
  5
8455
 10
5441.49
 20
4664.33
 30
0.000000
  70
    32
  0
VERTEX
  8
1
  5
8456
 10
5441.59
 20
4664.29
 30
0.000000
  70
    32
  0
VERTEX
  8
1
  5
8457
 10
5441.69
 20
4664.24
 30
0.000000
  70
    32
  0
VERTEX
  8
1
  5
8458
 10
5441.79
 20
4664.20
 30
0.000000
  70
    32
  0
VERTEX
  8
1
  5
8459
 10
5441.89
 20
4664.16
 30
0.000000
  70
    32
  0
VERTEX
  8
1
  5
845A
 10
5441.99
 20
4664.12
 30
0.000000
  70
    32
  0
VERTEX
  8
1
  5
845B
 10
5442.09
 20
4664.07
 30
0.000000
  70
    32
  0
VERTEX
  8
1
  5
845C
 10
5442.19
 20
4664.03
 30
0.000000
  70
    32
  0
VERTEX
  8
1
  5
845D
 10
5442.28
 20
4663.98
 30
0.000000
  70
    32
  0
VERTEX
  8
1
  5
845E
 10
5442.38
 20
4663.94
 30
0.000000
  70
    32
  0
VERTEX
  8
1
  5
845F
 10
5442.48
 20
4663.89
 30
0.000000
  70
    32
  0
VERTEX
  8
1
  5
8460
 10
5442.58
 20
4663.85
 30
0.000000
  70
    32
  0
VERTEX
  8
1
  5
8461
 10
5442.68
 20
4663.80
 30
0.000000
  70
    32
  0
VERTEX
  8
1
  5
8462
 10
5442.77
 20
4663.75
 30
0.000000
  70
    32
  0
VERTEX
  8
1
  5
8463
 10
5442.87
 20
4663.71
 30
0.000000
  70
    32
  0
VERTEX
  8
1
  5
8464
 10
5442.97
 20
4663.66
 30
0.000000
  70
    32
  0
VERTEX
  8
1
  5
8465
 10
5443.06
 20
4663.61
 30
0.000000
  70
    32
  0
VERTEX
  8
1
  5
8466
 10
5443.16
 20
4663.56
 30
0.000000
  70
    32
  0
VERTEX
  8
1
  5
8467
 10
5443.26
 20
4663.51
 30
0.000000
  70
    32
  0
VERTEX
  8
1
  5
8468
 10
5443.35
 20
4663.46
 30
0.000000
  70
    32
  0
VERTEX
  8
1
  5
8469
 10
5443.45
 20
4663.41
 30
0.000000
  70
    32
  0
VERTEX
  8
1
  5
846A
 10
5443.55
 20
4663.36
 30
0.000000
  70
    32
  0
VERTEX
  8
1
  5
846B
 10
5443.64
 20
4663.31
 30
0.000000
  70
    32
  0
VERTEX
  8
1
  5
846C
 10
5443.74
 20
4663.26
 30
0.000000
  70
    32
  0
VERTEX
  8
1
  5
846D
 10
5443.83
 20
4663.21
 30
0.000000
  70
    32
  0
VERTEX
  8
1
  5
846E
 10
5443.93
 20
4663.16
 30
0.000000
  70
    32
  0
VERTEX
  8
1
  5
846F
 10
5444.02
 20
4663.11
 30
0.000000
  70
    32
  0
VERTEX
  8
1
  5
8470
 10
5444.12
 20
4663.05
 30
0.000000
  70
    32
  0
VERTEX
  8
1
  5
8471
 10
5444.21
 20
4663.00
 30
0.000000
  70
    32
  0
VERTEX
  8
1
  5
8472
 10
5444.30
 20
4662.95
 30
0.000000
  70
    32
  0
VERTEX
  8
1
  5
8473
 10
5444.40
 20
4662.89
 30
0.000000
  70
    32
  0
VERTEX
  8
1
  5
8474
 10
5444.49
 20
4662.84
 30
0.000000
  70
    32
  0
VERTEX
  8
1
  5
8475
 10
5444.59
 20
4662.78
 30
0.000000
  70
    32
  0
VERTEX
  8
1
  5
8476
 10
5444.68
 20
4662.73
 30
0.000000
  70
    32
  0
VERTEX
  8
1
  5
8477
 10
5444.77
 20
4662.67
 30
0.000000
  70
    32
  0
VERTEX
  8
1
  5
8478
 10
5444.87
 20
4662.62
 30
0.000000
  70
    32
  0
VERTEX
  8
1
  5
8479
 10
5444.96
 20
4662.56
 30
0.000000
  70
    32
  0
VERTEX
  8
1
  5
847A
 10
5445.05
 20
4662.50
 30
0.000000
  70
    32
  0
VERTEX
  8
1
  5
847B
 10
5445.14
 20
4662.44
 30
0.000000
  70
    32
  0
VERTEX
  8
1
  5
847C
 10
5445.24
 20
4662.39
 30
0.000000
  70
    32
  0
VERTEX
  8
1
  5
847D
 10
5445.33
 20
4662.33
 30
0.000000
  70
    32
  0
VERTEX
  8
1
  5
847E
 10
5445.42
 20
4662.27
 30
0.000000
  70
    32
  0
VERTEX
  8
1
  5
847F
 10
5445.51
 20
4662.21
 30
0.000000
  70
    32
  0
VERTEX
  8
1
  5
8480
 10
5445.60
 20
4662.15
 30
0.000000
  70
    32
  0
VERTEX
  8
1
  5
8481
 10
5445.69
 20
4662.09
 30
0.000000
  70
    32
  0
VERTEX
  8
1
  5
8482
 10
5445.78
 20
4662.03
 30
0.000000
  70
    32
  0
VERTEX
  8
1
  5
8483
 10
5445.87
 20
4661.97
 30
0.000000
  70
    32
  0
VERTEX
  8
1
  5
8484
 10
5445.96
 20
4661.91
 30
0.000000
  70
    32
  0
VERTEX
  8
1
  5
8485
 10
5446.05
 20
4661.85
 30
0.000000
  70
    32
  0
VERTEX
  8
1
  5
8486
 10
5446.14
 20
4661.78
 30
0.000000
  70
    32
  0
VERTEX
  8
1
  5
8487
 10
5446.23
 20
4661.72
 30
0.000000
  70
    32
  0
VERTEX
  8
1
  5
8488
 10
5446.32
 20
4661.66
 30
0.000000
  70
    32
  0
VERTEX
  8
1
  5
8489
 10
5446.41
 20
4661.60
 30
0.000000
  70
    32
  0
VERTEX
  8
1
  5
848A
 10
5446.50
 20
4661.53
 30
0.000000
  70
    32
  0
VERTEX
  8
1
  5
848B
 10
5446.59
 20
4661.47
 30
0.000000
  70
    32
  0
VERTEX
  8
1
  5
848C
 10
5446.67
 20
4661.40
 30
0.000000
  70
    32
  0
VERTEX
  8
1
  5
848D
 10
5446.76
 20
4661.34
 30
0.000000
  70
    32
  0
VERTEX
  8
1
  5
848E
 10
5446.85
 20
4661.27
 30
0.000000
  70
    32
  0
VERTEX
  8
1
  5
848F
 10
5446.94
 20
4661.21
 30
0.000000
  70
    32
  0
VERTEX
  8
1
  5
8490
 10
5447.02
 20
4661.14
 30
0.000000
  70
    32
  0
VERTEX
  8
1
  5
8491
 10
5447.11
 20
4661.08
 30
0.000000
  70
    32
  0
VERTEX
  8
1
  5
8492
 10
5447.20
 20
4661.01
 30
0.000000
  70
    32
  0
VERTEX
  8
1
  5
8493
 10
5447.28
 20
4660.94
 30
0.000000
  70
    32
  0
VERTEX
  8
1
  5
8494
 10
5447.37
 20
4660.88
 30
0.000000
  70
    32
  0
VERTEX
  8
1
  5
8495
 10
5447.46
 20
4660.81
 30
0.000000
  70
    32
  0
VERTEX
  8
1
  5
8496
 10
5447.54
 20
4660.74
 30
0.000000
  70
    32
  0
VERTEX
  8
1
  5
8497
 10
5447.63
 20
4660.67
 30
0.000000
  70
    32
  0
VERTEX
  8
1
  5
8498
 10
5447.71
 20
4660.60
 30
0.000000
  70
    32
  0
VERTEX
  8
1
  5
8499
 10
5447.80
 20
4660.53
 30
0.000000
  70
    32
  0
VERTEX
  8
1
  5
849A
 10
5447.88
 20
4660.46
 30
0.000000
  70
    32
  0
VERTEX
  8
1
  5
849B
 10
5447.96
 20
4660.39
 30
0.000000
  70
    32
  0
VERTEX
  8
1
  5
849C
 10
5448.05
 20
4660.32
 30
0.000000
  70
    32
  0
VERTEX
  8
1
  5
849D
 10
5448.13
 20
4660.25
 30
0.000000
  70
    32
  0
VERTEX
  8
1
  5
849E
 10
5448.22
 20
4660.18
 30
0.000000
  70
    32
  0
VERTEX
  8
1
  5
849F
 10
5448.30
 20
4660.11
 30
0.000000
  70
    32
  0
VERTEX
  8
1
  5
84A0
 10
5448.38
 20
4660.03
 30
0.000000
  70
    32
  0
VERTEX
  8
1
  5
84A1
 10
5448.46
 20
4659.96
 30
0.000000
  70
    32
  0
VERTEX
  8
1
  5
84A2
 10
5448.55
 20
4659.89
 30
0.000000
  70
    32
  0
VERTEX
  8
1
  5
84A3
 10
5448.63
 20
4659.82
 30
0.000000
  70
    32
  0
VERTEX
  8
1
  5
84A4
 10
5448.71
 20
4659.74
 30
0.000000
  70
    32
  0
VERTEX
  8
1
  5
84A5
 10
5448.79
 20
4659.67
 30
0.000000
  70
    32
  0
VERTEX
  8
1
  5
84A6
 10
5448.87
 20
4659.59
 30
0.000000
  70
    32
  0
VERTEX
  8
1
  5
84A7
 10
5448.95
 20
4659.52
 30
0.000000
  70
    32
  0
VERTEX
  8
1
  5
84A8
 10
5449.03
 20
4659.44
 30
0.000000
  70
    32
  0
VERTEX
  8
1
  5
84A9
 10
5449.11
 20
4659.37
 30
0.000000
  70
    32
  0
VERTEX
  8
1
  5
84AA
 10
5449.19
 20
4659.29
 30
0.000000
  70
    32
  0
VERTEX
  8
1
  5
84AB
 10
5449.27
 20
4659.22
 30
0.000000
  70
    32
  0
VERTEX
  8
1
  5
84AC
 10
5449.35
 20
4659.14
 30
0.000000
  70
    32
  0
VERTEX
  8
1
  5
84AD
 10
5449.43
 20
4659.06
 30
0.000000
  70
    32
  0
VERTEX
  8
1
  5
84AE
 10
5449.51
 20
4658.99
 30
0.000000
  70
    32
  0
VERTEX
  8
1
  5
84AF
 10
5449.59
 20
4658.91
 30
0.000000
  70
    32
  0
VERTEX
  8
1
  5
84B0
 10
5449.66
 20
4658.83
 30
0.000000
  70
    32
  0
VERTEX
  8
1
  5
84B1
 10
5449.74
 20
4658.75
 30
0.000000
  70
    32
  0
VERTEX
  8
1
  5
84B2
 10
5449.82
 20
4658.67
 30
0.000000
  70
    32
  0
VERTEX
  8
1
  5
84B3
 10
5449.89
 20
4658.59
 30
0.000000
  70
    32
  0
VERTEX
  8
1
  5
84B4
 10
5449.97
 20
4658.52
 30
0.000000
  70
    32
  0
VERTEX
  8
1
  5
84B5
 10
5450.05
 20
4658.44
 30
0.000000
  70
    32
  0
VERTEX
  8
1
  5
84B6
 10
5450.12
 20
4658.36
 30
0.000000
  70
    32
  0
VERTEX
  8
1
  5
84B7
 10
5450.20
 20
4658.28
 30
0.000000
  70
    32
  0
VERTEX
  8
1
  5
84B8
 10
5450.27
 20
4658.19
 30
0.000000
  70
    32
  0
VERTEX
  8
1
  5
84B9
 10
5450.35
 20
4658.11
 30
0.000000
  70
    32
  0
VERTEX
  8
1
  5
84BA
 10
5450.42
 20
4658.03
 30
0.000000
  70
    32
  0
VERTEX
  8
1
  5
84BB
 10
5450.50
 20
4657.95
 30
0.000000
  70
    32
  0
VERTEX
  8
1
  5
84BC
 10
5450.57
 20
4657.87
 30
0.000000
  70
    32
  0
VERTEX
  8
1
  5
84BD
 10
5450.65
 20
4657.79
 30
0.000000
  70
    32
  0
VERTEX
  8
1
  5
84BE
 10
5450.72
 20
4657.70
 30
0.000000
  70
    32
  0
VERTEX
  8
1
  5
84BF
 10
5450.79
 20
4657.62
 30
0.000000
  70
    32
  0
VERTEX
  8
1
  5
84C0
 10
5450.87
 20
4657.54
 30
0.000000
  70
    32
  0
VERTEX
  8
1
  5
84C1
 10
5450.94
 20
4657.45
 30
0.000000
  70
    32
  0
VERTEX
  8
1
  5
84C2
 10
5451.01
 20
4657.37
 30
0.000000
  70
    32
  0
VERTEX
  8
1
  5
84C3
 10
5451.08
 20
4657.28
 30
0.000000
  70
    32
  0
VERTEX
  8
1
  5
84C4
 10
5451.15
 20
4657.20
 30
0.000000
  70
    32
  0
VERTEX
  8
1
  5
84C5
 10
5451.22
 20
4657.11
 30
0.000000
  70
    32
  0
VERTEX
  8
1
  5
84C6
 10
5451.29
 20
4657.03
 30
0.000000
  70
    32
  0
VERTEX
  8
1
  5
84C7
 10
5451.36
 20
4656.94
 30
0.000000
  70
    32
  0
VERTEX
  8
1
  5
84C8
 10
5451.43
 20
4656.86
 30
0.000000
  70
    32
  0
VERTEX
  8
1
  5
84C9
 10
5451.50
 20
4656.77
 30
0.000000
  70
    32
  0
VERTEX
  8
1
  5
84CA
 10
5451.57
 20
4656.68
 30
0.000000
  70
    32
  0
VERTEX
  8
1
  5
84CB
 10
5451.64
 20
4656.60
 30
0.000000
  70
    32
  0
VERTEX
  8
1
  5
84CC
 10
5451.71
 20
4656.51
 30
0.000000
  70
    32
  0
VERTEX
  8
1
  5
84CD
 10
5451.78
 20
4656.42
 30
0.000000
  70
    32
  0
VERTEX
  8
1
  5
84CE
 10
5451.85
 20
4656.33
 30
0.000000
  70
    32
  0
VERTEX
  8
1
  5
84CF
 10
5451.91
 20
4656.25
 30
0.000000
  70
    32
  0
VERTEX
  8
1
  5
84D0
 10
5451.98
 20
4656.16
 30
0.000000
  70
    32
  0
VERTEX
  8
1
  5
84D1
 10
5452.05
 20
4656.07
 30
0.000000
  70
    32
  0
VERTEX
  8
1
  5
84D2
 10
5452.11
 20
4655.98
 30
0.000000
  70
    32
  0
VERTEX
  8
1
  5
84D3
 10
5452.18
 20
4655.89
 30
0.000000
  70
    32
  0
VERTEX
  8
1
  5
84D4
 10
5452.25
 20
4655.80
 30
0.000000
  70
    32
  0
VERTEX
  8
1
  5
84D5
 10
5452.31
 20
4655.71
 30
0.000000
  70
    32
  0
VERTEX
  8
1
  5
84D6
 10
5452.38
 20
4655.62
 30
0.000000
  70
    32
  0
VERTEX
  8
1
  5
84D7
 10
5452.44
 20
4655.53
 30
0.000000
  70
    32
  0
VERTEX
  8
1
  5
84D8
 10
5452.51
 20
4655.44
 30
0.000000
  70
    32
  0
VERTEX
  8
1
  5
84D9
 10
5452.57
 20
4655.35
 30
0.000000
  70
    32
  0
VERTEX
  8
1
  5
84DA
 10
5452.63
 20
4655.26
 30
0.000000
  70
    32
  0
VERTEX
  8
1
  5
84DB
 10
5452.70
 20
4655.16
 30
0.000000
  70
    32
  0
VERTEX
  8
1
  5
84DC
 10
5452.76
 20
4655.07
 30
0.000000
  70
    32
  0
VERTEX
  8
1
  5
84DD
 10
5452.82
 20
4654.98
 30
0.000000
  70
    32
  0
VERTEX
  8
1
  5
84DE
 10
5452.88
 20
4654.89
 30
0.000000
  70
    32
  0
VERTEX
  8
1
  5
84DF
 10
5452.94
 20
4654.79
 30
0.000000
  70
    32
  0
VERTEX
  8
1
  5
84E0
 10
5453.01
 20
4654.70
 30
0.000000
  70
    32
  0
VERTEX
  8
1
  5
84E1
 10
5453.07
 20
4654.61
 30
0.000000
  70
    32
  0
VERTEX
  8
1
  5
84E2
 10
5453.13
 20
4654.51
 30
0.000000
  70
    32
  0
VERTEX
  8
1
  5
84E3
 10
5453.19
 20
4654.42
 30
0.000000
  70
    32
  0
VERTEX
  8
1
  5
84E4
 10
5453.25
 20
4654.33
 30
0.000000
  70
    32
  0
VERTEX
  8
1
  5
84E5
 10
5453.31
 20
4654.23
 30
0.000000
  70
    32
  0
VERTEX
  8
1
  5
84E6
 10
5453.37
 20
4654.14
 30
0.000000
  70
    32
  0
VERTEX
  8
1
  5
84E7
 10
5453.42
 20
4654.04
 30
0.000000
  70
    32
  0
VERTEX
  8
1
  5
84E8
 10
5453.48
 20
4653.95
 30
0.000000
  70
    32
  0
VERTEX
  8
1
  5
84E9
 10
5453.54
 20
4653.85
 30
0.000000
  70
    32
  0
VERTEX
  8
1
  5
84EA
 10
5453.60
 20
4653.75
 30
0.000000
  70
    32
  0
VERTEX
  8
1
  5
84EB
 10
5453.65
 20
4653.66
 30
0.000000
  70
    32
  0
VERTEX
  8
1
  5
84EC
 10
5453.71
 20
4653.56
 30
0.000000
  70
    32
  0
VERTEX
  8
1
  5
84ED
 10
5453.77
 20
4653.46
 30
0.000000
  70
    32
  0
VERTEX
  8
1
  5
84EE
 10
5453.82
 20
4653.37
 30
0.000000
  70
    32
  0
VERTEX
  8
1
  5
84EF
 10
5453.88
 20
4653.27
 30
0.000000
  70
    32
  0
VERTEX
  8
1
  5
84F0
 10
5453.93
 20
4653.17
 30
0.000000
  70
    32
  0
VERTEX
  8
1
  5
84F1
 10
5453.99
 20
4653.08
 30
0.000000
  70
    32
  0
VERTEX
  8
1
  5
84F2
 10
5454.04
 20
4652.98
 30
0.000000
  70
    32
  0
VERTEX
  8
1
  5
84F3
 10
5454.10
 20
4652.88
 30
0.000000
  70
    32
  0
VERTEX
  8
1
  5
84F4
 10
5454.15
 20
4652.78
 30
0.000000
  70
    32
  0
VERTEX
  8
1
  5
84F5
 10
5454.20
 20
4652.68
 30
0.000000
  70
    32
  0
VERTEX
  8
1
  5
84F6
 10
5454.26
 20
4652.58
 30
0.000000
  70
    32
  0
VERTEX
  8
1
  5
84F7
 10
5454.31
 20
4652.48
 30
0.000000
  70
    32
  0
VERTEX
  8
1
  5
84F8
 10
5454.36
 20
4652.38
 30
0.000000
  70
    32
  0
VERTEX
  8
1
  5
84F9
 10
5454.41
 20
4652.28
 30
0.000000
  70
    32
  0
VERTEX
  8
1
  5
84FA
 10
5454.46
 20
4652.18
 30
0.000000
  70
    32
  0
VERTEX
  8
1
  5
84FB
 10
5454.51
 20
4652.08
 30
0.000000
  70
    32
  0
VERTEX
  8
1
  5
84FC
 10
5454.56
 20
4651.98
 30
0.000000
  70
    32
  0
VERTEX
  8
1
  5
84FD
 10
5454.61
 20
4651.88
 30
0.000000
  70
    32
  0
VERTEX
  8
1
  5
84FE
 10
5454.66
 20
4651.78
 30
0.000000
  70
    32
  0
VERTEX
  8
1
  5
84FF
 10
5454.71
 20
4651.68
 30
0.000000
  70
    32
  0
VERTEX
  8
1
  5
8500
 10
5454.76
 20
4651.58
 30
0.000000
  70
    32
  0
VERTEX
  8
1
  5
8501
 10
5454.81
 20
4651.48
 30
0.000000
  70
    32
  0
VERTEX
  8
1
  5
8502
 10
5454.86
 20
4651.38
 30
0.000000
  70
    32
  0
VERTEX
  8
1
  5
8503
 10
5454.90
 20
4651.28
 30
0.000000
  70
    32
  0
VERTEX
  8
1
  5
8504
 10
5454.95
 20
4651.17
 30
0.000000
  70
    32
  0
VERTEX
  8
1
  5
8505
 10
5455.00
 20
4651.07
 30
0.000000
  70
    32
  0
VERTEX
  8
1
  5
8506
 10
5455.04
 20
4650.97
 30
0.000000
  70
    32
  0
VERTEX
  8
1
  5
8507
 10
5455.09
 20
4650.87
 30
0.000000
  70
    32
  0
VERTEX
  8
1
  5
8508
 10
5455.13
 20
4650.76
 30
0.000000
  70
    32
  0
VERTEX
  8
1
  5
8509
 10
5455.18
 20
4650.66
 30
0.000000
  70
    32
  0
VERTEX
  8
1
  5
850A
 10
5455.22
 20
4650.56
 30
0.000000
  70
    32
  0
VERTEX
  8
1
  5
850B
 10
5455.27
 20
4650.45
 30
0.000000
  70
    32
  0
VERTEX
  8
1
  5
850C
 10
5455.31
 20
4650.35
 30
0.000000
  70
    32
  0
VERTEX
  8
1
  5
850D
 10
5455.35
 20
4650.24
 30
0.000000
  70
    32
  0
VERTEX
  8
1
  5
850E
 10
5455.40
 20
4650.14
 30
0.000000
  70
    32
  0
VERTEX
  8
1
  5
850F
 10
5455.44
 20
4650.04
 30
0.000000
  70
    32
  0
VERTEX
  8
1
  5
8510
 10
5455.48
 20
4649.93
 30
0.000000
  70
    32
  0
VERTEX
  8
1
  5
8511
 10
5455.52
 20
4649.83
 30
0.000000
  70
    32
  0
VERTEX
  8
1
  5
8512
 10
5455.56
 20
4649.72
 30
0.000000
  70
    32
  0
VERTEX
  8
1
  5
8513
 10
5455.60
 20
4649.62
 30
0.000000
  70
    32
  0
VERTEX
  8
1
  5
8514
 10
5455.65
 20
4649.51
 30
0.000000
  70
    32
  0
VERTEX
  8
1
  5
8515
 10
5455.68
 20
4649.41
 30
0.000000
  70
    32
  0
VERTEX
  8
1
  5
8516
 10
5455.72
 20
4649.30
 30
0.000000
  70
    32
  0
VERTEX
  8
1
  5
8517
 10
5455.76
 20
4649.19
 30
0.000000
  70
    32
  0
VERTEX
  8
1
  5
8518
 10
5455.80
 20
4649.09
 30
0.000000
  70
    32
  0
VERTEX
  8
1
  5
8519
 10
5455.84
 20
4648.98
 30
0.000000
  70
    32
  0
VERTEX
  8
1
  5
851A
 10
5455.88
 20
4648.88
 30
0.000000
  70
    32
  0
VERTEX
  8
1
  5
851B
 10
5455.91
 20
4648.77
 30
0.000000
  70
    32
  0
VERTEX
  8
1
  5
851C
 10
5455.95
 20
4648.66
 30
0.000000
  70
    32
  0
VERTEX
  8
1
  5
851D
 10
5455.99
 20
4648.56
 30
0.000000
  70
    32
  0
VERTEX
  8
1
  5
851E
 10
5456.02
 20
4648.45
 30
0.000000
  70
    32
  0
VERTEX
  8
1
  5
851F
 10
5456.06
 20
4648.34
 30
0.000000
  70
    32
  0
VERTEX
  8
1
  5
8520
 10
5456.09
 20
4648.23
 30
0.000000
  70
    32
  0
VERTEX
  8
1
  5
8521
 10
5456.13
 20
4648.13
 30
0.000000
  70
    32
  0
VERTEX
  8
1
  5
8522
 10
5456.16
 20
4648.02
 30
0.000000
  70
    32
  0
VERTEX
  8
1
  5
8523
 10
5456.20
 20
4647.91
 30
0.000000
  70
    32
  0
VERTEX
  8
1
  5
8524
 10
5456.23
 20
4647.80
 30
0.000000
  70
    32
  0
VERTEX
  8
1
  5
8525
 10
5456.26
 20
4647.69
 30
0.000000
  70
    32
  0
VERTEX
  8
1
  5
8526
 10
5456.29
 20
4647.59
 30
0.000000
  70
    32
  0
VERTEX
  8
1
  5
8527
 10
5456.33
 20
4647.48
 30
0.000000
  70
    32
  0
VERTEX
  8
1
  5
8528
 10
5456.36
 20
4647.37
 30
0.000000
  70
    32
  0
VERTEX
  8
1
  5
8529
 10
5456.39
 20
4647.26
 30
0.000000
  70
    32
  0
VERTEX
  8
1
  5
852A
 10
5456.42
 20
4647.15
 30
0.000000
  70
    32
  0
VERTEX
  8
1
  5
852B
 10
5456.45
 20
4647.04
 30
0.000000
  70
    32
  0
VERTEX
  8
1
  5
852C
 10
5456.48
 20
4646.93
 30
0.000000
  70
    32
  0
VERTEX
  8
1
  5
852D
 10
5456.51
 20
4646.82
 30
0.000000
  70
    32
  0
VERTEX
  8
1
  5
852E
 10
5456.54
 20
4646.71
 30
0.000000
  70
    32
  0
VERTEX
  8
1
  5
852F
 10
5456.57
 20
4646.60
 30
0.000000
  70
    32
  0
VERTEX
  8
1
  5
8530
 10
5456.59
 20
4646.49
 30
0.000000
  70
    32
  0
VERTEX
  8
1
  5
8531
 10
5456.62
 20
4646.38
 30
0.000000
  70
    32
  0
VERTEX
  8
1
  5
8532
 10
5456.65
 20
4646.27
 30
0.000000
  70
    32
  0
VERTEX
  8
1
  5
8533
 10
5456.67
 20
4646.16
 30
0.000000
  70
    32
  0
VERTEX
  8
1
  5
8534
 10
5456.70
 20
4646.05
 30
0.000000
  70
    32
  0
VERTEX
  8
1
  5
8535
 10
5456.73
 20
4645.94
 30
0.000000
  70
    32
  0
VERTEX
  8
1
  5
8536
 10
5456.75
 20
4645.83
 30
0.000000
  70
    32
  0
VERTEX
  8
1
  5
8537
 10
5456.78
 20
4645.72
 30
0.000000
  70
    32
  0
VERTEX
  8
1
  5
8538
 10
5456.80
 20
4645.61
 30
0.000000
  70
    32
  0
VERTEX
  8
1
  5
8539
 10
5456.82
 20
4645.50
 30
0.000000
  70
    32
  0
VERTEX
  8
1
  5
853A
 10
5456.85
 20
4645.39
 30
0.000000
  70
    32
  0
VERTEX
  8
1
  5
853B
 10
5456.87
 20
4645.28
 30
0.000000
  70
    32
  0
VERTEX
  8
1
  5
853C
 10
5456.89
 20
4645.17
 30
0.000000
  70
    32
  0
VERTEX
  8
1
  5
853D
 10
5456.92
 20
4645.06
 30
0.000000
  70
    32
  0
VERTEX
  8
1
  5
853E
 10
5456.94
 20
4644.95
 30
0.000000
  70
    32
  0
VERTEX
  8
1
  5
853F
 10
5456.96
 20
4644.83
 30
0.000000
  70
    32
  0
VERTEX
  8
1
  5
8540
 10
5456.98
 20
4644.72
 30
0.000000
  70
    32
  0
VERTEX
  8
1
  5
8541
 10
5457.00
 20
4644.61
 30
0.000000
  70
    32
  0
VERTEX
  8
1
  5
8542
 10
5457.02
 20
4644.50
 30
0.000000
  70
    32
  0
VERTEX
  8
1
  5
8543
 10
5457.04
 20
4644.39
 30
0.000000
  70
    32
  0
VERTEX
  8
1
  5
8544
 10
5457.06
 20
4644.28
 30
0.000000
  70
    32
  0
VERTEX
  8
1
  5
8545
 10
5457.08
 20
4644.16
 30
0.000000
  70
    32
  0
VERTEX
  8
1
  5
8546
 10
5457.09
 20
4644.05
 30
0.000000
  70
    32
  0
VERTEX
  8
1
  5
8547
 10
5457.11
 20
4643.94
 30
0.000000
  70
    32
  0
VERTEX
  8
1
  5
8548
 10
5457.13
 20
4643.83
 30
0.000000
  70
    32
  0
VERTEX
  8
1
  5
8549
 10
5457.14
 20
4643.72
 30
0.000000
  70
    32
  0
VERTEX
  8
1
  5
854A
 10
5457.16
 20
4643.60
 30
0.000000
  70
    32
  0
VERTEX
  8
1
  5
854B
 10
5457.18
 20
4643.49
 30
0.000000
  70
    32
  0
VERTEX
  8
1
  5
854C
 10
5457.19
 20
4643.38
 30
0.000000
  70
    32
  0
VERTEX
  8
1
  5
854D
 10
5457.21
 20
4643.27
 30
0.000000
  70
    32
  0
VERTEX
  8
1
  5
854E
 10
5457.22
 20
4643.15
 30
0.000000
  70
    32
  0
VERTEX
  8
1
  5
854F
 10
5457.23
 20
4643.04
 30
0.000000
  70
    32
  0
VERTEX
  8
1
  5
8550
 10
5457.25
 20
4642.93
 30
0.000000
  70
    32
  0
VERTEX
  8
1
  5
8551
 10
5457.26
 20
4642.81
 30
0.000000
  70
    32
  0
VERTEX
  8
1
  5
8552
 10
5457.27
 20
4642.70
 30
0.000000
  70
    32
  0
VERTEX
  8
1
  5
8553
 10
5457.28
 20
4642.59
 30
0.000000
  70
    32
  0
VERTEX
  8
1
  5
8554
 10
5457.30
 20
4642.48
 30
0.000000
  70
    32
  0
VERTEX
  8
1
  5
8555
 10
5457.31
 20
4642.36
 30
0.000000
  70
    32
  0
VERTEX
  8
1
  5
8556
 10
5457.32
 20
4642.25
 30
0.000000
  70
    32
  0
VERTEX
  8
1
  5
8557
 10
5457.33
 20
4642.14
 30
0.000000
  70
    32
  0
VERTEX
  8
1
  5
8558
 10
5457.34
 20
4642.02
 30
0.000000
  70
    32
  0
VERTEX
  8
1
  5
8559
 10
5457.35
 20
4641.91
 30
0.000000
  70
    32
  0
VERTEX
  8
1
  5
855A
 10
5457.36
 20
4641.80
 30
0.000000
  70
    32
  0
VERTEX
  8
1
  5
855B
 10
5457.36
 20
4641.68
 30
0.000000
  70
    32
  0
VERTEX
  8
1
  5
855C
 10
5457.37
 20
4641.57
 30
0.000000
  70
    32
  0
VERTEX
  8
1
  5
855D
 10
5457.38
 20
4641.46
 30
0.000000
  70
    32
  0
VERTEX
  8
1
  5
855E
 10
5457.39
 20
4641.34
 30
0.000000
  70
    32
  0
VERTEX
  8
1
  5
855F
 10
5457.39
 20
4641.23
 30
0.000000
  70
    32
  0
VERTEX
  8
1
  5
8560
 10
5457.40
 20
4641.12
 30
0.000000
  70
    32
  0
VERTEX
  8
1
  5
8561
 10
5457.40
 20
4641.00
 30
0.000000
  70
    32
  0
VERTEX
  8
1
  5
8562
 10
5457.41
 20
4640.89
 30
0.000000
  70
    32
  0
VERTEX
  8
1
  5
8563
 10
5457.41
 20
4640.78
 30
0.000000
  70
    32
  0
VERTEX
  8
1
  5
8564
 10
5457.42
 20
4640.66
 30
0.000000
  70
    32
  0
VERTEX
  8
1
  5
8565
 10
5457.42
 20
4640.55
 30
0.000000
  70
    32
  0
VERTEX
  8
1
  5
8566
 10
5457.42
 20
4640.43
 30
0.000000
  70
    32
  0
VERTEX
  8
1
  5
8567
 10
5457.43
 20
4640.32
 30
0.000000
  70
    32
  0
VERTEX
  8
1
  5
8568
 10
5457.43
 20
4640.21
 30
0.000000
  70
    32
  0
VERTEX
  8
1
  5
8569
 10
5457.43
 20
4640.09
 30
0.000000
  70
    32
  0
VERTEX
  8
1
  5
856A
 10
5457.43
 20
4639.98
 30
0.000000
  70
    32
  0
VERTEX
  8
1
  5
856B
 10
5457.43
 20
4639.87
 30
0.000000
  70
    32
  0
VERTEX
  8
1
  5
856C
 10
5457.43
 20
4639.75
 30
0.000000
  70
    32
  0
VERTEX
  8
1
  5
856D
 10
5457.43
 20
4639.64
 30
0.000000
  70
    32
  0
VERTEX
  8
1
  5
856E
 10
5457.43
 20
4639.53
 30
0.000000
  70
    32
  0
VERTEX
  8
1
  5
856F
 10
5457.43
 20
4639.41
 30
0.000000
  70
    32
  0
VERTEX
  8
1
  5
8570
 10
5457.43
 20
4639.30
 30
0.000000
  70
    32
  0
VERTEX
  8
1
  5
8571
 10
5457.43
 20
4639.18
 30
0.000000
  70
    32
  0
VERTEX
  8
1
  5
8572
 10
5457.42
 20
4639.07
 30
0.000000
  70
    32
  0
VERTEX
  8
1
  5
8573
 10
5457.42
 20
4638.96
 30
0.000000
  70
    32
  0
VERTEX
  8
1
  5
8574
 10
5457.42
 20
4638.84
 30
0.000000
  70
    32
  0
VERTEX
  8
1
  5
8575
 10
5457.41
 20
4638.73
 30
0.000000
  70
    32
  0
VERTEX
  8
1
  5
8576
 10
5457.41
 20
4638.62
 30
0.000000
  70
    32
  0
VERTEX
  8
1
  5
8577
 10
5457.41
 20
4638.50
 30
0.000000
  70
    32
  0
VERTEX
  8
1
  5
8578
 10
5457.40
 20
4638.39
 30
0.000000
  70
    32
  0
VERTEX
  8
1
  5
8579
 10
5457.39
 20
4638.28
 30
0.000000
  70
    32
  0
VERTEX
  8
1
  5
857A
 10
5457.39
 20
4638.16
 30
0.000000
  70
    32
  0
VERTEX
  8
1
  5
857B
 10
5457.38
 20
4638.05
 30
0.000000
  70
    32
  0
VERTEX
  8
1
  5
857C
 10
5457.37
 20
4637.94
 30
0.000000
  70
    32
  0
VERTEX
  8
1
  5
857D
 10
5457.37
 20
4637.82
 30
0.000000
  70
    32
  0
VERTEX
  8
1
  5
857E
 10
5457.36
 20
4637.71
 30
0.000000
  70
    32
  0
VERTEX
  8
1
  5
857F
 10
5457.35
 20
4637.60
 30
0.000000
  70
    32
  0
VERTEX
  8
1
  5
8580
 10
5457.34
 20
4637.48
 30
0.000000
  70
    32
  0
VERTEX
  8
1
  5
8581
 10
5457.33
 20
4637.37
 30
0.000000
  70
    32
  0
VERTEX
  8
1
  5
8582
 10
5457.32
 20
4637.26
 30
0.000000
  70
    32
  0
VERTEX
  8
1
  5
8583
 10
5457.31
 20
4637.14
 30
0.000000
  70
    32
  0
VERTEX
  8
1
  5
8584
 10
5457.30
 20
4637.03
 30
0.000000
  70
    32
  0
VERTEX
  8
1
  5
8585
 10
5457.29
 20
4636.92
 30
0.000000
  70
    32
  0
VERTEX
  8
1
  5
8586
 10
5457.28
 20
4636.80
 30
0.000000
  70
    32
  0
VERTEX
  8
1
  5
8587
 10
5457.27
 20
4636.69
 30
0.000000
  70
    32
  0
VERTEX
  8
1
  5
8588
 10
5457.25
 20
4636.58
 30
0.000000
  70
    32
  0
VERTEX
  8
1
  5
8589
 10
5457.24
 20
4636.47
 30
0.000000
  70
    32
  0
VERTEX
  8
1
  5
858A
 10
5457.23
 20
4636.35
 30
0.000000
  70
    32
  0
VERTEX
  8
1
  5
858B
 10
5457.21
 20
4636.24
 30
0.000000
  70
    32
  0
VERTEX
  8
1
  5
858C
 10
5457.20
 20
4636.13
 30
0.000000
  70
    32
  0
VERTEX
  8
1
  5
858D
 10
5457.18
 20
4636.01
 30
0.000000
  70
    32
  0
VERTEX
  8
1
  5
858E
 10
5457.17
 20
4635.90
 30
0.000000
  70
    32
  0
VERTEX
  8
1
  5
858F
 10
5457.15
 20
4635.79
 30
0.000000
  70
    32
  0
VERTEX
  8
1
  5
8590
 10
5457.14
 20
4635.68
 30
0.000000
  70
    32
  0
VERTEX
  8
1
  5
8591
 10
5457.12
 20
4635.57
 30
0.000000
  70
    32
  0
VERTEX
  8
1
  5
8592
 10
5457.10
 20
4635.45
 30
0.000000
  70
    32
  0
VERTEX
  8
1
  5
8593
 10
5457.08
 20
4635.34
 30
0.000000
  70
    32
  0
VERTEX
  8
1
  5
8594
 10
5457.07
 20
4635.23
 30
0.000000
  70
    32
  0
VERTEX
  8
1
  5
8595
 10
5457.05
 20
4635.12
 30
0.000000
  70
    32
  0
VERTEX
  8
1
  5
8596
 10
5457.03
 20
4635.01
 30
0.000000
  70
    32
  0
VERTEX
  8
1
  5
8597
 10
5457.01
 20
4634.89
 30
0.000000
  70
    32
  0
VERTEX
  8
1
  5
8598
 10
5456.99
 20
4634.78
 30
0.000000
  70
    32
  0
VERTEX
  8
1
  5
8599
 10
5456.97
 20
4634.67
 30
0.000000
  70
    32
  0
VERTEX
  8
1
  5
859A
 10
5456.95
 20
4634.56
 30
0.000000
  70
    32
  0
VERTEX
  8
1
  5
859B
 10
5456.93
 20
4634.45
 30
0.000000
  70
    32
  0
VERTEX
  8
1
  5
859C
 10
5456.90
 20
4634.34
 30
0.000000
  70
    32
  0
VERTEX
  8
1
  5
859D
 10
5456.88
 20
4634.23
 30
0.000000
  70
    32
  0
VERTEX
  8
1
  5
859E
 10
5456.86
 20
4634.11
 30
0.000000
  70
    32
  0
VERTEX
  8
1
  5
859F
 10
5456.84
 20
4634.00
 30
0.000000
  70
    32
  0
VERTEX
  8
1
  5
85A0
 10
5456.81
 20
4633.89
 30
0.000000
  70
    32
  0
VERTEX
  8
1
  5
85A1
 10
5456.79
 20
4633.78
 30
0.000000
  70
    32
  0
VERTEX
  8
1
  5
85A2
 10
5456.76
 20
4633.67
 30
0.000000
  70
    32
  0
VERTEX
  8
1
  5
85A3
 10
5456.74
 20
4633.56
 30
0.000000
  70
    32
  0
VERTEX
  8
1
  5
85A4
 10
5456.71
 20
4633.45
 30
0.000000
  70
    32
  0
VERTEX
  8
1
  5
85A5
 10
5456.69
 20
4633.34
 30
0.000000
  70
    32
  0
VERTEX
  8
1
  5
85A6
 10
5456.66
 20
4633.23
 30
0.000000
  70
    32
  0
VERTEX
  8
1
  5
85A7
 10
5456.63
 20
4633.12
 30
0.000000
  70
    32
  0
VERTEX
  8
1
  5
85A8
 10
5456.61
 20
4633.01
 30
0.000000
  70
    32
  0
VERTEX
  8
1
  5
85A9
 10
5456.58
 20
4632.90
 30
0.000000
  70
    32
  0
VERTEX
  8
1
  5
85AA
 10
5456.55
 20
4632.79
 30
0.000000
  70
    32
  0
VERTEX
  8
1
  5
85AB
 10
5456.52
 20
4632.68
 30
0.000000
  70
    32
  0
VERTEX
  8
1
  5
85AC
 10
5456.49
 20
4632.57
 30
0.000000
  70
    32
  0
VERTEX
  8
1
  5
85AD
 10
5456.46
 20
4632.46
 30
0.000000
  70
    32
  0
VERTEX
  8
1
  5
85AE
 10
5456.43
 20
4632.35
 30
0.000000
  70
    32
  0
VERTEX
  8
1
  5
85AF
 10
5456.40
 20
4632.24
 30
0.000000
  70
    32
  0
VERTEX
  8
1
  5
85B0
 10
5456.37
 20
4632.13
 30
0.000000
  70
    32
  0
VERTEX
  8
1
  5
85B1
 10
5456.34
 20
4632.03
 30
0.000000
  70
    32
  0
VERTEX
  8
1
  5
85B2
 10
5456.31
 20
4631.92
 30
0.000000
  70
    32
  0
VERTEX
  8
1
  5
85B3
 10
5456.28
 20
4631.81
 30
0.000000
  70
    32
  0
VERTEX
  8
1
  5
85B4
 10
5456.25
 20
4631.70
 30
0.000000
  70
    32
  0
VERTEX
  8
1
  5
85B5
 10
5456.21
 20
4631.59
 30
0.000000
  70
    32
  0
VERTEX
  8
1
  5
85B6
 10
5456.18
 20
4631.48
 30
0.000000
  70
    32
  0
VERTEX
  8
1
  5
85B7
 10
5456.15
 20
4631.38
 30
0.000000
  70
    32
  0
VERTEX
  8
1
  5
85B8
 10
5456.11
 20
4631.27
 30
0.000000
  70
    32
  0
VERTEX
  8
1
  5
85B9
 10
5456.08
 20
4631.16
 30
0.000000
  70
    32
  0
VERTEX
  8
1
  5
85BA
 10
5456.04
 20
4631.05
 30
0.000000
  70
    32
  0
VERTEX
  8
1
  5
85BB
 10
5456.01
 20
4630.95
 30
0.000000
  70
    32
  0
VERTEX
  8
1
  5
85BC
 10
5455.97
 20
4630.84
 30
0.000000
  70
    32
  0
VERTEX
  8
1
  5
85BD
 10
5455.93
 20
4630.73
 30
0.000000
  70
    32
  0
VERTEX
  8
1
  5
85BE
 10
5455.90
 20
4630.63
 30
0.000000
  70
    32
  0
VERTEX
  8
1
  5
85BF
 10
5455.86
 20
4630.52
 30
0.000000
  70
    32
  0
VERTEX
  8
1
  5
85C0
 10
5455.82
 20
4630.41
 30
0.000000
  70
    32
  0
VERTEX
  8
1
  5
85C1
 10
5455.78
 20
4630.31
 30
0.000000
  70
    32
  0
VERTEX
  8
1
  5
85C2
 10
5455.74
 20
4630.20
 30
0.000000
  70
    32
  0
VERTEX
  8
1
  5
85C3
 10
5455.70
 20
4630.10
 30
0.000000
  70
    32
  0
VERTEX
  8
1
  5
85C4
 10
5455.66
 20
4629.99
 30
0.000000
  70
    32
  0
VERTEX
  8
1
  5
85C5
 10
5455.62
 20
4629.89
 30
0.000000
  70
    32
  0
VERTEX
  8
1
  5
85C6
 10
5455.58
 20
4629.78
 30
0.000000
  70
    32
  0
VERTEX
  8
1
  5
85C7
 10
5455.54
 20
4629.67
 30
0.000000
  70
    32
  0
VERTEX
  8
1
  5
85C8
 10
5455.50
 20
4629.57
 30
0.000000
  70
    32
  0
VERTEX
  8
1
  5
85C9
 10
5455.46
 20
4629.47
 30
0.000000
  70
    32
  0
VERTEX
  8
1
  5
85CA
 10
5455.42
 20
4629.36
 30
0.000000
  70
    32
  0
VERTEX
  8
1
  5
85CB
 10
5455.38
 20
4629.26
 30
0.000000
  70
    32
  0
VERTEX
  8
1
  5
85CC
 10
5455.33
 20
4629.15
 30
0.000000
  70
    32
  0
VERTEX
  8
1
  5
85CD
 10
5455.29
 20
4629.05
 30
0.000000
  70
    32
  0
VERTEX
  8
1
  5
85CE
 10
5455.25
 20
4628.94
 30
0.000000
  70
    32
  0
VERTEX
  8
1
  5
85CF
 10
5455.20
 20
4628.84
 30
0.000000
  70
    32
  0
VERTEX
  8
1
  5
85D0
 10
5455.16
 20
4628.74
 30
0.000000
  70
    32
  0
VERTEX
  8
1
  5
85D1
 10
5455.11
 20
4628.63
 30
0.000000
  70
    32
  0
VERTEX
  8
1
  5
85D2
 10
5455.07
 20
4628.53
 30
0.000000
  70
    32
  0
VERTEX
  8
1
  5
85D3
 10
5455.02
 20
4628.43
 30
0.000000
  70
    32
  0
VERTEX
  8
1
  5
85D4
 10
5454.97
 20
4628.33
 30
0.000000
  70
    32
  0
VERTEX
  8
1
  5
85D5
 10
5454.93
 20
4628.22
 30
0.000000
  70
    32
  0
VERTEX
  8
1
  5
85D6
 10
5454.88
 20
4628.12
 30
0.000000
  70
    32
  0
VERTEX
  8
1
  5
85D7
 10
5454.83
 20
4628.02
 30
0.000000
  70
    32
  0
VERTEX
  8
1
  5
85D8
 10
5454.78
 20
4627.92
 30
0.000000
  70
    32
  0
VERTEX
  8
1
  5
85D9
 10
5454.74
 20
4627.82
 30
0.000000
  70
    32
  0
VERTEX
  8
1
  5
85DA
 10
5454.69
 20
4627.72
 30
0.000000
  70
    32
  0
VERTEX
  8
1
  5
85DB
 10
5454.64
 20
4627.62
 30
0.000000
  70
    32
  0
VERTEX
  8
1
  5
85DC
 10
5454.59
 20
4627.52
 30
0.000000
  70
    32
  0
VERTEX
  8
1
  5
85DD
 10
5454.54
 20
4627.41
 30
0.000000
  70
    32
  0
VERTEX
  8
1
  5
85DE
 10
5454.49
 20
4627.31
 30
0.000000
  70
    32
  0
VERTEX
  8
1
  5
85DF
 10
5454.44
 20
4627.21
 30
0.000000
  70
    32
  0
VERTEX
  8
1
  5
85E0
 10
5454.39
 20
4627.11
 30
0.000000
  70
    32
  0
VERTEX
  8
1
  5
85E1
 10
5454.33
 20
4627.01
 30
0.000000
  70
    32
  0
VERTEX
  8
1
  5
85E2
 10
5454.28
 20
4626.92
 30
0.000000
  70
    32
  0
VERTEX
  8
1
  5
85E3
 10
5454.23
 20
4626.82
 30
0.000000
  70
    32
  0
VERTEX
  8
1
  5
85E4
 10
5454.18
 20
4626.72
 30
0.000000
  70
    32
  0
VERTEX
  8
1
  5
85E5
 10
5454.12
 20
4626.62
 30
0.000000
  70
    32
  0
VERTEX
  8
1
  5
85E6
 10
5454.07
 20
4626.52
 30
0.000000
  70
    32
  0
VERTEX
  8
1
  5
85E7
 10
5454.02
 20
4626.42
 30
0.000000
  70
    32
  0
VERTEX
  8
1
  5
85E8
 10
5453.96
 20
4626.32
 30
0.000000
  70
    32
  0
VERTEX
  8
1
  5
85E9
 10
5453.91
 20
4626.23
 30
0.000000
  70
    32
  0
VERTEX
  8
1
  5
85EA
 10
5453.85
 20
4626.13
 30
0.000000
  70
    32
  0
VERTEX
  8
1
  5
85EB
 10
5453.80
 20
4626.03
 30
0.000000
  70
    32
  0
VERTEX
  8
1
  5
85EC
 10
5453.74
 20
4625.94
 30
0.000000
  70
    32
  0
VERTEX
  8
1
  5
85ED
 10
5453.68
 20
4625.84
 30
0.000000
  70
    32
  0
VERTEX
  8
1
  5
85EE
 10
5453.63
 20
4625.74
 30
0.000000
  70
    32
  0
VERTEX
  8
1
  5
85EF
 10
5453.57
 20
4625.65
 30
0.000000
  70
    32
  0
VERTEX
  8
1
  5
85F0
 10
5453.51
 20
4625.55
 30
0.000000
  70
    32
  0
VERTEX
  8
1
  5
85F1
 10
5453.45
 20
4625.46
 30
0.000000
  70
    32
  0
VERTEX
  8
1
  5
85F2
 10
5453.40
 20
4625.36
 30
0.000000
  70
    32
  0
VERTEX
  8
1
  5
85F3
 10
5453.34
 20
4625.27
 30
0.000000
  70
    32
  0
VERTEX
  8
1
  5
85F4
 10
5453.28
 20
4625.17
 30
0.000000
  70
    32
  0
VERTEX
  8
1
  5
85F5
 10
5453.22
 20
4625.08
 30
0.000000
  70
    32
  0
VERTEX
  8
1
  5
85F6
 10
5453.16
 20
4624.98
 30
0.000000
  70
    32
  0
VERTEX
  8
1
  5
85F7
 10
5453.10
 20
4624.89
 30
0.000000
  70
    32
  0
VERTEX
  8
1
  5
85F8
 10
5453.04
 20
4624.79
 30
0.000000
  70
    32
  0
VERTEX
  8
1
  5
85F9
 10
5452.98
 20
4624.70
 30
0.000000
  70
    32
  0
VERTEX
  8
1
  5
85FA
 10
5452.91
 20
4624.61
 30
0.000000
  70
    32
  0
VERTEX
  8
1
  5
85FB
 10
5452.85
 20
4624.52
 30
0.000000
  70
    32
  0
VERTEX
  8
1
  5
85FC
 10
5452.79
 20
4624.42
 30
0.000000
  70
    32
  0
VERTEX
  8
1
  5
85FD
 10
5452.73
 20
4624.33
 30
0.000000
  70
    32
  0
VERTEX
  8
1
  5
85FE
 10
5452.66
 20
4624.24
 30
0.000000
  70
    32
  0
VERTEX
  8
1
  5
85FF
 10
5452.60
 20
4624.15
 30
0.000000
  70
    32
  0
VERTEX
  8
1
  5
8600
 10
5452.54
 20
4624.06
 30
0.000000
  70
    32
  0
VERTEX
  8
1
  5
8601
 10
5452.47
 20
4623.97
 30
0.000000
  70
    32
  0
VERTEX
  8
1
  5
8602
 10
5452.41
 20
4623.87
 30
0.000000
  70
    32
  0
VERTEX
  8
1
  5
8603
 10
5452.34
 20
4623.78
 30
0.000000
  70
    32
  0
VERTEX
  8
1
  5
8604
 10
5452.28
 20
4623.69
 30
0.000000
  70
    32
  0
VERTEX
  8
1
  5
8605
 10
5452.21
 20
4623.60
 30
0.000000
  70
    32
  0
VERTEX
  8
1
  5
8606
 10
5452.15
 20
4623.51
 30
0.000000
  70
    32
  0
VERTEX
  8
1
  5
8607
 10
5452.08
 20
4623.42
 30
0.000000
  70
    32
  0
VERTEX
  8
1
  5
8608
 10
5452.01
 20
4623.34
 30
0.000000
  70
    32
  0
VERTEX
  8
1
  5
8609
 10
5451.95
 20
4623.25
 30
0.000000
  70
    32
  0
VERTEX
  8
1
  5
860A
 10
5451.88
 20
4623.16
 30
0.000000
  70
    32
  0
VERTEX
  8
1
  5
860B
 10
5451.81
 20
4623.07
 30
0.000000
  70
    32
  0
VERTEX
  8
1
  5
860C
 10
5451.74
 20
4622.98
 30
0.000000
  70
    32
  0
VERTEX
  8
1
  5
860D
 10
5451.68
 20
4622.90
 30
0.000000
  70
    32
  0
VERTEX
  8
1
  5
860E
 10
5451.61
 20
4622.81
 30
0.000000
  70
    32
  0
VERTEX
  8
1
  5
860F
 10
5451.54
 20
4622.72
 30
0.000000
  70
    32
  0
VERTEX
  8
1
  5
8610
 10
5451.47
 20
4622.64
 30
0.000000
  70
    32
  0
VERTEX
  8
1
  5
8611
 10
5451.40
 20
4622.55
 30
0.000000
  70
    32
  0
VERTEX
  8
1
  5
8612
 10
5451.33
 20
4622.46
 30
0.000000
  70
    32
  0
VERTEX
  8
1
  5
8613
 10
5451.26
 20
4622.38
 30
0.000000
  70
    32
  0
VERTEX
  8
1
  5
8614
 10
5451.19
 20
4622.29
 30
0.000000
  70
    32
  0
VERTEX
  8
1
  5
8615
 10
5451.12
 20
4622.21
 30
0.000000
  70
    32
  0
VERTEX
  8
1
  5
8616
 10
5451.05
 20
4622.12
 30
0.000000
  70
    32
  0
VERTEX
  8
1
  5
8617
 10
5450.97
 20
4622.04
 30
0.000000
  70
    32
  0
VERTEX
  8
1
  5
8618
 10
5450.90
 20
4621.95
 30
0.000000
  70
    32
  0
VERTEX
  8
1
  5
8619
 10
5450.83
 20
4621.87
 30
0.000000
  70
    32
  0
VERTEX
  8
1
  5
861A
 10
5450.76
 20
4621.79
 30
0.000000
  70
    32
  0
VERTEX
  8
1
  5
861B
 10
5450.68
 20
4621.70
 30
0.000000
  70
    32
  0
VERTEX
  8
1
  5
861C
 10
5450.61
 20
4621.62
 30
0.000000
  70
    32
  0
VERTEX
  8
1
  5
861D
 10
5450.54
 20
4621.54
 30
0.000000
  70
    32
  0
VERTEX
  8
1
  5
861E
 10
5450.46
 20
4621.46
 30
0.000000
  70
    32
  0
VERTEX
  8
1
  5
861F
 10
5450.39
 20
4621.38
 30
0.000000
  70
    32
  0
VERTEX
  8
1
  5
8620
 10
5450.31
 20
4621.30
 30
0.000000
  70
    32
  0
VERTEX
  8
1
  5
8621
 10
5450.24
 20
4621.21
 30
0.000000
  70
    32
  0
VERTEX
  8
1
  5
8622
 10
5450.16
 20
4621.13
 30
0.000000
  70
    32
  0
VERTEX
  8
1
  5
8623
 10
5450.09
 20
4621.05
 30
0.000000
  70
    32
  0
VERTEX
  8
1
  5
8624
 10
5450.01
 20
4620.97
 30
0.000000
  70
    32
  0
VERTEX
  8
1
  5
8625
 10
5449.93
 20
4620.89
 30
0.000000
  70
    32
  0
VERTEX
  8
1
  5
8626
 10
5449.86
 20
4620.81
 30
0.000000
  70
    32
  0
VERTEX
  8
1
  5
8627
 10
5449.78
 20
4620.74
 30
0.000000
  70
    32
  0
VERTEX
  8
1
  5
8628
 10
5449.70
 20
4620.66
 30
0.000000
  70
    32
  0
VERTEX
  8
1
  5
8629
 10
5449.62
 20
4620.58
 30
0.000000
  70
    32
  0
VERTEX
  8
1
  5
862A
 10
5449.55
 20
4620.50
 30
0.000000
  70
    32
  0
VERTEX
  8
1
  5
862B
 10
5449.47
 20
4620.42
 30
0.000000
  70
    32
  0
VERTEX
  8
1
  5
862C
 10
5449.39
 20
4620.35
 30
0.000000
  70
    32
  0
VERTEX
  8
1
  5
862D
 10
5449.31
 20
4620.27
 30
0.000000
  70
    32
  0
VERTEX
  8
1
  5
862E
 10
5449.23
 20
4620.19
 30
0.000000
  70
    32
  0
VERTEX
  8
1
  5
862F
 10
5449.15
 20
4620.12
 30
0.000000
  70
    32
  0
VERTEX
  8
1
  5
8630
 10
5449.07
 20
4620.04
 30
0.000000
  70
    32
  0
VERTEX
  8
1
  5
8631
 10
5448.99
 20
4619.97
 30
0.000000
  70
    32
  0
VERTEX
  8
1
  5
8632
 10
5448.91
 20
4619.89
 30
0.000000
  70
    32
  0
VERTEX
  8
1
  5
8633
 10
5448.83
 20
4619.82
 30
0.000000
  70
    32
  0
VERTEX
  8
1
  5
8634
 10
5448.75
 20
4619.74
 30
0.000000
  70
    32
  0
VERTEX
  8
1
  5
8635
 10
5448.67
 20
4619.67
 30
0.000000
  70
    32
  0
VERTEX
  8
1
  5
8636
 10
5448.59
 20
4619.60
 30
0.000000
  70
    32
  0
VERTEX
  8
1
  5
8637
 10
5448.50
 20
4619.52
 30
0.000000
  70
    32
  0
VERTEX
  8
1
  5
8638
 10
5448.42
 20
4619.45
 30
0.000000
  70
    32
  0
VERTEX
  8
1
  5
8639
 10
5448.34
 20
4619.38
 30
0.000000
  70
    32
  0
VERTEX
  8
1
  5
863A
 10
5448.26
 20
4619.31
 30
0.000000
  70
    32
  0
VERTEX
  8
1
  5
863B
 10
5448.17
 20
4619.23
 30
0.000000
  70
    32
  0
VERTEX
  8
1
  5
863C
 10
5448.09
 20
4619.16
 30
0.000000
  70
    32
  0
VERTEX
  8
1
  5
863D
 10
5448.01
 20
4619.09
 30
0.000000
  70
    32
  0
VERTEX
  8
1
  5
863E
 10
5447.92
 20
4619.02
 30
0.000000
  70
    32
  0
VERTEX
  8
1
  5
863F
 10
5447.84
 20
4618.95
 30
0.000000
  70
    32
  0
VERTEX
  8
1
  5
8640
 10
5447.75
 20
4618.88
 30
0.000000
  70
    32
  0
VERTEX
  8
1
  5
8641
 10
5447.67
 20
4618.81
 30
0.000000
  70
    32
  0
VERTEX
  8
1
  5
8642
 10
5447.58
 20
4618.74
 30
0.000000
  70
    32
  0
VERTEX
  8
1
  5
8643
 10
5447.50
 20
4618.68
 30
0.000000
  70
    32
  0
VERTEX
  8
1
  5
8644
 10
5447.41
 20
4618.61
 30
0.000000
  70
    32
  0
VERTEX
  8
1
  5
8645
 10
5447.33
 20
4618.54
 30
0.000000
  70
    32
  0
VERTEX
  8
1
  5
8646
 10
5447.24
 20
4618.47
 30
0.000000
  70
    32
  0
VERTEX
  8
1
  5
8647
 10
5447.15
 20
4618.41
 30
0.000000
  70
    32
  0
VERTEX
  8
1
  5
8648
 10
5447.07
 20
4618.34
 30
0.000000
  70
    32
  0
VERTEX
  8
1
  5
8649
 10
5446.98
 20
4618.27
 30
0.000000
  70
    32
  0
VERTEX
  8
1
  5
864A
 10
5446.89
 20
4618.21
 30
0.000000
  70
    32
  0
VERTEX
  8
1
  5
864B
 10
5446.81
 20
4618.14
 30
0.000000
  70
    32
  0
VERTEX
  8
1
  5
864C
 10
5446.72
 20
4618.08
 30
0.000000
  70
    32
  0
VERTEX
  8
1
  5
864D
 10
5446.63
 20
4618.01
 30
0.000000
  70
    32
  0
VERTEX
  8
1
  5
864E
 10
5446.54
 20
4617.95
 30
0.000000
  70
    32
  0
VERTEX
  8
1
  5
864F
 10
5446.45
 20
4617.88
 30
0.000000
  70
    32
  0
VERTEX
  8
1
  5
8650
 10
5446.37
 20
4617.82
 30
0.000000
  70
    32
  0
VERTEX
  8
1
  5
8651
 10
5446.28
 20
4617.76
 30
0.000000
  70
    32
  0
VERTEX
  8
1
  5
8652
 10
5446.19
 20
4617.70
 30
0.000000
  70
    32
  0
VERTEX
  8
1
  5
8653
 10
5446.10
 20
4617.63
 30
0.000000
  70
    32
  0
VERTEX
  8
1
  5
8654
 10
5446.01
 20
4617.57
 30
0.000000
  70
    32
  0
VERTEX
  8
1
  5
8655
 10
5445.92
 20
4617.51
 30
0.000000
  70
    32
  0
VERTEX
  8
1
  5
8656
 10
5445.83
 20
4617.45
 30
0.000000
  70
    32
  0
VERTEX
  8
1
  5
8657
 10
5445.74
 20
4617.39
 30
0.000000
  70
    32
  0
VERTEX
  8
1
  5
8658
 10
5445.65
 20
4617.33
 30
0.000000
  70
    32
  0
VERTEX
  8
1
  5
8659
 10
5445.56
 20
4617.27
 30
0.000000
  70
    32
  0
VERTEX
  8
1
  5
865A
 10
5445.46
 20
4617.21
 30
0.000000
  70
    32
  0
VERTEX
  8
1
  5
865B
 10
5445.37
 20
4617.15
 30
0.000000
  70
    32
  0
VERTEX
  8
1
  5
865C
 10
5445.28
 20
4617.09
 30
0.000000
  70
    32
  0
VERTEX
  8
1
  5
865D
 10
5445.19
 20
4617.03
 30
0.000000
  70
    32
  0
VERTEX
  8
1
  5
865E
 10
5445.10
 20
4616.98
 30
0.000000
  70
    32
  0
VERTEX
  8
1
  5
865F
 10
5445.00
 20
4616.92
 30
0.000000
  70
    32
  0
VERTEX
  8
1
  5
8660
 10
5444.91
 20
4616.86
 30
0.000000
  70
    32
  0
VERTEX
  8
1
  5
8661
 10
5444.82
 20
4616.81
 30
0.000000
  70
    32
  0
VERTEX
  8
1
  5
8662
 10
5444.73
 20
4616.75
 30
0.000000
  70
    32
  0
VERTEX
  8
1
  5
8663
 10
5444.63
 20
4616.69
 30
0.000000
  70
    32
  0
VERTEX
  8
1
  5
8664
 10
5444.54
 20
4616.64
 30
0.000000
  70
    32
  0
VERTEX
  8
1
  5
8665
 10
5444.45
 20
4616.58
 30
0.000000
  70
    32
  0
VERTEX
  8
1
  5
8666
 10
5444.35
 20
4616.53
 30
0.000000
  70
    32
  0
VERTEX
  8
1
  5
8667
 10
5444.26
 20
4616.48
 30
0.000000
  70
    32
  0
VERTEX
  8
1
  5
8668
 10
5444.16
 20
4616.42
 30
0.000000
  70
    32
  0
VERTEX
  8
1
  5
8669
 10
5444.07
 20
4616.37
 30
0.000000
  70
    32
  0
VERTEX
  8
1
  5
866A
 10
5443.97
 20
4616.32
 30
0.000000
  70
    32
  0
VERTEX
  8
1
  5
866B
 10
5443.88
 20
4616.26
 30
0.000000
  70
    32
  0
VERTEX
  8
1
  5
866C
 10
5443.78
 20
4616.21
 30
0.000000
  70
    32
  0
VERTEX
  8
1
  5
866D
 10
5443.69
 20
4616.16
 30
0.000000
  70
    32
  0
VERTEX
  8
1
  5
866E
 10
5443.59
 20
4616.11
 30
0.000000
  70
    32
  0
VERTEX
  8
1
  5
866F
 10
5443.50
 20
4616.06
 30
0.000000
  70
    32
  0
VERTEX
  8
1
  5
8670
 10
5443.40
 20
4616.01
 30
0.000000
  70
    32
  0
VERTEX
  8
1
  5
8671
 10
5443.31
 20
4615.96
 30
0.000000
  70
    32
  0
VERTEX
  8
1
  5
8672
 10
5443.21
 20
4615.91
 30
0.000000
  70
    32
  0
VERTEX
  8
1
  5
8673
 10
5443.11
 20
4615.86
 30
0.000000
  70
    32
  0
VERTEX
  8
1
  5
8674
 10
5443.02
 20
4615.81
 30
0.000000
  70
    32
  0
VERTEX
  8
1
  5
8675
 10
5442.92
 20
4615.77
 30
0.000000
  70
    32
  0
VERTEX
  8
1
  5
8676
 10
5442.82
 20
4615.72
 30
0.000000
  70
    32
  0
VERTEX
  8
1
  5
8677
 10
5442.72
 20
4615.67
 30
0.000000
  70
    32
  0
VERTEX
  8
1
  5
8678
 10
5442.63
 20
4615.62
 30
0.000000
  70
    32
  0
VERTEX
  8
1
  5
8679
 10
5442.53
 20
4615.58
 30
0.000000
  70
    32
  0
VERTEX
  8
1
  5
867A
 10
5442.43
 20
4615.53
 30
0.000000
  70
    32
  0
VERTEX
  8
1
  5
867B
 10
5442.33
 20
4615.49
 30
0.000000
  70
    32
  0
VERTEX
  8
1
  5
867C
 10
5442.23
 20
4615.44
 30
0.000000
  70
    32
  0
VERTEX
  8
1
  5
867D
 10
5442.14
 20
4615.40
 30
0.000000
  70
    32
  0
VERTEX
  8
1
  5
867E
 10
5442.04
 20
4615.35
 30
0.000000
  70
    32
  0
VERTEX
  8
1
  5
867F
 10
5441.94
 20
4615.31
 30
0.000000
  70
    32
  0
VERTEX
  8
1
  5
8680
 10
5441.84
 20
4615.27
 30
0.000000
  70
    32
  0
VERTEX
  8
1
  5
8681
 10
5441.74
 20
4615.23
 30
0.000000
  70
    32
  0
VERTEX
  8
1
  5
8682
 10
5441.64
 20
4615.18
 30
0.000000
  70
    32
  0
VERTEX
  8
1
  5
8683
 10
5441.54
 20
4615.14
 30
0.000000
  70
    32
  0
VERTEX
  8
1
  5
8684
 10
5441.44
 20
4615.10
 30
0.000000
  70
    32
  0
VERTEX
  8
1
  5
8685
 10
5441.34
 20
4615.06
 30
0.000000
  70
    32
  0
VERTEX
  8
1
  5
8686
 10
5441.24
 20
4615.02
 30
0.000000
  70
    32
  0
VERTEX
  8
1
  5
8687
 10
5441.14
 20
4614.98
 30
0.000000
  70
    32
  0
VERTEX
  8
1
  5
8688
 10
5441.04
 20
4614.94
 30
0.000000
  70
    32
  0
VERTEX
  8
1
  5
8689
 10
5440.94
 20
4614.90
 30
0.000000
  70
    32
  0
VERTEX
  8
1
  5
868A
 10
5440.84
 20
4614.86
 30
0.000000
  70
    32
  0
VERTEX
  8
1
  5
868B
 10
5440.74
 20
4614.82
 30
0.000000
  70
    32
  0
VERTEX
  8
1
  5
868C
 10
5440.64
 20
4614.79
 30
0.000000
  70
    32
  0
VERTEX
  8
1
  5
868D
 10
5440.54
 20
4614.75
 30
0.000000
  70
    32
  0
VERTEX
  8
1
  5
868E
 10
5440.44
 20
4614.71
 30
0.000000
  70
    32
  0
VERTEX
  8
1
  5
868F
 10
5440.34
 20
4614.68
 30
0.000000
  70
    32
  0
VERTEX
  8
1
  5
8690
 10
5440.24
 20
4614.64
 30
0.000000
  70
    32
  0
VERTEX
  8
1
  5
8691
 10
5440.13
 20
4614.60
 30
0.000000
  70
    32
  0
VERTEX
  8
1
  5
8692
 10
5440.03
 20
4614.57
 30
0.000000
  70
    32
  0
VERTEX
  8
1
  5
8693
 10
5439.93
 20
4614.54
 30
0.000000
  70
    32
  0
VERTEX
  8
1
  5
8694
 10
5439.83
 20
4614.50
 30
0.000000
  70
    32
  0
VERTEX
  8
1
  5
8695
 10
5439.73
 20
4614.47
 30
0.000000
  70
    32
  0
VERTEX
  8
1
  5
8696
 10
5439.62
 20
4614.43
 30
0.000000
  70
    32
  0
VERTEX
  8
1
  5
8697
 10
5439.52
 20
4614.40
 30
0.000000
  70
    32
  0
VERTEX
  8
1
  5
8698
 10
5439.42
 20
4614.37
 30
0.000000
  70
    32
  0
VERTEX
  8
1
  5
8699
 10
5439.32
 20
4614.34
 30
0.000000
  70
    32
  0
VERTEX
  8
1
  5
869A
 10
5439.21
 20
4614.31
 30
0.000000
  70
    32
  0
VERTEX
  8
1
  5
869B
 10
5439.11
 20
4614.28
 30
0.000000
  70
    32
  0
VERTEX
  8
1
  5
869C
 10
5439.01
 20
4614.25
 30
0.000000
  70
    32
  0
VERTEX
  8
1
  5
869D
 10
5438.90
 20
4614.22
 30
0.000000
  70
    32
  0
VERTEX
  8
1
  5
869E
 10
5438.80
 20
4614.19
 30
0.000000
  70
    32
  0
VERTEX
  8
1
  5
869F
 10
5438.70
 20
4614.16
 30
0.000000
  70
    32
  0
VERTEX
  8
1
  5
86A0
 10
5438.59
 20
4614.13
 30
0.000000
  70
    32
  0
VERTEX
  8
1
  5
86A1
 10
5438.49
 20
4614.10
 30
0.000000
  70
    32
  0
VERTEX
  8
1
  5
86A2
 10
5438.39
 20
4614.07
 30
0.000000
  70
    32
  0
VERTEX
  8
1
  5
86A3
 10
5438.28
 20
4614.05
 30
0.000000
  70
    32
  0
VERTEX
  8
1
  5
86A4
 10
5438.18
 20
4614.02
 30
0.000000
  70
    32
  0
VERTEX
  8
1
  5
86A5
 10
5438.08
 20
4613.99
 30
0.000000
  70
    32
  0
VERTEX
  8
1
  5
86A6
 10
5437.97
 20
4613.97
 30
0.000000
  70
    32
  0
VERTEX
  8
1
  5
86A7
 10
5437.87
 20
4613.94
 30
0.000000
  70
    32
  0
VERTEX
  8
1
  5
86A8
 10
5437.76
 20
4613.92
 30
0.000000
  70
    32
  0
VERTEX
  8
1
  5
86A9
 10
5437.66
 20
4613.89
 30
0.000000
  70
    32
  0
VERTEX
  8
1
  5
86AA
 10
5437.55
 20
4613.87
 30
0.000000
  70
    32
  0
VERTEX
  8
1
  5
86AB
 10
5437.45
 20
4613.84
 30
0.000000
  70
    32
  0
VERTEX
  8
1
  5
86AC
 10
5437.35
 20
4613.82
 30
0.000000
  70
    32
  0
VERTEX
  8
1
  5
86AD
 10
5437.24
 20
4613.80
 30
0.000000
  70
    32
  0
VERTEX
  8
1
  5
86AE
 10
5437.14
 20
4613.78
 30
0.000000
  70
    32
  0
VERTEX
  8
1
  5
86AF
 10
5437.03
 20
4613.76
 30
0.000000
  70
    32
  0
VERTEX
  8
1
  5
86B0
 10
5436.93
 20
4613.73
 30
0.000000
  70
    32
  0
VERTEX
  8
1
  5
86B1
 10
5436.82
 20
4613.71
 30
0.000000
  70
    32
  0
VERTEX
  8
1
  5
86B2
 10
5436.72
 20
4613.69
 30
0.000000
  70
    32
  0
VERTEX
  8
1
  5
86B3
 10
5436.61
 20
4613.67
 30
0.000000
  70
    32
  0
VERTEX
  8
1
  5
86B4
 10
5436.51
 20
4613.66
 30
0.000000
  70
    32
  0
VERTEX
  8
1
  5
86B5
 10
5436.40
 20
4613.64
 30
0.000000
  70
    32
  0
VERTEX
  8
1
  5
86B6
 10
5436.29
 20
4613.62
 30
0.000000
  70
    32
  0
VERTEX
  8
1
  5
86B7
 10
5436.19
 20
4613.60
 30
0.000000
  70
    32
  0
VERTEX
  8
1
  5
86B8
 10
5436.08
 20
4613.58
 30
0.000000
  70
    32
  0
VERTEX
  8
1
  5
86B9
 10
5435.98
 20
4613.57
 30
0.000000
  70
    32
  0
VERTEX
  8
1
  5
86BA
 10
5435.87
 20
4613.55
 30
0.000000
  70
    32
  0
VERTEX
  8
1
  5
86BB
 10
5435.77
 20
4613.53
 30
0.000000
  70
    32
  0
VERTEX
  8
1
  5
86BC
 10
5435.66
 20
4613.52
 30
0.000000
  70
    32
  0
VERTEX
  8
1
  5
86BD
 10
5435.55
 20
4613.50
 30
0.000000
  70
    32
  0
VERTEX
  8
1
  5
86BE
 10
5435.45
 20
4613.49
 30
0.000000
  70
    32
  0
VERTEX
  8
1
  5
86BF
 10
5435.34
 20
4613.47
 30
0.000000
  70
    32
  0
VERTEX
  8
1
  5
86C0
 10
5435.24
 20
4613.46
 30
0.000000
  70
    32
  0
VERTEX
  8
1
  5
86C1
 10
5435.13
 20
4613.45
 30
0.000000
  70
    32
  0
VERTEX
  8
1
  5
86C2
 10
5435.02
 20
4613.44
 30
0.000000
  70
    32
  0
VERTEX
  8
1
  5
86C3
 10
5434.92
 20
4613.42
 30
0.000000
  70
    32
  0
VERTEX
  8
1
  5
86C4
 10
5434.81
 20
4613.41
 30
0.000000
  70
    32
  0
VERTEX
  8
1
  5
86C5
 10
5434.70
 20
4613.40
 30
0.000000
  70
    32
  0
VERTEX
  8
1
  5
86C6
 10
5434.60
 20
4613.39
 30
0.000000
  70
    32
  0
VERTEX
  8
1
  5
86C7
 10
5434.49
 20
4613.38
 30
0.000000
  70
    32
  0
VERTEX
  8
1
  5
86C8
 10
5434.39
 20
4613.37
 30
0.000000
  70
    32
  0
VERTEX
  8
1
  5
86C9
 10
5434.28
 20
4613.36
 30
0.000000
  70
    32
  0
VERTEX
  8
1
  5
86CA
 10
5434.17
 20
4613.35
 30
0.000000
  70
    32
  0
VERTEX
  8
1
  5
86CB
 10
5434.07
 20
4613.34
 30
0.000000
  70
    32
  0
VERTEX
  8
1
  5
86CC
 10
5433.96
 20
4613.34
 30
0.000000
  70
    32
  0
VERTEX
  8
1
  5
86CD
 10
5433.85
 20
4613.33
 30
0.000000
  70
    32
  0
VERTEX
  8
1
  5
86CE
 10
5433.75
 20
4613.32
 30
0.000000
  70
    32
  0
VERTEX
  8
1
  5
86CF
 10
5433.64
 20
4613.31
 30
0.000000
  70
    32
  0
VERTEX
  8
1
  5
86D0
 10
5433.53
 20
4613.31
 30
0.000000
  70
    32
  0
VERTEX
  8
1
  5
86D1
 10
5433.43
 20
4613.30
 30
0.000000
  70
    32
  0
VERTEX
  8
1
  5
86D2
 10
5433.32
 20
4613.30
 30
0.000000
  70
    32
  0
VERTEX
  8
1
  5
86D3
 10
5433.21
 20
4613.29
 30
0.000000
  70
    32
  0
VERTEX
  8
1
  5
86D4
 10
5433.11
 20
4613.29
 30
0.000000
  70
    32
  0
VERTEX
  8
1
  5
86D5
 10
5433.00
 20
4613.29
 30
0.000000
  70
    32
  0
VERTEX
  8
1
  5
86D6
 10
5432.89
 20
4613.28
 30
0.000000
  70
    32
  0
VERTEX
  8
1
  5
86D7
 10
5432.79
 20
4613.28
 30
0.000000
  70
    32
  0
VERTEX
  8
1
  5
86D8
 10
5432.68
 20
4613.28
 30
0.000000
  70
    32
  0
VERTEX
  8
1
  5
86D9
 10
5432.57
 20
4613.28
 30
0.000000
  70
    32
  0
VERTEX
  8
1
  5
86DA
 10
5432.46
 20
4613.28
 30
0.000000
  70
    32
  0
VERTEX
  8
1
  5
86DB
 10
5432.36
 20
4613.27
 30
0.000000
  70
    32
  0
VERTEX
  8
1
  5
86DC
 10
5432.25
 20
4613.27
 30
0.000000
  70
    32
  0
SEQEND
  8
1
  5
86DD
  0
POLYLINE
  5
7C9C
  8
1
 10
5409.2771386801505
 20
4650.9458308869353
 30
0.0
 66
     1
 70
     8
  0
VERTEX
  8
1
  5
86DE
 10
5409.28
 20
4650.95
 30
0.000000
  70
    32
  0
VERTEX
  8
1
  5
86DF
 10
5409.34
 20
4650.78
 30
0.000000
  70
    32
  0
VERTEX
  8
1
  5
86E0
 10
5409.41
 20
4650.61
 30
0.000000
  70
    32
  0
VERTEX
  8
1
  5
86E1
 10
5409.47
 20
4650.44
 30
0.000000
  70
    32
  0
VERTEX
  8
1
  5
86E2
 10
5409.53
 20
4650.28
 30
0.000000
  70
    32
  0
VERTEX
  8
1
  5
86E3
 10
5409.59
 20
4650.11
 30
0.000000
  70
    32
  0
VERTEX
  8
1
  5
86E4
 10
5409.65
 20
4649.94
 30
0.000000
  70
    32
  0
VERTEX
  8
1
  5
86E5
 10
5409.71
 20
4649.77
 30
0.000000
  70
    32
  0
VERTEX
  8
1
  5
86E6
 10
5409.77
 20
4649.60
 30
0.000000
  70
    32
  0
VERTEX
  8
1
  5
86E7
 10
5409.82
 20
4649.43
 30
0.000000
  70
    32
  0
VERTEX
  8
1
  5
86E8
 10
5409.88
 20
4649.26
 30
0.000000
  70
    32
  0
VERTEX
  8
1
  5
86E9
 10
5409.94
 20
4649.09
 30
0.000000
  70
    32
  0
VERTEX
  8
1
  5
86EA
 10
5409.99
 20
4648.92
 30
0.000000
  70
    32
  0
VERTEX
  8
1
  5
86EB
 10
5410.04
 20
4648.75
 30
0.000000
  70
    32
  0
VERTEX
  8
1
  5
86EC
 10
5410.09
 20
4648.57
 30
0.000000
  70
    32
  0
VERTEX
  8
1
  5
86ED
 10
5410.15
 20
4648.40
 30
0.000000
  70
    32
  0
VERTEX
  8
1
  5
86EE
 10
5410.20
 20
4648.23
 30
0.000000
  70
    32
  0
VERTEX
  8
1
  5
86EF
 10
5410.24
 20
4648.06
 30
0.000000
  70
    32
  0
VERTEX
  8
1
  5
86F0
 10
5410.29
 20
4647.89
 30
0.000000
  70
    32
  0
VERTEX
  8
1
  5
86F1
 10
5410.34
 20
4647.71
 30
0.000000
  70
    32
  0
VERTEX
  8
1
  5
86F2
 10
5410.38
 20
4647.54
 30
0.000000
  70
    32
  0
VERTEX
  8
1
  5
86F3
 10
5410.43
 20
4647.36
 30
0.000000
  70
    32
  0
VERTEX
  8
1
  5
86F4
 10
5410.47
 20
4647.19
 30
0.000000
  70
    32
  0
VERTEX
  8
1
  5
86F5
 10
5410.52
 20
4647.02
 30
0.000000
  70
    32
  0
VERTEX
  8
1
  5
86F6
 10
5410.56
 20
4646.84
 30
0.000000
  70
    32
  0
VERTEX
  8
1
  5
86F7
 10
5410.60
 20
4646.67
 30
0.000000
  70
    32
  0
VERTEX
  8
1
  5
86F8
 10
5410.64
 20
4646.49
 30
0.000000
  70
    32
  0
VERTEX
  8
1
  5
86F9
 10
5410.68
 20
4646.32
 30
0.000000
  70
    32
  0
VERTEX
  8
1
  5
86FA
 10
5410.72
 20
4646.14
 30
0.000000
  70
    32
  0
VERTEX
  8
1
  5
86FB
 10
5410.75
 20
4645.97
 30
0.000000
  70
    32
  0
VERTEX
  8
1
  5
86FC
 10
5410.79
 20
4645.79
 30
0.000000
  70
    32
  0
VERTEX
  8
1
  5
86FD
 10
5410.82
 20
4645.61
 30
0.000000
  70
    32
  0
VERTEX
  8
1
  5
86FE
 10
5410.86
 20
4645.44
 30
0.000000
  70
    32
  0
VERTEX
  8
1
  5
86FF
 10
5410.89
 20
4645.26
 30
0.000000
  70
    32
  0
VERTEX
  8
1
  5
8700
 10
5410.92
 20
4645.08
 30
0.000000
  70
    32
  0
VERTEX
  8
1
  5
8701
 10
5410.95
 20
4644.91
 30
0.000000
  70
    32
  0
VERTEX
  8
1
  5
8702
 10
5410.98
 20
4644.73
 30
0.000000
  70
    32
  0
VERTEX
  8
1
  5
8703
 10
5411.01
 20
4644.55
 30
0.000000
  70
    32
  0
VERTEX
  8
1
  5
8704
 10
5411.04
 20
4644.38
 30
0.000000
  70
    32
  0
VERTEX
  8
1
  5
8705
 10
5411.06
 20
4644.20
 30
0.000000
  70
    32
  0
VERTEX
  8
1
  5
8706
 10
5411.09
 20
4644.02
 30
0.000000
  70
    32
  0
VERTEX
  8
1
  5
8707
 10
5411.11
 20
4643.84
 30
0.000000
  70
    32
  0
VERTEX
  8
1
  5
8708
 10
5411.14
 20
4643.67
 30
0.000000
  70
    32
  0
VERTEX
  8
1
  5
8709
 10
5411.16
 20
4643.49
 30
0.000000
  70
    32
  0
VERTEX
  8
1
  5
870A
 10
5411.18
 20
4643.31
 30
0.000000
  70
    32
  0
VERTEX
  8
1
  5
870B
 10
5411.20
 20
4643.13
 30
0.000000
  70
    32
  0
VERTEX
  8
1
  5
870C
 10
5411.22
 20
4642.95
 30
0.000000
  70
    32
  0
VERTEX
  8
1
  5
870D
 10
5411.24
 20
4642.77
 30
0.000000
  70
    32
  0
VERTEX
  8
1
  5
870E
 10
5411.26
 20
4642.59
 30
0.000000
  70
    32
  0
VERTEX
  8
1
  5
870F
 10
5411.27
 20
4642.42
 30
0.000000
  70
    32
  0
VERTEX
  8
1
  5
8710
 10
5411.29
 20
4642.24
 30
0.000000
  70
    32
  0
VERTEX
  8
1
  5
8711
 10
5411.30
 20
4642.06
 30
0.000000
  70
    32
  0
VERTEX
  8
1
  5
8712
 10
5411.31
 20
4641.88
 30
0.000000
  70
    32
  0
VERTEX
  8
1
  5
8713
 10
5411.33
 20
4641.70
 30
0.000000
  70
    32
  0
VERTEX
  8
1
  5
8714
 10
5411.34
 20
4641.52
 30
0.000000
  70
    32
  0
VERTEX
  8
1
  5
8715
 10
5411.35
 20
4641.34
 30
0.000000
  70
    32
  0
VERTEX
  8
1
  5
8716
 10
5411.36
 20
4641.16
 30
0.000000
  70
    32
  0
VERTEX
  8
1
  5
8717
 10
5411.36
 20
4640.98
 30
0.000000
  70
    32
  0
VERTEX
  8
1
  5
8718
 10
5411.37
 20
4640.80
 30
0.000000
  70
    32
  0
VERTEX
  8
1
  5
8719
 10
5411.38
 20
4640.62
 30
0.000000
  70
    32
  0
VERTEX
  8
1
  5
871A
 10
5411.38
 20
4640.44
 30
0.000000
  70
    32
  0
VERTEX
  8
1
  5
871B
 10
5411.38
 20
4640.26
 30
0.000000
  70
    32
  0
VERTEX
  8
1
  5
871C
 10
5411.39
 20
4640.08
 30
0.000000
  70
    32
  0
VERTEX
  8
1
  5
871D
 10
5411.39
 20
4639.90
 30
0.000000
  70
    32
  0
VERTEX
  8
1
  5
871E
 10
5411.39
 20
4639.72
 30
0.000000
  70
    32
  0
VERTEX
  8
1
  5
871F
 10
5411.39
 20
4639.55
 30
0.000000
  70
    32
  0
VERTEX
  8
1
  5
8720
 10
5411.39
 20
4639.37
 30
0.000000
  70
    32
  0
VERTEX
  8
1
  5
8721
 10
5411.38
 20
4639.19
 30
0.000000
  70
    32
  0
VERTEX
  8
1
  5
8722
 10
5411.38
 20
4639.01
 30
0.000000
  70
    32
  0
VERTEX
  8
1
  5
8723
 10
5411.38
 20
4638.83
 30
0.000000
  70
    32
  0
VERTEX
  8
1
  5
8724
 10
5411.37
 20
4638.65
 30
0.000000
  70
    32
  0
VERTEX
  8
1
  5
8725
 10
5411.36
 20
4638.47
 30
0.000000
  70
    32
  0
VERTEX
  8
1
  5
8726
 10
5411.36
 20
4638.29
 30
0.000000
  70
    32
  0
VERTEX
  8
1
  5
8727
 10
5411.35
 20
4638.11
 30
0.000000
  70
    32
  0
VERTEX
  8
1
  5
8728
 10
5411.34
 20
4637.93
 30
0.000000
  70
    32
  0
VERTEX
  8
1
  5
8729
 10
5411.33
 20
4637.75
 30
0.000000
  70
    32
  0
VERTEX
  8
1
  5
872A
 10
5411.31
 20
4637.57
 30
0.000000
  70
    32
  0
VERTEX
  8
1
  5
872B
 10
5411.30
 20
4637.39
 30
0.000000
  70
    32
  0
VERTEX
  8
1
  5
872C
 10
5411.29
 20
4637.21
 30
0.000000
  70
    32
  0
VERTEX
  8
1
  5
872D
 10
5411.27
 20
4637.03
 30
0.000000
  70
    32
  0
VERTEX
  8
1
  5
872E
 10
5411.26
 20
4636.86
 30
0.000000
  70
    32
  0
VERTEX
  8
1
  5
872F
 10
5411.24
 20
4636.68
 30
0.000000
  70
    32
  0
VERTEX
  8
1
  5
8730
 10
5411.22
 20
4636.50
 30
0.000000
  70
    32
  0
VERTEX
  8
1
  5
8731
 10
5411.20
 20
4636.32
 30
0.000000
  70
    32
  0
VERTEX
  8
1
  5
8732
 10
5411.18
 20
4636.14
 30
0.000000
  70
    32
  0
VERTEX
  8
1
  5
8733
 10
5411.16
 20
4635.96
 30
0.000000
  70
    32
  0
VERTEX
  8
1
  5
8734
 10
5411.14
 20
4635.78
 30
0.000000
  70
    32
  0
VERTEX
  8
1
  5
8735
 10
5411.11
 20
4635.61
 30
0.000000
  70
    32
  0
VERTEX
  8
1
  5
8736
 10
5411.09
 20
4635.43
 30
0.000000
  70
    32
  0
VERTEX
  8
1
  5
8737
 10
5411.06
 20
4635.25
 30
0.000000
  70
    32
  0
VERTEX
  8
1
  5
8738
 10
5411.04
 20
4635.07
 30
0.000000
  70
    32
  0
VERTEX
  8
1
  5
8739
 10
5411.01
 20
4634.90
 30
0.000000
  70
    32
  0
VERTEX
  8
1
  5
873A
 10
5410.98
 20
4634.72
 30
0.000000
  70
    32
  0
VERTEX
  8
1
  5
873B
 10
5410.95
 20
4634.54
 30
0.000000
  70
    32
  0
VERTEX
  8
1
  5
873C
 10
5410.92
 20
4634.36
 30
0.000000
  70
    32
  0
VERTEX
  8
1
  5
873D
 10
5410.89
 20
4634.19
 30
0.000000
  70
    32
  0
VERTEX
  8
1
  5
873E
 10
5410.86
 20
4634.01
 30
0.000000
  70
    32
  0
VERTEX
  8
1
  5
873F
 10
5410.82
 20
4633.84
 30
0.000000
  70
    32
  0
VERTEX
  8
1
  5
8740
 10
5410.79
 20
4633.66
 30
0.000000
  70
    32
  0
VERTEX
  8
1
  5
8741
 10
5410.75
 20
4633.48
 30
0.000000
  70
    32
  0
VERTEX
  8
1
  5
8742
 10
5410.72
 20
4633.31
 30
0.000000
  70
    32
  0
VERTEX
  8
1
  5
8743
 10
5410.68
 20
4633.13
 30
0.000000
  70
    32
  0
VERTEX
  8
1
  5
8744
 10
5410.64
 20
4632.96
 30
0.000000
  70
    32
  0
VERTEX
  8
1
  5
8745
 10
5410.60
 20
4632.78
 30
0.000000
  70
    32
  0
VERTEX
  8
1
  5
8746
 10
5410.56
 20
4632.61
 30
0.000000
  70
    32
  0
VERTEX
  8
1
  5
8747
 10
5410.52
 20
4632.43
 30
0.000000
  70
    32
  0
VERTEX
  8
1
  5
8748
 10
5410.47
 20
4632.26
 30
0.000000
  70
    32
  0
VERTEX
  8
1
  5
8749
 10
5410.43
 20
4632.08
 30
0.000000
  70
    32
  0
VERTEX
  8
1
  5
874A
 10
5410.38
 20
4631.91
 30
0.000000
  70
    32
  0
VERTEX
  8
1
  5
874B
 10
5410.34
 20
4631.74
 30
0.000000
  70
    32
  0
VERTEX
  8
1
  5
874C
 10
5410.29
 20
4631.56
 30
0.000000
  70
    32
  0
VERTEX
  8
1
  5
874D
 10
5410.24
 20
4631.39
 30
0.000000
  70
    32
  0
VERTEX
  8
1
  5
874E
 10
5410.20
 20
4631.22
 30
0.000000
  70
    32
  0
VERTEX
  8
1
  5
874F
 10
5410.15
 20
4631.05
 30
0.000000
  70
    32
  0
VERTEX
  8
1
  5
8750
 10
5410.09
 20
4630.88
 30
0.000000
  70
    32
  0
VERTEX
  8
1
  5
8751
 10
5410.04
 20
4630.70
 30
0.000000
  70
    32
  0
VERTEX
  8
1
  5
8752
 10
5409.99
 20
4630.53
 30
0.000000
  70
    32
  0
VERTEX
  8
1
  5
8753
 10
5409.94
 20
4630.36
 30
0.000000
  70
    32
  0
VERTEX
  8
1
  5
8754
 10
5409.88
 20
4630.19
 30
0.000000
  70
    32
  0
VERTEX
  8
1
  5
8755
 10
5409.82
 20
4630.02
 30
0.000000
  70
    32
  0
VERTEX
  8
1
  5
8756
 10
5409.77
 20
4629.85
 30
0.000000
  70
    32
  0
VERTEX
  8
1
  5
8757
 10
5409.71
 20
4629.68
 30
0.000000
  70
    32
  0
VERTEX
  8
1
  5
8758
 10
5409.65
 20
4629.51
 30
0.000000
  70
    32
  0
VERTEX
  8
1
  5
8759
 10
5409.59
 20
4629.34
 30
0.000000
  70
    32
  0
VERTEX
  8
1
  5
875A
 10
5409.53
 20
4629.17
 30
0.000000
  70
    32
  0
VERTEX
  8
1
  5
875B
 10
5409.47
 20
4629.01
 30
0.000000
  70
    32
  0
VERTEX
  8
1
  5
875C
 10
5409.41
 20
4628.84
 30
0.000000
  70
    32
  0
VERTEX
  8
1
  5
875D
 10
5409.34
 20
4628.67
 30
0.000000
  70
    32
  0
VERTEX
  8
1
  5
875E
 10
5409.28
 20
4628.50
 30
0.000000
  70
    32
  0
SEQEND
  8
1
  5
875F
  0
POLYLINE
  5
7C9D
  8
1
 10
5381.7811227053398
 20
4609.4746584301411
 30
0.0
 66
     1
 70
     8
  0
VERTEX
  8
1
  5
8760
 10
5381.78
 20
4609.47
 30
0.000000
  70
    32
  0
VERTEX
  8
1
  5
8761
 10
5381.05
 20
4609.48
 30
0.000000
  70
    32
  0
VERTEX
  8
1
  5
8762
 10
5380.32
 20
4609.51
 30
0.000000
  70
    32
  0
VERTEX
  8
1
  5
8763
 10
5379.59
 20
4609.56
 30
0.000000
  70
    32
  0
VERTEX
  8
1
  5
8764
 10
5378.86
 20
4609.62
 30
0.000000
  70
    32
  0
VERTEX
  8
1
  5
8765
 10
5378.14
 20
4609.70
 30
0.000000
  70
    32
  0
VERTEX
  8
1
  5
8766
 10
5377.41
 20
4609.81
 30
0.000000
  70
    32
  0
VERTEX
  8
1
  5
8767
 10
5376.69
 20
4609.92
 30
0.000000
  70
    32
  0
VERTEX
  8
1
  5
8768
 10
5375.98
 20
4610.06
 30
0.000000
  70
    32
  0
VERTEX
  8
1
  5
8769
 10
5375.26
 20
4610.22
 30
0.000000
  70
    32
  0
VERTEX
  8
1
  5
876A
 10
5374.55
 20
4610.39
 30
0.000000
  70
    32
  0
VERTEX
  8
1
  5
876B
 10
5373.84
 20
4610.58
 30
0.000000
  70
    32
  0
VERTEX
  8
1
  5
876C
 10
5373.14
 20
4610.79
 30
0.000000
  70
    32
  0
VERTEX
  8
1
  5
876D
 10
5372.45
 20
4611.02
 30
0.000000
  70
    32
  0
VERTEX
  8
1
  5
876E
 10
5371.76
 20
4611.26
 30
0.000000
  70
    32
  0
VERTEX
  8
1
  5
876F
 10
5371.07
 20
4611.52
 30
0.000000
  70
    32
  0
VERTEX
  8
1
  5
8770
 10
5370.40
 20
4611.80
 30
0.000000
  70
    32
  0
VERTEX
  8
1
  5
8771
 10
5369.72
 20
4612.10
 30
0.000000
  70
    32
  0
VERTEX
  8
1
  5
8772
 10
5369.06
 20
4612.41
 30
0.000000
  70
    32
  0
VERTEX
  8
1
  5
8773
 10
5368.41
 20
4612.74
 30
0.000000
  70
    32
  0
VERTEX
  8
1
  5
8774
 10
5367.76
 20
4613.08
 30
0.000000
  70
    32
  0
VERTEX
  8
1
  5
8775
 10
5367.12
 20
4613.44
 30
0.000000
  70
    32
  0
VERTEX
  8
1
  5
8776
 10
5366.49
 20
4613.82
 30
0.000000
  70
    32
  0
VERTEX
  8
1
  5
8777
 10
5365.87
 20
4614.21
 30
0.000000
  70
    32
  0
VERTEX
  8
1
  5
8778
 10
5365.26
 20
4614.62
 30
0.000000
  70
    32
  0
VERTEX
  8
1
  5
8779
 10
5364.66
 20
4615.05
 30
0.000000
  70
    32
  0
VERTEX
  8
1
  5
877A
 10
5364.07
 20
4615.49
 30
0.000000
  70
    32
  0
VERTEX
  8
1
  5
877B
 10
5363.49
 20
4615.94
 30
0.000000
  70
    32
  0
VERTEX
  8
1
  5
877C
 10
5362.92
 20
4616.41
 30
0.000000
  70
    32
  0
VERTEX
  8
1
  5
877D
 10
5362.36
 20
4616.89
 30
0.000000
  70
    32
  0
VERTEX
  8
1
  5
877E
 10
5361.81
 20
4617.39
 30
0.000000
  70
    32
  0
VERTEX
  8
1
  5
877F
 10
5361.28
 20
4617.90
 30
0.000000
  70
    32
  0
VERTEX
  8
1
  5
8780
 10
5360.76
 20
4618.42
 30
0.000000
  70
    32
  0
VERTEX
  8
1
  5
8781
 10
5360.25
 20
4618.96
 30
0.000000
  70
    32
  0
VERTEX
  8
1
  5
8782
 10
5359.76
 20
4619.51
 30
0.000000
  70
    32
  0
VERTEX
  8
1
  5
8783
 10
5359.28
 20
4620.07
 30
0.000000
  70
    32
  0
VERTEX
  8
1
  5
8784
 10
5358.81
 20
4620.64
 30
0.000000
  70
    32
  0
VERTEX
  8
1
  5
8785
 10
5358.35
 20
4621.23
 30
0.000000
  70
    32
  0
VERTEX
  8
1
  5
8786
 10
5357.92
 20
4621.82
 30
0.000000
  70
    32
  0
VERTEX
  8
1
  5
8787
 10
5357.49
 20
4622.43
 30
0.000000
  70
    32
  0
VERTEX
  8
1
  5
8788
 10
5357.08
 20
4623.05
 30
0.000000
  70
    32
  0
VERTEX
  8
1
  5
8789
 10
5356.68
 20
4623.67
 30
0.000000
  70
    32
  0
VERTEX
  8
1
  5
878A
 10
5356.31
 20
4624.31
 30
0.000000
  70
    32
  0
VERTEX
  8
1
  5
878B
 10
5355.94
 20
4624.96
 30
0.000000
  70
    32
  0
VERTEX
  8
1
  5
878C
 10
5355.59
 20
4625.61
 30
0.000000
  70
    32
  0
VERTEX
  8
1
  5
878D
 10
5355.26
 20
4626.28
 30
0.000000
  70
    32
  0
VERTEX
  8
1
  5
878E
 10
5354.94
 20
4626.95
 30
0.000000
  70
    32
  0
VERTEX
  8
1
  5
878F
 10
5354.64
 20
4627.63
 30
0.000000
  70
    32
  0
VERTEX
  8
1
  5
8790
 10
5354.36
 20
4628.32
 30
0.000000
  70
    32
  0
VERTEX
  8
1
  5
8791
 10
5354.09
 20
4629.01
 30
0.000000
  70
    32
  0
VERTEX
  8
1
  5
8792
 10
5353.84
 20
4629.71
 30
0.000000
  70
    32
  0
VERTEX
  8
1
  5
8793
 10
5353.61
 20
4630.42
 30
0.000000
  70
    32
  0
VERTEX
  8
1
  5
8794
 10
5353.39
 20
4631.13
 30
0.000000
  70
    32
  0
VERTEX
  8
1
  5
8795
 10
5353.19
 20
4631.85
 30
0.000000
  70
    32
  0
VERTEX
  8
1
  5
8796
 10
5353.01
 20
4632.57
 30
0.000000
  70
    32
  0
VERTEX
  8
1
  5
8797
 10
5352.85
 20
4633.30
 30
0.000000
  70
    32
  0
VERTEX
  8
1
  5
8798
 10
5352.70
 20
4634.03
 30
0.000000
  70
    32
  0
VERTEX
  8
1
  5
8799
 10
5352.57
 20
4634.77
 30
0.000000
  70
    32
  0
VERTEX
  8
1
  5
879A
 10
5352.46
 20
4635.50
 30
0.000000
  70
    32
  0
VERTEX
  8
1
  5
879B
 10
5352.37
 20
4636.24
 30
0.000000
  70
    32
  0
VERTEX
  8
1
  5
879C
 10
5352.29
 20
4636.99
 30
0.000000
  70
    32
  0
VERTEX
  8
1
  5
879D
 10
5352.24
 20
4637.73
 30
0.000000
  70
    32
  0
VERTEX
  8
1
  5
879E
 10
5352.20
 20
4638.48
 30
0.000000
  70
    32
  0
VERTEX
  8
1
  5
879F
 10
5352.18
 20
4639.22
 30
0.000000
  70
    32
  0
VERTEX
  8
1
  5
87A0
 10
5352.17
 20
4639.97
 30
0.000000
  70
    32
  0
VERTEX
  8
1
  5
87A1
 10
5352.19
 20
4640.71
 30
0.000000
  70
    32
  0
VERTEX
  8
1
  5
87A2
 10
5352.22
 20
4641.46
 30
0.000000
  70
    32
  0
VERTEX
  8
1
  5
87A3
 10
5352.27
 20
4642.20
 30
0.000000
  70
    32
  0
VERTEX
  8
1
  5
87A4
 10
5352.34
 20
4642.95
 30
0.000000
  70
    32
  0
VERTEX
  8
1
  5
87A5
 10
5352.43
 20
4643.69
 30
0.000000
  70
    32
  0
VERTEX
  8
1
  5
87A6
 10
5352.53
 20
4644.43
 30
0.000000
  70
    32
  0
VERTEX
  8
1
  5
87A7
 10
5352.65
 20
4645.16
 30
0.000000
  70
    32
  0
VERTEX
  8
1
  5
87A8
 10
5352.80
 20
4645.89
 30
0.000000
  70
    32
  0
VERTEX
  8
1
  5
87A9
 10
5352.95
 20
4646.62
 30
0.000000
  70
    32
  0
VERTEX
  8
1
  5
87AA
 10
5353.13
 20
4647.35
 30
0.000000
  70
    32
  0
VERTEX
  8
1
  5
87AB
 10
5353.32
 20
4648.07
 30
0.000000
  70
    32
  0
VERTEX
  8
1
  5
87AC
 10
5353.53
 20
4648.78
 30
0.000000
  70
    32
  0
VERTEX
  8
1
  5
87AD
 10
5353.76
 20
4649.49
 30
0.000000
  70
    32
  0
VERTEX
  8
1
  5
87AE
 10
5354.00
 20
4650.19
 30
0.000000
  70
    32
  0
VERTEX
  8
1
  5
87AF
 10
5354.26
 20
4650.89
 30
0.000000
  70
    32
  0
VERTEX
  8
1
  5
87B0
 10
5354.54
 20
4651.58
 30
0.000000
  70
    32
  0
VERTEX
  8
1
  5
87B1
 10
5354.84
 20
4652.26
 30
0.000000
  70
    32
  0
VERTEX
  8
1
  5
87B2
 10
5355.15
 20
4652.94
 30
0.000000
  70
    32
  0
VERTEX
  8
1
  5
87B3
 10
5355.47
 20
4653.61
 30
0.000000
  70
    32
  0
VERTEX
  8
1
  5
87B4
 10
5355.82
 20
4654.27
 30
0.000000
  70
    32
  0
VERTEX
  8
1
  5
87B5
 10
5356.18
 20
4654.92
 30
0.000000
  70
    32
  0
VERTEX
  8
1
  5
87B6
 10
5356.55
 20
4655.56
 30
0.000000
  70
    32
  0
VERTEX
  8
1
  5
87B7
 10
5356.94
 20
4656.19
 30
0.000000
  70
    32
  0
VERTEX
  8
1
  5
87B8
 10
5357.35
 20
4656.81
 30
0.000000
  70
    32
  0
VERTEX
  8
1
  5
87B9
 10
5357.77
 20
4657.42
 30
0.000000
  70
    32
  0
VERTEX
  8
1
  5
87BA
 10
5358.20
 20
4658.02
 30
0.000000
  70
    32
  0
VERTEX
  8
1
  5
87BB
 10
5358.65
 20
4658.61
 30
0.000000
  70
    32
  0
VERTEX
  8
1
  5
87BC
 10
5359.11
 20
4659.18
 30
0.000000
  70
    32
  0
VERTEX
  8
1
  5
87BD
 10
5359.59
 20
4659.75
 30
0.000000
  70
    32
  0
VERTEX
  8
1
  5
87BE
 10
5360.08
 20
4660.30
 30
0.000000
  70
    32
  0
VERTEX
  8
1
  5
87BF
 10
5360.58
 20
4660.84
 30
0.000000
  70
    32
  0
VERTEX
  8
1
  5
87C0
 10
5361.10
 20
4661.37
 30
0.000000
  70
    32
  0
VERTEX
  8
1
  5
87C1
 10
5361.63
 20
4661.89
 30
0.000000
  70
    32
  0
VERTEX
  8
1
  5
87C2
 10
5362.17
 20
4662.39
 30
0.000000
  70
    32
  0
VERTEX
  8
1
  5
87C3
 10
5362.72
 20
4662.87
 30
0.000000
  70
    32
  0
VERTEX
  8
1
  5
87C4
 10
5363.29
 20
4663.35
 30
0.000000
  70
    32
  0
VERTEX
  8
1
  5
87C5
 10
5363.86
 20
4663.81
 30
0.000000
  70
    32
  0
VERTEX
  8
1
  5
87C6
 10
5364.45
 20
4664.25
 30
0.000000
  70
    32
  0
VERTEX
  8
1
  5
87C7
 10
5365.05
 20
4664.68
 30
0.000000
  70
    32
  0
VERTEX
  8
1
  5
87C8
 10
5365.66
 20
4665.09
 30
0.000000
  70
    32
  0
VERTEX
  8
1
  5
87C9
 10
5366.27
 20
4665.49
 30
0.000000
  70
    32
  0
VERTEX
  8
1
  5
87CA
 10
5366.90
 20
4665.88
 30
0.000000
  70
    32
  0
VERTEX
  8
1
  5
87CB
 10
5367.54
 20
4666.24
 30
0.000000
  70
    32
  0
VERTEX
  8
1
  5
87CC
 10
5368.18
 20
4666.59
 30
0.000000
  70
    32
  0
VERTEX
  8
1
  5
87CD
 10
5368.83
 20
4666.93
 30
0.000000
  70
    32
  0
VERTEX
  8
1
  5
87CE
 10
5369.49
 20
4667.25
 30
0.000000
  70
    32
  0
VERTEX
  8
1
  5
87CF
 10
5370.16
 20
4667.55
 30
0.000000
  70
    32
  0
VERTEX
  8
1
  5
87D0
 10
5370.84
 20
4667.83
 30
0.000000
  70
    32
  0
VERTEX
  8
1
  5
87D1
 10
5371.52
 20
4668.10
 30
0.000000
  70
    32
  0
VERTEX
  8
1
  5
87D2
 10
5372.21
 20
4668.35
 30
0.000000
  70
    32
  0
VERTEX
  8
1
  5
87D3
 10
5372.90
 20
4668.58
 30
0.000000
  70
    32
  0
VERTEX
  8
1
  5
87D4
 10
5373.60
 20
4668.80
 30
0.000000
  70
    32
  0
VERTEX
  8
1
  5
87D5
 10
5374.31
 20
4668.99
 30
0.000000
  70
    32
  0
VERTEX
  8
1
  5
87D6
 10
5375.01
 20
4669.17
 30
0.000000
  70
    32
  0
VERTEX
  8
1
  5
87D7
 10
5375.73
 20
4669.34
 30
0.000000
  70
    32
  0
VERTEX
  8
1
  5
87D8
 10
5376.44
 20
4669.48
 30
0.000000
  70
    32
  0
VERTEX
  8
1
  5
87D9
 10
5377.16
 20
4669.60
 30
0.000000
  70
    32
  0
VERTEX
  8
1
  5
87DA
 10
5377.89
 20
4669.71
 30
0.000000
  70
    32
  0
VERTEX
  8
1
  5
87DB
 10
5378.61
 20
4669.80
 30
0.000000
  70
    32
  0
VERTEX
  8
1
  5
87DC
 10
5379.34
 20
4669.87
 30
0.000000
  70
    32
  0
VERTEX
  8
1
  5
87DD
 10
5380.07
 20
4669.92
 30
0.000000
  70
    32
  0
VERTEX
  8
1
  5
87DE
 10
5380.80
 20
4669.96
 30
0.000000
  70
    32
  0
VERTEX
  8
1
  5
87DF
 10
5381.53
 20
4669.97
 30
0.000000
  70
    32
  0
VERTEX
  8
1
  5
87E0
 10
5382.26
 20
4669.97
 30
0.000000
  70
    32
  0
SEQEND
  8
1
  5
87E1
  0
LINE
  5
7C9E
  8
1
 10
5599.8413139490722
 20
5149.7246584291479
 30
0.0
 11
5599.8413139490722
 21
4549.7246584291461
 31
0.0
  0
LINE
  5
7C9F
  8
1
 10
5607.8413139490722
 20
5149.7246584291479
 30
0.0
 11
5607.8413139490722
 21
4549.7246584291461
 31
0.0
  0
LINE
  5
7CA0
  8
1
 10
5802.8413139490722
 20
5199.724658430142
 30
0.0
 11
5802.8413139490722
 21
4539.7246584301411
 31
0.0
  0
LINE
  5
7CA3
  8
1
 10
5852.8413139490722
 20
4544.2246584301411
 30
0.0
 11
5852.8413139490722
 21
4539.7246584301411
 31
0.0
  0
ARC
  5
7CA4
  8
1
 10
5606.6413139490714
 20
4551.2729052162249
 30
0.0
 40
4.2000000000000002
 50
321.16676436514251
 51
0.0
  0
LINE
  5
7CA5
  8
1
 10
5610.8413139490722
 20
4570.2246584301411
 30
0.0
 11
5610.8413139490722
 21
4551.2729052162249
 31
0.0
  0
LINE
  5
7CA6
  8
1
 10
5618.8160220650398
 20
4560.2246584301411
 30
0.0
 11
5590.0424422564074
 21
4560.2246584301411
 31
0.0
  0
LINE
  5
7CA7
  8
1
 10
5381.7811227053398
 20
4609.4746584301411
 30
0.0
 11
5432.2508365003314
 21
4609.4746584301411
 31
0.0
  0
ARC
  5
7CA8
  8
1
 10
5165.7280329490704
 20
4546.2246584291488
 30
0.0
 40
5.0
 50
210.00028199999991
 51
270.0
  0
LINE
  5
7CA9
  8
1
 10
5802.8413139490722
 20
4830.7246584291497
 30
0.0
 11
5607.8413139490722
 21
4830.7246584291497
 31
0.0
  0
LINE
  5
7CAA
  8
1
 10
5252.8413139490731
 20
4819.9043454291505
 30
0.0
 11
5252.8413139490731
 21
4943.9117924291486
 31
0.0
  0
LINE
  5
7CAB
  8
1
 10
5472.8413139490722
 20
5069.7246584301411
 30
0.0
 11
5472.8413139490722
 21
4689.7246584291497
 31
0.0
  0
LINE
  5
7CAC
  8
1
 10
5462.8413139490731
 20
5069.7246584301411
 30
0.0
 11
5462.8413139490731
 21
4689.7246584291497
 31
0.0
  0
LINE
  5
7CAD
  8
1
 10
5472.8413139490722
 20
4694.7246584291497
 30
0.0
 11
5599.8413139490722
 21
4694.7246584291497
 31
0.0
  0
LINE
  5
7CAE
  8
1
 10
5381.2892189459681
 20
4669.9704834570512
 30
0.0
 11
5432.2485616250478
 21
4669.9746583369561
 31
0.0
  0
LINE
  5
7CAF
  8
1
 10
5462.8413139490731
 20
4689.7246584291497
 30
0.0
 11
5472.8413139490722
 21
4689.7246584291497
 31
0.0
  0
LINE
  5
7CB0
  8
1
 10
5472.8413139490722
 20
5064.7246584301411
 30
0.0
 11
5599.8413139490722
 21
5064.7246584301411
 31
0.0
  0
LINE
  5
7CB1
  8
1
 10
5462.8413139490731
 20
5069.7246584301411
 30
0.0
 11
5472.8413139490722
 21
5069.7246584301411
 31
0.0
  0
LINE
  5
7CB3
  8
1
 10
5602.8413139490704
 20
5179.7246584291497
 30
0.0
 11
5798.8413139490704
 21
5203.2246584291488
 31
0.0
  0
LINE
  5
7CB4
  8
1
 10
5802.8413139490722
 20
5079.7246584291488
 30
0.0
 11
5607.8413139490704
 21
5079.7246584291488
 31
0.0
  0
LINE
  5
7CBC
  8
1
 10
5597.8413139490722
 20
5194.7246584291497
 30
0.0
 11
5357.8413139490722
 21
5194.7246584291497
 31
0.0
  0
LINE
  5
7CBD
  8
1
 10
5597.8413139490722
 20
5189.7246584291497
 30
0.0
 11
5357.8413139490722
 21
5189.7246584291497
 31
0.0
  0
LINE
  5
7CC0
  8
1
 10
5602.8413139490722
 20
5169.7246584291488
 30
0.0
 11
5357.8413139490722
 21
5169.7246584291488
 31
0.0
  0
LINE
  5
7CC1
  8
1
 10
5559.8413139490722
 20
5194.7246584291497
 30
0.0
 11
5559.8413139490722
 21
5189.7246584291497
 31
0.0
  0
LINE
  5
7CC2
  8
1
 10
5597.8413139490722
 20
5199.724658430142
 30
0.0
 11
5597.8413139490722
 21
5169.7246584291488
 31
0.0
  0
LINE
  5
7CC3
  8
1
 10
5602.8413139490722
 20
5199.724658430142
 30
0.0
 11
5602.8413139490722
 21
5169.7246584291488
 31
0.0
  0
LINE
  5
7CC8
  8
1
 10
5247.8413139490713
 20
5199.724658430142
 30
0.0
 11
5247.8413139490731
 21
5140.7246584291506
 31
0.0
1001
ACAD
1000
ASC_BOUNDS
1002
{
1070
    19
1002
}
  0
LINE
  5
7CC9
  8
1
 10
5275.3413139490731
 20
5140.7246584291488
 30
0.0
 11
5275.3413139490713
 21
5199.724658430142
 31
0.0
  0
LINE
  5
7CCA
  8
1
 10
5330.3413139490722
 20
5140.7246584291488
 30
0.0
 11
5330.3413139490713
 21
5199.724658430142
 31
0.0
  0
LINE
  5
7CCB
  8
1
 10
5357.8413139490704
 20
5199.724658430142
 30
0.0
 11
5357.8413139490722
 21
5140.7246584291488
 31
0.0
1001
ACAD
1000
ASC_BOUNDS
1002
{
1070
    19
1002
}
  0
LINE
  5
7CCC
  8
1
 10
5247.8413139490731
 20
5140.7246584291488
 30
0.0
 11
5357.8413139490722
 21
5140.7246584291488
 31
0.0
1001
ACAD
1000
ASC_BOUNDS
1002
{
1070
    19
1002
}
  0
LINE
  5
7CDE
  8
1
 10
5005.8413139490731
 20
5149.7246584291497
 30
0.0
 11
5005.8413139490731
 21
4549.7246584291488
 31
0.0
  0
LINE
  5
7CDF
  8
1
 10
4997.8413139490731
 20
5149.7246584291497
 30
0.0
 11
4997.8413139490731
 21
4549.7246584291488
 31
0.0
  0
LINE
  5
7CE1
  8
1
 10
4802.8413139490722
 20
5199.724658430142
 30
0.0
 11
4802.8413139490722
 21
4539.7246584301411
 31
0.0
  0
LINE
  5
7CE2
  8
1
 10
4986.8666058331028
 20
4560.2246584301411
 30
0.0
 11
5015.640185641736
 21
4560.2246584301411
 31
0.0
  0
LINE
  5
7CE3
  8
1
 10
4994.8413139490731
 20
4570.2246584301392
 30
0.0
 11
4994.8413139490731
 21
4551.2729052162249
 31
0.0
  0
ARC
  5
7CE4
  8
1
 10
4999.0413139490711
 20
4551.2729052162249
 30
0.0
 40
4.2000000000000002
 50
180.0
 51
218.83323563485729
  0
LINE
  5
7CE5
  8
1
 10
4752.8413139490722
 20
4544.2246584301411
 30
0.0
 11
4752.8413139490722
 21
4539.7246584301411
 31
0.0
  0
LINE
  5
7CE6
  8
1
 10
4802.8413139490704
 20
4830.7246584291497
 30
0.0
 11
4997.8413139490704
 21
4830.7246584291497
 31
0.0
  0
LINE
  5
7CEA
  8
1
 10
5002.8413139490731
 20
5179.7246584291497
 30
0.0
 11
4806.8413139490722
 21
5203.2246584291488
 31
0.0
  0
LINE
  5
7CEB
  8
1
 10
4802.8413139490722
 20
5079.7246584291488
 30
0.0
 11
4997.8413139490731
 21
5079.7246584291488
 31
0.0
  0
LINE
  5
7CEC
  8
1
 10
5007.8413139490731
 20
5199.724658430142
 30
0.0
 11
5007.8413139490722
 21
5169.7246584291488
 31
0.0
  0
LINE
  5
7CED
  8
1
 10
5002.8413139490731
 20
5199.724658430142
 30
0.0
 11
5002.8413139490731
 21
5169.7246584291488
 31
0.0
  0
LINE
  5
7CEE
  8
1
 10
5045.8413139490722
 20
5194.7246584291497
 30
0.0
 11
5045.8413139490722
 21
5189.7246584291497
 31
0.0
  0
LINE
  5
7CF5
  8
1
 10
4752.8413139490722
 20
5748.1246584301416
 30
0.0
 11
5852.8413139490722
 21
5748.1246584301416
 31
0.0
  0
LINE
  5
7CF7
  8
2
 10
5302.8413139490722
 20
5795.1246584301407
 30
0.0
 11
5302.8413139490722
 21
4290.9920279979406
 31
0.0
  0
LINE
  5
7CFA
  8
1
 10
4302.8413139490704
 20
5279.7246584301411
 30
0.0
 11
4302.8413139490694
 21
5300.1890819598557
 31
0.0
  0
LINE
  5
7CFB
  8
1
 10
4752.8413139490722
 20
5749.724658430142
 30
0.0
 11
5852.8413139490722
 21
5749.724658430142
 31
0.0
  0
LINE
  5
7CFC
  8
1
 10
4302.8413139490731
 20
5279.7246584301411
 30
0.0
 11
4304.4413139490698
 21
5279.7246584301411
 31
0.0
  0
LINE
  5
7CFD
  8
1
 10
4752.8413139490722
 20
5748.1246584301407
 30
0.0
 11
5852.8413139490722
 21
5748.1246584301416
 31
0.0
  0
LINE
  5
7CFE
  8
1
 10
4304.4413139490698
 20
5279.7246584301411
 30
0.0
 11
4304.4413139490698
 21
5299.7246584301456
 31
0.0
  0
ARC
  5
7CFF
  8
1
 10
4752.8413139490722
 20
5449.724658430142
 30
0.0
 40
300.0
 50
90.0
 51
153.547819799574
  0
ARC
  5
7D00
  8
1
 10
4752.8413139490722
 20
5449.724658430142
 30
0.0
 40
298.39999999999992
 50
90.0
 51
147.62770398324821
  0
LINE
  5
7D01
  8
1
 10
4304.4413139490698
 20
5299.7246584301411
 30
0.0
 11
4500.8165791606107
 21
5609.4935322911197
 31
0.0
  0
LINE
  5
7D02
  8
1
 10
4302.8413139490722
 20
5300.1890819598593
 30
0.0
 11
4499.4652401000831
 21
5610.3502018560566
 31
0.0
  0
ARC
  5
7D03
  8
1
 10
5852.8413139490722
 20
5449.724658430142
 30
0.0
 40
300.0
 50
26.452180200415029
 51
90.0
  0
ARC
  5
7D04
  8
1
 10
5852.8413139490722
 20
5449.724658430142
 30
0.0
 40
298.39999999999992
 50
32.372296016751712
 51
90.0
  0
LINE
  5
7D05
  8
1
 10
6302.8413139490722
 20
5300.1890819598593
 30
0.0
 11
6106.2173877980613
 21
5610.3502018560566
 31
0.0
  0
LINE
  5
7D06
  8
1
 10
6301.2413139490727
 20
5299.7246584301411
 30
0.0
 11
6104.8660487375337
 21
5609.4935322911197
 31
0.0
  0
LINE
  5
7D07
  8
1
 10
6302.841313949074
 20
5279.7246584301411
 30
0.0
 11
6302.8413139490758
 21
5300.1890819598557
 31
0.0
  0
LINE
  5
7D08
  8
1
 10
6301.2413139490727
 20
5279.7246584301411
 30
0.0
 11
6301.2413139490727
 21
5299.7246584301456
 31
0.0
  0
LINE
  5
7D09
  8
1
 10
6302.8413139490704
 20
5279.7246584301411
 30
0.0
 11
6301.2413139490727
 21
5279.7246584301411
 31
0.0
  0
LINE
  5
7D0A
  8
1
 10
4444.4413139490734
 20
5199.724658430142
 30
0.0
 11
6161.2413139490736
 21
5199.724658430142
 31
0.0
  0
LINE
  5
7D0B
  8
1
 10
4444.4413139490734
 20
5199.724658430142
 30
0.0
 11
4304.4413139490716
 21
5279.7246584301411
 31
0.0
  0
LINE
  5
7D0C
  8
1
 10
6161.2413139490718
 20
5199.724658430142
 30
0.0
 11
6301.2413139490718
 21
5279.7246584301411
 31
0.0
  0
LINE
  5
7D0D
  8
1
 10
4677.8413139490713
 20
4409.7246584301411
 30
0.0
 11
5927.8413139490713
 21
4409.7246584301411
 31
0.0
  0
LINE
  5
7D0E
  8
1
 10
4680.8413139490704
 20
4559.7246584301402
 30
0.0
 11
4680.8413139490722
 21
4409.7246584301411
 31
0.0
  0
LINE
  5
7D0F
  8
1
 10
5924.8413139490704
 20
4559.7246584301402
 30
0.0
 11
5924.8413139490722
 21
4409.7246584301411
 31
0.0
  0
LINE
  5
7D10
  8
1
 10
4677.8413139490694
 20
4559.7246584301402
 30
0.0
 11
5927.8413139490704
 21
4559.7246584301402
 31
0.0
  0
LINE
  5
7D11
  8
1
 10
4872.6054137898627
 20
5015.2246584301392
 30
0.0
 11
4764.9749228585051
 21
5199.724658430142
 31
0.0
  0
LINE
  5
7D12
  8
1
 10
4948.2335704360421
 20
5015.2246584301392
 30
0.0
 11
4872.6054137898627
 21
5015.2246584301392
 31
0.0
  0
LINE
  5
7D13
  8
1
 10
4877.467832169642
 20
5015.2246584301402
 30
0.0
 11
4769.8373412382834
 21
5199.724658430142
 31
0.0
  0
LINE
  5
7D14
  8
1
 10
4682.361420709899
 20
4594.2246584301411
 30
0.0
 11
4908.6355906895951
 21
4844.224658430142
 31
0.0
  0
LINE
  5
7D15
  8
1
 10
4948.2335704360403
 20
4844.224658430142
 30
0.0
 11
4948.2335704360403
 21
4577.4522866974421
 31
0.0
  0
LINE
  5
7D16
  8
1
 10
5924.8413139490704
 20
4544.224658430142
 30
0.0
 11
4680.8413139490704
 21
4544.2246584301411
 31
0.0
  0
LINE
  5
7D17
  8
1
 10
4908.6355906895951
 20
4844.224658430142
 30
0.0
 11
4948.2335704360403
 21
4844.224658430142
 31
0.0
  0
LINE
  5
7D18
  8
1
 10
4682.361420709899
 20
4560.9358173864066
 30
0.0
 11
4682.361420709899
 21
4594.2246584301411
 31
0.0
  0
LINE
  5
7D19
  8
1
 10
4686.6040613970154
 20
4562.0726295322966
 30
0.0
 11
4686.6040613970154
 21
4592.6533084459134
 31
0.0
  0
LINE
  5
7D1A
  8
1
 10
4686.6040613970154
 20
4592.6533084459134
 30
0.0
 11
4914.3004550304277
 21
4844.224658430142
 31
0.0
  0
LINE
  5
7D1B
  8
1
 10
4686.6040613970154
 20
4592.6533084459134
 30
0.0
 11
4682.361420709899
 21
4594.2246584301411
 31
0.0
  0
LINE
  5
7D1C
  8
1
 10
4948.2335704360403
 20
5015.2246584301402
 30
0.0
 11
4948.2335704360403
 21
5199.724658430142
 31
0.0
  0
LINE
  5
7D1D
  8
1
 10
4680.8413139490704
 20
4559.7246584301402
 30
0.0
 11
4798.3413139490704
 21
4592.0125361180899
 31
0.0
  0
LINE
  5
7D1E
  8
1
 10
5924.8413139490758
 20
4559.7246584301402
 30
0.0
 11
5807.3413139490731
 21
4592.0125361180899
 31
0.0
  0
LINE
  5
7D1F
  8
1
 10
4798.341313949074
 20
4722.3655474781253
 30
0.0
 11
4798.3413139490704
 21
4544.2246584301411
 31
0.0
  0
LINE
  5
7D20
  8
1
 10
5733.0772141082807
 20
5015.2246584301392
 30
0.0
 11
5840.7077050396401
 21
5199.724658430142
 31
0.0
  0
LINE
  5
7D21
  8
1
 10
5657.449057462105
 20
5015.2246584301402
 30
0.0
 11
5657.449057462105
 21
5199.724658430142
 31
0.0
  0
LINE
  5
7D22
  8
1
 10
5728.2147957285033
 20
5015.2246584301402
 30
0.0
 11
5835.8452866598609
 21
5199.724658430142
 31
0.0
  0
LINE
  5
7D23
  8
1
 10
5657.4490574621022
 20
5015.2246584301392
 30
0.0
 11
5733.0772141082807
 21
5015.2246584301392
 31
0.0
  0
LINE
  5
7D24
  8
1
 10
5657.449057462105
 20
4844.224658430142
 30
0.0
 11
5657.449057462105
 21
4577.4522866974421
 31
0.0
  0
LINE
  5
7D25
  8
1
 10
5919.078566501129
 20
4592.6533084459134
 30
0.0
 11
5691.3821728677167
 21
4844.224658430142
 31
0.0
  0
LINE
  5
7D26
  8
1
 10
5923.3212071882454
 20
4594.2246584301411
 30
0.0
 11
5697.0470372085501
 21
4844.224658430142
 31
0.0
  0
LINE
  5
7D27
  8
1
 10
5697.0470372085501
 20
4844.224658430142
 30
0.0
 11
5657.449057462105
 21
4844.224658430142
 31
0.0
  0
LINE
  5
7D28
  8
1
 10
5923.3212071882454
 20
4560.9358173864066
 30
0.0
 11
5923.3212071882454
 21
4594.2246584301411
 31
0.0
  0
LINE
  5
7D29
  8
1
 10
5919.0785665011299
 20
4562.0726295322966
 30
0.0
 11
5919.078566501129
 21
4592.6533084459134
 31
0.0
  0
LINE
  5
7D2A
  8
1
 10
5919.078566501129
 20
4592.6533084459134
 30
0.0
 11
5923.3212071882454
 21
4594.2246584301411
 31
0.0
  0
ARC
  5
7D2B
  8
1
 10
5302.8413139490704
 20
9006.8269277960899
 30
0.0
 40
4443.5465973664732
 50
263.48084155614941
 51
276.5191584438507
  0
LINE
  5
7D2C
  8
1
 10
2913.7790542151488
 20
4594.2246584301411
 30
0.0
 11
2687.504884235454
 21
4844.224658430142
 31
0.0
  0
LINE
  5
7D2D
  8
1
 10
2909.5364135280329
 20
4592.6533084459134
 30
0.0
 11
2681.840019894621
 21
4844.224658430142
 31
0.0
  0
LINE
  5
7D2E
  8
1
 10
2647.906904489008
 20
4844.224658430142
 30
0.0
 11
2647.906904489007
 21
4577.4522866974421
 31
0.0
  0
LINE
  5
7D2F
  8
1
 10
1793.2991609759761
 20
5134.8141568078318
 30
0.0
 11
1793.299160975982
 21
4544.2246584301411
 31
0.0
  0
LINE
  5
7D30
  8
1
 10
2797.7991609759761
 20
5142.5280489662346
 30
0.0
 11
2797.7991609759761
 21
4722.3655474781244
 31
0.0
  0
LINE
  5
7D31
  8
1
 10
2793.2991609759738
 20
5134.8141568078354
 30
0.0
 11
2793.2991609759729
 21
4544.2246584301411
 31
0.0
  0
LINE
  5
7D32
  8
1
 10
1938.6914174629439
 20
4844.224658430142
 30
0.0
 11
1938.6914174629439
 21
4577.4522866974421
 31
0.0
  0
LINE
  5
7D33
  8
1
 10
1677.061908423922
 20
4592.6533084459134
 30
0.0
 11
1904.758302057332
 21
4844.224658430142
 31
0.0
  0
LINE
  5
7D34
  8
1
 10
1672.8192677368061
 20
4594.2246584301411
 30
0.0
 11
1899.0934377164981
 21
4844.224658430142
 31
0.0
  0
ARC
  5
7D35
  8
1
 10
2293.2991609759738
 20
9006.8269277960899
 30
0.0
 40
4443.5465973664732
 50
263.48084155614941
 51
276.5191584438507
  0
LINE
  5
7D36
  8
1
 10
1668.299160975977
 20
4559.7246584301402
 30
0.0
 11
2918.2991609759738
 21
4559.7246584301402
 31
0.0
  0
LINE
  5
7D37
  8
1
 10
1668.299160975977
 20
4409.724658430142
 30
0.0
 11
2918.2991609759761
 21
4409.7246584301411
 31
0.0
  0
LINE
  5
7D38
  8
1
 10
1671.299160975977
 20
4559.7246584301402
 30
0.0
 11
1671.299160975977
 21
4409.7246584301411
 31
0.0
  0
LINE
  5
7D39
  8
1
 10
1671.299160975977
 20
4559.7246584301402
 30
0.0
 11
1788.7991609759761
 21
4592.0125361180899
 31
0.0
  0
LINE
  5
7D3A
  8
1
 10
1672.8192677368061
 20
4560.9358173864084
 30
0.0
 11
1672.8192677368061
 21
4594.2246584301411
 31
0.0
  0
LINE
  5
7D3B
  8
1
 10
1677.061908423922
 20
4562.0726295322966
 30
0.0
 11
1677.061908423922
 21
4592.6533084459134
 31
0.0
  0
LINE
  5
7D3C
  8
1
 10
1677.061908423922
 20
4592.6533084459134
 30
0.0
 11
1672.8192677368061
 21
4594.2246584301411
 31
0.0
  0
LINE
  5
7D3D
  8
1
 10
2915.2991609759738
 20
4559.7246584301402
 30
0.0
 11
2915.2991609759761
 21
4409.7246584301411
 31
0.0
  0
LINE
  5
7D3E
  8
1
 10
2915.2991609759802
 20
4559.7246584301402
 30
0.0
 11
2797.7991609759779
 21
4592.0125361180899
 31
0.0
  0
LINE
  5
7D3F
  8
1
 10
2909.5364135280329
 20
4592.6533084459134
 30
0.0
 11
2913.7790542151488
 21
4594.2246584301411
 31
0.0
  0
LINE
  5
7D40
  8
1
 10
2909.536413528032
 20
4562.0726295322966
 30
0.0
 11
2909.5364135280329
 21
4592.6533084459134
 31
0.0
  0
LINE
  5
7D41
  8
1
 10
2913.7790542151488
 20
4560.9358173864066
 30
0.0
 11
2913.7790542151488
 21
4594.2246584301411
 31
0.0
  0
LINE
  5
7D42
  8
1
 10
2718.6726427554058
 20
5015.2246584301402
 30
0.0
 11
2872.9721812450762
 21
5279.7246584301411
 31
0.0
  0
LINE
  5
7D43
  8
1
 10
2723.5350611351851
 20
5015.2246584301392
 30
0.0
 11
2877.834599624854
 21
5279.7246584301411
 31
0.0
  0
LINE
  5
7D44
  8
1
 10
2647.906904489008
 20
5015.2246584301402
 30
0.0
 11
2647.906904489008
 21
5279.7246584301411
 31
0.0
  0
LINE
  5
7D45
  8
1
 10
1788.7991609759761
 20
5142.5280489662337
 30
0.0
 11
1788.7991609759761
 21
4722.3655474781253
 31
0.0
  0
LINE
  5
7D46
  8
1
 10
1863.063260816768
 20
5015.2246584301392
 30
0.0
 11
1708.763722327097
 21
5279.7246584301411
 31
0.0
  0
LINE
  5
7D47
  8
1
 10
1938.6914174629439
 20
5015.2246584301402
 30
0.0
 11
1938.6914174629439
 21
5279.7246584301411
 31
0.0
  0
LINE
  5
7D48
  8
1
 10
1867.925679196544
 20
5015.2246584301402
 30
0.0
 11
1713.6261407068771
 21
5279.7246584301411
 31
0.0
  0
LINE
  5
7D49
  8
1
 10
1899.0934377164981
 20
4844.224658430142
 30
0.0
 11
1938.6914174629439
 21
4844.224658430142
 31
0.0
  0
LINE
  5
7D4A
  8
1
 10
1938.691417462948
 20
5015.2246584301392
 30
0.0
 11
1863.063260816768
 21
5015.2246584301392
 31
0.0
  0
LINE
  5
7D4B
  8
1
 10
2687.504884235454
 20
4844.224658430142
 30
0.0
 11
2647.906904489008
 21
4844.224658430142
 31
0.0
  0
LINE
  5
7D4C
  8
1
 10
2647.906904489007
 20
5015.2246584301392
 30
0.0
 11
2723.5350611351851
 21
5015.2246584301392
 31
0.0
  0
LINE
  5
7D4D
  8
1
 10
1293.299160975977
 20
5749.724658430142
 30
0.0
 11
3293.2991609759738
 21
5749.724658430142
 31
0.0
  0
LINE
  5
7D4E
  8
1
 10
1293.299160975977
 20
5749.724658430142
 30
0.0
 11
1293.299160975977
 21
5199.724658430142
 31
0.0
  0
LINE
  5
7D4F
  8
1
 10
3293.2991609759779
 20
5749.724658430142
 30
0.0
 11
3293.2991609759738
 21
5199.724658430142
 31
0.0
  0
LINE
  5
7D50
  8
1
 10
1293.299160975977
 20
5279.7246584301411
 30
0.0
 11
3293.2991609759738
 21
5279.7246584301411
 31
0.0
  0
LINE
  5
7D51
  8
1
 10
1293.299160975977
 20
5199.724658430142
 30
0.0
 11
1294.899160975976
 21
5199.724658430142
 31
0.0
  0
LINE
  5
7D52
  8
1
 10
1294.899160975976
 20
5279.7246584301411
 30
0.0
 11
1294.899160975976
 21
5199.724658430142
 31
0.0
  0
LINE
  5
7D53
  8
1
 10
3291.6991609759762
 20
5279.7246584301411
 30
0.0
 11
3291.6991609759739
 21
5199.724658430142
 31
0.0
  0
LINE
  5
7D54
  8
1
 10
3291.6991609759762
 20
5199.724658430142
 30
0.0
 11
3293.2991609759738
 21
5199.724658430142
 31
0.0
  0
INSERT
  5
7D55
  8
0
  2
YA_N
 10
-16011.476226008301
 20
9058.4461241229237
 30
0.0
  0
INSERT
  5
7D56
  8
0
  2
YA_N
 10
-16011.476226008301
 20
9058.4461241229237
 30
0.0
  0
INSERT
  5
7D58
  8
0
  2
YA_N
 10
-16011.476226008301
 20
9058.4461241229237
 30
0.0
  0
INSERT
  5
7D5A
  8
0
  2
YA_N
 10
-17036.019349978382
 20
11913.027001245689
 30
0.0
  0
INSERT
  5
7D5B
  8
0
  2
YA_N
 10
-14612.040225275759
 20
10875.21912618345
 30
0.0
  0
INSERT
  5
7D5C
  8
0
  2
YA_N
 10
-15945.476226008301
 20
9113.4461241229237
 30
0.0
 41
12.0
 42
12.0
 43
12.0
  0
INSERT
  5
7D5D
  8
0
  2
YA_N
 10
-12536.5998297437
 20
11244.486855282779
 30
0.0
  0
INSERT
  5
7D5E
  8
0
  2
YA_N
 10
-16230.436398137959
 20
9692.5271156156668
 30
0.0
 41
0.75
 42
0.75
 43
0.75
  0
INSERT
  5
7D5F
  8
0
  2
YA_N
 10
-16230.436398137959
 20
9692.5271156156668
 30
0.0
 41
0.75
 42
0.75
 43
0.75
  0
INSERT
  5
7D60
  8
0
  2
YA_N
 10
-14124.0326352914
 20
11331.264693225519
 30
0.0
 41
0.75
 42
0.75
 43
0.75
  0
INSERT
  5
7D61
  8
0
  2
YA_N
 10
-13743.13714682787
 20
12495.77687125107
 30
0.0
 41
0.75
 42
0.75
 43
0.75
  0
INSERT
  5
7D62
  8
0
  2
YA_N
 10
-16180.936398137959
 20
9733.7771156156668
 30
0.0
 41
9.0
 42
9.0
 43
9.0
  0
INSERT
  5
7D63
  8
0
  2
YA_N
 10
-12976.289622845061
 20
12120.94851925663
 30
0.0
 41
0.75
 42
0.75
 43
0.75
  0
INSERT
  5
7D64
  8
0
  2
YA_N
 10
-9695.9865647969455
 20
14309.017469923971
 30
0.0
 41
0.75
 42
0.75
 43
0.75
  0
INSERT
  5
7D65
  8
0
  2
YA_N
 10
-9695.9865647969455
 20
14309.017469923971
 30
0.0
 41
0.75
 42
0.75
 43
0.75
  0
INSERT
  5
7D66
  8
0
  2
YA_N
 10
-7589.5828019503788
 20
15947.75504753383
 30
0.0
 41
0.75
 42
0.75
 43
0.75
  0
INSERT
  5
7D67
  8
0
  2
YA_N
 10
-7208.6873134868501
 20
17112.267225559379
 30
0.0
 41
0.75
 42
0.75
 43
0.75
  0
INSERT
  5
7D69
  8
0
  2
YA_N
 10
-19853.10937462814
 20
13737.848331494441
 30
0.0
  0
INSERT
  5
7D6B
  8
0
  2
YA_N
 10
-15931.582715826011
 20
13240.8658027817
 30
0.0
  0
INSERT
  5
7D6D
  8
0
  2
YA_N
 10
-10799.74461158484
 20
11170.622140922929
 30
0.0
 41
9.0
 42
9.0
 43
9.0
  0
INSERT
  5
7D6F
  8
0
  2
YA_N
 10
28350.422890135538
 20
11845.622140922929
 30
0.0
 41
135.0
 42
135.0
 43
135.0
  0
INSERT
  5
7D71
  8
0
  2
YA_N
 10
47304.647848935499
 20
12624.50820187275
 30
0.0
 41
135.0
 42
135.0
 43
135.0
  0
INSERT
  5
7D73
  8
0
  2
YA_N
 10
28350.422890135538
 20
11845.622140922929
 30
0.0
 41
135.0
 42
135.0
 43
135.0
  0
INSERT
  5
7D75
  8
0
  2
YA_N
 10
-15747.794825734671
 20
11790.55527004021
 30
0.0
 41
9.0
 42
9.0
 43
9.0
  0
INSERT
  5
7D77
  8
0
  2
YA_N
 10
23402.372675985709
 20
12465.55527004021
 30
0.0
 41
135.0
 42
135.0
 43
135.0
  0
INSERT
  5
7D79
  8
0
  2
YA_N
 10
42356.59763478567
 20
13244.441330990019
 30
0.0
 41
135.0
 42
135.0
 43
135.0
  0
INSERT
  5
7D7B
  8
0
  2
YA_N
 10
23402.372675985709
 20
12465.55527004021
 30
0.0
 41
135.0
 42
135.0
 43
135.0
  0
INSERT
  5
7D7D
  8
0
  2
YA_N
 10
-12470.834174491931
 20
11902.511313357611
 30
0.0
 41
9.0
 42
9.0
 43
9.0
  0
INSERT
  5
7D84
  8
0
  2
YA_N
 10
-23884.675556781462
 20
9678.2040504468496
 30
0.0
  0
INSERT
  5
7D86
  8
0
  2
YA_N
 10
-24511.242046027732
 20
8553.6594529223494
 30
0.0
 41
10.0
 42
10.0
 43
10.0
  0
INSERT
  5
7D88
  8
0
  2
YA_N
 10
18988.944066994911
 20
9303.6594529223494
 30
0.0
 41
150.0
 42
150.0
 43
150.0
  0
INSERT
  5
7D8A
  8
0
  2
YA_N
 10
40049.194021217088
 20
10169.088409533249
 30
0.0
 41
150.0
 42
150.0
 43
150.0
  0
INSERT
  5
7D8C
  8
0
  2
YA_N
 10
18988.944066994911
 20
9303.6594529223494
 30
0.0
 41
150.0
 42
150.0
 43
150.0
  0
INSERT
  5
7D8E
  8
0
  2
YA_N
 10
-20870.174655758019
 20
8678.0550566083548
 30
0.0
 41
10.0
 42
10.0
 43
10.0
  0
LINE
  5
7D96
  8
1
 10
5438.9123063690831
 20
4707.0818793185799
 30
0.0
 11
5382.3437638741598
 21
4681.0005421215528
 31
0.0
  0
LINE
  5
7D97
  8
1
 10
5438.9123063690831
 20
4707.0818793185799
 30
0.0
 11
5492.4587161048248
 21
4632.1096468202586
 31
0.0
  0
LINE
  5
7D98
  8
1
 10
5382.3437638741598
 20
4681.0005421215528
 30
0.0
 11
5453.0544419928146
 21
4590.1495568639057
 31
0.0
  0
LINE
  5
7D99
  8
1
 10
5382.3437638741598
 20
4681.0005421215528
 30
0.0
 11
5385.5223482576121
 21
4610.2898640028961
 31
0.0
  0
LINE
  5
7D9A
  8
1
 10
5385.5223482576121
 20
4610.2898640028961
 30
0.0
 11
5453.0544419928146
 21
4590.1495568639057
 31
0.0
  0
LINE
  5
7D9B
  8
1
 10
5453.0544419928146
 20
4590.1495568639057
 30
0.0
 11
5492.4587161048266
 21
4632.1096468202541
 31
0.0
  0
LINE
  5
7D9C
  8
1
 10
5252.8413139490731
 20
4941.4572237495959
 30
0.0
 11
5252.8413139490731
 21
4818.9920931087036
 31
0.0
  0
LINE
  5
7D9D
  8
1
 10
2847.799160975977
 20
4960.7246584291497
 30
0.0
 11
2847.7991609759779
 21
4850.7246584291497
 31
0.0
  0
LINE
  5
7D9E
  8
1
 10
2863.0695469759748
 20
4960.7246584291497
 30
0.0
 11
2797.7991609759761
 21
4960.7246584291506
 31
0.0
  0
LINE
  5
7D9F
  8
1
 10
2853.0695469759771
 20
4960.7246584291506
 30
0.0
 11
2853.0695469759771
 21
4850.7246584291497
 31
0.0
  0
LINE
  5
7DA0
  8
1
 10
1793.2991609759761
 20
4479.5475298290085
 30
0.0
 11
1793.2991609759761
 21
4441.7246584301411
 31
0.0
  0
LINE
  5
7DA1
  8
1
 10
2793.2991609759761
 20
4477.7246584301402
 30
0.0
 11
2793.2991609759761
 21
4441.7246584301411
 31
0.0
  0
LINE
  5
7DA2
  8
1
 10
1775.299160975977
 20
4459.7246584301411
 30
0.0
 11
1811.2991609759761
 21
4459.7246584301411
 31
0.0
  0
LINE
  5
7DA3
  8
1
 10
2775.2991609759761
 20
4459.7246584301411
 30
0.0
 11
2811.299160975977
 21
4459.7246584301411
 31
0.0
  0
LINE
  5
7DA4
  8
1
 10
5784.8413139490731
 20
4459.7246584301411
 30
0.0
 11
5820.8413139490722
 21
4459.7246584301411
 31
0.0
  0
LINE
  5
7DA5
  8
1
 10
5802.8413139490722
 20
4477.7246584301402
 30
0.0
 11
5802.8413139490722
 21
4441.7246584301411
 31
0.0
  0
LINE
  5
7DA6
  8
1
 10
4802.8413139490722
 20
4477.7246584301402
 30
0.0
 11
4802.8413139490722
 21
4441.7246584301411
 31
0.0
  0
LINE
  5
7DA7
  8
1
 10
4784.8413139490722
 20
4459.7246584301411
 30
0.0
 11
4820.8413139490722
 21
4459.7246584301411
 31
0.0
  0
LINE
  5
7DA8
  8
1
 10
5802.8413139490722
 20
4539.7246584301411
 30
0.0
 11
5852.8413139490722
 21
4539.7246584301411
 31
0.0
  0
LINE
  5
7DA9
  8
1
 10
4802.8413139490722
 20
4539.7246584301411
 30
0.0
 11
4752.8413139490722
 21
4539.7246584301411
 31
0.0
  0
LINE
  5
7DAA
  8
1
 10
4802.8413139490722
 20
4459.7246584301411
 30
0.0
 11
4801.8413139490722
 21
4459.7246584301411
 31
0.0
  0
ARC
  5
7DAB
  8
1
 10
4801.8413139490722
 20
4462.7246584301411
 30
0.0
 40
3.0
 50
180.00000000000031
 51
270.0
  0
LINE
  5
7DAC
  8
2
 10
2293.2991609759761
 20
5834.3477462602577
 30
0.0
 11
2293.2991609759761
 21
4367.741020412418
 31
0.0
  0
LINE
  5
7DAD
  8
1
 10
2793.2991609759761
 20
4459.7246584301411
 30
0.0
 11
2794.2991609759761
 21
4459.7246584301411
 31
0.0
  0
LINE
  5
7DAE
  8
1
 10
4798.3413139490722
 20
5199.724658430142
 30
0.0
 11
4798.341313949074
 21
4722.3655474781253
 31
0.0
  0
LINE
  5
7DAF
  8
1
 10
5807.3413139490731
 20
5199.724658430142
 30
0.0
 11
5807.3413139490731
 21
4544.2246584301411
 31
0.0
  0
ARC
  5
7DB0
  8
1
 10
5302.8413139490722
 20
4795.8246584301414
 30
0.0
 40
394.19999999999999
 50
245.1093970431784
 51
295.39822855774401
  0
ARC
  5
7DB1
  8
1
 10
5302.8413139490722
 20
4795.8246584301414
 30
0.0
 40
394.19999999999999
 50
295.39822855774401
 51
321.16676436514348
  0
ARC
  5
7DB2
  8
1
 10
4772.8413139490713
 20
5791.7246584301402
 30
0.0
 40
30.0
 50
294.43588232259322
 51
245.56411767740661
  0
LINE
  5
7DB3
  8
1
 10
4762.0019744132087
 20
5773.320936478005
 30
0.0
 11
4783.6806534849338
 21
5773.320936478005
 31
0.0
  0
ARC
  5
7DB4
  8
1
 10
4772.8413139490713
 20
5791.7246584301402
 30
0.0
 40
17.5
 50
297.20289441221439
 51
242.7971055877855
  0
LINE
  5
7DB5
  8
1
 10
4764.8413139490722
 20
5776.1602760138676
 30
0.0
 11
4780.8413139490722
 21
5776.1602760138676
 31
0.0
  0
LINE
  5
7DB6
  8
1
 10
4757.8413139490722
 20
5749.724658430142
 30
0.0
 11
4787.8413139490722
 21
5749.724658430142
 31
0.0
  0
LINE
  5
7DB7
  8
1
 10
4757.8413139490722
 20
5749.724658430142
 30
0.0
 11
4762.0019744132087
 21
5773.320936478005
 31
0.0
  0
LINE
  5
7DB8
  8
1
 10
4762.0019744132087
 20
5773.320936478005
 30
0.0
 11
4764.8413139490722
 21
5776.1602760138676
 31
0.0
  0
LINE
  5
7DB9
  8
1
 10
4787.8413139490722
 20
5749.724658430142
 30
0.0
 11
4783.6806534849338
 21
5773.320936478005
 31
0.0
  0
LINE
  5
7DBA
  8
1
 10
4783.6806534849338
 20
5773.320936478005
 30
0.0
 11
4780.8413139490722
 21
5776.1602760138676
 31
0.0
  0
LINE
  5
7DBB
  8
1
 10
2808.2991609759761
 20
5749.724658430142
 30
0.0
 11
2838.2991609759761
 21
5749.724658430142
 31
0.0
  0
LINE
  5
7DBC
  8
1
 10
2838.2991609759761
 20
5749.724658430142
 30
0.0
 11
2834.1385005118391
 21
5773.320936478005
 31
0.0
  0
LINE
  5
7DBD
  8
1
 10
2808.2991609759761
 20
5749.724658430142
 30
0.0
 11
2812.459821440114
 21
5773.320936478005
 31
0.0
  0
LINE
  5
7DBE
  8
1
 10
2829.5491609759729
 20
5815.4746516727537
 30
0.0
 11
2829.5491095924399
 21
5767.949314958274
 31
0.0
  0
LINE
  5
7DBF
  8
1
 10
2817.0491609759802
 20
5815.4746516727537
 30
0.0
 11
2817.0492123595131
 21
5767.949314958274
 31
0.0
  0
ARC
  5
7DC0
  8
1
 10
2823.2991609759761
 20
5767.9746584301411
 30
0.0
 40
6.25
 50
180.23233247289559
 51
359.76766752710432
  0
LINE
  5
7DC1
  8
1
 10
2812.459821440114
 20
5773.320936478005
 30
0.0
 11
2815.2991609759761
 21
5776.1602760138676
 31
0.0
  0
LINE
  5
7DC2
  8
1
 10
2812.459821440114
 20
5773.320936478005
 30
0.0
 11
2817.0492065518119
 21
5773.320936478005
 31
0.0
  0
LINE
  5
7DC3
  8
1
 10
2815.2991609759761
 20
5776.1602760138676
 30
0.0
 11
2817.0492034819708
 21
5776.1602760138676
 31
0.0
  0
LINE
  5
7DC4
  8
1
 10
2829.5491154001402
 20
5773.320936478005
 30
0.0
 11
2834.1385005118391
 21
5773.320936478005
 31
0.0
  0
LINE
  5
7DC5
  8
1
 10
2834.1385005118391
 20
5773.320936478005
 30
0.0
 11
2831.299160975977
 21
5776.1602760138676
 31
0.0
  0
LINE
  5
7DC6
  8
1
 10
2829.5491184699822
 20
5776.1602760138676
 30
0.0
 11
2831.299160975977
 21
5776.1602760138676
 31
0.0
  0
ARC
  5
7DC7
  8
1
 10
2823.2991609759761
 20
5815.4746584301411
 30
0.0
 40
6.25
 50
359.9999380528414
 51
180.00006194715851
  0
LINE
  5
7DC8
  8
1
 10
5843.6806534849338
 20
5773.320936478005
 30
0.0
 11
5822.0019744132087
 21
5773.320936478005
 31
0.0
  0
ARC
  5
7DC9
  8
1
 10
5832.8413139490722
 20
5791.7246584301402
 30
0.0
 40
17.5
 50
297.20289441221439
 51
242.7971055877855
  0
LINE
  5
7DCA
  8
1
 10
5840.8413139490731
 20
5776.1602760138676
 30
0.0
 11
5824.8413139490722
 21
5776.1602760138676
 31
0.0
  0
LINE
  5
7DCB
  8
1
 10
5847.8413139490722
 20
5749.724658430142
 30
0.0
 11
5817.8413139490722
 21
5749.724658430142
 31
0.0
  0
LINE
  5
7DCC
  8
1
 10
5847.8413139490722
 20
5749.724658430142
 30
0.0
 11
5843.6806534849338
 21
5773.320936478005
 31
0.0
  0
LINE
  5
7DCD
  8
1
 10
5843.6806534849338
 20
5773.320936478005
 30
0.0
 11
5840.8413139490731
 21
5776.1602760138676
 31
0.0
  0
LINE
  5
7DCE
  8
1
 10
5817.8413139490722
 20
5749.724658430142
 30
0.0
 11
5822.0019744132087
 21
5773.320936478005
 31
0.0
  0
LINE
  5
7DCF
  8
1
 10
5822.0019744132087
 20
5773.320936478005
 30
0.0
 11
5824.8413139490722
 21
5776.1602760138676
 31
0.0
  0
ARC
  5
7DD0
  8
1
 10
5832.8413139490722
 20
5791.7246584301402
 30
0.0
 40
30.0
 50
294.43588232259322
 51
245.56411767740661
  0
ARC
  5
7DD1
  8
1
 10
1763.299160975977
 20
5815.4746584301411
 30
0.0
 40
6.25
 50
359.99993805284151
 51
180.00006194715851
  0
LINE
  5
7DD2
  8
1
 10
1757.0492034819699
 20
5776.1602760138676
 30
0.0
 11
1755.299160975977
 21
5776.1602760138676
 31
0.0
  0
LINE
  5
7DD3
  8
1
 10
1752.459821440114
 20
5773.320936478005
 30
0.0
 11
1755.299160975977
 21
5776.1602760138676
 31
0.0
  0
LINE
  5
7DD4
  8
1
 10
1757.0492065518119
 20
5773.320936478005
 30
0.0
 11
1752.459821440114
 21
5773.320936478005
 31
0.0
  0
LINE
  5
7DD5
  8
1
 10
1771.299160975977
 20
5776.1602760138676
 30
0.0
 11
1769.549118469982
 21
5776.1602760138676
 31
0.0
  0
LINE
  5
7DD6
  8
1
 10
1774.1385005118391
 20
5773.320936478005
 30
0.0
 11
1769.549115400139
 21
5773.320936478005
 31
0.0
  0
LINE
  5
7DD7
  8
1
 10
1774.1385005118391
 20
5773.320936478005
 30
0.0
 11
1771.299160975977
 21
5776.1602760138676
 31
0.0
  0
ARC
  5
7DD8
  8
1
 10
1763.299160975977
 20
5767.9746584301411
 30
0.0
 40
6.25
 50
180.23233247289559
 51
359.76766752710432
  0
LINE
  5
7DD9
  8
1
 10
1778.2991609759761
 20
5749.724658430142
 30
0.0
 11
1774.1385005118391
 21
5773.320936478005
 31
0.0
  0
LINE
  5
7DDA
  8
1
 10
1748.299160975977
 20
5749.724658430142
 30
0.0
 11
1752.459821440114
 21
5773.320936478005
 31
0.0
  0
LINE
  5
7DDB
  8
1
 10
1778.2991609759761
 20
5749.724658430142
 30
0.0
 11
1748.299160975977
 21
5749.724658430142
 31
0.0
  0
LINE
  5
7DDC
  8
1
 10
1769.5491609759731
 20
5815.4746516727537
 30
0.0
 11
1769.5491095924399
 21
5767.949314958274
 31
0.0
  0
LINE
  5
7DDD
  8
1
 10
1757.0491609759811
 20
5815.4746516727537
 30
0.0
 11
1757.0492123595141
 21
5767.949314958274
 31
0.0
  0
LINE
  5
7DE0
  8
1
 10
2915.2991609759738
 20
4539.7246584301411
 30
0.0
 11
1671.299160975977
 21
4539.7246584301411
 31
0.0
  0
LINE
  5
7DE1
  8
1
 10
2915.2991609759738
 20
4544.2246584301411
 30
0.0
 11
1671.299160975977
 21
4544.2246584301411
 31
0.0
  0
LINE
  5
7DE4
  8
1
 10
1668.299160975977
 20
4559.7246584301402
 30
0.0
 11
1668.299160975977
 21
4409.7246584301411
 31
0.0
  0
LINE
  5
7DE5
  8
1
 10
2918.2991609759738
 20
4559.7246584301402
 30
0.0
 11
2918.2991609759761
 21
4409.7246584301411
 31
0.0
  0
LINE
  5
7DE6
  8
1
 10
4677.8413139490704
 20
4559.7246584301402
 30
0.0
 11
4677.8413139490722
 21
4409.7246584301411
 31
0.0
  0
LINE
  5
7DE7
  8
1
 10
5927.8413139490704
 20
4559.7246584301402
 30
0.0
 11
5927.8413139490722
 21
4409.7246584301411
 31
0.0
  0
LINE
  5
7DE8
  8
1
 10
2874.2676469759758
 20
4975.6706584291496
 30
0.0
 11
2973.0507469759759
 21
4811.0326584291506
 31
0.0
  0
LINE
  5
7DE9
  8
1
 10
2970.6498469759758
 20
4807.2596584291487
 30
0.0
 11
2869.8086469759769
 21
4975.3276584291507
 31
0.0
  0
ARC
  5
7DEA
  8
1
 10
2938.771546975976
 20
4942.8846584291496
 30
0.0
 40
26.0
 50
3.8916999999999908
 51
87.646800000000013
  0
LINE
  5
7DEB
  8
1
 10
2965.5709469759759
 20
4815.7246584291497
 30
0.0
 11
2885.2499469759759
 21
4815.7246584291497
 31
0.0
  0
LINE
  5
7DEC
  8
1
 10
2864.0695469759762
 20
4846.4326584291512
 30
0.0
 11
2864.0695469759762
 21
4961.4906584291502
 31
0.0
  0
LINE
  5
7DED
  8
1
 10
2864.0695469759762
 20
4960.7246584291497
 30
0.0
 11
2864.0695469759762
 21
4850.7246584291497
 31
0.0
  0
LINE
  5
7DEE
  8
1
 10
2863.0695469759762
 20
4960.7246584291497
 30
0.0
 11
2863.0695469759762
 21
4850.7246584291497
 31
0.0
  0
ARC
  5
7DEF
  8
1
 10
2867.0695469759762
 20
4846.4326584291512
 30
0.0
 40
3.0
 50
180.0
 51
206.5655999999999
  0
LINE
  5
7DF0
  8
1
 10
2864.3862469759761
 20
4845.0906584291497
 30
0.0
 11
2876.3056469759772
 21
4821.2516584291498
 31
0.0
  0
ARC
  5
7DF1
  8
1
 10
2885.2499469759759
 20
4825.7246584291497
 30
0.0
 40
10.0
 50
206.56519999999989
 51
270.0
  0
LINE
  5
7DF2
  8
1
 10
2863.0695469759762
 20
4850.7246584291497
 30
0.0
 11
2864.0695469759762
 21
4850.7246584291497
 31
0.0
  0
LINE
  5
7DF3
  8
1
 10
2797.7991609759761
 20
4850.7246584291497
 30
0.0
 11
2863.0695469759762
 21
4850.7246584291497
 31
0.0
  0
LINE
  5
7DF4
  8
1
 10
2924.0695469759762
 20
4820.3836584291503
 30
0.0
 11
2924.0695469759762
 21
4808.4896584291509
 31
0.0
  0
LINE
  5
7DF5
  8
1
 10
2877.1284469759771
 20
4971.4396584291499
 30
0.0
 11
2939.839046975977
 21
4968.8626584291496
 31
0.0
  0
LINE
  5
7DF6
  8
1
 10
2870.5866469759771
 20
4905.7246584291497
 30
0.0
 11
2860.476646975977
 21
4905.7246584291497
 31
0.0
  0
LINE
  5
7DF7
  8
1
 10
2857.0310469759761
 20
4905.7246584291497
 30
0.0
 11
2870.9963469759759
 21
4905.7246584291497
 31
0.0
  0
LINE
  5
7DF8
  8
1
 10
2822.1068469759771
 20
4960.7246584291497
 30
0.0
 11
2863.0695469759762
 21
4960.7246584291497
 31
0.0
  0
LINE
  5
7DF9
  8
1
 10
2866.9825469759771
 20
4966.6356584291498
 30
0.0
 11
2871.1806469759772
 21
4969.1536584291489
 31
0.0
  0
ARC
  5
7DFA
  8
1
 10
2870.0695469759762
 20
4961.4906584291502
 30
0.0
 40
5.9999000000000002
 50
120.9641
 51
180.0
  0
LINE
  5
7DFB
  8
1
 10
2863.0695469759762
 20
4960.7246584291497
 30
0.0
 11
2864.0695469759762
 21
4960.7246584291497
 31
0.0
  0
ARC
  5
7DFC
  8
1
 10
2870.151546975977
 20
4970.8686584291499
 30
0.0
 40
2.0
 50
300.96550000000002
 51
30.96469999999999
  0
LINE
  5
7DFD
  8
1
 10
2869.8086469759769
 20
4975.3276584291507
 30
0.0
 11
2871.5236469759761
 21
4976.3566584291502
 31
0.0
  0
ARC
  5
7DFE
  8
1
 10
2872.5525469759768
 20
4974.6426584291503
 30
0.0
 40
2.0
 50
30.961700000000011
 51
120.9641
  0
LINE
  5
7DFF
  8
1
 10
5340.7683139490719
 20
4914.6606584291494
 30
0.0
 11
5340.7683139490719
 21
4954.7246584291488
 31
0.0
  0
LINE
  5
7E00
  8
1
 10
5334.5983139490718
 20
4919.2556584291497
 30
0.0
 11
5334.5983139490718
 21
4954.7246584291488
 31
0.0
  0
LINE
  5
7E01
  8
1
 10
5198.8513139490733
 20
4856.7246584291497
 30
0.0
 11
5198.8513139490733
 21
4954.7246584291488
 31
0.0
  0
LINE
  5
7E02
  8
1
 10
5187.5393139490734
 20
4856.7246584291497
 30
0.0
 11
5187.5393139490734
 21
4954.7246584291488
 31
0.0
  0
LINE
  5
7E03
  8
1
 10
5351.0523139490724
 20
4861.7246584291497
 30
0.0
 11
5351.0523139490724
 21
4949.7246584291497
 31
0.0
  0
LINE
  5
7E04
  8
1
 10
5182.3973139490718
 20
4861.7246584291497
 30
0.0
 11
5182.3973139490718
 21
4949.7246584291497
 31
0.0
  0
LINE
  5
7E05
  8
1
 10
5362.8783139490733
 20
5064.7246584291497
 30
0.0
 11
5362.8783139490733
 21
4905.7246584291497
 31
0.0
  0
LINE
  5
7E06
  8
1
 10
5373.5523139490733
 20
5064.7246584291497
 30
0.0
 11
5373.5523139490733
 21
4905.7246584291497
 31
0.0
  0
LINE
  5
7E07
  8
1
 10
5397.0363139490719
 20
5064.7246584291497
 30
0.0
 11
5397.0363139490719
 21
4918.0606584291509
 31
0.0
  0
LINE
  5
7E08
  8
1
 10
5424.7903139490727
 20
4917.8666584291504
 30
0.0
 11
5424.7903139490727
 21
5054.7246584291497
 31
0.0
  0
LINE
  5
7E09
  8
1
 10
5443.0043139490726
 20
4924.1586584291508
 30
0.0
 11
5444.8083139490727
 21
5050.7586584291521
 31
0.0
  0
LINE
  5
7E0A
  8
1
 10
5462.8413139490731
 20
5052.7246584291488
 30
0.0
 11
5462.8413139490731
 21
4905.7246584291497
 31
0.0
  0
LINE
  5
7E0B
  8
1
 10
5140.8413139490722
 20
5046.2646584291506
 30
0.0
 11
5140.8413139490722
 21
4905.7246584291497
 31
0.0
  0
LINE
  5
7E0C
  8
1
 10
5413.8413139490722
 20
4733.7246584291488
 30
0.0
 11
5393.8413139490722
 21
4753.7246584291488
 31
0.0
  0
LINE
  5
7E0D
  8
1
 10
5142.8413139490722
 20
4683.7246584291497
 30
0.0
 11
5456.8413139490722
 21
4683.7246584291497
 31
0.0
  0
LINE
  5
7E0E
  8
1
 10
5154.6743139490718
 20
4603.7246584291497
 30
0.0
 11
5450.9153139490727
 21
4603.7246584291497
 31
0.0
  0
LINE
  5
7E0F
  8
1
 10
5399.1323139490723
 20
4898.51165842915
 30
0.0
 11
5433.4143139490716
 21
4897.1096584291499
 31
0.0
  0
LINE
  5
7E10
  8
1
 10
5403.8413139490722
 20
4743.7246584291497
 30
0.0
 11
5442.8413139490722
 21
4743.7246584291497
 31
0.0
  0
LINE
  5
7E11
  8
2
 10
5091.8463139490732
 20
4905.7246584291497
 30
0.0
 11
5471.340313949072
 21
4905.7246584291497
 31
0.0
  0
LINE
  5
7E12
  8
1
 10
5399.1323139490723
 20
4912.9376584291495
 30
0.0
 11
5433.4143139490716
 21
4914.3396584291486
 31
0.0
  0
LINE
  5
7E13
  8
1
 10
5455.8413139490722
 20
4683.7246584291497
 30
0.0
 11
5452.9143139490716
 21
4605.6496584291499
 31
0.0
  0
ARC
  5
7E14
  8
1
 10
5450.9153139490727
 20
4605.7246584291488
 30
0.0
 40
2.0
 50
270.0
 51
357.85219999999993
  0
LINE
  5
7E15
  8
1
 10
5424.7903139490727
 20
4893.582658429149
 30
0.0
 11
5424.7903139490727
 21
4756.7246584291488
 31
0.0
  0
LINE
  5
7E16
  8
1
 10
5443.0043139490726
 20
4887.2906584291513
 30
0.0
 11
5444.8083139490727
 21
4760.6906584291501
 31
0.0
  0
LINE
  5
7E17
  8
1
 10
5462.8413139490731
 20
4758.7246584291497
 30
0.0
 11
5462.8413139490731
 21
4905.7246584291497
 31
0.0
  0
LINE
  5
7E18
  8
1
 10
5458.8413139490722
 20
4733.7246584291488
 30
0.0
 11
5458.8413139490722
 21
4685.7246584291488
 31
0.0
  0
ARC
  5
7E19
  8
1
 10
5456.8413139490722
 20
4685.7246584291488
 30
0.0
 40
2.0001000000000002
 50
270.0
 51
359.99650000000003
  0
LINE
  5
7E1A
  8
1
 10
5413.8413139490722
 20
4733.7246584291488
 30
0.0
 11
5458.8413139490722
 21
4733.7246584291488
 31
0.0
  0
ARC
  5
7E1B
  8
1
 10
5446.8073139490716
 20
4760.7246584291497
 30
0.0
 40
2.0001000000000002
 50
180.98619999999991
 51
270.0
  0
LINE
  5
7E1C
  8
1
 10
5462.8413139490731
 20
4758.7246584291497
 30
0.0
 11
5426.7903139490727
 21
4758.7246584291497
 31
0.0
  0
LINE
  5
7E1D
  8
1
 10
5442.8413139490722
 20
4733.7246584291488
 30
0.0
 11
5442.8413139490722
 21
4743.7246584291497
 31
0.0
  0
ARC
  5
7E1E
  8
1
 10
5426.7903139490727
 20
4756.7246584291488
 30
0.0
 40
2.0
 50
90.0
 51
180.0
  0
LINE
  5
7E1F
  8
1
 10
5442.8413139490722
 20
4758.7246584291497
 30
0.0
 11
5442.8413139490722
 21
4743.7246584291497
 31
0.0
  0
LINE
  5
7E20
  8
1
 10
5462.8413139490731
 20
4785.9746584291488
 30
0.0
 11
5444.367313949072
 21
4785.9746584291488
 31
0.0
  0
LINE
  5
7E21
  8
1
 10
5462.8413139490731
 20
4771.4746584291488
 30
0.0
 11
5444.626313949072
 21
4771.4746584291488
 31
0.0
  0
LINE
  5
7E22
  8
1
 10
5441.0663139490734
 20
4778.7246584291488
 30
0.0
 11
5469.0253139490724
 21
4778.7246584291488
 31
0.0
  0
ARC
  5
7E23
  8
1
 10
5419.7903139490718
 20
4892.6626584291489
 30
0.0
 40
5.0
 50
0.0
 51
87.659100000000052
  0
ARC
  5
7E24
  8
1
 10
5433.0063139490721
 20
4887.1186584291499
 30
0.0
 40
10.0
 50
0.9875999999999902
 51
87.659100000000052
  0
ARC
  5
7E25
  8
1
 10
5419.7903139490718
 20
4918.7866584291496
 30
0.0
 40
5.0
 50
272.34089999999992
 51
0.0
  0
ARC
  5
7E26
  8
1
 10
5433.0063139490721
 20
4924.3306584291486
 30
0.0
 40
10.0
 50
272.34089999999992
 51
359.01240000000001
  0
LINE
  5
7E27
  8
1
 10
5145.8413139490722
 20
4683.7246584291497
 30
0.0
 11
5152.6823139490716
 21
4605.5506584291506
 31
0.0
  0
LINE
  5
7E28
  8
1
 10
2964.711546975976
 20
4944.6486584291506
 30
0.0
 11
2972.836546975976
 21
4825.2126584291509
 31
0.0
  0
LINE
  5
7E29
  8
1
 10
2970.6498469759758
 20
4807.2596584291487
 30
0.0
 11
2972.3647469759771
 21
4808.28865842915
 31
0.0
  0
ARC
  5
7E2A
  8
1
 10
2971.335846975976
 20
4810.0036584291502
 30
0.0
 40
2.0
 50
300.96409999999992
 51
30.961700000000011
  0
ARC
  5
7E2B
  8
1
 10
2966.8503469759771
 20
4824.8046584291496
 30
0.0
 40
6.0000999999999989
 50
300.96350000000001
 51
3.8916999999999908
  0
LINE
  5
7E2C
  8
1
 10
2968.4203469759759
 20
4818.7496584291503
 30
0.0
 11
2969.9373469759762
 21
4819.6596584291501
 31
0.0
  0
ARC
  5
7E2D
  8
1
 10
5154.6743139490718
 20
4605.7246584291488
 30
0.0
 40
1.9998
 50
184.99719999999991
 51
270.00700000000001
  0
LINE
  5
7E2E
  8
1
 10
5393.8413139490722
 20
4753.7246584291488
 30
0.0
 11
5140.8413139490722
 21
4753.7246584291488
 31
0.0
  0
LINE
  5
7E2F
  8
1
 10
5154.4993139490707
 20
4753.7246584291488
 30
0.0
 11
5140.8413139490722
 21
4765.1846584291497
 31
0.0
  0
LINE
  5
7E30
  8
1
 10
5307.8413139490722
 20
4834.7246584291488
 30
0.0
 11
5307.8413139490722
 21
4753.7246584291488
 31
0.0
  0
LINE
  5
7E31
  8
1
 10
5197.8413139490731
 20
4837.3226584291497
 30
0.0
 11
5197.8413139490731
 21
4753.7246584291488
 31
0.0
  0
LINE
  5
7E32
  8
1
 10
5362.8783139490733
 20
4753.7246584291488
 30
0.0
 11
5362.8783139490733
 21
4905.7246584291497
 31
0.0
  0
LINE
  5
7E33
  8
1
 10
5373.5523139490733
 20
4753.7246584291488
 30
0.0
 11
5373.5523139490733
 21
4905.7246584291497
 31
0.0
  0
LINE
  5
7E34
  8
1
 10
5397.0363139490719
 20
4750.52965842915
 30
0.0
 11
5397.0363139490719
 21
4893.3886584291513
 31
0.0
  0
LINE
  5
7E35
  8
1
 10
5199.8413139490722
 20
4786.2576584291501
 30
0.0
 11
5305.8413139490722
 21
4786.2576584291501
 31
0.0
  0
LINE
  5
7E36
  8
1
 10
5398.3223139490719
 20
4734.2246584291488
 30
0.0
 11
5385.733313949072
 21
4734.2246584291488
 31
0.0
  0
CIRCLE
  5
7E37
  8
1
 10
5391.9803139490732
 20
4734.2246584291488
 30
0.0
 40
5.0
  0
LINE
  5
7E38
  8
1
 10
5386.206313949072
 20
4734.2246584291488
 30
0.0
 11
5389.0933139490717
 21
4729.2246584291488
 31
0.0
  0
LINE
  5
7E39
  8
1
 10
5389.0933139490717
 20
4739.2246584291497
 30
0.0
 11
5386.206313949072
 21
4734.2246584291488
 31
0.0
  0
LINE
  5
7E3A
  8
1
 10
5389.0933139490717
 20
4739.2246584291497
 30
0.0
 11
5394.867313949072
 21
4739.2246584291497
 31
0.0
  0
LINE
  5
7E3B
  8
1
 10
5394.867313949072
 20
4739.2246584291497
 30
0.0
 11
5397.7543139490717
 21
4734.2246584291488
 31
0.0
  0
LINE
  5
7E3C
  8
1
 10
5397.7543139490717
 20
4734.2246584291488
 30
0.0
 11
5394.867313949072
 21
4729.2246584291488
 31
0.0
  0
LINE
  5
7E3D
  8
1
 10
5394.867313949072
 20
4729.2246584291488
 30
0.0
 11
5389.0933139490717
 21
4729.2246584291488
 31
0.0
  0
LINE
  5
7E3E
  8
1
 10
5391.9803139490732
 20
4728.5766584291496
 30
0.0
 11
5391.9803139490732
 21
4739.8086584291495
 31
0.0
  0
ARC
  5
7E3F
  8
1
 10
5305.8413139490722
 20
4788.2576584291501
 30
0.0
 40
2.0
 50
270.0
 51
0.0
  0
ARC
  5
7E40
  8
1
 10
5199.8413139490722
 20
4788.2576584291501
 30
0.0
 40
2.0
 50
180.0
 51
270.0
  0
LINE
  5
7E41
  8
1
 10
5202.5393139490716
 20
4841.7246584291497
 30
0.0
 11
5325.7683139490728
 21
4841.7246584291497
 31
0.0
  0
LINE
  5
7E42
  8
1
 10
5209.3973139490727
 20
4834.7246584291488
 30
0.0
 11
5324.0523139490724
 21
4834.7246584291488
 31
0.0
  0
LINE
  5
7E43
  8
1
 10
5340.7683139490719
 20
4856.7246584291497
 30
0.0
 11
5340.7683139490719
 21
4896.8236584291499
 31
0.0
  0
LINE
  5
7E44
  8
1
 10
5334.5983139490718
 20
4856.7246584291497
 30
0.0
 11
5334.5983139490718
 21
4892.2276584291503
 31
0.0
  0
ARC
  5
7E45
  8
1
 10
5324.0523139490724
 20
4861.7246584291497
 30
0.0
 40
27.0
 50
270.0
 51
0.0
  0
ARC
  5
7E46
  8
1
 10
5325.7683139490728
 20
4856.7246584291497
 30
0.0
 40
15.0
 50
270.0
 51
0.0
  0
ARC
  5
7E47
  8
1
 10
5319.5983139490718
 20
4856.7246584291497
 30
0.0
 40
15.0
 50
270.0
 51
0.0
  0
ARC
  5
7E48
  8
1
 10
5402.036313949071
 20
4893.3886584291513
 30
0.0
 40
5.0
 50
87.659100000000052
 51
180.0
  0
ARC
  5
7E49
  8
1
 10
5398.9283139490708
 20
4893.5156584291508
 30
0.0
 40
5.0
 50
87.659100000000052
 51
180.0
  0
ARC
  5
7E4A
  8
1
 10
5402.036313949071
 20
4918.0606584291509
 30
0.0
 40
5.0
 50
180.0
 51
272.34089999999992
  0
ARC
  5
7E4B
  8
1
 10
5398.9283139490708
 20
4917.9336584291495
 30
0.0
 40
5.0
 50
180.0
 51
272.34089999999992
  0
ARC
  5
7E4C
  8
1
 10
5336.7683139490719
 20
4896.8236584291499
 30
0.0
 40
4.0
 50
0.0
 51
48.004600000000011
  0
ARC
  5
7E4D
  8
1
 10
5342.4883139490721
 20
4905.7416584291504
 30
0.0
 40
14.0
 50
131.3417
 51
228.6583
  0
ARC
  5
7E4E
  8
1
 10
5330.5983139490718
 20
4892.2276584291503
 30
0.0
 40
4.0
 50
0.0
 51
48.659800000000068
  0
ARC
  5
7E4F
  8
1
 10
5336.7683139490719
 20
4914.6606584291494
 30
0.0
 40
4.0000999999999989
 50
311.99419999999992
 51
0.0
  0
ARC
  5
7E50
  8
1
 10
5344.7973139490723
 20
4905.7416584291504
 30
0.0
 40
8.0
 50
131.99420000000001
 51
228.00579999999991
  0
ARC
  5
7E51
  8
1
 10
5330.5983139490718
 20
4919.2556584291497
 30
0.0
 40
4.0
 50
311.34019999999998
 51
0.0
  0
ARC
  5
7E52
  8
1
 10
5213.8513139490724
 20
4856.7246584291497
 30
0.0
 40
15.0
 50
180.0
 51
270.0
  0
ARC
  5
7E53
  8
1
 10
5209.3973139490727
 20
4861.7246584291497
 30
0.0
 40
27.0
 50
180.0
 51
270.0
  0
ARC
  5
7E54
  8
1
 10
5202.5393139490716
 20
4856.7246584291497
 30
0.0
 40
15.0
 50
180.0
 51
270.0
  0
LINE
  5
7E55
  8
1
 10
5140.8413139490722
 20
4765.1846584291497
 30
0.0
 11
5140.8413139490722
 21
4905.7246584291497
 31
0.0
  0
LINE
  5
7E56
  8
1
 10
5140.8413139490722
 20
4753.7246584291488
 30
0.0
 11
5140.8413139490722
 21
4685.7246584291488
 31
0.0
  0
ARC
  5
7E57
  8
1
 10
5142.8423139490724
 20
4685.7246584291488
 30
0.0
 40
2.0001000000000002
 50
180.0
 51
269.99650000000003
  0
LINE
  5
7E58
  8
1
 10
5140.8413139490722
 20
4731.0526584291501
 30
0.0
 11
5136.9613139490721
 21
4731.0526584291501
 31
0.0
  0
LINE
  5
7E59
  8
1
 10
5140.8413139490722
 20
4737.3966584291502
 30
0.0
 11
5136.9613139490721
 21
4737.3966584291502
 31
0.0
  0
LINE
  5
7E5A
  8
1
 10
5141.7853139490708
 20
4734.2246584291488
 30
0.0
 11
5135.9283139490717
 21
4734.2246584291488
 31
0.0
  0
LINE
  5
7E5B
  8
1
 10
5136.9613139490721
 20
4731.0526584291501
 30
0.0
 11
5136.4613139490721
 21
4731.5526584291501
 31
0.0
  0
LINE
  5
7E5C
  8
1
 10
5136.9613139490721
 20
4731.0526584291501
 30
0.0
 11
5136.4613139490721
 21
4730.5526584291492
 31
0.0
  0
LINE
  5
7E5D
  8
1
 10
5136.4613139490721
 20
4729.27965842915
 30
0.0
 11
5136.9613139490721
 21
4728.7796584291491
 31
0.0
  0
LINE
  5
7E5E
  8
1
 10
5136.9613139490721
 20
4739.6696584291503
 30
0.0
 11
5136.4613139490721
 21
4739.1696584291503
 31
0.0
  0
LINE
  5
7E5F
  8
1
 10
5136.9613139490721
 20
4737.3966584291502
 30
0.0
 11
5136.4613139490721
 21
4736.8966584291502
 31
0.0
  0
LINE
  5
7E60
  8
1
 10
5136.9613139490721
 20
4739.6696584291503
 30
0.0
 11
5140.8413139490722
 21
4739.6696584291503
 31
0.0
  0
LINE
  5
7E61
  8
1
 10
5136.9613139490721
 20
4728.7796584291491
 30
0.0
 11
5140.8413139490722
 21
4728.7796584291491
 31
0.0
  0
LINE
  5
7E62
  8
1
 10
5136.4613139490721
 20
4729.27965842915
 30
0.0
 11
5136.4613139490721
 21
4739.1696584291503
 31
0.0
  0
LINE
  5
7E63
  8
1
 10
5136.9613139490721
 20
4737.3966584291502
 30
0.0
 11
5136.4613139490721
 21
4737.8966584291502
 31
0.0
  0
LINE
  5
7E64
  8
1
 10
5140.8413139490722
 20
4728.7796584291491
 30
0.0
 11
5140.8413139490722
 21
4739.6696584291503
 31
0.0
  0
LINE
  5
7E65
  8
1
 10
5439.8413139490722
 20
5122.7246584291497
 30
0.0
 11
5165.8413139490731
 21
5122.7246584291497
 31
0.0
  0
LINE
  5
7E66
  8
1
 10
5141.282313949072
 20
5067.7246584291488
 30
0.0
 11
5442.8413139490722
 21
5067.7246584291488
 31
0.0
  0
LINE
  5
7E67
  8
1
 10
5442.8413139490722
 20
5067.7246584291488
 30
0.0
 11
5442.8413139490722
 21
5119.7246584291497
 31
0.0
  0
LINE
  5
7E68
  8
1
 10
5462.8413139490731
 20
5025.4746584291497
 30
0.0
 11
5444.367313949072
 21
5025.4746584291497
 31
0.0
  0
LINE
  5
7E69
  8
1
 10
5441.0663139490734
 20
5032.7246584291497
 30
0.0
 11
5469.0253139490724
 21
5032.7246584291497
 31
0.0
  0
LINE
  5
7E6A
  8
1
 10
5462.8413139490731
 20
5039.9746584291497
 30
0.0
 11
5444.626313949072
 21
5039.9746584291497
 31
0.0
  0
ARC
  5
7E6B
  8
1
 10
5446.8073139490716
 20
5050.7246584291497
 30
0.0
 40
2.0
 50
90.0
 51
179.0138
  0
LINE
  5
7E6C
  8
1
 10
5462.8413139490731
 20
5052.7246584291488
 30
0.0
 11
5426.7903139490727
 21
5052.7246584291488
 31
0.0
  0
ARC
  5
7E6D
  8
1
 10
5426.7903139490727
 20
5054.7246584291497
 30
0.0
 40
2.0
 50
180.0
 51
270.0
  0
LINE
  5
7E6E
  8
1
 10
5442.8413139490722
 20
5052.7246584291488
 30
0.0
 11
5442.8413139490722
 21
5067.7246584291488
 31
0.0
  0
ARC
  5
7E6F
  8
1
 10
5439.8413139490722
 20
5119.7246584291497
 30
0.0
 40
3.0
 50
0.0
 51
90.0
  0
LINE
  5
7E70
  8
1
 10
5278.8413139490722
 20
5160.7246584291488
 30
0.0
 11
5278.8413139490722
 21
5199.724658430142
 31
0.0
  0
LINE
  5
7E71
  8
1
 10
5323.8413139490722
 20
5140.7246584291488
 30
0.0
 11
5323.8413139490713
 21
5199.724658430142
 31
0.0
  0
LINE
  5
7E72
  8
1
 10
5281.8413139490722
 20
5140.7246584291488
 30
0.0
 11
5281.8413139490722
 21
5199.724658430142
 31
0.0
  0
LINE
  5
7E73
  8
1
 10
5162.8413139490731
 20
5064.7246584291497
 30
0.0
 11
5141.8343139490726
 21
5064.7246584291497
 31
0.0
  0
LINE
  5
7E74
  8
1
 10
5144.0673139490718
 20
5090.5776584291498
 30
0.0
 11
5160.0573139490734
 21
5090.5776584291498
 31
0.0
  0
LINE
  5
7E75
  8
1
 10
5143.2673139490707
 20
5083.7276584291503
 30
0.0
 11
5160.8573139490718
 21
5083.7276584291503
 31
0.0
  0
LINE
  5
7E76
  8
1
 10
5162.8413139490731
 20
5083.7276584291503
 30
0.0
 11
5141.282313949072
 21
5083.7276584291503
 31
0.0
  0
LINE
  5
7E77
  8
1
 10
5140.8413139490722
 20
5046.2646584291506
 30
0.0
 11
5162.8413139490731
 21
5064.7246584291497
 31
0.0
  0
LINE
  5
7E78
  8
1
 10
5380.8693139490733
 20
5064.4536584291509
 30
0.0
 11
5380.8693139490733
 21
5093.2306584291509
 31
0.0
  0
LINE
  5
7E79
  8
1
 10
5152.0623139490708
 20
5059.1766584291508
 30
0.0
 11
5152.0623139490708
 21
5093.2306584291509
 31
0.0
  0
LINE
  5
7E7A
  8
1
 10
5398.4003139490724
 20
5067.7246584291488
 30
0.0
 11
5398.4003139490724
 21
5083.7276584291503
 31
0.0
  0
LINE
  5
7E7B
  8
1
 10
5374.2473139490721
 20
5067.7246584291488
 30
0.0
 11
5374.2473139490721
 21
5083.7276584291503
 31
0.0
  0
LINE
  5
7E7C
  8
1
 10
5363.3393139490718
 20
5067.7246584291488
 30
0.0
 11
5363.3393139490718
 21
5083.7276584291503
 31
0.0
  0
LINE
  5
7E7D
  8
1
 10
5162.8413139490731
 20
5067.7246584291488
 30
0.0
 11
5162.8413139490731
 21
5119.7246584291497
 31
0.0
  0
LINE
  5
7E7E
  8
1
 10
5202.5393139490716
 20
4969.7246584291497
 30
0.0
 11
5325.7683139490728
 21
4969.7246584291497
 31
0.0
  0
LINE
  5
7E7F
  8
1
 10
5324.0523139490724
 20
4976.7246584291497
 30
0.0
 11
5209.3973139490727
 21
4976.7246584291497
 31
0.0
  0
LINE
  5
7E80
  8
1
 10
5199.8413139490722
 20
5025.1916584291503
 30
0.0
 11
5305.8413139490722
 21
5025.1916584291503
 31
0.0
  0
LINE
  5
7E81
  8
1
 10
5305.8413139490722
 20
5057.2536584291502
 30
0.0
 11
5199.8413139490722
 21
5057.2536584291502
 31
0.0
  0
LINE
  5
7E82
  8
1
 10
5199.8413139490722
 20
5064.7246584291497
 30
0.0
 11
5305.8413139490722
 21
5064.7246584291497
 31
0.0
  0
LINE
  5
7E83
  8
1
 10
5307.8413139490722
 20
4976.7246584291497
 30
0.0
 11
5307.8413139490722
 21
5062.7246584291497
 31
0.0
  0
ARC
  5
7E84
  8
1
 10
5324.0523139490724
 20
4949.7246584291497
 30
0.0
 40
27.0
 50
0.0
 51
90.0
  0
ARC
  5
7E85
  8
1
 10
5325.7683139490728
 20
4954.7246584291488
 30
0.0
 40
15.0
 50
0.0
 51
90.0
  0
ARC
  5
7E86
  8
1
 10
5319.5983139490718
 20
4954.7246584291488
 30
0.0
 40
15.0
 50
0.0
 51
90.0
  0
LINE
  5
7E87
  8
1
 10
5397.0363139490719
 20
5064.7246584291497
 30
0.0
 11
5362.8783139490733
 21
5064.7246584291497
 31
0.0
  0
LINE
  5
7E88
  8
1
 10
5385.8693139490724
 20
5064.7246584291497
 30
0.0
 11
5385.8693139490724
 21
5067.7246584291488
 31
0.0
  0
LINE
  5
7E89
  8
1
 10
5375.8693139490724
 20
5064.7246584291497
 30
0.0
 11
5375.8693139490724
 21
5067.7246584291488
 31
0.0
  0
ARC
  5
7E8A
  8
1
 10
5305.8413139490722
 20
5023.1916584291503
 30
0.0
 40
2.0
 50
0.0
 51
90.0
  0
ARC
  5
7E8B
  8
1
 10
5305.8413139490722
 20
5055.2536584291502
 30
0.0
 40
2.0
 50
0.0
 51
90.0
  0
ARC
  5
7E8C
  8
1
 10
5305.8413139490722
 20
5062.7246584291497
 30
0.0
 40
2.0
 50
0.0
 51
90.0
  0
LINE
  5
7E8D
  8
1
 10
5197.8413139490731
 20
4974.1266584291498
 30
0.0
 11
5197.8413139490731
 21
5062.7246584291497
 31
0.0
  0
ARC
  5
7E8E
  8
1
 10
5213.8513139490724
 20
4954.7246584291488
 30
0.0
 40
15.0
 50
90.0
 51
180.0
  0
ARC
  5
7E8F
  8
1
 10
5202.5393139490716
 20
4954.7246584291488
 30
0.0
 40
15.0
 50
90.0
 51
180.0
  0
ARC
  5
7E90
  8
1
 10
5209.3973139490727
 20
4949.7246584291497
 30
0.0
 40
27.0
 50
90.0
 51
180.0
  0
ARC
  5
7E91
  8
1
 10
5199.8413139490722
 20
5023.1916584291503
 30
0.0
 40
2.0
 50
90.0
 51
180.0
  0
ARC
  5
7E92
  8
1
 10
5199.8413139490722
 20
5055.2536584291502
 30
0.0
 40
2.0
 50
90.0
 51
180.0
  0
ARC
  5
7E93
  8
1
 10
5199.8413139490722
 20
5062.7246584291497
 30
0.0
 40
2.0
 50
90.0
 51
180.0
  0
LINE
  5
7E94
  8
1
 10
5157.0623139490717
 20
5064.7246584291497
 30
0.0
 11
5157.0623139490717
 21
5067.7246584291488
 31
0.0
  0
LINE
  5
7E95
  8
1
 10
5147.0623139490717
 20
5064.7246584291497
 30
0.0
 11
5147.0623139490717
 21
5067.7246584291488
 31
0.0
  0
LINE
  5
7E96
  8
1
 10
5162.8413139490731
 20
5064.7246584291497
 30
0.0
 11
5162.8413139490731
 21
5067.7246584291488
 31
0.0
  0
LINE
  5
7E97
  8
1
 10
5278.8413139490722
 20
5160.7246584291488
 30
0.0
 11
5281.8413139490722
 21
5160.7246584291488
 31
0.0
  0
LINE
  5
7E98
  8
1
 10
5370.8413139490722
 20
5132.7246584291497
 30
0.0
 11
5234.8413139490722
 21
5132.7246584291497
 31
0.0
  0
LINE
  5
7E99
  8
1
 10
5325.3413139490722
 20
5140.7246584291488
 30
0.0
 11
5325.3413139490722
 21
5132.7246584291497
 31
0.0
  0
LINE
  5
7E9A
  8
1
 10
5280.3413139490722
 20
5140.7246584291488
 30
0.0
 11
5280.3413139490722
 21
5132.7246584291497
 31
0.0
  0
LINE
  5
7E9B
  8
1
 10
5372.8743139490716
 20
5090.5776584291498
 30
0.0
 11
5388.8643139490723
 21
5090.5776584291498
 31
0.0
  0
LINE
  5
7E9C
  8
1
 10
5372.0743139490723
 20
5083.7276584291503
 30
0.0
 11
5389.6643139490716
 21
5083.7276584291503
 31
0.0
  0
LINE
  5
7E9D
  8
1
 10
5398.4003139490724
 20
5083.7276584291503
 30
0.0
 11
5363.3393139490718
 21
5083.7276584291503
 31
0.0
  0
LINE
  5
7E9E
  8
1
 10
5385.7223139490734
 20
5089.7776584291496
 30
0.0
 11
5385.7223139490734
 21
5083.7276584291503
 31
0.0
  0
LINE
  5
7E9F
  8
1
 10
5389.6643139490716
 20
5089.7776584291496
 30
0.0
 11
5389.6643139490716
 21
5083.7276584291503
 31
0.0
  0
LINE
  5
7EA0
  8
1
 10
5385.7223139490734
 20
5089.7776584291496
 30
0.0
 11
5384.9223139490723
 21
5090.5776584291498
 31
0.0
  0
LINE
  5
7EA1
  8
1
 10
5385.7223139490734
 20
5089.7776584291496
 30
0.0
 11
5386.5223139490727
 21
5090.5776584291498
 31
0.0
  0
LINE
  5
7EA2
  8
1
 10
5389.6643139490716
 20
5089.7776584291496
 30
0.0
 11
5388.8643139490723
 21
5090.5776584291498
 31
0.0
  0
LINE
  5
7EA3
  8
1
 10
5376.0173139490716
 20
5089.7776584291496
 30
0.0
 11
5376.0173139490716
 21
5083.7276584291503
 31
0.0
  0
LINE
  5
7EA4
  8
1
 10
5372.0743139490723
 20
5089.7776584291496
 30
0.0
 11
5372.0743139490723
 21
5083.7276584291503
 31
0.0
  0
LINE
  5
7EA5
  8
1
 10
5376.0173139490716
 20
5089.7776584291496
 30
0.0
 11
5376.8173139490718
 21
5090.5776584291498
 31
0.0
  0
LINE
  5
7EA6
  8
1
 10
5376.0173139490716
 20
5089.7776584291496
 30
0.0
 11
5375.2173139490724
 21
5090.5776584291498
 31
0.0
  0
LINE
  5
7EA7
  8
1
 10
5372.8743139490716
 20
5090.5776584291498
 30
0.0
 11
5372.0743139490723
 21
5089.7776584291496
 31
0.0
  0
LINE
  5
7EA8
  8
1
 10
5372.8413139490731
 20
5122.7246584291497
 30
0.0
 11
5372.8413139490731
 21
5130.7246584291497
 31
0.0
  0
ARC
  5
7EA9
  8
1
 10
5370.8413139490722
 20
5130.7246584291497
 30
0.0
 40
2.0001000000000002
 50
0.0
 51
89.996499999999997
  0
LINE
  5
7EAA
  8
1
 10
5325.3413139490722
 20
5140.7246584291488
 30
0.0
 11
5280.3413139490722
 21
5140.7246584291488
 31
0.0
  0
ARC
  5
7EAB
  8
1
 10
5234.8413139490722
 20
5130.7246584291497
 30
0.0
 40
2.0001000000000002
 50
90.0
 51
179.9965
  0
LINE
  5
7EAC
  8
1
 10
5232.8413139490722
 20
5122.7246584291497
 30
0.0
 11
5232.8413139490722
 21
5130.7246584291497
 31
0.0
  0
LINE
  5
7EAD
  8
1
 10
5156.9143139490734
 20
5089.7776584291496
 30
0.0
 11
5156.9143139490734
 21
5083.7276584291503
 31
0.0
  0
LINE
  5
7EAE
  8
1
 10
5147.2093139490726
 20
5089.7776584291496
 30
0.0
 11
5147.2093139490726
 21
5083.7276584291503
 31
0.0
  0
LINE
  5
7EAF
  8
1
 10
5160.8573139490718
 20
5089.7776584291496
 30
0.0
 11
5160.8573139490718
 21
5083.7276584291503
 31
0.0
  0
LINE
  5
7EB0
  8
1
 10
5156.9143139490734
 20
5089.7776584291496
 30
0.0
 11
5156.1143139490723
 21
5090.5776584291498
 31
0.0
  0
LINE
  5
7EB1
  8
1
 10
5156.9143139490734
 20
5089.7776584291496
 30
0.0
 11
5157.7143139490709
 21
5090.5776584291498
 31
0.0
  0
LINE
  5
7EB2
  8
1
 10
5147.2093139490726
 20
5089.7776584291496
 30
0.0
 11
5148.0093139490718
 21
5090.5776584291498
 31
0.0
  0
LINE
  5
7EB3
  8
1
 10
5147.2093139490726
 20
5089.7776584291496
 30
0.0
 11
5146.4093139490733
 21
5090.5776584291498
 31
0.0
  0
LINE
  5
7EB4
  8
1
 10
5160.8573139490718
 20
5089.7776584291496
 30
0.0
 11
5160.0573139490734
 21
5090.5776584291498
 31
0.0
  0
ARC
  5
7EB5
  8
1
 10
5165.8413139490731
 20
5119.7246584291497
 30
0.0
 40
3.0
 50
90.0
 51
180.0
  0
LINE
  5
7EB6
  8
1
 10
5141.282313949072
 20
5067.7246584291488
 30
0.0
 11
5141.282313949072
 21
5083.7276584291503
 31
0.0
  0
LINE
  5
7EB7
  8
1
 10
5141.8343139490726
 20
5047.097658429152
 30
0.0
 11
5141.8343139490726
 21
5064.7246584291497
 31
0.0
  0
LINE
  5
7EB8
  8
1
 10
5143.2673139490707
 20
5089.7776584291496
 30
0.0
 11
5143.2673139490707
 21
5083.7276584291503
 31
0.0
  0
LINE
  5
7EB9
  8
1
 10
5144.0673139490718
 20
5090.5776584291498
 30
0.0
 11
5143.2673139490707
 21
5089.7776584291496
 31
0.0
  0
CIRCLE
  5
7EBB
  8
1
 10
1793.2991609759761
 20
4459.7246584301411
 30
0.0
 40
12.5
  0
CIRCLE
  5
7EBC
  8
1
 10
2793.2991609759761
 20
4459.7246584301411
 30
0.0
 40
12.5
  0
CIRCLE
  5
7EBD
  8
1
 10
4801.8413139490722
 20
4459.7246584301411
 30
0.0
 40
12.5
  0
CIRCLE
  5
7EBE
  8
1
 10
5802.8413139490722
 20
4459.7246584301411
 30
0.0
 40
12.5
  0
LINE
  5
7EC0
  8
4
 10
6475.0
 20
1750.0
 30
0.0
 11
6475.0
 21
1050.0
 31
0.0
  0
LINE
  5
7EC1
  8
4
 10
4025.0
 20
1750.0
 30
0.0
 11
4025.0
 21
1050.0
 31
0.0
  0
LINE
  5
7EC2
  8
4
 10
2275.0
 20
1750.0
 30
0.0
 11
2275.0
 21
1050.0
 31
0.0
  0
LINE
  5
7EC5
  8
4
 10
2275.0
 20
1050.0
 30
0.0
 11
6475.0
 21
1050.0
 31
0.0
  0
LINE
  5
7EC6
  8
4
 10
2275.0
 20
1400.0
 30
0.0
 11
6475.0
 21
1400.0
 31
0.0
  0
TEXT
  5
7EC7
  8
4
 10
2409.7572829641558
 20
1510.4005905331451
 30
0.0
 40
175.0
  1
機器名称
  0
TEXT
  5
7EC8
  8
4
 10
2401.9033710867911
 20
1125.7580485620381
 30
0.0
 40
175.0
  1
機器型番
  0
TEXT
  5
7EC9
  8
4
 10
4121.875609206827
 20
1479.00119135149
 30
0.0
 40
175.0
  1
ミツヤ軸流排煙ファン
  0
TEXT
  5
7ECA
  8
4
 10
4153.2907345491822
 20
1110.0585449798009
 30
0.0
 40
175.0
  1
APE#1000-3R
  0
TEXT
  5
7ECC
  8
4
 10
3166.7501791310128
 20
8342.0009446638051
 30
0.0
 40
188.99999999999989
  1
床置ベット
  0
TEXT
  5
7ECD
  8
4
 10
1106.5865766530619
 20
8868.5834166975455
 30
0.0
 40
252.0
  1
電動機直動横形軸流式排煙ファン
  0
LINE
  5
7ECE
  8
4
 10
875.0
 20
8642.9306399268171
 30
0.0
 11
6475.0
 21
8642.9306399268171
 31
0.0
  0
LINE
  5
7ECF
  8
4
 10
875.0
 20
9342.9306399268171
 30
0.0
 11
6475.0
 21
9342.9306399268171
 31
0.0
  0
LINE
  5
7ED0
  8
4
 10
2275.0
 20
1750.0
 30
0.0
 11
6475.0
 21
1750.0
 31
0.0
  0
LINE
  5
7ED1
  8
4
 10
875.0
 20
9342.9306399268171
 30
0.0
 11
875.0
 21
8642.9306399268171
 31
0.0
  0
TEXT
  5
7ED2
  8
4
 10
948.26612138692508
 20
8338.1181714122031
 30
0.0
 40
188.99999999999989
  1
左回転前方吐出
  0
TEXT
  5
7ED3
  8
4
 10
5141.3934573725146
 20
9471.21378523358
 30
0.0
 40
196.0
  1
No.
  0
TEXT
  5
7ED4
  8
4
 10
4589.5362191000459
 20
8342.0009446638051
 30
0.0
 40
188.99999999999989
  1
縮尺：1/35
  0
LINE
  5
7ED5
  8
4
 10
6475.0
 20
9342.9306399268171
 30
0.0
 11
6475.0
 21
8642.9306399268171
 31
0.0
  0
LINE
  5
7ED6
  8
4
 10
7350.0
 20
10325.0
 30
0.0
 11
7350.0
 21
10325.0
 31
0.0
  0
LINE
  5
7ED7
  8
4
 10
5042.160978259526
 20
9384.4225409389055
 30
0.0
 11
5042.160978259526
 21
9753.2829154241354
 31
0.0
  0
LINE
  5
7ED8
  8
4
 10
5042.160978259526
 20
9753.2829154241354
 30
0.0
 11
6475.0
 21
9753.2829154241354
 31
0.0
  0
LINE
  5
7ED9
  8
4
 10
6475.0
 20
9753.2829154241354
 30
0.0
 11
6475.0
 21
9384.4225409389055
 31
0.0
  0
LINE
  5
7EDA
  8
4
 10
6475.0
 20
9384.4225409389055
 30
0.0
 11
5042.160978259526
 21
9384.4225409389055
 31
0.0
  0
LINE
  5
7EDB
  8
4
 10
0.0
 20
0.0
 30
0.0
 11
0.0
 21
10325.0
 31
0.0
  0
LINE
  5
7EDC
  8
4
 10
0.0
 20
10325.0
 30
0.0
 11
7350.0
 21
10325.0
 31
0.0
  0
LINE
  5
7EDD
  8
4
 10
7350.0
 20
10325.0
 30
0.0
 11
7350.0
 21
0.0
 31
0.0
  0
LINE
  5
7EDE
  8
4
 10
7350.0
 20
0.0
 30
0.0
 11
0.0
 21
0.0
 31
0.0
  0
DIMENSION
  5
7EED
  8
3
  2
*D2
 10
3293.2991609759779
 20
6162.910246517662
 30
0.0
 11
2296.1183271006148
 21
6162.910246517662
 31
0.0
 70
   128
 13
1293.299160975977
 23
5749.724658430142
 33
0.0
 14
3293.2991609759779
 24
5749.724658430142
 34
0.0
1001
ACAD
1000
DSTYLE
1002
{
1070
   287
1070
     3
1070
    40
1040
35.0
1070
   143
1040
0.039
1070
   172
1070
     1
1070
   271
1070
     0
1070
   279
1070
     0
1070
   288
1070
     1
1002
}
  0
DIMENSION
  5
7EFA
  8
3
  2
*D3
 10
6302.8413139490758
 20
6156.483456015344
 30
0.0
 11
5300.5514341618909
 21
6156.483456015344
 31
0.0
 70
   128
 13
4302.8413139490694
 23
5300.1890819598539
 33
0.0
 14
6302.8413139490758
 24
5300.1890819598539
 34
0.0
1001
ACAD
1000
DSTYLE
1002
{
1070
   287
1070
     3
1070
    40
1040
35.0
1070
   143
1040
0.039
1070
   172
1070
     1
1070
   271
1070
     0
1070
   279
1070
     0
1070
   288
1070
     1
1002
}
  0
DIMENSION
  5
7F07
  8
3
  2
*D4
 10
906.14197115155628
 20
5199.724658430142
 30
0.0
 11
906.14197115155537
 21
5509.7246584301402
 31
0.0
 70
   128
 13
1293.299160975977
 23
5749.724658430142
 33
0.0
 14
1293.299160975977
 24
5199.724658430142
 34
0.0
 50
90.0
1001
ACAD
1000
DSTYLE
1002
{
1070
   287
1070
     3
1070
    40
1040
35.0
1070
   143
1040
0.039
1070
   172
1070
     1
1070
   271
1070
     0
1070
   279
1070
     0
1070
   288
1070
     1
1002
}
  0
DIMENSION
  5
7F13
  8
3
  2
*D5
 10
906.14197115155537
 20
4559.7246584301402
 30
0.0
 11
818.64197115155469
 21
4879.7246584301411
 31
0.0
 70
     0
 13
1293.299160975977
 23
5199.724658430142
 33
0.0
 14
1668.299160975977
 24
4559.7246584301402
 34
0.0
 50
90.0
1001
ACAD
1000
DSTYLE
1002
{
1070
   287
1070
     4
1070
    40
1040
35.0
1070
    75
1070
     1
1070
   143
1040
0.039
1070
   172
1070
     1
1070
   271
1070
     0
1070
   279
1070
     1
1070
   288
1070
     1
1002
}
  0
DIMENSION
  5
7F23
  8
3
  2
*D6
 10
906.14197115155537
 20
4409.724658430142
 30
0.0
 11
818.64197115155469
 21
4109.724658430142
 31
0.0
 70
     0
 13
1668.299160975977
 23
4559.7246584301402
 33
0.0
 14
1668.299160975977
 24
4409.724658430142
 34
0.0
 50
90.0
1001
ACAD
1000
DSTYLE
1002
{
1070
   287
1070
     3
1070
    40
1040
35.0
1070
   143
1040
0.039
1070
   172
1070
     1
1070
   271
1070
     0
1070
   279
1070
     0
1070
   288
1070
     1
1002
}
  0
DIMENSION
  5
7F3F
  8
3
  2
*D7
 10
1439.168809390191
 20
4409.724658430142
 30
0.0
 11
1439.1688093901901
 21
4144.7246584301411
 31
0.0
 70
   128
 13
1775.299160975977
 23
4459.7246584301411
 33
0.0
 14
1668.299160975977
 24
4409.724658430142
 34
0.0
 50
90.0
1001
ACAD
1000
DSTYLE
1002
{
1070
   287
1070
     3
1070
    40
1040
35.0
1070
   143
1040
0.039
1070
   172
1070
     1
1070
   271
1070
     0
1070
   279
1070
     0
1070
   288
1070
     1
1002
}
  0
DIMENSION
  5
7F59
  8
3
  2
*D8
 10
2918.2991609759761
 20
3900.6800618203588
 30
0.0
 11
2296.1183684338098
 21
3900.6800618203588
 31
0.0
 70
   128
 13
1668.299160975977
 23
4409.724658430142
 33
0.0
 14
2918.2991609759761
 24
4409.7246584301411
 34
0.0
1001
ACAD
1000
DSTYLE
1002
{
1070
   287
1070
     3
1070
    40
1040
35.0
1070
   143
1040
0.039
1070
   172
1070
     1
1070
   271
1070
     0
1070
   279
1070
     0
1070
   288
1070
     1
1002
}
  0
DIMENSION
  5
7FA0
  8
3
  2
*D9
 10
5927.8413139490722
 20
3894.2532713180399
 30
0.0
 11
5299.9082483762322
 21
3894.2532713180399
 31
0.0
 70
   128
 13
4677.8413139490722
 23
4409.7246584301411
 33
0.0
 14
5927.8413139490722
 24
4409.7246584301411
 34
0.0
1001
ACAD
1000
DSTYLE
1002
{
1070
   287
1070
     3
1070
    40
1040
35.0
1070
   143
1040
0.039
1070
   172
1070
     1
1070
   271
1070
     0
1070
   279
1070
     0
1070
   288
1070
     1
1002
}
  0
DIMENSION
  5
7FC4
  8
3
  2
*D10
 10
2793.2991609759761
 20
4124.7064540683787
 30
0.0
 11
2293.5226440369879
 21
4124.7064540683787
 31
0.0
 70
   128
 13
1793.2991609759761
 23
4441.7246584301411
 33
0.0
 14
2793.2991609759761
 24
4441.7246584301411
 34
0.0
1001
ACAD
1000
DSTYLE
1002
{
1070
   287
1070
     3
1070
     3
1000
φ<>
1070
    40
1040
35.0
1070
   143
1040
0.039
1070
   172
1070
     1
1070
   271
1070
     0
1070
   279
1070
     0
1070
   288
1070
     1
1002
}
  0
DIMENSION
  5
7FDC
  8
3
  2
*D11
 10
5802.8413139490722
 20
4131.0684574067709
 30
0.0
 11
5303.5873983763968
 21
4131.0684574067709
 31
0.0
 70
   128
 13
4802.8413139490722
 23
4441.7246584301411
 33
0.0
 14
5802.8413139490722
 24
4441.7246584301411
 34
0.0
1001
ACAD
1000
DSTYLE
1002
{
1070
   287
1070
     3
1070
     3
1000
φ<>
1070
    40
1040
35.0
1070
   143
1040
0.039
1070
   172
1070
     1
1070
   271
1070
     0
1070
   279
1070
     0
1070
   288
1070
     1
1002
}
  0
DIMENSION
  5
7FF9
  8
3
  2
*D12
 10
638.94851770678417
 20
4409.724658430142
 30
0.0
 11
638.9485177067836
 21
5072.1835082196021
 31
0.0
 70
   128
 13
1293.299160975977
 23
5749.724658430142
 33
0.0
 14
1671.299160975977
 24
4409.724658430142
 34
0.0
 50
90.0
1001
ACAD
1000
DSTYLE
1002
{
1070
   287
1070
     3
1070
    40
1040
35.0
1070
   143
1040
0.039
1070
   172
1070
     1
1070
   271
1070
     0
1070
   279
1070
     0
1070
   288
1070
     1
1002
}
  0
ENDSEC
  0
EOF
