  0
SECTION
  2
HEADER
  9
$ACADVER
  1
AC1009
  9
$INSBASE
 10
0.0
 20
0.0
 30
0.0
  9
$EXTMIN
 10
601.42304200000001
 20
750.0
 30
0.0
  9
$EXTMAX
 10
4625.0
 20
6966.6306540000014
 30
0.0
  9
$LIMMIN
 10
0.0
 20
0.0
  9
$LIMMAX
 10
297.0
 20
210.0
  9
$ORTHOMODE
 70
     0
  9
$REGENMODE
 70
     1
  9
$FILLMODE
 70
     0
  9
$QTEXTMODE
 70
     0
  9
$MIRRTEXT
 70
     1
  9
$DRAGMODE
 70
     2
  9
$LTSCALE
 40
100.0
  9
$OSMODE
 70
    37
  9
$ATTMODE
 70
     1
  9
$TEXTSIZE
 40
180.0
  9
$TRACEWID
 40
0.05
  9
$TEXTSTYLE
  7
STANDARD
  9
$CLAYER
  8
3
  9
$CELTYPE
  6
BYLAYER
  9
$CECOLOR
 62
   256
  9
$DIMSCALE
 40
25.0
  9
$DIMASZ
 40
2.0
  9
$DIMEXO
 40
0.5
  9
$DIMDLI
 40
10.0
  9
$DIMRND
 40
0.0
  9
$DIMDLE
 40
0.0
  9
$DIMEXE
 40
1.0
  9
$DIMTP
 40
1.0
  9
$DIMTM
 40
1.0
  9
$DIMTXT
 40
3.0
  9
$DIMCEN
 40
0.0
  9
$DIMTSZ
 40
0.0
  9
$DIMTOL
 70
     0
  9
$DIMLIM
 70
     0
  9
$DIMTIH
 70
     0
  9
$DIMTOH
 70
     0
  9
$DIMSE1
 70
     0
  9
$DIMSE2
 70
     0
  9
$DIMTAD
 70
     1
  9
$DIMZIN
 70
     8
  9
$DIMBLK
  1

  9
$DIMASO
 70
     1
  9
$DIMSHO
 70
     1
  9
$DIMPOST
  1

  9
$DIMAPOST
  1

  9
$DIMALT
 70
     0
  9
$DIMALTD
 70
     2
  9
$DIMALTF
 40
0.039
  9
$DIMLFAC
 40
1.0
  9
$DIMTOFL
 70
     1
  9
$DIMTVP
 40
0.0
  9
$DIMTIX
 70
     0
  9
$DIMSOXD
 70
     0
  9
$DIMSAH
 70
     1
  9
$DIMBLK1
  1
OPEN
  9
$DIMBLK2
  1
OPEN
  9
$DIMSTYLE
  2
IGA
  9
$DIMCLRD
 70
     0
  9
$DIMCLRE
 70
     0
  9
$DIMCLRT
 70
     0
  9
$DIMTFAC
 40
10.0
  9
$DIMGAP
 40
1.0
  9
$LUNITS
 70
     2
  9
$LUPREC
 70
     3
  9
$SKETCHINC
 40
0.1
  9
$FILLETRAD
 40
50.0
  9
$AUNITS
 70
     0
  9
$AUPREC
 70
     0
  9
$MENU
  1
acad
  9
$ELEVATION
 40
0.0
  9
$PELEVATION
 40
0.0
  9
$THICKNESS
 40
0.0
  9
$LIMCHECK
 70
     0
  9
$BLIPMODE
 70
     0
  9
$CHAMFERA
 40
0.5
  9
$CHAMFERB
 40
0.5
  9
$SKPOLY
 70
     0
  9
$TDCREATE
 40
2450725.6617453699
  9
$TDUPDATE
 40
2454953.6343267132
  9
$TDINDWG
 40
0.0015376157
  9
$TDUSRTIMER
 40
0.0015376157
  9
$USRTIMER
 70
     1
  9
$ANGBASE
 50
0.0
  9
$ANGDIR
 70
     0
  9
$PDMODE
 70
     0
  9
$PDSIZE
 40
0.0
  9
$PLINEWID
 40
0.0
  9
$COORDS
 70
     1
  9
$SPLFRAME
 70
     0
  9
$SPLINETYPE
 70
     6
  9
$SPLINESEGS
 70
     8
  9
$ATTDIA
 70
     0
  9
$ATTREQ
 70
     1
  9
$HANDLING
 70
 10241
  9
$HANDSEED
  5
7B20
  9
$SURFTAB1
 70
     6
  9
$SURFTAB2
 70
     6
  9
$SURFTYPE
 70
     6
  9
$SURFU
 70
     6
  9
$SURFV
 70
     6
  9
$UCSNAME
  2

  9
$UCSORG
 10
0.0
 20
0.0
 30
0.0
  9
$UCSXDIR
 10
1.0
 20
0.0
 30
0.0
  9
$UCSYDIR
 10
0.0
 20
1.0
 30
0.0
  9
$PUCSNAME
  2

  9
$PUCSORG
 10
0.0
 20
0.0
 30
0.0
  9
$PUCSXDIR
 10
1.0
 20
0.0
 30
0.0
  9
$PUCSYDIR
 10
0.0
 20
1.0
 30
0.0
  9
$USERI1
 70
     0
  9
$USERI2
 70
     0
  9
$USERI3
 70
     0
  9
$USERI4
 70
     0
  9
$USERI5
 70
     0
  9
$USERR1
 40
0.0
  9
$USERR2
 40
0.0
  9
$USERR3
 40
0.0
  9
$USERR4
 40
0.0
  9
$USERR5
 40
0.0
  9
$WORLDVIEW
 70
     1
  9
$SHADEDGE
 70
     3
  9
$SHADEDIF
 70
    70
  9
$TILEMODE
 70
     1
  9
$MAXACTVP
 70
    16
  9
$PLIMCHECK
 70
     0
  9
$PEXTMIN
 10
1.0000000000000000E+020
 20
1.0000000000000000E+020
 30
1.0000000000000000E+020
  9
$PEXTMAX
 10
-1.0000000000000000E+020
 20
-1.0000000000000000E+020
 30
-1.0000000000000000E+020
  9
$PLIMMIN
 10
0.0
 20
0.0
  9
$PLIMMAX
 10
12.0
 20
9.0
  9
$UNITMODE
 70
     0
  9
$VISRETAIN
 70
     0
  9
$PLINEGEN
 70
     0
  9
$PSLTSCALE
 70
     1
  0
ENDSEC
  0
SECTION
  2
TABLES
  0
TABLE
  2
VPORT
 70
     2
  0
VPORT
  2
*ACTIVE
 70
     0
 10
0.0
 20
0.0
 11
1.0
 21
1.0
 12
4843.0806931620918
 22
997.83672235192626
 13
0.0
 23
0.0
 14
10.0
 24
10.0
 15
10.0
 25
10.0
 16
0.0
 26
0.0
 36
1.0
 17
0.0
 27
0.0
 37
0.0
 40
2112.7195435829822
 41
3.1666666666666661
 42
50.0
 43
0.0
 44
0.0
 50
0.0
 51
0.0
 71
     0
 72
   100
 73
     1
 74
     0
 75
     0
 76
     0
 77
     0
 78
     0
  0
ENDTAB
  0
TABLE
  2
LTYPE
 70
     2
  0
LTYPE
  2
CONTINUOUS
 70
     0
  3
Solid line
 72
    65
 73
     0
 40
0.0
  0
LTYPE
  2
CENTER
 70
     0
  3
____ _ ____ _ ____ _ ____ _ ____ _ ____ _ ____ 
 72
    65
 73
     4
 40
2.0
 49
1.25
 49
-0.25
 49
0.25
 49
-0.25
  0
ENDTAB
  0
TABLE
  2
LAYER
 70
     6
  0
LAYER
  2
0
 70
     0
 62
     7
  6
CONTINUOUS
  0
LAYER
  2
3
 70
     0
 62
     2
  6
CONTINUOUS
  0
LAYER
  2
2
 70
     0
 62
     3
  6
CENTER
  0
LAYER
  2
1
 70
     0
 62
     4
  6
CONTINUOUS
  0
LAYER
  2
4
 70
     0
 62
     7
  6
CONTINUOUS
  0
LAYER
  2
DEFPOINTS
 70
     0
 62
     7
  6
CONTINUOUS
  0
ENDTAB
  0
TABLE
  2
STYLE
 70
     1
  0
STYLE
  2
STANDARD
 70
     0
 40
0.0
 41
1.0
 50
0.0
 71
     0
 42
180.0
  3
simplex.shx
  4
extfont.shx
  0
ENDTAB
  0
TABLE
  2
VIEW
 70
     0
  0
ENDTAB
  0
TABLE
  2
UCS
 70
     0
  0
ENDTAB
  0
TABLE
  2
APPID
 70
     1
  0
APPID
  2
ACAD
 70
     0
  0
ENDTAB
  0
TABLE
  2
DIMSTYLE
 70
     1
  0
DIMSTYLE
  2
IGA
 70
     0
  3

  4

  5

  6
OPEN
  7
OPEN
 40
2.0
 41
2.0
 42
0.5
 43
10.0
 44
1.0
 45
0.0
 46
0.0
 47
1.0
 48
1.0
140
3.0
141
0.0
142
0.0
143
0.03937
144
1.0
145
0.0
146
10.0
147
1.0
 71
     0
 72
     0
 73
     0
 74
     0
 75
     0
 76
     0
 77
     1
 78
     8
170
     0
171
     2
172
     0
173
     1
174
     0
175
     0
176
     0
177
     0
178
     0
  0
ENDTAB
  0
ENDSEC
  0
SECTION
  2
BLOCKS
  0
BLOCK
  8
0
  2
$MODEL_SPACE
 70
     0
 10
0.0
 20
0.0
 30
0.0
  3
$MODEL_SPACE
  1

  0
ENDBLK
  5
1B
  8
0
  0
BLOCK
 67
     1
  8
0
  2
$PAPER_SPACE
 70
     0
 10
0.0
 20
0.0
 30
0.0
  3
$PAPER_SPACE
  1

  0
ENDBLK
  5
18
 67
     1
  8
0
  0
BLOCK
  8
0
  2
_OPEN
 70
     0
 10
0.0
 20
0.0
 30
0.0
  3
_OPEN
  1

  0
LINE
  5
7A6E
  8
0
  6
BYBLOCK
 62
     0
 10
-1.0
 20
0.166667
 30
0.0
 11
0.0
 21
0.0
 31
0.0
  0
LINE
  5
7A6F
  8
0
  6
BYBLOCK
 62
     0
 10
0.0
 20
0.0
 30
0.0
 11
-1.0
 21
-0.166667
 31
0.0
  0
LINE
  5
7A70
  8
0
  6
BYBLOCK
 62
     0
 10
0.0
 20
0.0
 30
0.0
 11
-1.0
 21
0.0
 31
0.0
  0
ENDBLK
  5
7A71
  8
0
  0
BLOCK
  8
0
  2
*D1
 70
     1
 10
0.0
 20
0.0
 30
0.0
  3
*D1
  1

  0
LINE
  5
7AEF
  8
3
  6
CONTINUOUS
 62
     0
 10
1435.468834
 20
4320.9614419999998
 30
0.0
 11
1435.468834
 21
4582.1934010000004
 31
0.0
  0
LINE
  5
7AF0
  8
3
  6
CONTINUOUS
 62
     0
 10
2245.4688339999989
 20
4320.9614419999998
 30
0.0
 11
2245.4688339999989
 21
4582.1934010000004
 31
0.0
  0
LINE
  5
7AF1
  8
3
  6
CONTINUOUS
 62
     0
 10
1485.468834
 20
4557.1934010000004
 30
0.0
 11
2195.4688339999989
 21
4557.1934010000004
 31
0.0
  0
INSERT
  5
7AF2
  8
3
  6
CONTINUOUS
 62
     0
  2
_OPEN
 10
1435.468834
 20
4557.1934010000004
 30
0.0
 41
50.0
 42
50.0
 43
50.0
 50
180.0
  0
INSERT
  5
7AF3
  8
3
  6
CONTINUOUS
 62
     0
  2
_OPEN
 10
2245.4688339999989
 20
4557.1934010000004
 30
0.0
 41
50.0
 42
50.0
 43
50.0
  0
TEXT
  8
3
  40
75
  5
7B1B
  62
0
  72
0
  71
0
 10
1667.11
 20
4486.94
 30
0.000000
  1
810
  0
POINT
  5
7AF5
  8
DEFPOINTS
  6
CONTINUOUS
 62
     0
 10
1435.468834
 20
4308.4614419999998
 30
0.0
  0
POINT
  5
7AF6
  8
DEFPOINTS
  6
CONTINUOUS
 62
     0
 10
2245.4688339999989
 20
4308.4614419999998
 30
0.0
  0
POINT
  5
7AF7
  8
DEFPOINTS
  6
CONTINUOUS
 62
     0
 10
2245.4688339999989
 20
4557.1934010000004
 30
0.0
  0
ENDBLK
  5
7A8A
  8
0
  0
BLOCK
  8
0
  2
*D2
 70
     1
 10
0.0
 20
0.0
 30
0.0
  3
*D2
  1

  0
LINE
  5
7AF8
  8
3
  6
CONTINUOUS
 62
     0
 10
725.46883400000002
 20
4447.9614419999989
 30
0.0
 11
725.46883400000002
 21
4582.1934010000004
 31
0.0
  0
LINE
  5
7AF9
  8
3
  6
CONTINUOUS
 62
     0
 10
1385.468834
 20
4557.1934010000004
 30
0.0
 11
775.46883400000002
 21
4557.1934010000004
 31
0.0
  0
INSERT
  5
7AFA
  8
3
  6
CONTINUOUS
 62
     0
  2
_OPEN
 10
1435.468834
 20
4557.1934010000004
 30
0.0
 41
50.0
 42
50.0
 43
50.0
  0
INSERT
  5
7AFB
  8
3
  6
CONTINUOUS
 62
     0
  2
_OPEN
 10
725.46883400000002
 20
4557.1934010000004
 30
0.0
 41
50.0
 42
50.0
 43
50.0
 50
180.0
  0
TEXT
  8
3
  40
75
  5
7B1C
  62
0
  72
0
  71
0
 10
930.469
 20
4486.94
 30
0.000000
  1
710
  0
POINT
  5
7AFD
  8
DEFPOINTS
  6
CONTINUOUS
 62
     0
 10
1435.468834
 20
4308.4614419999998
 30
0.0
  0
POINT
  5
7AFE
  8
DEFPOINTS
  6
CONTINUOUS
 62
     0
 10
725.46883400000002
 20
4435.4614419999998
 30
0.0
  0
POINT
  5
7AFF
  8
DEFPOINTS
  6
CONTINUOUS
 62
     0
 10
725.46883400000002
 20
4557.1934010000004
 30
0.0
  0
ENDBLK
  5
7A95
  8
0
  0
BLOCK
  8
0
  2
*D3
 70
     1
 10
0.0
 20
0.0
 30
0.0
  3
*D3
  1

  0
LINE
  5
7B00
  8
3
  6
CONTINUOUS
 62
     0
 10
725.46883400000002
 20
4447.9614419999989
 30
0.0
 11
725.46883400000002
 21
4721.3443470000002
 31
0.0
  0
LINE
  5
7B01
  8
3
  6
CONTINUOUS
 62
     0
 10
2475.4688339999989
 20
3770.9614419999998
 30
0.0
 11
2475.4688339999989
 21
4721.3443470000002
 31
0.0
  0
LINE
  5
7B02
  8
3
  6
CONTINUOUS
 62
     0
 10
775.46883400000002
 20
4696.3443470000002
 30
0.0
 11
2425.4688339999998
 21
4696.3443470000002
 31
0.0
  0
INSERT
  5
7B03
  8
3
  6
CONTINUOUS
 62
     0
  2
_OPEN
 10
725.46883400000002
 20
4696.3443470000002
 30
0.0
 41
50.0
 42
50.0
 43
50.0
 50
180.0
  0
INSERT
  5
7B04
  8
3
  6
CONTINUOUS
 62
     0
  2
_OPEN
 10
2475.4688339999989
 20
4696.3443470000002
 30
0.0
 41
50.0
 42
50.0
 43
50.0
  0
TEXT
  8
3
  40
75
  5
7B1D
  62
0
  72
0
  71
0
 10
1555.72
 20
4626.09
 30
0.000000
  1
1750
  0
POINT
  5
7B06
  8
DEFPOINTS
  6
CONTINUOUS
 62
     0
 10
725.46883400000002
 20
4435.4614419999998
 30
0.0
  0
POINT
  5
7B07
  8
DEFPOINTS
  6
CONTINUOUS
 62
     0
 10
2475.4688339999989
 20
3758.4614419999998
 30
0.0
  0
POINT
  5
7B08
  8
DEFPOINTS
  6
CONTINUOUS
 62
     0
 10
2475.4688339999989
 20
4696.3443470000002
 30
0.0
  0
ENDBLK
  5
7AA2
  8
0
  0
BLOCK
  8
0
  2
*D4
 70
     1
 10
0.0
 20
0.0
 30
0.0
  3
*D4
  1

  0
LINE
  5
7B09
  8
3
  6
CONTINUOUS
 62
     0
 10
3012.5478910000002
 20
3795.9614419999998
 30
0.0
 11
3012.5478910000002
 21
4721.3443470000002
 31
0.0
  0
LINE
  5
7B0A
  8
3
  6
CONTINUOUS
 62
     0
 10
4527.5478910000002
 20
3795.9614419999998
 30
0.0
 11
4527.5478910000002
 21
4721.3443470000002
 31
0.0
  0
LINE
  5
7B0B
  8
3
  6
CONTINUOUS
 62
     0
 10
3062.5478910000002
 20
4696.3443470000002
 30
0.0
 11
4477.5478909999993
 21
4696.3443470000002
 31
0.0
  0
INSERT
  5
7B0C
  8
3
  6
CONTINUOUS
 62
     0
  2
_OPEN
 10
3012.5478910000002
 20
4696.3443470000002
 30
0.0
 41
50.0
 42
50.0
 43
50.0
 50
180.0
  0
INSERT
  5
7B0D
  8
3
  6
CONTINUOUS
 62
     0
  2
_OPEN
 10
4527.5478910000002
 20
4696.3443470000002
 30
0.0
 41
50.0
 42
50.0
 43
50.0
  0
TEXT
  8
3
  40
75
  5
7B1E
  62
0
  72
0
  71
0
 10
3616.51
 20
4626.09
 30
0.000000
  1
1515
  0
POINT
  5
7B0F
  8
DEFPOINTS
  6
CONTINUOUS
 62
     0
 10
3012.5478910000002
 20
3783.4614419999998
 30
0.0
  0
POINT
  5
7B10
  8
DEFPOINTS
  6
CONTINUOUS
 62
     0
 10
4527.5478910000002
 20
3783.4614419999998
 30
0.0
  0
POINT
  5
7B11
  8
DEFPOINTS
  6
CONTINUOUS
 62
     0
 10
4527.5478910000002
 20
4696.3443470000002
 30
0.0
  0
ENDBLK
  5
7AAF
  8
0
  0
BLOCK
  8
0
  2
*D5
 70
     1
 10
0.0
 20
0.0
 30
0.0
  3
*D5
  1

  0
LINE
  5
7B12
  8
3
  6
CONTINUOUS
 62
     0
 10
2257.9688339999989
 20
4258.4614419999998
 30
0.0
 11
2761.1152780000011
 21
4258.4614419999998
 31
0.0
  0
LINE
  5
7B13
  8
3
  6
CONTINUOUS
 62
     0
 10
2257.9688339999989
 20
3258.4614419999998
 30
0.0
 11
2761.1152780000011
 21
3258.4614419999998
 31
0.0
  0
LINE
  5
7B14
  8
3
  6
CONTINUOUS
 62
     0
 10
2736.1152780000011
 20
4208.4614419999989
 30
0.0
 11
2736.1152780000011
 21
3308.4614419999998
 31
0.0
  0
INSERT
  5
7B15
  8
3
  6
CONTINUOUS
 62
     0
  2
_OPEN
 10
2736.1152780000011
 20
4258.4614419999998
 30
0.0
 41
50.0
 42
50.0
 43
50.0
 50
90.0
  0
INSERT
  5
7B16
  8
3
  6
CONTINUOUS
 62
     0
  2
_OPEN
 10
2736.1152780000011
 20
3258.4614419999998
 30
0.0
 41
50.0
 42
50.0
 43
50.0
 50
270.0
  0
TEXT
  8
3
  40
75
  5
7B1F
  62
0
  72
0
  71
0
 10
2523.62
 20
3659.11
 30
0.000000
  1
1000
  0
POINT
  5
7B18
  8
DEFPOINTS
  6
CONTINUOUS
 62
     0
 10
2245.4688339999989
 20
4258.4614419999998
 30
0.0
  0
POINT
  5
7B19
  8
DEFPOINTS
  6
CONTINUOUS
 62
     0
 10
2245.4688339999989
 20
3258.4614419999998
 30
0.0
  0
POINT
  5
7B1A
  8
DEFPOINTS
  6
CONTINUOUS
 62
     0
 10
2736.1152780000011
 20
3258.4614419999998
 30
0.0
  0
ENDBLK
  5
7ABC
  8
0
  0
ENDSEC
  0
SECTION
  2
ENTITIES
  0
LINE
  5
7A2A
  8
2
  6
CENTER
 10
607.9886479999999
 20
3758.4614419999998
 30
0.0
 11
2543.6154149999988
 21
3758.4614419999998
 31
0.0
  0
LINE
  5
7A2B
  8
1
  6
CONTINUOUS
 10
1435.468834
 20
3258.4614419999998
 30
0.0
 11
725.46883400000002
 21
3133.4614419999998
 31
0.0
  0
LINE
  5
7A2C
  8
1
  6
CONTINUOUS
 10
1435.468834
 20
4258.4614419999998
 30
0.0
 11
725.46883400000002
 21
4383.4614419999998
 31
0.0
  0
LINE
  5
7A2D
  8
1
  6
CONTINUOUS
 10
725.46883400000002
 20
3081.4614419999998
 30
0.0
 11
725.46883400000002
 21
4435.4614419999998
 31
0.0
  0
CIRCLE
  5
7A2E
  8
1
  6
CONTINUOUS
 10
3770.0478910000002
 20
3758.4614419999998
 30
0.0
 40
677.0
  0
LINE
  5
7A2F
  8
2
  6
CENTER
 10
3770.0478910000002
 20
3203.4614419999998
 30
0.0
 11
3770.0478910000002
 21
4313.4614419999998
 31
0.0
  0
CIRCLE
  5
7A30
  8
1
  6
CONTINUOUS
 10
3770.0478910000002
 20
3758.4614419999998
 30
0.0
 40
550.0
  0
LINE
  5
7A31
  8
1
  6
CONTINUOUS
 10
1435.468834
 20
3208.4614419999998
 30
0.0
 11
1435.468834
 21
4308.4614419999998
 31
0.0
  0
LINE
  5
7A32
  8
1
  6
CONTINUOUS
 10
2245.4688339999989
 20
3208.4614419999998
 30
0.0
 11
2245.4688339999989
 21
4308.4614419999998
 31
0.0
  0
CIRCLE
  5
7A33
  8
1
  6
CONTINUOUS
 10
3770.0478910000002
 20
3758.4614419999998
 30
0.0
 40
304.0
  0
LINE
  5
7A34
  8
2
  6
CENTER
 10
3215.0478910000002
 20
3758.4614419999998
 30
0.0
 11
4325.0478909999993
 21
3758.4614419999998
 31
0.0
  0
CIRCLE
  5
7A35
  8
1
  6
CONTINUOUS
 10
3770.0478910000002
 20
3758.4614419999998
 30
0.0
 40
500.0
  0
LINE
  5
7A36
  8
1
  6
CONTINUOUS
 10
1485.468834
 20
3454.4614419999998
 30
0.0
 11
1510.468834
 21
3268.4614419999998
 31
0.0
  0
LINE
  5
7A37
  8
1
  6
CONTINUOUS
 10
1610.4688339999991
 20
3268.4614419999998
 30
0.0
 11
1635.468834
 21
3454.4614419999998
 31
0.0
  0
LINE
  5
7A38
  8
1
  6
CONTINUOUS
 10
2245.4688339999989
 20
3258.4614419999998
 30
0.0
 11
1435.468834
 21
3258.4614419999998
 31
0.0
  0
LINE
  5
7A39
  8
1
  6
CONTINUOUS
 10
1510.468834
 20
3268.4614419999998
 30
0.0
 11
1610.4688339999991
 21
3268.4614419999998
 31
0.0
  0
LINE
  5
7A3A
  8
1
  6
CONTINUOUS
 10
2245.4688339999989
 20
4258.4614419999998
 30
0.0
 11
1435.468834
 21
4258.4614419999998
 31
0.0
  0
LINE
  5
7A3B
  8
1
  6
CONTINUOUS
 10
1485.468834
 20
3454.4614419999998
 30
0.0
 11
1485.468834
 21
4062.4614419999998
 31
0.0
  0
LINE
  5
7A3C
  8
1
  6
CONTINUOUS
 10
1635.468834
 20
3454.4614419999998
 30
0.0
 11
1635.468834
 21
4062.4614419999998
 31
0.0
  0
LINE
  5
7A3D
  8
1
  6
CONTINUOUS
 10
1485.468834
 20
3454.4614419999998
 30
0.0
 11
1635.468834
 21
3454.4614419999998
 31
0.0
  0
LINE
  5
7A3E
  8
1
  6
CONTINUOUS
 10
1485.468834
 20
4062.4614419999998
 30
0.0
 11
1635.468834
 21
4062.4614419999998
 31
0.0
  0
LINE
  5
7A3F
  8
1
  6
CONTINUOUS
 10
1485.468834
 20
4062.4614419999998
 30
0.0
 11
1510.468834
 21
4248.4614419999989
 31
0.0
  0
LINE
  5
7A40
  8
1
  6
CONTINUOUS
 10
1510.468834
 20
4248.4614419999989
 30
0.0
 11
1610.4688339999991
 21
4248.4614419999989
 31
0.0
  0
LINE
  5
7A41
  8
1
  6
CONTINUOUS
 10
1610.4688339999991
 20
4248.4614419999989
 30
0.0
 11
1635.468834
 21
4062.4614419999998
 31
0.0
  0
ARC
  5
7A42
  8
1
  6
CONTINUOUS
 10
2159.5644859999989
 20
3758.4614419999998
 30
0.0
 40
315.90434799999991
 50
285.77923599999991
 51
74.220764000000003
  0
LINE
  5
7A43
  8
1
  6
CONTINUOUS
 10
3012.5478910000002
 20
3733.4614419999998
 30
0.0
 11
3012.5478910000002
 21
3783.4614419999998
 31
0.0
  0
LINE
  5
7A44
  8
1
  6
CONTINUOUS
 10
3012.5478910000002
 20
3733.4614419999998
 30
0.0
 11
3220.6163670000001
 21
3733.4614419999998
 31
0.0
  0
LINE
  5
7A45
  8
1
  6
CONTINUOUS
 10
3012.5478910000002
 20
3783.4614419999998
 30
0.0
 11
3220.6163670000001
 21
3783.4614419999998
 31
0.0
  0
LINE
  5
7A46
  8
1
  6
CONTINUOUS
 10
4527.5478910000002
 20
3733.4614419999998
 30
0.0
 11
4527.5478910000002
 21
3783.4614419999998
 31
0.0
  0
LINE
  5
7A47
  8
1
  6
CONTINUOUS
 10
4319.4794149999989
 20
3733.4614419999998
 30
0.0
 11
4527.5478910000002
 21
3733.4614419999998
 31
0.0
  0
LINE
  5
7A48
  8
1
  6
CONTINUOUS
 10
4319.4794149999989
 20
3783.4614419999998
 30
0.0
 11
4527.5478910000002
 21
3783.4614419999998
 31
0.0
  0
LINE
  5
7A49
  8
4
  6
CONTINUOUS
 10
2013.653931999999
 20
5081.7004930000003
 30
0.0
 11
2061.3375059999998
 21
5081.7004930000003
 31
0.0
  0
LINE
  5
7A4A
  8
4
  6
CONTINUOUS
 10
1575.657228
 20
5081.7004930000003
 30
0.0
 11
2013.653931999999
 21
5081.7004930000003
 31
0.0
  0
LINE
  5
7A4B
  8
4
  6
CONTINUOUS
 10
1575.657228
 20
5081.7004930000003
 30
0.0
 11
1675.657228
 21
5031.7004930000003
 31
0.0
  0
LINE
  5
7A4C
  8
4
  6
CONTINUOUS
 10
1575.657228
 20
5081.7004930000003
 30
0.0
 11
1675.657228
 21
5131.7004930000003
 31
0.0
  0
LINE
  5
7A4D
  8
4
  6
CONTINUOUS
 10
4625.0
 20
1250.0
 30
0.0
 11
4625.0
 21
750.0
 31
0.0
  0
LINE
  5
7A4E
  8
4
  6
CONTINUOUS
 10
2875.0
 20
1250.0
 30
0.0
 11
2875.0
 21
750.0
 31
0.0
  0
LINE
  5
7A4F
  8
4
  6
CONTINUOUS
 10
1625.0
 20
1250.0
 30
0.0
 11
1625.0
 21
750.0
 31
0.0
  0
LINE
  5
7A52
  8
4
  6
CONTINUOUS
 10
1625.0
 20
750.0
 30
0.0
 11
4625.0
 21
750.0
 31
0.0
  0
LINE
  5
7A53
  8
4
  6
CONTINUOUS
 10
1625.0
 20
1000.0
 30
0.0
 11
4625.0
 21
1000.0
 31
0.0
  0
TEXT
  5
7A54
  8
4
  6
CONTINUOUS
 10
1721.2552020000001
 20
1078.857565
 30
0.0
 40
125.0
  1
機器名称
  0
TEXT
  5
7A55
  8
4
  6
CONTINUOUS
 10
1715.6452650000001
 20
804.11289199999999
 30
0.0
 40
125.0
  1
機器型番
  0
TEXT
  5
7A56
  8
4
  6
CONTINUOUS
 10
2944.196864
 20
1056.4294219999999
 30
0.0
 40
125.0
  1
ミツヤ軸流排煙ファン
  0
TEXT
  5
7A57
  8
4
  6
CONTINUOUS
 10
2966.636238999999
 20
792.89896099999999
 30
0.0
 40
125.0
  1
APE#1000-1M
  0
TEXT
  5
7A59
  8
4
  6
CONTINUOUS
 10
1969.5551329999989
 20
5958.5721030000004
 30
0.0
 40
135.0
  1
コーン付天井吊形
  0
TEXT
  5
7A5A
  8
4
  6
CONTINUOUS
 10
790.41898300000003
 20
6334.70244
 30
0.0
 40
180.0
  1
電動機直動横形軸流式排煙ファン
  0
LINE
  5
7A5B
  8
4
  6
CONTINUOUS
 10
625.0
 20
6173.5218859999986
 30
0.0
 11
4625.0
 21
6173.5218859999986
 31
0.0
  0
LINE
  5
7A5C
  8
4
  6
CONTINUOUS
 10
625.0
 20
6673.5218860000004
 30
0.0
 11
4625.0
 21
6673.5218860000004
 31
0.0
  0
LINE
  5
7A5D
  8
4
  6
CONTINUOUS
 10
1625.0
 20
1250.0
 30
0.0
 11
4625.0
 21
1250.0
 31
0.0
  0
LINE
  5
7A5E
  8
4
  6
CONTINUOUS
 10
625.0
 20
6673.5218860000004
 30
0.0
 11
625.0
 21
6173.5218859999986
 31
0.0
  0
TEXT
  5
7A5F
  8
4
  6
CONTINUOUS
 10
601.42304200000001
 20
5955.7986940000001
 30
0.0
 40
135.0
  1
左回転前方吐出
  0
TEXT
  5
7A60
  8
4
  6
CONTINUOUS
 10
3672.4238979999991
 20
6765.152704000001
 30
0.0
 40
140.0
  1
No.
  0
TEXT
  5
7A61
  8
4
  6
CONTINUOUS
 10
3598.4979250000001
 20
5958.5721030000004
 30
0.0
 40
135.0
  1
縮尺：1/25
  0
LINE
  5
7A62
  8
4
  6
CONTINUOUS
 10
4625.0
 20
6673.5218860000004
 30
0.0
 11
4625.0
 21
6173.5218859999986
 31
0.0
  0
LINE
  5
7A64
  8
4
  6
CONTINUOUS
 10
3601.5435560000001
 20
6703.158958
 30
0.0
 11
3601.5435560000001
 21
6966.6306540000014
 31
0.0
  0
LINE
  5
7A65
  8
4
  6
CONTINUOUS
 10
3601.5435560000001
 20
6966.6306540000014
 30
0.0
 11
4625.0
 21
6966.6306540000014
 31
0.0
  0
LINE
  5
7A66
  8
4
  6
CONTINUOUS
 10
4625.0
 20
6966.6306540000014
 30
0.0
 11
4625.0
 21
6703.158958
 31
0.0
  0
LINE
  5
7A67
  8
4
  6
CONTINUOUS
 10
4625.0
 20
6703.158958
 30
0.0
 11
3601.5435560000001
 21
6703.158958
 31
0.0
  0
DIMENSION
  5
7A7F
  8
3
  6
CONTINUOUS
  2
*D1
 10
2245.4688339999989
 20
4557.1934010000004
 30
0.0
 11
1817.1147309999999
 21
4557.1934010000004
 31
0.0
 70
   128
 13
1435.468834
 23
4308.4614419999998
 33
0.0
 14
2245.4688339999989
 24
4308.4614419999998
 34
0.0
1001
ACAD
1000
DSTYLE
1002
{
1070
   287
1070
     3
1070
    40
1040
25.0
1070
   143
1040
0.039
1070
   172
1070
     1
1070
   271
1070
     0
1070
   279
1070
     0
1070
   288
1070
     1
1002
}
  0
DIMENSION
  5
7A96
  8
3
  6
CONTINUOUS
  2
*D2
 10
725.46883400000002
 20
4557.1934010000004
 30
0.0
 11
1080.468834
 21
4619.6934010000004
 31
0.0
 70
     0
 13
1435.468834
 23
4308.4614419999998
 33
0.0
 14
725.46883400000002
 24
4435.4614419999998
 34
0.0
1001
ACAD
1000
DSTYLE
1002
{
1070
   287
1070
     4
1070
    40
1040
25.0
1070
    75
1070
     1
1070
   143
1040
0.039
1070
   172
1070
     1
1070
   271
1070
     0
1070
   279
1070
     1
1070
   288
1070
     1
1002
}
  0
DIMENSION
  5
7AA3
  8
3
  6
CONTINUOUS
  2
*D3
 10
2475.4688339999989
 20
4696.3443470000002
 30
0.0
 11
1705.720701
 21
4696.3443470000002
 31
0.0
 70
   128
 13
725.46883400000002
 23
4435.4614419999998
 33
0.0
 14
2475.4688339999989
 24
3758.4614419999998
 34
0.0
1001
ACAD
1000
DSTYLE
1002
{
1070
   287
1070
     3
1070
    40
1040
25.0
1070
   143
1040
0.039
1070
   172
1070
     1
1070
   271
1070
     0
1070
   279
1070
     0
1070
   288
1070
     1
1002
}
  0
DIMENSION
  5
7AB0
  8
3
  6
CONTINUOUS
  2
*D4
 10
4527.5478910000002
 20
4696.3443470000002
 30
0.0
 11
3766.5098299999991
 21
4696.3443470000002
 31
0.0
 70
   128
 13
3012.5478910000002
 23
3783.4614419999998
 33
0.0
 14
4527.5478910000002
 24
3783.4614419999998
 34
0.0
1001
ACAD
1000
DSTYLE
1002
{
1070
   287
1070
     3
1070
    40
1040
25.0
1070
   143
1040
0.039
1070
   172
1070
     1
1070
   271
1070
     0
1070
   279
1070
     0
1070
   288
1070
     1
1002
}
  0
DIMENSION
  5
7ABD
  8
3
  6
CONTINUOUS
  2
*D5
 10
2736.1152780000011
 20
3258.4614419999998
 30
0.0
 11
2736.1152780000002
 21
3791.8632009999992
 31
0.0
 70
   128
 13
2245.4688339999989
 23
4258.4614419999998
 33
0.0
 14
2245.4688339999989
 24
3258.4614419999998
 34
0.0
 50
90.0
1001
ACAD
1000
DSTYLE
1002
{
1070
   287
1070
     3
1070
    40
1040
25.0
1070
   143
1040
0.039
1070
   172
1070
     1
1070
   271
1070
     0
1070
   279
1070
     0
1070
   288
1070
     1
1002
}
  0
ENDSEC
  0
EOF
