  0
SECTION
  2
HEADER
  9
$ACADVER
  1
AC1009
  9
$INSBASE
 10
0.0
 20
0.0
 30
0.0
  9
$EXTMIN
 10
625.0
 20
750.0
 30
0.0
  9
$EXTMAX
 10
4625.0
 20
6966.6306540000014
 30
0.0
  9
$LIMMIN
 10
0.0
 20
0.0
  9
$LIMMAX
 10
297.0
 20
210.0
  9
$ORTHOMODE
 70
     0
  9
$REGENMODE
 70
     1
  9
$FILLMODE
 70
     0
  9
$QTEXTMODE
 70
     0
  9
$MIRRTEXT
 70
     1
  9
$DRAGMODE
 70
     2
  9
$LTSCALE
 40
100.0
  9
$OSMODE
 70
    37
  9
$ATTMODE
 70
     1
  9
$TEXTSIZE
 40
180.0
  9
$TRACEWID
 40
0.05
  9
$TEXTSTYLE
  7
STANDARD
  9
$CLAYER
  8
3
  9
$CELTYPE
  6
BYLAYER
  9
$CECOLOR
 62
   256
  9
$DIMSCALE
 40
25.0
  9
$DIMASZ
 40
2.0
  9
$DIMEXO
 40
0.5
  9
$DIMDLI
 40
10.0
  9
$DIMRND
 40
0.0
  9
$DIMDLE
 40
0.0
  9
$DIMEXE
 40
1.0
  9
$DIMTP
 40
1.0
  9
$DIMTM
 40
1.0
  9
$DIMTXT
 40
3.0
  9
$DIMCEN
 40
0.0
  9
$DIMTSZ
 40
0.0
  9
$DIMTOL
 70
     0
  9
$DIMLIM
 70
     0
  9
$DIMTIH
 70
     0
  9
$DIMTOH
 70
     0
  9
$DIMSE1
 70
     0
  9
$DIMSE2
 70
     0
  9
$DIMTAD
 70
     1
  9
$DIMZIN
 70
     8
  9
$DIMBLK
  1

  9
$DIMASO
 70
     1
  9
$DIMSHO
 70
     1
  9
$DIMPOST
  1

  9
$DIMAPOST
  1

  9
$DIMALT
 70
     0
  9
$DIMALTD
 70
     2
  9
$DIMALTF
 40
0.039
  9
$DIMLFAC
 40
1.0
  9
$DIMTOFL
 70
     1
  9
$DIMTVP
 40
0.0
  9
$DIMTIX
 70
     0
  9
$DIMSOXD
 70
     0
  9
$DIMSAH
 70
     1
  9
$DIMBLK1
  1
OPEN
  9
$DIMBLK2
  1
OPEN
  9
$DIMSTYLE
  2
IGA
  9
$DIMCLRD
 70
     0
  9
$DIMCLRE
 70
     0
  9
$DIMCLRT
 70
     0
  9
$DIMTFAC
 40
10.0
  9
$DIMGAP
 40
1.0
  9
$LUNITS
 70
     2
  9
$LUPREC
 70
     3
  9
$SKETCHINC
 40
0.1
  9
$FILLETRAD
 40
50.0
  9
$AUNITS
 70
     0
  9
$AUPREC
 70
     0
  9
$MENU
  1
acad
  9
$ELEVATION
 40
0.0
  9
$PELEVATION
 40
0.0
  9
$THICKNESS
 40
0.0
  9
$LIMCHECK
 70
     0
  9
$BLIPMODE
 70
     0
  9
$CHAMFERA
 40
0.5
  9
$CHAMFERB
 40
0.5
  9
$SKPOLY
 70
     0
  9
$TDCREATE
 40
2450725.65436794
  9
$TDUPDATE
 40
2454953.6342780669
  9
$TDINDWG
 40
0.0014028704
  9
$TDUSRTIMER
 40
0.0014028704
  9
$USRTIMER
 70
     1
  9
$ANGBASE
 50
0.0
  9
$ANGDIR
 70
     0
  9
$PDMODE
 70
     0
  9
$PDSIZE
 40
0.0
  9
$PLINEWID
 40
0.0
  9
$COORDS
 70
     1
  9
$SPLFRAME
 70
     0
  9
$SPLINETYPE
 70
     6
  9
$SPLINESEGS
 70
     8
  9
$ATTDIA
 70
     0
  9
$ATTREQ
 70
     1
  9
$HANDLING
 70
 10241
  9
$HANDSEED
  5
7B18
  9
$SURFTAB1
 70
     6
  9
$SURFTAB2
 70
     6
  9
$SURFTYPE
 70
     6
  9
$SURFU
 70
     6
  9
$SURFV
 70
     6
  9
$UCSNAME
  2

  9
$UCSORG
 10
0.0
 20
0.0
 30
0.0
  9
$UCSXDIR
 10
1.0
 20
0.0
 30
0.0
  9
$UCSYDIR
 10
0.0
 20
1.0
 30
0.0
  9
$PUCSNAME
  2

  9
$PUCSORG
 10
0.0
 20
0.0
 30
0.0
  9
$PUCSXDIR
 10
1.0
 20
0.0
 30
0.0
  9
$PUCSYDIR
 10
0.0
 20
1.0
 30
0.0
  9
$USERI1
 70
     0
  9
$USERI2
 70
     0
  9
$USERI3
 70
     0
  9
$USERI4
 70
     0
  9
$USERI5
 70
     0
  9
$USERR1
 40
0.0
  9
$USERR2
 40
0.0
  9
$USERR3
 40
0.0
  9
$USERR4
 40
0.0
  9
$USERR5
 40
0.0
  9
$WORLDVIEW
 70
     1
  9
$SHADEDGE
 70
     3
  9
$SHADEDIF
 70
    70
  9
$TILEMODE
 70
     1
  9
$MAXACTVP
 70
    16
  9
$PLIMCHECK
 70
     0
  9
$PEXTMIN
 10
1.0000000000000000E+020
 20
1.0000000000000000E+020
 30
1.0000000000000000E+020
  9
$PEXTMAX
 10
-1.0000000000000000E+020
 20
-1.0000000000000000E+020
 30
-1.0000000000000000E+020
  9
$PLIMMIN
 10
0.0
 20
0.0
  9
$PLIMMAX
 10
12.0
 20
9.0
  9
$UNITMODE
 70
     0
  9
$VISRETAIN
 70
     0
  9
$PLINEGEN
 70
     0
  9
$PSLTSCALE
 70
     1
  0
ENDSEC
  0
SECTION
  2
TABLES
  0
TABLE
  2
VPORT
 70
     2
  0
VPORT
  2
*ACTIVE
 70
     0
 10
0.0
 20
0.0
 11
1.0
 21
1.0
 12
5021.3361498869799
 22
1024.0386429379171
 13
0.0
 23
0.0
 14
10.0
 24
10.0
 15
10.0
 25
10.0
 16
0.0
 26
0.0
 36
1.0
 17
0.0
 27
0.0
 37
0.0
 40
2256.7685908609269
 41
3.1666666666666661
 42
50.0
 43
0.0
 44
0.0
 50
0.0
 51
0.0
 71
     0
 72
   100
 73
     1
 74
     0
 75
     0
 76
     0
 77
     0
 78
     0
  0
ENDTAB
  0
TABLE
  2
LTYPE
 70
     2
  0
LTYPE
  2
CONTINUOUS
 70
     0
  3
Solid line
 72
    65
 73
     0
 40
0.0
  0
LTYPE
  2
CENTER
 70
     0
  3
____ _ ____ _ ____ _ ____ _ ____ _ ____ _ ____ 
 72
    65
 73
     4
 40
2.0
 49
1.25
 49
-0.25
 49
0.25
 49
-0.25
  0
ENDTAB
  0
TABLE
  2
LAYER
 70
     6
  0
LAYER
  2
0
 70
     0
 62
     7
  6
CONTINUOUS
  0
LAYER
  2
3
 70
     0
 62
     2
  6
CONTINUOUS
  0
LAYER
  2
2
 70
     0
 62
     3
  6
CENTER
  0
LAYER
  2
1
 70
     0
 62
     4
  6
CONTINUOUS
  0
LAYER
  2
4
 70
     0
 62
     7
  6
CONTINUOUS
  0
LAYER
  2
DEFPOINTS
 70
     0
 62
     7
  6
CONTINUOUS
  0
ENDTAB
  0
TABLE
  2
STYLE
 70
     1
  0
STYLE
  2
STANDARD
 70
     0
 40
0.0
 41
1.0
 50
0.0
 71
     0
 42
180.0
  3
simplex.shx
  4
extfont.shx
  0
ENDTAB
  0
TABLE
  2
VIEW
 70
     0
  0
ENDTAB
  0
TABLE
  2
UCS
 70
     0
  0
ENDTAB
  0
TABLE
  2
APPID
 70
     1
  0
APPID
  2
ACAD
 70
     0
  0
ENDTAB
  0
TABLE
  2
DIMSTYLE
 70
     1
  0
DIMSTYLE
  2
IGA
 70
     0
  3

  4

  5

  6
OPEN
  7
OPEN
 40
2.0
 41
2.0
 42
0.5
 43
10.0
 44
1.0
 45
0.0
 46
0.0
 47
1.0
 48
1.0
140
3.0
141
0.0
142
0.0
143
0.03937
144
1.0
145
0.0
146
10.0
147
1.0
 71
     0
 72
     0
 73
     0
 74
     0
 75
     0
 76
     0
 77
     1
 78
     8
170
     0
171
     2
172
     0
173
     1
174
     0
175
     0
176
     0
177
     0
178
     0
  0
ENDTAB
  0
ENDSEC
  0
SECTION
  2
BLOCKS
  0
BLOCK
  8
0
  2
$MODEL_SPACE
 70
     0
 10
0.0
 20
0.0
 30
0.0
  3
$MODEL_SPACE
  1

  0
ENDBLK
  5
1B
  8
0
  0
BLOCK
 67
     1
  8
0
  2
$PAPER_SPACE
 70
     0
 10
0.0
 20
0.0
 30
0.0
  3
$PAPER_SPACE
  1

  0
ENDBLK
  5
18
 67
     1
  8
0
  0
BLOCK
  8
0
  2
_OPEN
 70
     0
 10
0.0
 20
0.0
 30
0.0
  3
_OPEN
  1

  0
LINE
  5
7A66
  8
0
  6
BYBLOCK
 62
     0
 10
-1.0
 20
0.166667
 30
0.0
 11
0.0
 21
0.0
 31
0.0
  0
LINE
  5
7A67
  8
0
  6
BYBLOCK
 62
     0
 10
0.0
 20
0.0
 30
0.0
 11
-1.0
 21
-0.166667
 31
0.0
  0
LINE
  5
7A68
  8
0
  6
BYBLOCK
 62
     0
 10
0.0
 20
0.0
 30
0.0
 11
-1.0
 21
0.0
 31
0.0
  0
ENDBLK
  5
7A69
  8
0
  0
BLOCK
  8
0
  2
*D1
 70
     1
 10
0.0
 20
0.0
 30
0.0
  3
*D1
  1

  0
LINE
  5
7AE6
  8
3
  6
CONTINUOUS
 62
     0
 10
1269.249955
 20
3887.9550859999999
 30
0.0
 11
1269.249955
 21
4067.33491
 31
0.0
  0
LINE
  5
7AE7
  8
3
  6
CONTINUOUS
 62
     0
 10
2079.2499550000002
 20
3887.9550859999999
 30
0.0
 11
2079.2499550000002
 21
4067.33491
 31
0.0
  0
LINE
  5
7AE8
  8
3
  6
CONTINUOUS
 62
     0
 10
1319.249955
 20
4042.33491
 30
0.0
 11
2029.249955
 21
4042.33491
 31
0.0
  0
INSERT
  5
7AE9
  8
3
  6
CONTINUOUS
 62
     0
  2
_OPEN
 10
1269.249955
 20
4042.33491
 30
0.0
 41
50.0
 42
50.0
 43
50.0
 50
180.0
  0
INSERT
  5
7AEA
  8
3
  6
CONTINUOUS
 62
     0
  2
_OPEN
 10
2079.2499550000002
 20
4042.33491
 30
0.0
 41
50.0
 42
50.0
 43
50.0
  0
TEXT
  8
3
  40
75
  5
7B13
  62
0
  72
0
  71
0
 10
1527.87
 20
3972.08
 30
0.000000
  1
810
  0
POINT
  5
7AEC
  8
DEFPOINTS
  6
CONTINUOUS
 62
     0
 10
1269.249955
 20
3875.4550859999999
 30
0.0
  0
POINT
  5
7AED
  8
DEFPOINTS
  6
CONTINUOUS
 62
     0
 10
2079.2499550000002
 20
3875.4550859999999
 30
0.0
  0
POINT
  5
7AEE
  8
DEFPOINTS
  6
CONTINUOUS
 62
     0
 10
2079.2499550000002
 20
4042.33491
 30
0.0
  0
ENDBLK
  5
7A76
  8
0
  0
BLOCK
  8
0
  2
*D2
 70
     1
 10
0.0
 20
0.0
 30
0.0
  3
*D2
  1

  0
LINE
  5
7AEF
  8
3
  6
CONTINUOUS
 62
     0
 10
1269.249955
 20
3887.9550859999999
 30
0.0
 11
1269.249955
 21
4206.485854999999
 31
0.0
  0
LINE
  5
7AF0
  8
3
  6
CONTINUOUS
 62
     0
 10
2309.2499550000002
 20
3337.9550859999999
 30
0.0
 11
2309.2499550000002
 21
4206.485854999999
 31
0.0
  0
LINE
  5
7AF1
  8
3
  6
CONTINUOUS
 62
     0
 10
1319.249955
 20
4181.4858549999999
 30
0.0
 11
2259.2499550000002
 21
4181.4858549999999
 31
0.0
  0
INSERT
  5
7AF2
  8
3
  6
CONTINUOUS
 62
     0
  2
_OPEN
 10
1269.249955
 20
4181.4858549999999
 30
0.0
 41
50.0
 42
50.0
 43
50.0
 50
180.0
  0
INSERT
  5
7AF3
  8
3
  6
CONTINUOUS
 62
     0
  2
_OPEN
 10
2309.2499550000002
 20
4181.4858549999999
 30
0.0
 41
50.0
 42
50.0
 43
50.0
  0
TEXT
  8
3
  40
75
  5
7B14
  62
0
  72
0
  71
0
 10
1681.04
 20
4111.24
 30
0.000000
  1
1040
  0
POINT
  5
7AF5
  8
DEFPOINTS
  6
CONTINUOUS
 62
     0
 10
1269.249955
 20
3875.4550859999999
 30
0.0
  0
POINT
  5
7AF6
  8
DEFPOINTS
  6
CONTINUOUS
 62
     0
 10
2309.2499550000002
 20
3325.4550859999999
 30
0.0
  0
POINT
  5
7AF7
  8
DEFPOINTS
  6
CONTINUOUS
 62
     0
 10
2309.2499550000002
 20
4181.4858549999999
 30
0.0
  0
ENDBLK
  5
7A83
  8
0
  0
BLOCK
  8
0
  2
*D3
 70
     1
 10
0.0
 20
0.0
 30
0.0
  3
*D3
  1

  0
LINE
  5
7AF8
  8
3
  6
CONTINUOUS
 62
     0
 10
2091.7499550000002
 20
3825.4550859999999
 30
0.0
 11
2580.100002000001
 21
3825.4550859999999
 31
0.0
  0
LINE
  5
7AF9
  8
3
  6
CONTINUOUS
 62
     0
 10
2091.7499550000002
 20
2825.455085999999
 30
0.0
 11
2580.1000020000001
 21
2825.455085999999
 31
0.0
  0
LINE
  5
7AFA
  8
3
  6
CONTINUOUS
 62
     0
 10
2555.100002000001
 20
3775.4550859999999
 30
0.0
 11
2555.1000020000001
 21
2875.4550859999999
 31
0.0
  0
INSERT
  5
7AFB
  8
3
  6
CONTINUOUS
 62
     0
  2
_OPEN
 10
2555.100002000001
 20
3825.4550859999999
 30
0.0
 41
50.0
 42
50.0
 43
50.0
 50
90.0
  0
INSERT
  5
7AFC
  8
3
  6
CONTINUOUS
 62
     0
  2
_OPEN
 10
2555.1000020000001
 20
2825.455085999999
 30
0.0
 41
50.0
 42
50.0
 43
50.0
 50
270.0
  0
TEXT
  8
3
  40
75
  5
7B15
  62
0
  72
0
  71
0
 10
2342.60
 20
3199.92
 30
0.000000
  1
1000
  0
POINT
  5
7AFE
  8
DEFPOINTS
  6
CONTINUOUS
 62
     0
 10
2079.2499550000002
 20
3825.4550859999999
 30
0.0
  0
POINT
  5
7AFF
  8
DEFPOINTS
  6
CONTINUOUS
 62
     0
 10
2079.2499550000002
 20
2825.455085999999
 30
0.0
  0
POINT
  5
7B00
  8
DEFPOINTS
  6
CONTINUOUS
 62
     0
 10
2555.1000020000001
 20
2825.455085999999
 30
0.0
  0
ENDBLK
  5
7A90
  8
0
  0
BLOCK
  8
0
  2
*D4
 70
     1
 10
0.0
 20
0.0
 30
0.0
  3
*D4
  1

  0
LINE
  5
7B01
  8
3
  6
CONTINUOUS
 62
     0
 10
2091.7499550000002
 20
3875.4550859999999
 30
0.0
 11
2761.1152780000011
 21
3875.4550859999999
 31
0.0
  0
LINE
  5
7B02
  8
3
  6
CONTINUOUS
 62
     0
 10
2091.7499550000002
 20
2775.4550859999999
 30
0.0
 11
2761.1152780000011
 21
2775.4550859999999
 31
0.0
  0
LINE
  5
7B03
  8
3
  6
CONTINUOUS
 62
     0
 10
2736.1152780000011
 20
3825.4550859999999
 30
0.0
 11
2736.1152780000011
 21
2825.455085999999
 31
0.0
  0
INSERT
  5
7B04
  8
3
  6
CONTINUOUS
 62
     0
  2
_OPEN
 10
2736.1152780000011
 20
3875.4550859999999
 30
0.0
 41
50.0
 42
50.0
 43
50.0
 50
90.0
  0
INSERT
  5
7B05
  8
3
  6
CONTINUOUS
 62
     0
  2
_OPEN
 10
2736.1152780000011
 20
2775.4550859999999
 30
0.0
 41
50.0
 42
50.0
 43
50.0
 50
270.0
  0
TEXT
  8
3
  40
75
  5
7B16
  62
0
  72
0
  71
0
 10
2523.62
 20
3199.92
 30
0.000000
  1
1100
  0
POINT
  5
7B07
  8
DEFPOINTS
  6
CONTINUOUS
 62
     0
 10
2079.2499550000002
 20
3875.4550859999999
 30
0.0
  0
POINT
  5
7B08
  8
DEFPOINTS
  6
CONTINUOUS
 62
     0
 10
2079.2499550000002
 20
2775.4550859999999
 30
0.0
  0
POINT
  5
7B09
  8
DEFPOINTS
  6
CONTINUOUS
 62
     0
 10
2736.1152780000011
 20
2775.4550859999999
 30
0.0
  0
ENDBLK
  5
7A9D
  8
0
  0
BLOCK
  8
0
  2
*D5
 70
     1
 10
0.0
 20
0.0
 30
0.0
  3
*D5
  1

  0
LINE
  5
7B0A
  8
3
  6
CONTINUOUS
 62
     0
 10
3127.4957730000001
 20
3362.9550859999999
 30
0.0
 11
3127.4957730000001
 21
4206.485854999999
 31
0.0
  0
LINE
  5
7B0B
  8
3
  6
CONTINUOUS
 62
     0
 10
4386.4957729999996
 20
3362.9550859999999
 30
0.0
 11
4386.4957729999996
 21
4206.485854999999
 31
0.0
  0
LINE
  5
7B0C
  8
3
  6
CONTINUOUS
 62
     0
 10
3177.4957730000001
 20
4181.4858549999999
 30
0.0
 11
4336.4957729999996
 21
4181.4858549999999
 31
0.0
  0
INSERT
  5
7B0D
  8
3
  6
CONTINUOUS
 62
     0
  2
_OPEN
 10
3127.4957730000001
 20
4181.4858549999999
 30
0.0
 41
50.0
 42
50.0
 43
50.0
 50
180.0
  0
INSERT
  5
7B0E
  8
3
  6
CONTINUOUS
 62
     0
  2
_OPEN
 10
4386.4957729999996
 20
4181.4858549999999
 30
0.0
 41
50.0
 42
50.0
 43
50.0
  0
TEXT
  8
3
  40
75
  5
7B17
  62
0
  72
0
  71
0
 10
3588.66
 20
4111.24
 30
0.000000
  1
1259
  0
POINT
  5
7B10
  8
DEFPOINTS
  6
CONTINUOUS
 62
     0
 10
3127.4957730000001
 20
3350.4550859999999
 30
0.0
  0
POINT
  5
7B11
  8
DEFPOINTS
  6
CONTINUOUS
 62
     0
 10
4386.4957729999996
 20
3350.4550859999999
 30
0.0
  0
POINT
  5
7B12
  8
DEFPOINTS
  6
CONTINUOUS
 62
     0
 10
4386.4957729999996
 20
4181.4858549999999
 30
0.0
  0
ENDBLK
  5
7AAA
  8
0
  0
ENDSEC
  0
SECTION
  2
ENTITIES
  0
LINE
  5
7A26
  8
2
  6
CENTER
 10
1105.882360999999
 20
3325.4550859999999
 30
0.0
 11
2377.3965360000002
 21
3325.4550859999999
 31
0.0
  0
CIRCLE
  5
7A27
  8
1
  6
CONTINUOUS
 10
3756.9957729999992
 20
3325.4550859999999
 30
0.0
 40
500.0
  0
CIRCLE
  5
7A28
  8
1
  6
CONTINUOUS
 10
3756.9957729999992
 20
3325.4550859999999
 30
0.0
 40
550.0
  0
LINE
  5
7A29
  8
2
  6
CENTER
 10
3201.9957730000001
 20
3325.4550859999999
 30
0.0
 11
4311.9957729999987
 21
3325.4550859999999
 31
0.0
  0
CIRCLE
  5
7A2A
  8
1
  6
CONTINUOUS
 10
3756.9957729999992
 20
3325.4550859999999
 30
0.0
 40
304.0
  0
LINE
  5
7A2B
  8
1
  6
CONTINUOUS
 10
1469.249955
 20
3021.4550859999999
 30
0.0
 11
1469.249955
 21
3629.4550859999999
 31
0.0
  0
LINE
  5
7A2C
  8
1
  6
CONTINUOUS
 10
1319.249955
 20
3021.4550859999999
 30
0.0
 11
1319.249955
 21
3629.4550859999999
 31
0.0
  0
LINE
  5
7A2D
  8
1
  6
CONTINUOUS
 10
2079.2499550000002
 20
2775.4550859999999
 30
0.0
 11
2079.2499550000002
 21
3875.4550859999999
 31
0.0
  0
LINE
  5
7A2E
  8
1
  6
CONTINUOUS
 10
1269.249955
 20
2775.4550859999999
 30
0.0
 11
1269.249955
 21
3875.4550859999999
 31
0.0
  0
ARC
  5
7A2F
  8
1
  6
CONTINUOUS
 10
1993.345607
 20
3325.4550859999999
 30
0.0
 40
315.90434799999991
 50
285.77923599999991
 51
74.220764000000003
  0
LINE
  5
7A30
  8
1
  6
CONTINUOUS
 10
2079.2499550000002
 20
2825.455085999999
 30
0.0
 11
1269.249955
 21
2825.455085999999
 31
0.0
  0
LINE
  5
7A31
  8
1
  6
CONTINUOUS
 10
1444.249955
 20
2835.455085999999
 30
0.0
 11
1469.249955
 21
3021.4550859999999
 31
0.0
  0
LINE
  5
7A32
  8
1
  6
CONTINUOUS
 10
1344.249955
 20
2835.455085999999
 30
0.0
 11
1444.249955
 21
2835.455085999999
 31
0.0
  0
LINE
  5
7A33
  8
1
  6
CONTINUOUS
 10
1319.249955
 20
3021.4550859999999
 30
0.0
 11
1344.249955
 21
2835.455085999999
 31
0.0
  0
LINE
  5
7A34
  8
1
  6
CONTINUOUS
 10
1319.249955
 20
3021.4550859999999
 30
0.0
 11
1469.249955
 21
3021.4550859999999
 31
0.0
  0
LINE
  5
7A35
  8
1
  6
CONTINUOUS
 10
2079.2499550000002
 20
3825.4550859999999
 30
0.0
 11
1269.249955
 21
3825.4550859999999
 31
0.0
  0
LINE
  5
7A36
  8
4
  6
CONTINUOUS
 10
1847.4350529999999
 20
4509.5432090000004
 30
0.0
 11
1895.1186270000001
 21
4509.5432090000004
 31
0.0
  0
LINE
  5
7A37
  8
1
  6
CONTINUOUS
 10
1444.249955
 20
3815.4550859999999
 30
0.0
 11
1469.249955
 21
3629.4550859999999
 31
0.0
  0
LINE
  5
7A38
  8
1
  6
CONTINUOUS
 10
1319.249955
 20
3629.4550859999999
 30
0.0
 11
1344.249955
 21
3815.4550859999999
 31
0.0
  0
LINE
  5
7A39
  8
1
  6
CONTINUOUS
 10
1319.249955
 20
3629.4550859999999
 30
0.0
 11
1469.249955
 21
3629.4550859999999
 31
0.0
  0
LINE
  5
7A3A
  8
4
  6
CONTINUOUS
 10
1409.438349
 20
4509.5432090000004
 30
0.0
 11
1847.4350529999999
 21
4509.5432090000004
 31
0.0
  0
LINE
  5
7A3B
  8
1
  6
CONTINUOUS
 10
1344.249955
 20
3815.4550859999999
 30
0.0
 11
1444.249955
 21
3815.4550859999999
 31
0.0
  0
LINE
  5
7A3C
  8
4
  6
CONTINUOUS
 10
1409.438349
 20
4509.5432090000004
 30
0.0
 11
1509.438349
 21
4559.5432090000004
 31
0.0
  0
LINE
  5
7A3D
  8
4
  6
CONTINUOUS
 10
1409.438349
 20
4509.5432090000004
 30
0.0
 11
1509.438349
 21
4459.5432090000004
 31
0.0
  0
LINE
  5
7A3E
  8
1
  6
CONTINUOUS
 10
3127.4957730000001
 20
3300.4550859999999
 30
0.0
 11
3127.4957730000001
 21
3350.4550859999999
 31
0.0
  0
LINE
  5
7A3F
  8
1
  6
CONTINUOUS
 10
3127.4957730000001
 20
3300.4550859999999
 30
0.0
 11
3207.564249
 21
3300.4550859999999
 31
0.0
  0
LINE
  5
7A40
  8
1
  6
CONTINUOUS
 10
3127.4957730000001
 20
3350.4550859999999
 30
0.0
 11
3207.564249
 21
3350.4550859999999
 31
0.0
  0
LINE
  5
7A41
  8
2
  6
CENTER
 10
3756.9957729999992
 20
2770.4550859999999
 30
0.0
 11
3756.9957729999992
 21
3880.455085999999
 31
0.0
  0
LINE
  5
7A42
  8
1
  6
CONTINUOUS
 10
4306.4272970000002
 20
3300.4550859999999
 30
0.0
 11
4386.4957729999996
 21
3300.4550859999999
 31
0.0
  0
LINE
  5
7A43
  8
1
  6
CONTINUOUS
 10
4306.4272970000002
 20
3350.4550859999999
 30
0.0
 11
4386.4957729999996
 21
3350.4550859999999
 31
0.0
  0
LINE
  5
7A44
  8
1
  6
CONTINUOUS
 10
4386.4957729999996
 20
3300.4550859999999
 30
0.0
 11
4386.4957729999996
 21
3350.4550859999999
 31
0.0
  0
LINE
  5
7A45
  8
4
  6
CONTINUOUS
 10
4625.0
 20
1250.0
 30
0.0
 11
4625.0
 21
750.0
 31
0.0
  0
LINE
  5
7A46
  8
4
  6
CONTINUOUS
 10
2875.0
 20
1250.0
 30
0.0
 11
2875.0
 21
750.0
 31
0.0
  0
LINE
  5
7A47
  8
4
  6
CONTINUOUS
 10
1625.0
 20
1250.0
 30
0.0
 11
1625.0
 21
750.0
 31
0.0
  0
LINE
  5
7A4A
  8
4
  6
CONTINUOUS
 10
1625.0
 20
750.0
 30
0.0
 11
4625.0
 21
750.0
 31
0.0
  0
LINE
  5
7A4B
  8
4
  6
CONTINUOUS
 10
1625.0
 20
1000.0
 30
0.0
 11
4625.0
 21
1000.0
 31
0.0
  0
TEXT
  5
7A4C
  8
4
  6
CONTINUOUS
 10
1721.2552020000001
 20
1078.857565
 30
0.0
 40
125.0
  1
機器名称
  0
TEXT
  5
7A4D
  8
4
  6
CONTINUOUS
 10
1715.6452650000001
 20
804.11289199999999
 30
0.0
 40
125.0
  1
機器型番
  0
TEXT
  5
7A4E
  8
4
  6
CONTINUOUS
 10
2944.196864
 20
1056.4294219999999
 30
0.0
 40
125.0
  1
ミツヤ軸流排煙ファン
  0
TEXT
  5
7A4F
  8
4
  6
CONTINUOUS
 10
2966.636238999999
 20
792.89896099999999
 30
0.0
 40
125.0
  1
APE#1000-1M
  0
TEXT
  5
7A51
  8
4
  6
CONTINUOUS
 10
2261.964414
 20
5958.5721030000004
 30
0.0
 40
135.0
  1
天井吊形
  0
TEXT
  5
7A52
  8
4
  6
CONTINUOUS
 10
790.41898300000003
 20
6334.70244
 30
0.0
 40
180.0
  1
電動機直動横形軸流式排煙ファン
  0
LINE
  5
7A53
  8
4
  6
CONTINUOUS
 10
625.0
 20
6173.5218859999986
 30
0.0
 11
4625.0
 21
6173.5218859999986
 31
0.0
  0
LINE
  5
7A54
  8
4
  6
CONTINUOUS
 10
625.0
 20
6673.5218860000004
 30
0.0
 11
4625.0
 21
6673.5218860000004
 31
0.0
  0
LINE
  5
7A55
  8
4
  6
CONTINUOUS
 10
1625.0
 20
1250.0
 30
0.0
 11
4625.0
 21
1250.0
 31
0.0
  0
LINE
  5
7A56
  8
4
  6
CONTINUOUS
 10
625.0
 20
6673.5218860000004
 30
0.0
 11
625.0
 21
6173.5218859999986
 31
0.0
  0
TEXT
  5
7A57
  8
4
  6
CONTINUOUS
 10
891.41915800000004
 20
5955.7986940000001
 30
0.0
 40
135.0
  1
左回転前方吐出
  0
TEXT
  5
7A58
  8
4
  6
CONTINUOUS
 10
3672.4238979999991
 20
6765.152704000001
 30
0.0
 40
140.0
  1
No.
  0
TEXT
  5
7A59
  8
4
  6
CONTINUOUS
 10
3278.2401570000002
 20
5958.5721030000004
 30
0.0
 40
135.0
  1
縮尺：1/25
  0
LINE
  5
7A5A
  8
4
  6
CONTINUOUS
 10
4625.0
 20
6673.5218860000004
 30
0.0
 11
4625.0
 21
6173.5218859999986
 31
0.0
  0
LINE
  5
7A5C
  8
4
  6
CONTINUOUS
 10
3601.5435560000001
 20
6703.158958
 30
0.0
 11
3601.5435560000001
 21
6966.6306540000014
 31
0.0
  0
LINE
  5
7A5D
  8
4
  6
CONTINUOUS
 10
3601.5435560000001
 20
6966.6306540000014
 30
0.0
 11
4625.0
 21
6966.6306540000014
 31
0.0
  0
LINE
  5
7A5E
  8
4
  6
CONTINUOUS
 10
4625.0
 20
6966.6306540000014
 30
0.0
 11
4625.0
 21
6703.158958
 31
0.0
  0
LINE
  5
7A5F
  8
4
  6
CONTINUOUS
 10
4625.0
 20
6703.158958
 30
0.0
 11
3601.5435560000001
 21
6703.158958
 31
0.0
  0
DIMENSION
  5
7A77
  8
3
  6
CONTINUOUS
  2
*D1
 10
2079.2499550000002
 20
4042.33491
 30
0.0
 11
1677.872212999999
 21
4042.33491
 31
0.0
 70
   128
 13
1269.249955
 23
3875.4550859999999
 33
0.0
 14
2079.2499550000002
 24
3875.4550859999999
 34
0.0
1001
ACAD
1000
DSTYLE
1002
{
1070
   287
1070
     3
1070
    40
1040
25.0
1070
   143
1040
0.039
1070
   172
1070
     1
1070
   271
1070
     0
1070
   279
1070
     0
1070
   288
1070
     1
1002
}
  0
DIMENSION
  5
7A84
  8
3
  6
CONTINUOUS
  2
*D2
 10
2309.2499550000002
 20
4181.4858549999999
 30
0.0
 11
1831.0389749999999
 21
4181.4858549999999
 31
0.0
 70
   128
 13
1269.249955
 23
3875.4550859999999
 33
0.0
 14
2309.2499550000002
 24
3325.4550859999999
 34
0.0
1001
ACAD
1000
DSTYLE
1002
{
1070
   287
1070
     3
1070
    40
1040
25.0
1070
   143
1040
0.039
1070
   172
1070
     1
1070
   271
1070
     0
1070
   279
1070
     0
1070
   288
1070
     1
1002
}
  0
DIMENSION
  5
7A91
  8
3
  6
CONTINUOUS
  2
*D3
 10
2555.1000020000001
 20
2825.455085999999
 30
0.0
 11
2555.1000020000001
 21
3332.6650899999991
 31
0.0
 70
   128
 13
2079.2499550000002
 23
3825.4550859999999
 33
0.0
 14
2079.2499550000002
 24
2825.455085999999
 34
0.0
 50
90.0
1001
ACAD
1000
DSTYLE
1002
{
1070
   287
1070
     3
1070
    40
1040
25.0
1070
   143
1040
0.039
1070
   172
1070
     1
1070
   271
1070
     0
1070
   279
1070
     0
1070
   288
1070
     1
1002
}
  0
DIMENSION
  5
7A9E
  8
3
  6
CONTINUOUS
  2
*D4
 10
2736.1152780000011
 20
2775.4550859999999
 30
0.0
 11
2736.1152780000002
 21
3332.6650899999991
 31
0.0
 70
   128
 13
2079.2499550000002
 23
3875.4550859999999
 33
0.0
 14
2079.2499550000002
 24
2775.4550859999999
 34
0.0
 50
90.0
1001
ACAD
1000
DSTYLE
1002
{
1070
   287
1070
     3
1070
    40
1040
25.0
1070
   143
1040
0.039
1070
   172
1070
     1
1070
   271
1070
     0
1070
   279
1070
     0
1070
   288
1070
     1
1002
}
  0
DIMENSION
  5
7AAB
  8
3
  6
CONTINUOUS
  2
*D5
 10
4386.4957729999996
 20
4181.4858549999999
 30
0.0
 11
3738.6613419999999
 21
4181.4858549999999
 31
0.0
 70
   128
 13
3127.4957730000001
 23
3350.4550859999999
 33
0.0
 14
4386.4957729999996
 24
3350.4550859999999
 34
0.0
1001
ACAD
1000
DSTYLE
1002
{
1070
   287
1070
     3
1070
    40
1040
25.0
1070
   143
1040
0.039
1070
   172
1070
     1
1070
   271
1070
     0
1070
   279
1070
     0
1070
   288
1070
     1
1002
}
  0
ENDSEC
  0
EOF
