  0
SECTION
  2
HEADER
  9
$ACADVER
  1
AC1009
  9
$INSBASE
 10
0.0
 20
0.0
 30
0.0
  9
$EXTMIN
 10
-6753.4112133513772
 20
-2782.9063028466398
 30
0.0
  9
$EXTMAX
 10
-1503.411213351377
 20
4592.0936971533592
 30
0.0
  9
$LIMMIN
 10
0.0
 20
0.0
  9
$LIMMAX
 10
297.0
 20
210.0
  9
$ORTHOMODE
 70
     0
  9
$REGENMODE
 70
     1
  9
$FILLMODE
 70
     0
  9
$QTEXTMODE
 70
     0
  9
$MIRRTEXT
 70
     1
  9
$DRAGMODE
 70
     2
  9
$LTSCALE
 40
200.0
  9
$OSMODE
 70
    37
  9
$ATTMODE
 70
     1
  9
$TEXTSIZE
 40
180.0
  9
$TRACEWID
 40
0.05
  9
$TEXTSTYLE
  7
STANDARD
  9
$CLAYER
  8
3
  9
$CELTYPE
  6
BYLAYER
  9
$CECOLOR
 62
   256
  9
$DIMSCALE
 40
30.0
  9
$DIMASZ
 40
2.0
  9
$DIMEXO
 40
0.5
  9
$DIMDLI
 40
10.0
  9
$DIMRND
 40
0.0
  9
$DIMDLE
 40
0.0
  9
$DIMEXE
 40
1.0
  9
$DIMTP
 40
1.0
  9
$DIMTM
 40
1.0
  9
$DIMTXT
 40
3.0
  9
$DIMCEN
 40
0.0
  9
$DIMTSZ
 40
0.0
  9
$DIMTOL
 70
     0
  9
$DIMLIM
 70
     0
  9
$DIMTIH
 70
     0
  9
$DIMTOH
 70
     0
  9
$DIMSE1
 70
     0
  9
$DIMSE2
 70
     0
  9
$DIMTAD
 70
     1
  9
$DIMZIN
 70
     8
  9
$DIMBLK
  1
OPEN30
  9
$DIMASO
 70
     1
  9
$DIMSHO
 70
     1
  9
$DIMPOST
  1

  9
$DIMAPOST
  1

  9
$DIMALT
 70
     0
  9
$DIMALTD
 70
     2
  9
$DIMALTF
 40
0.039
  9
$DIMLFAC
 40
1.0
  9
$DIMTOFL
 70
     1
  9
$DIMTVP
 40
0.0
  9
$DIMTIX
 70
     0
  9
$DIMSOXD
 70
     0
  9
$DIMSAH
 70
     0
  9
$DIMBLK1
  1

  9
$DIMBLK2
  1

  9
$DIMSTYLE
  2
IGA
  9
$DIMCLRD
 70
     0
  9
$DIMCLRE
 70
     0
  9
$DIMCLRT
 70
     0
  9
$DIMTFAC
 40
10.0
  9
$DIMGAP
 40
1.0
  9
$LUNITS
 70
     2
  9
$LUPREC
 70
     3
  9
$SKETCHINC
 40
0.1
  9
$FILLETRAD
 40
50.0
  9
$AUNITS
 70
     0
  9
$AUPREC
 70
     0
  9
$MENU
  1
acad
  9
$ELEVATION
 40
0.0
  9
$PELEVATION
 40
0.0
  9
$THICKNESS
 40
0.0
  9
$LIMCHECK
 70
     0
  9
$BLIPMODE
 70
     0
  9
$CHAMFERA
 40
0.5
  9
$CHAMFERB
 40
0.5
  9
$SKPOLY
 70
     0
  9
$TDCREATE
 40
2453304.4208819792
  9
$TDUPDATE
 40
2454953.6359009598
  9
$TDINDWG
 40
0.0244768056
  9
$TDUSRTIMER
 40
0.0244768056
  9
$USRTIMER
 70
     1
  9
$ANGBASE
 50
0.0
  9
$ANGDIR
 70
     0
  9
$PDMODE
 70
     0
  9
$PDSIZE
 40
0.0
  9
$PLINEWID
 40
0.0
  9
$COORDS
 70
     1
  9
$SPLFRAME
 70
     0
  9
$SPLINETYPE
 70
     6
  9
$SPLINESEGS
 70
     8
  9
$ATTDIA
 70
     0
  9
$ATTREQ
 70
     1
  9
$HANDLING
 70
 10241
  9
$HANDSEED
  5
489
  9
$SURFTAB1
 70
     6
  9
$SURFTAB2
 70
     6
  9
$SURFTYPE
 70
     6
  9
$SURFU
 70
     6
  9
$SURFV
 70
     6
  9
$UCSNAME
  2

  9
$UCSORG
 10
0.0
 20
0.0
 30
0.0
  9
$UCSXDIR
 10
1.0
 20
0.0
 30
0.0
  9
$UCSYDIR
 10
0.0
 20
1.0
 30
0.0
  9
$PUCSNAME
  2

  9
$PUCSORG
 10
0.0
 20
0.0
 30
0.0
  9
$PUCSXDIR
 10
1.0
 20
0.0
 30
0.0
  9
$PUCSYDIR
 10
0.0
 20
1.0
 30
0.0
  9
$USERI1
 70
     0
  9
$USERI2
 70
     0
  9
$USERI3
 70
     0
  9
$USERI4
 70
     0
  9
$USERI5
 70
     0
  9
$USERR1
 40
0.0
  9
$USERR2
 40
0.0
  9
$USERR3
 40
0.0
  9
$USERR4
 40
0.0
  9
$USERR5
 40
0.0
  9
$WORLDVIEW
 70
     1
  9
$SHADEDGE
 70
     3
  9
$SHADEDIF
 70
    70
  9
$TILEMODE
 70
     1
  9
$MAXACTVP
 70
    16
  9
$PLIMCHECK
 70
     0
  9
$PEXTMIN
 10
1.0000000000000000E+020
 20
1.0000000000000000E+020
 30
1.0000000000000000E+020
  9
$PEXTMAX
 10
-1.0000000000000000E+020
 20
-1.0000000000000000E+020
 30
-1.0000000000000000E+020
  9
$PLIMMIN
 10
0.0
 20
0.0
  9
$PLIMMAX
 10
12.0
 20
9.0
  9
$UNITMODE
 70
     0
  9
$VISRETAIN
 70
     0
  9
$PLINEGEN
 70
     0
  9
$PSLTSCALE
 70
     1
  0
ENDSEC
  0
SECTION
  2
TABLES
  0
TABLE
  2
VPORT
 70
     2
  0
VPORT
  2
*ACTIVE
 70
     0
 10
0.0
 20
0.0
 11
1.0
 21
1.0
 12
-1831.061574278322
 22
-1868.2054998875369
 13
0.0
 23
0.0
 14
10.0
 24
10.0
 15
10.0
 25
10.0
 16
0.0
 26
0.0
 36
1.0
 17
0.0
 27
0.0
 37
0.0
 40
2156.026782298678
 41
3.1666666666666661
 42
50.0
 43
0.0
 44
0.0
 50
0.0
 51
0.0
 71
     0
 72
   100
 73
     1
 74
     0
 75
     0
 76
     0
 77
     0
 78
     0
  0
ENDTAB
  0
TABLE
  2
LTYPE
 70
     2
  0
LTYPE
  2
CONTINUOUS
 70
     0
  3
Solid line
 72
    65
 73
     0
 40
0.0
  0
LTYPE
  2
CENTER
 70
     0
  3
____ _ ____ _ ____ _ ____ _ ____ _ ____ _ ____ 
 72
    65
 73
     4
 40
2.0
 49
1.25
 49
-0.25
 49
0.25
 49
-0.25
  0
ENDTAB
  0
TABLE
  2
LAYER
 70
     6
  0
LAYER
  2
0
 70
     0
 62
     7
  6
CONTINUOUS
  0
LAYER
  2
3
 70
     0
 62
     2
  6
CONTINUOUS
  0
LAYER
  2
1
 70
     0
 62
     4
  6
CONTINUOUS
  0
LAYER
  2
4
 70
     0
 62
     7
  6
CONTINUOUS
  0
LAYER
  2
2
 70
     0
 62
     3
  6
CENTER
  0
LAYER
  2
DEFPOINTS
 70
     0
 62
     7
  6
CONTINUOUS
  0
ENDTAB
  0
TABLE
  2
STYLE
 70
     1
  0
STYLE
  2
STANDARD
 70
     0
 40
0.0
 41
1.0
 50
0.0
 71
     0
 42
180.0
  3
simplex.shx
  4
extfont.shx
  0
ENDTAB
  0
TABLE
  2
VIEW
 70
     0
  0
ENDTAB
  0
TABLE
  2
UCS
 70
     0
  0
ENDTAB
  0
TABLE
  2
APPID
 70
     1
  0
APPID
  2
ACAD
 70
     0
  0
ENDTAB
  0
TABLE
  2
DIMSTYLE
 70
     1
  0
DIMSTYLE
  2
IGA
 70
     0
  3

  4

  5

  6

  7

 40
2.0
 41
2.0
 42
0.5
 43
10.0
 44
1.0
 45
0.0
 46
0.0
 47
1.0
 48
1.0
140
3.0
141
0.0
142
0.0
143
0.03937
144
1.0
145
0.0
146
10.0
147
1.0
 71
     0
 72
     0
 73
     0
 74
     0
 75
     0
 76
     0
 77
     1
 78
     8
170
     0
171
     2
172
     0
173
     1
174
     0
175
     0
176
     0
177
     0
178
     0
  0
ENDTAB
  0
ENDSEC
  0
SECTION
  2
BLOCKS
  0
BLOCK
  8
0
  2
$MODEL_SPACE
 70
     0
 10
0.0
 20
0.0
 30
0.0
  3
$MODEL_SPACE
  1

  0
ENDBLK
  5
A
  8
0
  0
BLOCK
 67
     1
  8
0
  2
$PAPER_SPACE
 70
     0
 10
0.0
 20
0.0
 30
0.0
  3
$PAPER_SPACE
  1

  0
ENDBLK
  5
F
 67
     1
  8
0
  0
BLOCK
  8
0
  2
_OPEN
 70
     0
 10
0.0
 20
0.0
 30
0.0
  3
_OPEN
  1

  0
LINE
  5
11B
  8
0
  6
BYBLOCK
 62
     0
 10
-1.0
 20
0.1666666666666666
 30
0.0
 11
0.0
 21
0.0
 31
0.0
  0
LINE
  5
11C
  8
0
  6
BYBLOCK
 62
     0
 10
0.0
 20
0.0
 30
0.0
 11
-1.0
 21
-0.1666666666666666
 31
0.0
  0
LINE
  5
11D
  8
0
  6
BYBLOCK
 62
     0
 10
0.0
 20
0.0
 30
0.0
 11
-1.0
 21
0.0
 31
0.0
  0
ENDBLK
  5
11F
  8
0
  0
BLOCK
  8
0
  2
*D1
 70
     1
 10
0.0
 20
0.0
 30
0.0
  3
*D1
  1

  0
LINE
  5
421
  8
3
 62
     0
 10
-3658.156683015141
 20
1199.0313218876131
 30
0.0
 11
-3658.156683015141
 21
2078.8725789798841
 31
0.0
  0
LINE
  5
422
  8
3
 62
     0
 10
-1858.156683015141
 20
1199.0313218876131
 30
0.0
 11
-1858.156683015141
 21
2078.8725789798841
 31
0.0
  0
LINE
  5
423
  8
3
 62
     0
 10
-3598.156683015141
 20
2048.8725789798841
 30
0.0
 11
-1918.156683015141
 21
2048.8725789798841
 31
0.0
  0
INSERT
  5
424
  8
3
 62
     0
  2
_OPEN30
 10
-3658.156683015141
 20
2048.8725789798841
 30
0.0
 41
60.0
 42
60.0
 43
60.0
 50
180.0
  0
INSERT
  5
425
  8
3
 62
     0
  2
_OPEN30
 10
-1858.156683015141
 20
2048.8725789798841
 30
0.0
 41
60.0
 42
60.0
 43
60.0
  0
TEXT
  8
3
  40
90
  5
47F
  62
0
  72
0
  71
0
 10
-2943.36
 20
1964.57
 30
0.000000
  1
1800
  0
POINT
  5
427
  8
DEFPOINTS
 62
     0
 10
-3658.156683015141
 20
1184.0313218876131
 30
0.0
  0
POINT
  5
428
  8
DEFPOINTS
 62
     0
 10
-1858.156683015141
 20
1184.0313218876131
 30
0.0
  0
POINT
  5
429
  8
DEFPOINTS
 62
     0
 10
-1858.156683015141
 20
2048.8725789798841
 30
0.0
  0
ENDBLK
  5
136
  8
0
  0
BLOCK
  8
0
  2
*D2
 70
     1
 10
0.0
 20
0.0
 30
0.0
  3
*D2
  1

  0
LINE
  5
42A
  8
3
 62
     0
 10
-3208.1566830151419
 20
319.03132188761202
 30
0.0
 11
-3208.1566830151419
 21
-126.7739863236893
 31
0.0
  0
LINE
  5
42B
  8
3
 62
     0
 10
-2308.1566830151401
 20
319.03132188761202
 30
0.0
 11
-2308.1566830151401
 21
-126.7739863236893
 31
0.0
  0
LINE
  5
42C
  8
3
 62
     0
 10
-3148.156683015141
 20
-96.773986323689314
 30
0.0
 11
-2368.1566830151401
 21
-96.773986323689314
 31
0.0
  0
INSERT
  5
42D
  8
3
 62
     0
  2
_OPEN30
 10
-3208.1566830151419
 20
-96.773986323689314
 30
0.0
 41
60.0
 42
60.0
 43
60.0
 50
180.0
  0
INSERT
  5
42E
  8
3
 62
     0
  2
_OPEN30
 10
-2308.1566830151401
 20
-96.773986323689314
 30
0.0
 41
60.0
 42
60.0
 43
60.0
  0
TEXT
  8
3
  40
90
  5
480
  62
0
  72
0
  71
0
 10
-2900.05
 20
-181.074
 30
0.000000
  1
900
  0
POINT
  5
430
  8
DEFPOINTS
 62
     0
 10
-3208.1566830151419
 20
334.03132188761202
 30
0.0
  0
POINT
  5
431
  8
DEFPOINTS
 62
     0
 10
-2308.1566830151401
 20
334.03132188761202
 30
0.0
  0
POINT
  5
432
  8
DEFPOINTS
 62
     0
 10
-2308.1566830151401
 20
-96.773986323689314
 30
0.0
  0
ENDBLK
  5
14C
  8
0
  0
BLOCK
  8
0
  2
_OPEN30
 70
     0
 10
0.0
 20
0.0
 30
0.0
  3
_OPEN30
  1

  0
LINE
  5
14E
  8
3
 62
     0
 10
-1.0
 20
0.26794919
 30
0.0
 11
0.0
 21
0.0
 31
0.0
  0
LINE
  5
14F
  8
3
 62
     0
 10
0.0
 20
0.0
 30
0.0
 11
-1.0
 21
-0.26794919
 31
0.0
  0
LINE
  5
150
  8
3
 62
     0
 10
0.0
 20
0.0
 30
0.0
 11
-1.0
 21
0.0
 31
0.0
  0
ENDBLK
  5
152
  8
0
  0
BLOCK
  8
0
  2
*D4
 70
     1
 10
0.0
 20
0.0
 30
0.0
  3
*D4
  1

  0
LINE
  5
433
  8
3
 62
     0
 10
-3318.156683015141
 20
279.03132188761208
 30
0.0
 11
-3318.156683015141
 21
-388.73041444649778
 31
0.0
  0
LINE
  5
434
  8
3
 62
     0
 10
-2198.1566830151419
 20
279.03132188761208
 30
0.0
 11
-2198.1566830151419
 21
-388.73041444649778
 31
0.0
  0
LINE
  5
435
  8
3
 62
     0
 10
-3258.156683015141
 20
-358.73041444649789
 30
0.0
 11
-2258.1566830151419
 21
-358.73041444649789
 31
0.0
  0
INSERT
  5
436
  8
3
 62
     0
  2
_OPEN30
 10
-3318.156683015141
 20
-358.73041444649789
 30
0.0
 41
60.0
 42
60.0
 43
60.0
 50
180.0
  0
INSERT
  5
437
  8
3
 62
     0
  2
_OPEN30
 10
-2198.1566830151419
 20
-358.73041444649789
 30
0.0
 41
60.0
 42
60.0
 43
60.0
  0
TEXT
  8
3
  40
90
  5
481
  62
0
  72
0
  71
0
 10
-2960.56
 20
-443.030
 30
0.000000
  1
1120
  0
POINT
  5
439
  8
DEFPOINTS
 62
     0
 10
-3318.156683015141
 20
294.03132188761202
 30
0.0
  0
POINT
  5
43A
  8
DEFPOINTS
 62
     0
 10
-2198.1566830151419
 20
294.03132188761202
 30
0.0
  0
POINT
  5
43B
  8
DEFPOINTS
 62
     0
 10
-2198.1566830151419
 20
-358.73041444649789
 30
0.0
  0
ENDBLK
  5
17A
  8
0
  0
BLOCK
  8
0
  2
*D5
 70
     1
 10
0.0
 20
0.0
 30
0.0
  3
*D5
  1

  0
LINE
  5
43C
  8
3
 62
     0
 10
-5477.3732923216648
 20
319.03132188761208
 30
0.0
 11
-5477.3732923216648
 21
-99.209003142274014
 31
0.0
  0
LINE
  5
43D
  8
3
 62
     0
 10
-4577.3732923216658
 20
319.03132188761202
 30
0.0
 11
-4577.3732923216658
 21
-99.209003142274014
 31
0.0
  0
LINE
  5
43E
  8
3
 62
     0
 10
-5417.3732923216658
 20
-69.209003142274014
 30
0.0
 11
-4637.3732923216648
 21
-69.209003142274014
 31
0.0
  0
INSERT
  5
43F
  8
3
 62
     0
  2
_OPEN30
 10
-5477.3732923216648
 20
-69.209003142274014
 30
0.0
 41
60.0
 42
60.0
 43
60.0
 50
180.0
  0
INSERT
  5
440
  8
3
 62
     0
  2
_OPEN30
 10
-4577.3732923216658
 20
-69.209003142274014
 30
0.0
 41
60.0
 42
60.0
 43
60.0
  0
TEXT
  8
3
  40
90
  5
482
  62
0
  72
0
  71
0
 10
-5206.71
 20
-153.509
 30
0.000000
  1
900
  0
POINT
  5
442
  8
DEFPOINTS
 62
     0
 10
-5477.3732923216648
 20
334.03132188761219
 30
0.0
  0
POINT
  5
443
  8
DEFPOINTS
 62
     0
 10
-4577.3732923216658
 20
334.03132188761202
 30
0.0
  0
POINT
  5
444
  8
DEFPOINTS
 62
     0
 10
-4577.3732923216658
 20
-69.209003142274014
 30
0.0
  0
ENDBLK
  5
187
  8
0
  0
BLOCK
  8
0
  2
*D6
 70
     1
 10
0.0
 20
0.0
 30
0.0
  3
*D6
  1

  0
LINE
  5
445
  8
3
 62
     0
 10
-5587.3732923216648
 20
279.03132188761208
 30
0.0
 11
-5587.3732923216648
 21
-366.4221198824016
 31
0.0
  0
LINE
  5
446
  8
3
 62
     0
 10
-4467.3732923216658
 20
279.03132188761208
 30
0.0
 11
-4467.3732923216658
 21
-366.4221198824016
 31
0.0
  0
LINE
  5
447
  8
3
 62
     0
 10
-5527.3732923216658
 20
-336.4221198824016
 30
0.0
 11
-4527.3732923216667
 21
-336.4221198824016
 31
0.0
  0
INSERT
  5
448
  8
3
 62
     0
  2
_OPEN30
 10
-5587.3732923216648
 20
-336.4221198824016
 30
0.0
 41
60.0
 42
60.0
 43
60.0
 50
180.0
  0
INSERT
  5
449
  8
3
 62
     0
  2
_OPEN30
 10
-4467.3732923216658
 20
-336.4221198824016
 30
0.0
 41
60.0
 42
60.0
 43
60.0
  0
TEXT
  8
3
  40
90
  5
483
  62
0
  72
0
  71
0
 10
-5215.63
 20
-420.722
 30
0.000000
  1
1120
  0
POINT
  5
44B
  8
DEFPOINTS
 62
     0
 10
-5587.3732923216648
 20
294.03132188761202
 30
0.0
  0
POINT
  5
44C
  8
DEFPOINTS
 62
     0
 10
-4467.3732923216658
 20
294.03132188761202
 30
0.0
  0
POINT
  5
44D
  8
DEFPOINTS
 62
     0
 10
-4467.3732923216658
 20
-336.4221198824016
 30
0.0
  0
ENDBLK
  5
194
  8
0
  0
BLOCK
  8
0
  2
*D7
 70
     1
 10
0.0
 20
0.0
 30
0.0
  3
*D7
  1

  0
LINE
  5
44E
  8
3
 62
     0
 10
-4127.3732923216648
 20
1649.0313218876111
 30
0.0
 11
-4127.3732923216648
 21
2106.9080342848861
 31
0.0
  0
LINE
  5
44F
  8
3
 62
     0
 10
-5927.3732923216648
 20
1649.031321887612
 30
0.0
 11
-5927.3732923216648
 21
2106.9080342848861
 31
0.0
  0
LINE
  5
450
  8
3
 62
     0
 10
-4187.3732923216648
 20
2076.9080342848861
 30
0.0
 11
-5867.3732923216658
 21
2076.9080342848861
 31
0.0
  0
INSERT
  5
451
  8
3
 62
     0
  2
_OPEN30
 10
-4127.3732923216648
 20
2076.9080342848861
 30
0.0
 41
60.0
 42
60.0
 43
60.0
  0
INSERT
  5
452
  8
3
 62
     0
  2
_OPEN30
 10
-5927.3732923216648
 20
2076.9080342848861
 30
0.0
 41
60.0
 42
60.0
 43
60.0
 50
180.0
  0
TEXT
  8
3
  40
90
  5
484
  62
0
  72
0
  71
0
 10
-5197.21
 20
1992.61
 30
0.000000
  1
1800
  0
POINT
  5
454
  8
DEFPOINTS
 62
     0
 10
-4127.3732923216648
 20
1634.0313218876111
 30
0.0
  0
POINT
  5
455
  8
DEFPOINTS
 62
     0
 10
-5927.3732923216648
 20
1634.031321887612
 30
0.0
  0
POINT
  5
456
  8
DEFPOINTS
 62
     0
 10
-5927.3732923216648
 20
2076.9080342848861
 30
0.0
  0
ENDBLK
  5
1A1
  8
0
  0
BLOCK
  8
0
  2
*D8
 70
     1
 10
0.0
 20
0.0
 30
0.0
  3
*D8
  1

  0
LINE
  5
457
  8
3
 62
     0
 10
-5942.3732923216658
 20
1634.031321887612
 30
0.0
 11
-6316.664885733072
 21
1634.031321887612
 31
0.0
  0
LINE
  5
458
  8
3
 62
     0
 10
-5942.3732923216658
 20
1084.031321887612
 30
0.0
 11
-6316.664885733072
 21
1084.031321887612
 31
0.0
  0
LINE
  5
459
  8
3
 62
     0
 10
-6286.6648857330729
 20
1574.031321887612
 30
0.0
 11
-6286.6648857330729
 21
1144.031321887612
 31
0.0
  0
INSERT
  5
45A
  8
3
 62
     0
  2
_OPEN30
 10
-6286.6648857330729
 20
1634.031321887612
 30
0.0
 41
60.0
 42
60.0
 43
60.0
 50
90.0
  0
INSERT
  5
45B
  8
3
 62
     0
  2
_OPEN30
 10
-6286.6648857330729
 20
1084.031321887612
 30
0.0
 41
60.0
 42
60.0
 43
60.0
 50
270.0
  0
TEXT
  8
3
  40
90
  5
485
  62
0
  72
0
  71
0
 10
-6541.66
 20
1191.14
 30
0.000000
  1
550
  0
POINT
  5
45D
  8
DEFPOINTS
 62
     0
 10
-5927.3732923216648
 20
1634.031321887612
 30
0.0
  0
POINT
  5
45E
  8
DEFPOINTS
 62
     0
 10
-5927.3732923216648
 20
1084.031321887612
 30
0.0
  0
POINT
  5
45F
  8
DEFPOINTS
 62
     0
 10
-6286.6648857330729
 20
1084.031321887612
 30
0.0
  0
ENDBLK
  5
1AE
  8
0
  0
BLOCK
  8
0
  2
*D9
 70
     1
 10
0.0
 20
0.0
 30
0.0
  3
*D9
  1

  0
LINE
  5
460
  8
3
 62
     0
 10
-5942.3732923216658
 20
1084.031321887612
 30
0.0
 11
-6316.664885733072
 21
1084.031321887612
 31
0.0
  0
LINE
  5
461
  8
3
 62
     0
 10
-5606.8732923216648
 20
444.03132188761202
 30
0.0
 11
-6316.664885733072
 21
444.03132188761231
 31
0.0
  0
LINE
  5
462
  8
3
 62
     0
 10
-6286.6648857330729
 20
1024.031321887612
 30
0.0
 11
-6286.6648857330729
 21
504.03132188761219
 31
0.0
  0
INSERT
  5
463
  8
3
 62
     0
  2
_OPEN30
 10
-6286.6648857330729
 20
1084.031321887612
 30
0.0
 41
60.0
 42
60.0
 43
60.0
 50
90.0
  0
INSERT
  5
464
  8
3
 62
     0
  2
_OPEN30
 10
-6286.6648857330729
 20
444.03132188761231
 30
0.0
 41
60.0
 42
60.0
 43
60.0
 50
270.0
  0
TEXT
  8
3
  40
90
  5
486
  62
0
  72
0
  71
0
 10
-6541.66
 20
604.731
 30
0.000000
  1
640
  0
POINT
  5
466
  8
DEFPOINTS
 62
     0
 10
-5927.3732923216648
 20
1084.031321887612
 30
0.0
  0
POINT
  5
467
  8
DEFPOINTS
 62
     0
 10
-5591.8732923216658
 20
444.03132188761202
 30
0.0
  0
POINT
  5
468
  8
DEFPOINTS
 62
     0
 10
-6286.6648857330729
 20
444.03132188761231
 30
0.0
  0
ENDBLK
  5
1BB
  8
0
  0
BLOCK
  8
0
  2
*D10
 70
     1
 10
0.0
 20
0.0
 30
0.0
  3
*D10
  1

  0
LINE
  5
469
  8
3
 62
     0
 10
-5606.8732923216648
 20
444.03132188761202
 30
0.0
 11
-6316.664885733072
 21
444.03132188761231
 31
0.0
  0
LINE
  5
46A
  8
3
 62
     0
 10
-5606.8732923216648
 20
294.03132188761202
 30
0.0
 11
-6316.664885733072
 21
294.03132188761231
 31
0.0
  0
LINE
  5
46B
  8
3
 62
     0
 10
-6286.6648857330729
 20
504.03132188761219
 30
0.0
 11
-6286.6648857330729
 21
564.03132188761219
 31
0.0
  0
LINE
  5
46C
  8
3
 62
     0
 10
-6286.6648857330729
 20
234.03132188761219
 30
0.0
 11
-6286.6648857330729
 21
174.03132188761219
 31
0.0
  0
TEXT
  8
3
  40
90
  5
487
  62
0
  72
0
  71
0
 10
-6538.97
 20
-40.7156
 30
0.000000
  1
150
  0
LINE
  5
46E
  8
3
 62
     0
 10
-6286.6648857330729
 20
444.03132188761231
 30
0.0
 11
-6286.6648857330729
 21
294.03132188761231
 31
0.0
  0
INSERT
  5
46F
  8
3
 62
     0
  2
_OPEN30
 10
-6286.6648857330729
 20
444.03132188761231
 30
0.0
 41
60.0
 42
60.0
 43
60.0
 50
270.0
  0
INSERT
  5
470
  8
3
 62
     0
  2
_OPEN30
 10
-6286.6648857330729
 20
294.03132188761231
 30
0.0
 41
60.0
 42
60.0
 43
60.0
 50
90.0
  0
POINT
  5
471
  8
DEFPOINTS
 62
     0
 10
-5591.8732923216658
 20
444.03132188761202
 30
0.0
  0
POINT
  5
472
  8
DEFPOINTS
 62
     0
 10
-5591.8732923216658
 20
294.03132188761202
 30
0.0
  0
POINT
  5
473
  8
DEFPOINTS
 62
     0
 10
-6286.6648857330729
 20
294.03132188761231
 30
0.0
  0
ENDBLK
  5
1CD
  8
0
  0
BLOCK
  8
0
  2
*D11
 70
     1
 10
0.0
 20
0.0
 30
0.0
  3
*D11
  1

  0
LINE
  5
474
  8
3
 62
     0
 10
-5502.3732923216648
 20
344.03132188761208
 30
0.0
 11
-5905.907993314715
 21
344.03132188761231
 31
0.0
  0
LINE
  5
475
  8
3
 62
     0
 10
-5606.8732923216648
 20
294.03132188761202
 30
0.0
 11
-5905.907993314715
 21
294.03132188761208
 31
0.0
  0
LINE
  5
476
  8
3
 62
     0
 10
-5875.907993314715
 20
404.03132188761219
 30
0.0
 11
-5875.907993314715
 21
464.03132188761231
 31
0.0
  0
LINE
  5
477
  8
3
 62
     0
 10
-5875.907993314715
 20
234.03132188761211
 30
0.0
 11
-5875.907993314715
 21
-31.682963826673578
 31
0.0
  0
LINE
  5
478
  8
3
 62
     0
 10
-5875.907993314715
 20
344.03132188761231
 30
0.0
 11
-5875.907993314715
 21
294.03132188761208
 31
0.0
  0
INSERT
  5
479
  8
3
 62
     0
  2
_OPEN30
 10
-5875.907993314715
 20
344.03132188761231
 30
0.0
 41
60.0
 42
60.0
 43
60.0
 50
270.0
  0
INSERT
  5
47A
  8
3
 62
     0
  2
_OPEN30
 10
-5875.907993314715
 20
294.03132188761208
 30
0.0
 41
60.0
 42
60.0
 43
60.0
 50
90.0
  0
TEXT
  8
3
  40
90
  5
488
  62
0
  72
0
  71
0
 10
-6130.91
 20
-88.1258
 30
0.000000
  1
50
  0
POINT
  5
47C
  8
DEFPOINTS
 62
     0
 10
-5487.3732923216658
 20
344.03132188761208
 30
0.0
  0
POINT
  5
47D
  8
DEFPOINTS
 62
     0
 10
-5591.8732923216658
 20
294.03132188761202
 30
0.0
  0
POINT
  5
47E
  8
DEFPOINTS
 62
     0
 10
-5875.907993314715
 20
294.03132188761208
 30
0.0
  0
ENDBLK
  5
268
  8
0
  0
ENDSEC
  0
SECTION
  2
ENTITIES
  0
LINE
  5
24
  8
1
 10
-3518.1566830151419
 20
1084.031321887612
 30
0.0
 11
-1998.156683015148
 21
1084.0313218876111
 31
0.0
  0
LINE
  5
25
  8
1
 10
-3322.656683015141
 20
444.03132188761202
 30
0.0
 11
-2193.656683015141
 21
444.03132188761202
 31
0.0
  0
LINE
  5
26
  8
1
 10
-3322.656683015141
 20
294.03132188761202
 30
0.0
 11
-2193.656683015141
 21
294.03132188761202
 31
0.0
  0
LINE
  5
27
  8
1
 10
-3318.156683015141
 20
428.53132188761208
 30
0.0
 11
-2198.156683015141
 21
428.5313218876102
 31
0.0
  0
LINE
  5
28
  8
1
 10
-3318.156683015141
 20
424.03132188761208
 30
0.0
 11
-2198.156683015141
 21
424.03132188761208
 31
0.0
  0
LINE
  5
29
  8
1
 10
-3081.651034274495
 20
454.03132188761208
 30
0.0
 11
-2434.6623317557878
 21
454.03132188761208
 31
0.0
  0
LINE
  5
2A
  8
1
 10
-3256.5566830151411
 20
1634.031321887612
 30
0.0
 11
-2258.156683015141
 21
1634.0313218876111
 31
0.0
  0
LINE
  5
2B
  8
1
 10
-3248.156683015141
 20
1234.031321887612
 30
0.0
 11
-2268.156683015141
 21
1234.031321887612
 31
0.0
  0
LINE
  5
2C
  8
1
 10
-3248.156683015141
 20
1229.5313218876111
 30
0.0
 11
-2268.156683015141
 21
1229.5313218876099
 31
0.0
  0
LINE
  5
30
  8
4
 10
-5128.4112133513772
 20
-2032.9063028466401
 30
0.0
 11
-2128.4112133513768
 21
-2032.9063028466401
 31
0.0
  0
LINE
  5
31
  8
4
 10
-5128.4112133513772
 20
-1782.9063028466401
 30
0.0
 11
-2128.4112133513768
 21
-1782.9063028466401
 31
0.0
  0
TEXT
  5
32
  8
4
 10
-3809.2143496322151
 20
-1726.4768804527189
 30
0.0
 40
125.0
  1
ミツヤ軸流排煙ファン
  0
TEXT
  5
33
  8
4
 10
-3786.7749743876748
 20
-1990.0073421467821
 30
0.0
 40
125.0
  1
APE#900-3R
  0
LINE
  5
35
  8
4
 10
-6128.4112133513772
 20
3390.615582815371
 30
0.0
 11
-2128.4112133513768
 21
3390.615582815371
 31
0.0
  0
LINE
  5
36
  8
4
 10
-6128.4112133513772
 20
3890.615582815371
 30
0.0
 11
-2128.4112133513768
 21
3890.615582815371
 31
0.0
  0
LINE
  5
37
  8
4
 10
-5128.4112133513772
 20
-1532.9063028466401
 30
0.0
 11
-2128.4112133513768
 21
-1532.9063028466401
 31
0.0
  0
TEXT
  5
38
  8
4
 10
-3475.171056851344
 20
3175.6658004846481
 30
0.0
 40
135.0
  1
縮尺：1/25
  0
LINE
  5
39
  8
4
 10
-3151.8676574517149
 20
4183.7243510277403
 30
0.0
 11
-2128.4112133513768
 21
4183.7243510277403
 31
0.0
  0
LINE
  5
3A
  8
4
 10
-2128.4112133513768
 20
3920.2526549668619
 30
0.0
 11
-3151.8676574517149
 21
3920.2526549668619
 31
0.0
  0
LINE
  5
3B
  8
4
 10
-6753.4112133513772
 20
4592.0936971533592
 30
0.0
 11
-1503.411213351377
 21
4592.0936971533592
 31
0.0
  0
LINE
  5
3C
  8
4
 10
-1503.411213351377
 20
-2782.9063028466398
 30
0.0
 11
-6753.4112133513772
 21
-2782.9063028466398
 31
0.0
  0
LINE
  5
3D
  8
1
 10
-5477.3732923216648
 20
1184.031321887612
 30
0.0
 11
-5477.3732923216648
 21
424.03132188761219
 31
0.0
  0
LINE
  5
3E
  8
1
 10
-5481.8732923216648
 20
1084.9351643939719
 30
0.0
 11
-5481.8732923216648
 21
619.94795016720172
 31
0.0
  0
LINE
  5
3F
  8
2
 10
-5027.3732923216658
 20
200.97312166688059
 30
0.0
 11
-5027.3732923216658
 21
1675.093357523124
 31
0.0
  0
LINE
  5
40
  8
1
 10
-4577.3732923216658
 20
1184.031321887612
 30
0.0
 11
-4577.3732923216658
 21
424.03132188761219
 31
0.0
  0
LINE
  5
41
  8
1
 10
-4515.3085991431517
 20
958.03132188761219
 30
0.0
 11
-4515.3085991431517
 21
848.03132188761208
 31
0.0
  0
LINE
  5
42
  8
1
 10
-4515.3085991431517
 20
853.03132188761219
 30
0.0
 11
-4515.3085991431517
 21
953.03132188761219
 31
0.0
  0
LINE
  5
43
  8
1
 10
-4514.3085991431517
 20
852.37532188761213
 30
0.0
 11
-4514.3085991431517
 21
952.97932188761195
 31
0.0
  0
LINE
  5
44
  8
1
 10
-4514.3085991431517
 20
848.03132188761208
 30
0.0
 11
-4514.3085991431517
 21
957.03132188761208
 31
0.0
  0
LINE
  5
45
  8
1
 10
-4572.8732923216648
 20
1084.9351643939719
 30
0.0
 11
-4572.8732923216648
 21
619.94795016720172
 31
0.0
  0
LINE
  5
46
  8
1
 10
-4510.2028991431516
 20
968.61232188761221
 30
0.0
 11
-4453.7514991431526
 21
827.48432188761205
 31
0.0
  0
LINE
  5
47
  8
1
 10
-4505.9318991431519
 20
968.70532188761263
 30
0.0
 11
-4450.594699143151
 21
830.36232188761221
 31
0.0
  0
LINE
  5
48
  8
1
 10
-4454.6898991431517
 20
944.41232188761205
 30
0.0
 11
-4449.4133991431518
 21
836.78332188761215
 31
0.0
  0
LINE
  5
49
  8
2
 10
-2758.156683015141
 20
294.03132188761202
 30
0.0
 11
-2758.156683015141
 21
1701.4322096398109
 31
0.0
  0
LINE
  5
4A
  8
1
 10
-3208.1566830151419
 20
1234.031321887612
 30
0.0
 11
-3208.1566830151419
 21
428.53132188761208
 31
0.0
  0
LINE
  5
4B
  8
1
 10
-3212.6566830151419
 20
1084.896887605511
 30
0.0
 11
-3212.6566830151419
 21
619.94795016720172
 31
0.0
  0
LINE
  5
4C
  8
4
 10
-6753.4112133513772
 20
-2782.9063028466398
 30
0.0
 11
-6753.4112133513772
 21
4592.0936971533592
 31
0.0
  0
LINE
  5
4D
  8
1
 10
-5591.8732923216658
 20
444.03132188761202
 30
0.0
 11
-4462.8732923216658
 21
444.03132188761202
 31
0.0
  0
LINE
  5
4E
  8
1
 10
-5591.8732923216658
 20
294.03132188761202
 30
0.0
 11
-4462.8732923216658
 21
294.03132188761202
 31
0.0
  0
LINE
  5
4F
  8
1
 10
-5587.3732923216648
 20
428.53132188761208
 30
0.0
 11
-4467.3732923216658
 21
428.5313218876102
 31
0.0
  0
LINE
  5
50
  8
1
 10
-5587.3732923216658
 20
424.03132188761208
 30
0.0
 11
-4467.3732923216658
 21
424.03132188761208
 31
0.0
  0
LINE
  5
51
  8
1
 10
-5350.8676435810194
 20
454.03132188761208
 30
0.0
 11
-4703.8789410623122
 21
454.03132188761208
 31
0.0
  0
LINE
  5
52
  8
1
 10
-5591.8732923216658
 20
294.03132188761202
 30
0.0
 11
-5591.8732923216658
 21
444.03132188761202
 31
0.0
  0
LINE
  5
53
  8
1
 10
-5587.3732923216648
 20
294.03132188761202
 30
0.0
 11
-5587.3732923216648
 21
444.03132188761202
 31
0.0
  0
LINE
  5
54
  8
1
 10
-5591.8732923216658
 20
444.03132188761202
 30
0.0
 11
-5350.8676435810194
 21
454.03132188761208
 31
0.0
  0
LINE
  5
55
  8
1
 10
-5400.8676435810194
 20
728.53132188761037
 30
0.0
 11
-5587.3732923216648
 21
478.5313218876102
 31
0.0
  0
LINE
  5
56
  8
1
 10
-5587.3732923216648
 20
428.5313218876102
 30
0.0
 11
-5587.3732923216648
 21
478.53132188760981
 31
0.0
  0
LINE
  5
57
  8
1
 10
-5481.8732923216648
 20
619.94795016720172
 30
0.0
 11
-5481.8732923216648
 21
428.53132188761208
 31
0.0
  0
LINE
  5
58
  8
1
 10
-5350.8676435810194
 20
728.53132188761083
 30
0.0
 11
-5350.8676435810194
 21
454.03132188761208
 31
0.0
  0
CIRCLE
  5
59
  8
1
 10
-5477.3732923216648
 20
344.03132188761208
 30
0.0
 40
7.5
  0
LINE
  5
5A
  8
1
 10
-5487.3732923216658
 20
344.03132188761208
 30
0.0
 11
-5467.3732923216658
 21
344.03132188761208
 31
0.0
  0
LINE
  5
5B
  8
1
 10
-5499.8732923216658
 20
464.53132188761202
 30
0.0
 11
-5499.8732923216658
 21
383.03132188761208
 31
0.0
  0
LINE
  5
5C
  8
1
 10
-5477.3732923216648
 20
334.03132188761219
 30
0.0
 11
-5477.3732923216648
 21
354.03132188761208
 31
0.0
  0
LINE
  5
5D
  8
1
 10
-5517.3732923216658
 20
428.53132188761191
 30
0.0
 11
-5517.3732923216658
 21
424.03132188761219
 31
0.0
  0
LINE
  5
5E
  8
1
 10
-5350.8676435810194
 20
728.53132188761037
 30
0.0
 11
-5400.8676435810194
 21
728.53132188761037
 31
0.0
  0
LINE
  5
5F
  8
1
 10
-5473.3732923216658
 20
685.23302233043432
 30
0.0
 11
-5473.3732923216658
 21
625.23302233043432
 31
0.0
  0
TEXT
  5
61
  8
4
 10
-5032.1560112341231
 20
-1704.0487381801081
 30
0.0
 40
125.0
  1
機器名称
  0
TEXT
  5
62
  8
4
 10
-5037.7659482893832
 20
-1978.7934110166129
 30
0.0
 40
125.0
  1
機器型番
  0
LINE
  5
63
  8
4
 10
-5128.4112133513772
 20
-1532.9063028466401
 30
0.0
 11
-5128.4112133513772
 21
-2032.9063028466401
 31
0.0
  0
LINE
  5
64
  8
4
 10
-3878.4112133513768
 20
-1532.9063028466401
 30
0.0
 11
-3878.4112133513759
 21
-2032.9063028466401
 31
0.0
  0
LINE
  5
65
  8
1
 10
-4653.8789410623122
 20
728.53132188761037
 30
0.0
 11
-4467.3732923216658
 21
478.5313218876102
 31
0.0
  0
LINE
  5
66
  8
1
 10
-4462.8732923216658
 20
444.03132188761202
 30
0.0
 11
-4703.8789410623122
 21
454.03132188761208
 31
0.0
  0
CIRCLE
  5
67
  8
1
 10
-4577.3732923216658
 20
344.03132188761202
 30
0.0
 40
7.5
  0
LINE
  5
68
  8
1
 10
-4587.3732923216648
 20
344.03132188761202
 30
0.0
 11
-4567.3732923216658
 21
344.03132188761202
 31
0.0
  0
LINE
  5
69
  8
1
 10
-4694.5210851939746
 20
903.03132188761219
 30
0.0
 11
-4467.3732923216658
 21
903.03132188761219
 31
0.0
  0
LINE
  5
6A
  8
1
 10
-4572.8732923216648
 20
848.03132188761208
 30
0.0
 11
-4515.3085991431517
 21
848.03132188761208
 31
0.0
  0
LINE
  5
6B
  8
1
 10
-4572.8732923216648
 20
619.94795016720172
 30
0.0
 11
-4572.8732923216648
 21
428.5313218876102
 31
0.0
  0
LINE
  5
6C
  8
1
 10
-4703.8789410623122
 20
728.53132188761083
 30
0.0
 11
-4703.8789410623122
 21
454.03132188761208
 31
0.0
  0
LINE
  5
6D
  8
1
 10
-4577.3732923216658
 20
334.03132188761202
 30
0.0
 11
-4577.3732923216658
 21
354.03132188761208
 31
0.0
  0
LINE
  5
6E
  8
1
 10
-4703.8789410623122
 20
728.53132188761037
 30
0.0
 11
-4653.8789410623122
 21
728.53132188761037
 31
0.0
  0
LINE
  5
6F
  8
1
 10
-4581.3732923216648
 20
685.23302233043432
 30
0.0
 11
-4581.3732923216648
 21
625.23302233043432
 31
0.0
  0
LINE
  5
70
  8
1
 10
-4462.8732923216658
 20
294.03132188761202
 30
0.0
 11
-4462.8732923216658
 21
444.03132188761202
 31
0.0
  0
LINE
  5
71
  8
1
 10
-4467.3732923216658
 20
294.03132188761202
 30
0.0
 11
-4467.3732923216658
 21
444.03132188761202
 31
0.0
  0
LINE
  5
72
  8
1
 10
-4467.3732923216658
 20
428.5313218876102
 30
0.0
 11
-4467.3732923216658
 21
478.53132188760981
 31
0.0
  0
LINE
  5
73
  8
1
 10
-4554.8732923216658
 20
464.53132188761202
 30
0.0
 11
-4554.8732923216658
 21
383.03132188761208
 31
0.0
  0
LINE
  5
74
  8
1
 10
-4537.3732923216658
 20
428.53132188761037
 30
0.0
 11
-4537.3732923216658
 21
424.03132188761219
 31
0.0
  0
LINE
  5
75
  8
1
 10
-4457.9704991431518
 20
838.03132188761208
 30
0.0
 11
-4504.3085991431517
 21
838.03132188761208
 31
0.0
  0
ARC
  5
76
  8
1
 10
-4504.3085991431517
 20
848.03132188761208
 30
0.0
 40
10.0
 50
180.0
 51
270.0
  0
LINE
  5
77
  8
1
 10
-4515.3085991431517
 20
853.03132188761219
 30
0.0
 11
-4514.3085991431517
 21
853.03132188761219
 31
0.0
  0
LINE
  5
78
  8
1
 10
-4451.8187991431523
 20
833.64232188761264
 30
0.0
 11
-4451.2955991431509
 21
833.85132188761224
 31
0.0
  0
LINE
  5
79
  8
1
 10
-4453.7514991431526
 20
827.48432188761205
 30
0.0
 11
-4451.4302991431523
 21
828.41232188761205
 31
0.0
  0
LINE
  5
7A
  8
1
 10
-4479.3085991431517
 20
840.52632188761254
 30
0.0
 11
-4479.3085991431517
 21
834.02732188761217
 31
0.0
  0
ARC
  5
7B
  8
1
 10
-4451.9873991431523
 20
829.80532188761197
 30
0.0
 40
1.5
 50
291.80100000000022
 51
21.80309999999896
  0
ARC
  5
7C
  8
1
 10
-4452.4097991431508
 20
836.63632188761221
 30
0.0
 40
3.0
 50
291.80209999999869
 51
2.8058000000000241
  0
LINE
  5
7D
  8
1
 10
-3131.651034274495
 20
728.53132188761037
 30
0.0
 11
-3318.156683015141
 21
478.5313218876102
 31
0.0
  0
LINE
  5
7E
  8
1
 10
-3322.656683015141
 20
444.03132188761202
 30
0.0
 11
-3081.651034274495
 21
454.03132188761208
 31
0.0
  0
LINE
  5
7F
  8
1
 10
-3322.656683015141
 20
294.03132188761202
 30
0.0
 11
-3322.656683015141
 21
444.03132188761202
 31
0.0
  0
LINE
  5
80
  8
1
 10
-3318.156683015141
 20
294.03132188761202
 30
0.0
 11
-3318.156683015141
 21
444.03132188761202
 31
0.0
  0
LINE
  5
81
  8
1
 10
-3318.156683015141
 20
428.5313218876102
 30
0.0
 11
-3318.156683015141
 21
478.53132188760981
 31
0.0
  0
LINE
  5
82
  8
1
 10
-3081.651034274495
 20
728.53132188761083
 30
0.0
 11
-3081.651034274495
 21
454.03132188761208
 31
0.0
  0
LINE
  5
83
  8
1
 10
-3212.6566830151419
 20
619.94795016720172
 30
0.0
 11
-3212.6566830151419
 21
428.53132188761208
 31
0.0
  0
CIRCLE
  5
84
  8
1
 10
-3208.1566830151419
 20
344.03132188761202
 30
0.0
 40
7.5
  0
LINE
  5
85
  8
1
 10
-3218.156683015141
 20
344.03132188761202
 30
0.0
 11
-3198.156683015141
 21
344.03132188761202
 31
0.0
  0
LINE
  5
86
  8
1
 10
-3230.656683015141
 20
464.53132188761202
 30
0.0
 11
-3230.656683015141
 21
383.03132188761208
 31
0.0
  0
LINE
  5
87
  8
1
 10
-3208.1566830151419
 20
334.03132188761202
 30
0.0
 11
-3208.1566830151419
 21
354.03132188761208
 31
0.0
  0
LINE
  5
88
  8
1
 10
-3081.651034274495
 20
728.53132188761037
 30
0.0
 11
-3131.651034274495
 21
728.53132188761037
 31
0.0
  0
LINE
  5
89
  8
1
 10
-3204.1566830151419
 20
685.23302233043432
 30
0.0
 11
-3204.1566830151419
 21
625.23302233043432
 31
0.0
  0
LINE
  5
8A
  8
1
 10
-5927.3732923216648
 20
1184.031321887612
 30
0.0
 11
-4127.3732923216648
 21
1184.0313218876111
 31
0.0
  0
LINE
  5
8B
  8
1
 10
-5927.3732923216648
 20
1634.031321887612
 30
0.0
 11
-4127.3732923216648
 21
1634.0313218876111
 31
0.0
  0
TEXT
  5
8C
  8
4
 10
-5962.9922300277622
 20
3551.7961376516041
 30
0.0
 40
180.0
  1
電動機直動横形軸流式排煙ファン
  0
TEXT
  5
8D
  8
4
 10
-6054.0487461472476
 20
3172.892391019217
 30
0.0
 40
135.0
  1
左回転前方吐出
  0
LINE
  5
8E
  8
1
 10
-5927.3732923216648
 20
1084.031321887612
 30
0.0
 11
-5927.3732923216648
 21
1634.031321887612
 31
0.0
  0
LINE
  5
8F
  8
1
 10
-5925.7732923216663
 20
1084.031321887612
 30
0.0
 11
-5925.7732923216663
 21
1184.031321887612
 31
0.0
  0
LINE
  5
90
  8
1
 10
-5927.3732923216648
 20
1084.031321887612
 30
0.0
 11
-5925.7732923216663
 21
1084.031321887612
 31
0.0
  0
LINE
  5
91
  8
1
 10
-5350.8676435810203
 20
929.53132188761083
 30
0.0
 11
-5400.8676435810194
 21
929.53132188761026
 31
0.0
  0
LINE
  5
92
  8
1
 10
-5531.1823890760179
 20
1179.5313218876099
 30
0.0
 11
-5400.8676435810194
 21
929.53132188761026
 31
0.0
  0
LINE
  5
93
  8
1
 10
-5481.8732923216648
 20
1184.031321887612
 30
0.0
 11
-5481.8732923216648
 21
1084.9351643939719
 31
0.0
  0
LINE
  5
94
  8
1
 10
-5531.1823890760179
 20
1184.031321887612
 30
0.0
 11
-5531.1823890760179
 21
1179.5313218876099
 31
0.0
  0
LINE
  5
95
  8
1
 10
-5350.8676435810203
 20
929.53132188761026
 30
0.0
 11
-5350.8676435810194
 21
1184.031321887612
 31
0.0
  0
LINE
  5
96
  8
1
 10
-5515.7845497331436
 20
1676.0313218876111
 30
0.0
 11
-5539.7346173306578
 21
1676.0313218876111
 31
0.0
  0
LINE
  5
97
  8
1
 10
-5533.6232498156724
 20
1660.466939471338
 30
0.0
 11
-5535.3732923216658
 21
1660.466939471338
 31
0.0
  0
LINE
  5
98
  8
1
 10
-5533.6232467458294
 20
1657.627599935475
 30
0.0
 11
-5538.2126318575283
 21
1657.627599935475
 31
0.0
  0
LINE
  5
99
  8
1
 10
-5512.3732923216648
 20
1634.0313218876111
 30
0.0
 11
-5542.3732923216658
 21
1634.0313218876111
 31
0.0
  0
LINE
  5
9A
  8
1
 10
-5538.2126318575283
 20
1657.627599935475
 30
0.0
 11
-5535.3732923216658
 21
1660.466939471338
 31
0.0
  0
LINE
  5
9B
  8
1
 10
-5542.3732923216658
 20
1634.0313218876111
 30
0.0
 11
-5538.2126318575283
 21
1657.627599935475
 31
0.0
  0
ARC
  5
9C
  8
1
 10
-5527.3732923216658
 20
1699.7813218876111
 30
0.0
 40
6.25
 50
359.99993805284151
 51
180.00006194715851
  0
LINE
  5
9D
  8
1
 10
-5519.3732923216658
 20
1660.466939471338
 30
0.0
 11
-5521.1233348276601
 21
1660.466939471338
 31
0.0
  0
LINE
  5
9E
  8
1
 10
-5516.5339527858032
 20
1657.627599935475
 30
0.0
 11
-5521.123337897503
 21
1657.627599935475
 31
0.0
  0
LINE
  5
9F
  8
1
 10
-5516.5339527858032
 20
1657.627599935475
 30
0.0
 11
-5519.3732923216658
 21
1660.466939471338
 31
0.0
  0
ARC
  5
A0
  8
1
 10
-5527.3732923216658
 20
1652.2813218876111
 30
0.0
 40
6.25
 50
180.23233247289571
 51
359.76766752710421
  0
LINE
  5
A1
  8
1
 10
-5521.1232923216703
 20
1699.7813151302239
 30
0.0
 11
-5521.1233437052024
 21
1652.2559784157429
 31
0.0
  0
LINE
  5
A2
  8
1
 10
-5533.6232923216621
 20
1699.7813151302239
 30
0.0
 11
-5533.62324093813
 21
1652.2559784157429
 31
0.0
  0
LINE
  5
A3
  8
1
 10
-5512.3732923216648
 20
1634.0313218876111
 30
0.0
 11
-5516.5339527858032
 21
1657.627599935475
 31
0.0
  0
LINE
  5
A4
  8
1
 10
-5527.3732923216658
 20
1712.5751261847549
 30
0.0
 11
-5527.3732923216658
 21
1627.9067341791419
 31
0.0
  0
LINE
  5
A5
  8
4
 10
-6128.4112133513772
 20
3890.615582815371
 30
0.0
 11
-6128.4112133513772
 21
3390.615582815371
 31
0.0
  0
TEXT
  5
A6
  8
4
 10
-4491.4467996863668
 20
3175.6658004846481
 30
0.0
 40
135.0
  1
床置ベット
  0
LINE
  5
A7
  8
1
 10
-4523.5641955673118
 20
1179.5313218876099
 30
0.0
 11
-4653.8789410623122
 21
929.53132188761026
 31
0.0
  0
LINE
  5
A8
  8
1
 10
-4572.8732923216648
 20
958.03132188761219
 30
0.0
 11
-4515.3085991431517
 21
958.03132188761219
 31
0.0
  0
LINE
  5
A9
  8
1
 10
-4703.8789410623112
 20
929.53132188761026
 30
0.0
 11
-4703.8789410623122
 21
1184.0313218876111
 31
0.0
  0
LINE
  5
AA
  8
1
 10
-4703.8789410623112
 20
929.53132188761083
 30
0.0
 11
-4653.8789410623122
 21
929.53132188761026
 31
0.0
  0
LINE
  5
AB
  8
1
 10
-4572.8732923216648
 20
1184.031321887612
 30
0.0
 11
-4572.8732923216648
 21
1084.9351643939719
 31
0.0
  0
LINE
  5
AC
  8
1
 10
-4127.3732923216648
 20
1084.0313218876111
 30
0.0
 11
-4127.3732923216648
 21
1634.0313218876111
 31
0.0
  0
LINE
  5
AD
  8
1
 10
-4503.4702991431523
 20
962.92832188761247
 30
0.0
 11
-4467.8487991431521
 21
958.56732188761225
 31
0.0
  0
ARC
  5
AE
  8
1
 10
-4508.3085991431517
 20
957.03132188761208
 30
0.0
 40
6.0
 50
90.0
 51
180.0
  0
LINE
  5
AF
  8
1
 10
-4515.3085991431517
 20
953.03132188761219
 30
0.0
 11
-4514.3085991431517
 21
953.03132188761219
 31
0.0
  0
ARC
  5
B0
  8
1
 10
-4507.3246991431506
 20
968.14832188761238
 30
0.0
 40
1.5000999999999991
 50
21.802300000000439
 51
111.8010000000001
  0
LINE
  5
B1
  8
1
 10
-4510.2028991431516
 20
968.61232188761221
 30
0.0
 11
-4507.8816991431522
 21
969.54032188761209
 31
0.0
  0
LINE
  5
B2
  8
1
 10
-4507.9064991431514
 20
963.03132188761208
 30
0.0
 11
-4508.3085991431517
 21
963.03132188761208
 31
0.0
  0
ARC
  5
B3
  8
1
 10
-4469.6718991431508
 20
943.67832188761258
 30
0.0
 40
15.0
 50
2.8066999999997182
 51
83.018900000000372
  0
LINE
  5
B4
  8
1
 10
-4523.5641955673127
 20
1184.031321887612
 30
0.0
 11
-4523.5641955673118
 21
1179.5313218876099
 31
0.0
  0
LINE
  5
B5
  8
1
 10
-4128.9732923216652
 20
1084.0313218876111
 30
0.0
 11
-4128.9732923216661
 21
1184.0313218876111
 31
0.0
  0
LINE
  5
B6
  8
1
 10
-4128.9732923216661
 20
1084.0313218876111
 30
0.0
 11
-4127.3732923216648
 21
1084.0313218876111
 31
0.0
  0
ARC
  5
B7
  8
1
 10
-4527.3732923216648
 20
1699.7813218876111
 30
0.0
 40
6.25
 50
359.9999380528414
 51
180.00006194715851
  0
LINE
  5
B8
  8
1
 10
-4538.962034910187
 20
1676.0313218876111
 30
0.0
 11
-4515.0119673126719
 21
1676.0313218876111
 31
0.0
  0
LINE
  5
B9
  8
1
 10
-4521.1233348276601
 20
1660.466939471338
 30
0.0
 11
-4519.3732923216658
 21
1660.466939471338
 31
0.0
  0
LINE
  5
BA
  8
1
 10
-4516.5339527858032
 20
1657.627599935475
 30
0.0
 11
-4519.3732923216658
 21
1660.466939471338
 31
0.0
  0
LINE
  5
BB
  8
1
 10
-4521.1233378975021
 20
1657.627599935475
 30
0.0
 11
-4516.5339527858032
 21
1657.627599935475
 31
0.0
  0
LINE
  5
BC
  8
1
 10
-4535.3732923216658
 20
1660.466939471338
 30
0.0
 11
-4533.6232498156714
 21
1660.466939471338
 31
0.0
  0
LINE
  5
BD
  8
1
 10
-4538.2126318575283
 20
1657.627599935475
 30
0.0
 11
-4533.6232467458294
 21
1657.627599935475
 31
0.0
  0
LINE
  5
BE
  8
1
 10
-4538.2126318575283
 20
1657.627599935475
 30
0.0
 11
-4535.3732923216658
 21
1660.466939471338
 31
0.0
  0
ARC
  5
BF
  8
1
 10
-4527.3732923216648
 20
1652.2813218876111
 30
0.0
 40
6.25
 50
180.23233247289559
 51
359.76766752710432
  0
LINE
  5
C0
  8
1
 10
-4533.6232923216621
 20
1699.7813151302239
 30
0.0
 11
-4533.6232409381291
 21
1652.2559784157429
 31
0.0
  0
LINE
  5
C1
  8
1
 10
-4521.1232923216694
 20
1699.7813151302239
 30
0.0
 11
-4521.1233437052024
 21
1652.2559784157429
 31
0.0
  0
LINE
  5
C2
  8
1
 10
-4542.3732923216648
 20
1634.0313218876111
 30
0.0
 11
-4538.2126318575283
 21
1657.627599935475
 31
0.0
  0
LINE
  5
C3
  8
1
 10
-4527.3732923216648
 20
1712.5751261847549
 30
0.0
 11
-4527.3732923216648
 21
1627.9067341791419
 31
0.0
  0
LINE
  5
C4
  8
1
 10
-4512.3732923216648
 20
1634.0313218876111
 30
0.0
 11
-4516.5339527858032
 21
1657.627599935475
 31
0.0
  0
LINE
  5
C5
  8
1
 10
-4542.3732923216648
 20
1634.0313218876111
 30
0.0
 11
-4512.3732923216648
 21
1634.0313218876111
 31
0.0
  0
LINE
  5
C6
  8
1
 10
-3293.1256032696219
 20
1676.031321887612
 30
0.0
 11
-3219.2151792932791
 21
1676.031321887612
 31
0.0
  0
ARC
  5
C7
  8
1
 10
-3256.5566830151411
 20
1334.0313218876111
 30
0.0
 40
300.0
 50
90.0
 51
141.55282967353961
  0
LINE
  5
C8
  8
1
 10
-3658.1566830151419
 20
1184.0313218876111
 30
0.0
 11
-3491.5112274551639
 21
1520.56915195696
 31
0.0
  0
LINE
  5
C9
  8
1
 10
-3658.156683015141
 20
1164.031321887612
 30
0.0
 11
-3518.1566830151419
 21
1084.031321887612
 31
0.0
  0
LINE
  5
CA
  8
1
 10
-3658.156683015141
 20
1164.0313218876111
 30
0.0
 11
-3658.156683015141
 21
1184.0313218876131
 31
0.0
  0
LINE
  5
CC
  8
1
 10
-3212.6566830151419
 20
1229.531321887612
 30
0.0
 11
-3212.6566830151419
 21
1084.896887605511
 31
0.0
  0
LINE
  5
CD
  8
1
 10
-3081.6510342744959
 20
929.53132188761083
 30
0.0
 11
-3131.651034274495
 21
929.53132188761026
 31
0.0
  0
LINE
  5
CE
  8
1
 10
-3212.1855469904058
 20
1084.031321887612
 30
0.0
 11
-3131.651034274495
 21
929.53132188761026
 31
0.0
  0
LINE
  5
CF
  8
1
 10
-3081.6510342744959
 20
929.53132188761026
 30
0.0
 11
-3081.651034274495
 21
1084.031321887612
 31
0.0
  0
LINE
  5
D0
  8
1
 10
-3248.156683015141
 20
1234.031321887612
 30
0.0
 11
-3248.156683015141
 21
1229.531321887612
 31
0.0
  0
LINE
  5
D1
  8
1
 10
-3230.656683015141
 20
1275.031321887612
 30
0.0
 11
-3230.656683015141
 21
1193.531321887612
 31
0.0
  0
LINE
  5
D2
  8
1
 10
-3245.717343479278
 20
1657.6275999354759
 30
0.0
 11
-3248.5566830151411
 21
1660.466939471338
 31
0.0
  0
LINE
  5
D3
  8
1
 10
-3241.5566830151411
 20
1634.031321887612
 30
0.0
 11
-3245.717343479278
 21
1657.6275999354759
 31
0.0
  0
LINE
  5
D4
  8
1
 10
-3267.3960225510032
 20
1657.6275999354759
 30
0.0
 11
-3264.5566830151411
 21
1660.466939471338
 31
0.0
  0
LINE
  5
D5
  8
1
 10
-3271.5566830151411
 20
1634.031321887612
 30
0.0
 11
-3267.3960225510032
 21
1657.6275999354759
 31
0.0
  0
LINE
  5
D6
  8
1
 10
-3271.5566830151411
 20
1634.031321887612
 30
0.0
 11
-3241.5566830151411
 21
1634.031321887612
 31
0.0
  0
LINE
  5
D7
  8
1
 10
-3264.5566830151411
 20
1660.466939471338
 30
0.0
 11
-3248.5566830151411
 21
1660.466939471338
 31
0.0
  0
ARC
  5
D8
  8
1
 10
-3256.5566830151411
 20
1676.031321887612
 30
0.0
 40
17.5
 50
297.20289441221439
 51
242.7971055877855
  0
LINE
  5
D9
  8
1
 10
-3267.3960225510032
 20
1657.6275999354759
 30
0.0
 11
-3245.717343479278
 21
1657.6275999354759
 31
0.0
  0
ARC
  5
DA
  8
1
 10
-3256.5566830151411
 20
1676.031321887612
 30
0.0
 40
30.0
 50
294.43588232259322
 51
245.56411767740661
  0
LINE
  5
DB
  8
1
 10
-3256.5566830151411
 20
1712.5751261847549
 30
0.0
 11
-3256.5566830151411
 21
1627.9067341791431
 31
0.0
  0
TEXT
  5
DC
  8
4
 10
-3080.9873152281521
 20
3982.2464008916309
 30
0.0
 40
140.0
  1
No.
  0
LINE
  5
DD
  8
4
 10
-3151.8676574517149
 20
3920.2526549668619
 30
0.0
 11
-3151.8676574517149
 21
4183.7243510277403
 31
0.0
  0
LINE
  5
DE
  8
1
 10
-2308.156683015141
 20
1234.031321887612
 30
0.0
 11
-2308.156683015141
 21
428.5313218876102
 31
0.0
  0
LINE
  5
DF
  8
1
 10
-2303.656683015141
 20
1084.896887605511
 30
0.0
 11
-2303.656683015141
 21
619.94795016720172
 31
0.0
  0
LINE
  5
E0
  8
4
 10
-1503.411213351377
 20
4592.0936971533592
 30
0.0
 11
-1503.411213351377
 21
-2782.9063028466398
 31
0.0
  0
LINE
  5
E1
  8
4
 10
-2128.4112133513768
 20
-1532.9063028466401
 30
0.0
 11
-2128.4112133513768
 21
-2032.9063028466401
 31
0.0
  0
LINE
  5
E2
  8
1
 10
-2193.6566830151419
 20
294.03132188761202
 30
0.0
 11
-2193.656683015141
 21
444.03132188761202
 31
0.0
  0
LINE
  5
E3
  8
1
 10
-2198.1566830151419
 20
294.03132188761202
 30
0.0
 11
-2198.156683015141
 21
444.03132188761202
 31
0.0
  0
LINE
  5
E4
  8
1
 10
-2384.6623317557869
 20
728.53132188761037
 30
0.0
 11
-2198.156683015141
 21
478.5313218876102
 31
0.0
  0
LINE
  5
E5
  8
1
 10
-2193.656683015141
 20
444.03132188761202
 30
0.0
 11
-2434.6623317557878
 21
454.03132188761208
 31
0.0
  0
LINE
  5
E6
  8
1
 10
-2434.6623317557878
 20
728.53132188761083
 30
0.0
 11
-2434.6623317557878
 21
454.03132188761208
 31
0.0
  0
LINE
  5
E7
  8
1
 10
-2434.6623317557878
 20
728.53132188761037
 30
0.0
 11
-2384.6623317557869
 21
728.53132188761037
 31
0.0
  0
LINE
  5
E8
  8
1
 10
-2303.656683015141
 20
619.94795016720172
 30
0.0
 11
-2303.656683015141
 21
428.5313218876102
 31
0.0
  0
LINE
  5
E9
  8
1
 10
-2198.156683015141
 20
428.5313218876102
 30
0.0
 11
-2198.1566830151419
 21
478.53132188760981
 31
0.0
  0
LINE
  5
EA
  8
1
 10
-2285.656683015141
 20
464.53132188761202
 30
0.0
 11
-2285.656683015141
 21
383.03132188761208
 31
0.0
  0
CIRCLE
  5
EB
  8
1
 10
-2308.1566830151401
 20
344.03132188761202
 30
0.0
 40
7.5
  0
LINE
  5
EC
  8
1
 10
-2308.1566830151401
 20
334.03132188761202
 30
0.0
 11
-2308.1566830151401
 21
354.03132188761208
 31
0.0
  0
LINE
  5
ED
  8
1
 10
-2318.156683015141
 20
344.03132188761202
 30
0.0
 11
-2298.1566830151401
 21
344.03132188761202
 31
0.0
  0
LINE
  5
EE
  8
1
 10
-2312.156683015141
 20
685.23302233043432
 30
0.0
 11
-2312.156683015141
 21
625.23302233043432
 31
0.0
  0
LINE
  5
F5
  8
1
 10
-1858.1566830151401
 20
1184.0313218876111
 30
0.0
 11
-2024.802138575119
 21
1520.56915195696
 31
0.0
  0
LINE
  5
F6
  8
1
 10
-2304.1278190398771
 20
1084.031321887612
 30
0.0
 11
-2384.6623317557869
 21
929.53132188761026
 31
0.0
  0
LINE
  5
F7
  8
1
 10
-2434.6623317557869
 20
929.53132188761026
 30
0.0
 11
-2434.6623317557878
 21
1084.031321887612
 31
0.0
  0
LINE
  5
F8
  8
1
 10
-2434.6623317557869
 20
929.53132188761083
 30
0.0
 11
-2384.6623317557869
 21
929.53132188761026
 31
0.0
  0
LINE
  5
F9
  8
1
 10
-2303.656683015141
 20
1229.5313218876099
 30
0.0
 11
-2303.656683015141
 21
1084.896887605511
 31
0.0
  0
LINE
  5
FA
  8
1
 10
-2268.156683015141
 20
1234.031321887612
 30
0.0
 11
-2268.156683015141
 21
1229.531321887612
 31
0.0
  0
LINE
  5
FB
  8
1
 10
-2285.656683015141
 20
1275.031321887612
 30
0.0
 11
-2285.656683015141
 21
1193.531321887612
 31
0.0
  0
ARC
  5
FC
  8
1
 10
-2259.7566830151418
 20
1334.0313218876111
 30
0.0
 40
300.0
 50
38.447170326460359
 51
89.694421060580979
  0
LINE
  5
FD
  8
1
 10
-2243.156683015141
 20
1634.0313218876111
 30
0.0
 11
-2247.3173434792789
 21
1657.627599935475
 31
0.0
  0
LINE
  5
FE
  8
1
 10
-2273.156683015141
 20
1634.0313218876111
 30
0.0
 11
-2243.156683015141
 21
1634.0313218876111
 31
0.0
  0
ARC
  5
FF
  8
1
 10
-2258.156683015141
 20
1676.0313218876111
 30
0.0
 40
17.5
 50
297.20289441221439
 51
242.7971055877855
  0
LINE
  5
100
  8
1
 10
-2294.7256032696232
 20
1676.0313218876111
 30
0.0
 11
-2220.8151792932799
 21
1676.0313218876111
 31
0.0
  0
ARC
  5
101
  8
1
 10
-2258.156683015141
 20
1676.0313218876111
 30
0.0
 40
30.0
 50
294.43588232259322
 51
245.56411767740661
  0
LINE
  5
102
  8
1
 10
-2247.3173434792789
 20
1657.627599935475
 30
0.0
 11
-2250.156683015141
 21
1660.466939471338
 31
0.0
  0
LINE
  5
103
  8
1
 10
-2268.996022551004
 20
1657.627599935475
 30
0.0
 11
-2266.156683015141
 21
1660.466939471338
 31
0.0
  0
LINE
  5
104
  8
1
 10
-2273.156683015141
 20
1634.0313218876111
 30
0.0
 11
-2268.996022551004
 21
1657.627599935475
 31
0.0
  0
LINE
  5
105
  8
1
 10
-2266.156683015141
 20
1660.466939471338
 30
0.0
 11
-2250.156683015141
 21
1660.466939471338
 31
0.0
  0
LINE
  5
106
  8
1
 10
-2268.996022551004
 20
1657.627599935475
 30
0.0
 11
-2247.3173434792789
 21
1657.627599935475
 31
0.0
  0
LINE
  5
107
  8
1
 10
-2258.156683015141
 20
1712.5751261847549
 30
0.0
 11
-2258.156683015141
 21
1627.9067341791419
 31
0.0
  0
LINE
  5
108
  8
1
 10
-1858.156683015141
 20
1164.031321887617
 30
0.0
 11
-1858.156683015141
 21
1184.031321887612
 31
0.0
  0
LINE
  5
109
  8
4
 10
-2128.4112133513768
 20
3890.615582815371
 30
0.0
 11
-2128.4112133513768
 21
3390.615582815371
 31
0.0
  0
LINE
  5
10A
  8
4
 10
-2128.4112133513768
 20
4183.7243510277403
 30
0.0
 11
-2128.4112133513768
 21
3920.2526549668619
 31
0.0
  0
LINE
  5
10B
  8
4
 10
-1503.411213351377
 20
4592.0936971533592
 30
0.0
 11
-1503.411213351377
 21
4592.0936971533592
 31
0.0
  0
LINE
  5
128
  8
1
 10
-1858.1566830151401
 20
1164.031321887617
 30
0.0
 11
-1998.1566830151401
 21
1084.0313218876161
 31
0.0
  0
DIMENSION
  5
129
  8
3
  2
*D1
 10
-1858.156683015141
 20
2048.8725789798841
 30
0.0
 11
-2763.3570946446698
 21
2048.8725789798841
 31
0.0
 70
   128
 13
-3658.156683015141
 23
1184.0313218876131
 33
0.0
 14
-1858.156683015141
 24
1184.0313218876131
 34
0.0
1001
ACAD
1000
DSTYLE
1002
{
1070
   287
1070
     3
1070
   287
1070
     3
1070
    40
1040
30.0
1070
   143
1040
0.039
1070
   172
1070
     1
1070
   173
1070
     0
1070
   271
1070
     0
1070
   279
1070
     0
1070
   288
1070
     1
1070
   341
1005
14D
1070
     5
1000
OPEN30
1002
}
  0
DIMENSION
  5
140
  8
3
  2
*D2
 10
-2308.1566830151401
 20
-96.773986323689314
 30
0.0
 11
-2720.0510772231428
 21
-96.773986323689314
 31
0.0
 70
   128
 13
-3208.1566830151419
 23
334.03132188761202
 33
0.0
 14
-2308.1566830151401
 24
334.03132188761202
 34
0.0
1001
ACAD
1000
DSTYLE
1002
{
1070
   287
1070
     3
1070
   287
1070
     3
1070
    40
1040
30.0
1070
   143
1040
0.039
1070
   172
1070
     1
1070
   173
1070
     0
1070
   271
1070
     0
1070
   279
1070
     0
1070
   288
1070
     1
1070
   341
1005
14D
1070
     5
1000
OPEN30
1002
}
  0
DIMENSION
  5
16E
  8
3
  2
*D4
 10
-2198.1566830151419
 20
-358.73041444649789
 30
0.0
 11
-2780.5624414232798
 21
-358.73041444649789
 31
0.0
 70
   128
 13
-3318.156683015141
 23
294.03132188761202
 33
0.0
 14
-2198.1566830151419
 24
294.03132188761202
 34
0.0
1001
ACAD
1000
DSTYLE
1002
{
1070
   287
1070
     3
1070
   287
1070
     3
1070
    40
1040
30.0
1070
   143
1040
0.039
1070
   172
1070
     1
1070
   173
1070
     0
1070
   271
1070
     0
1070
   279
1070
     0
1070
   288
1070
     1
1070
   341
1005
14D
1070
     5
1000
OPEN30
1002
}
  0
DIMENSION
  5
17B
  8
3
  2
*D5
 10
-4577.3732923216658
 20
-69.209003142274014
 30
0.0
 11
-5026.7105086833981
 21
-69.209003142274014
 31
0.0
 70
   128
 13
-5477.3732923216648
 23
334.03132188761219
 33
0.0
 14
-4577.3732923216658
 24
334.03132188761202
 34
0.0
1001
ACAD
1000
DSTYLE
1002
{
1070
   287
1070
     3
1070
   287
1070
     3
1070
    40
1040
30.0
1070
   143
1040
0.039
1070
   172
1070
     1
1070
   173
1070
     0
1070
   271
1070
     0
1070
   279
1070
     0
1070
   288
1070
     1
1070
   341
1005
14D
1070
     5
1000
OPEN30
1002
}
  0
DIMENSION
  5
188
  8
3
  2
*D6
 10
-4467.3732923216658
 20
-336.4221198824016
 30
0.0
 11
-5035.6264302649506
 21
-336.4221198824016
 31
0.0
 70
   128
 13
-5587.3732923216648
 23
294.03132188761202
 33
0.0
 14
-4467.3732923216658
 24
294.03132188761202
 34
0.0
1001
ACAD
1000
DSTYLE
1002
{
1070
   287
1070
     3
1070
   287
1070
     3
1070
    40
1040
30.0
1070
   143
1040
0.039
1070
   172
1070
     1
1070
   173
1070
     0
1070
   271
1070
     0
1070
   279
1070
     0
1070
   288
1070
     1
1070
   341
1005
14D
1070
     5
1000
OPEN30
1002
}
  0
DIMENSION
  5
195
  8
3
  2
*D7
 10
-5927.3732923216648
 20
2076.9080342848861
 30
0.0
 11
-5017.2099166942126
 21
2076.9080342848861
 31
0.0
 70
   128
 13
-4127.3732923216648
 23
1634.0313218876111
 33
0.0
 14
-5927.3732923216648
 24
1634.031321887612
 34
0.0
1001
ACAD
1000
DSTYLE
1002
{
1070
   287
1070
     3
1070
   287
1070
     3
1070
    40
1040
30.0
1070
   143
1040
0.039
1070
   172
1070
     1
1070
   173
1070
     0
1070
   271
1070
     0
1070
   279
1070
     0
1070
   288
1070
     1
1070
   341
1005
14D
1070
     5
1000
OPEN30
1002
}
  0
DIMENSION
  5
1A2
  8
3
  2
*D8
 10
-6286.6648857330729
 20
1084.031321887612
 30
0.0
 11
-6286.6648857330729
 21
1350.441023676987
 31
0.0
 70
   128
 13
-5927.3732923216648
 23
1634.031321887612
 33
0.0
 14
-5927.3732923216648
 24
1084.031321887612
 34
0.0
 50
90.0
1001
ACAD
1000
DSTYLE
1002
{
1070
   287
1070
     3
1070
   287
1070
     3
1070
    40
1040
30.0
1070
   143
1040
0.039
1070
   172
1070
     1
1070
   173
1070
     0
1070
   271
1070
     0
1070
   279
1070
     0
1070
   288
1070
     1
1070
   341
1005
14D
1070
     5
1000
OPEN30
1002
}
  0
DIMENSION
  5
1AF
  8
3
  2
*D9
 10
-6286.6648857330729
 20
444.03132188761231
 30
0.0
 11
-6361.6648857330729
 21
764.03132188761106
 31
0.0
 70
     0
 13
-5927.3732923216648
 23
1084.031321887612
 33
0.0
 14
-5591.8732923216658
 24
444.03132188761202
 34
0.0
 50
90.0
1001
ACAD
1000
DSTYLE
1002
{
1070
   287
1070
     4
1070
   287
1070
     4
1070
    40
1040
30.0
1070
   143
1040
0.039
1070
   172
1070
     1
1070
   173
1070
     0
1070
   271
1070
     0
1070
   279
1070
     1
1070
   288
1070
     1
1070
   341
1005
14D
1070
     5
1000
OPEN30
1002
}
  0
DIMENSION
  5
1BC
  8
3
  2
*D10
 10
-6286.6648857330729
 20
294.03132188761231
 30
0.0
 11
-6283.966006776719
 21
118.5844041365671
 31
0.0
 70
   128
 13
-5591.8732923216658
 23
444.03132188761202
 33
0.0
 14
-5591.8732923216658
 24
294.03132188761202
 34
0.0
 50
90.0
1001
ACAD
1000
DSTYLE
1002
{
1070
   287
1070
     4
1070
   287
1070
     4
1070
    40
1040
30.0
1070
   143
1040
0.039
1070
   172
1070
     1
1070
   173
1070
     0
1070
   271
1070
     0
1070
   279
1070
     1
1070
   288
1070
     1
1070
   341
1005
14D
1070
     5
1000
OPEN30
1002
}
  0
DIMENSION
  5
25A
  8
3
  2
*D11
 10
-5875.907993314715
 20
294.03132188761208
 30
0.0
 11
-5875.907993314715
 21
71.174179030468324
 31
0.0
 70
   128
 13
-5487.3732923216658
 23
344.03132188761208
 33
0.0
 14
-5591.8732923216658
 24
294.03132188761202
 34
0.0
 50
90.0
1001
ACAD
1000
DSTYLE
1002
{
1070
   287
1070
     3
1070
   287
1070
     3
1070
    40
1040
30.0
1070
   143
1040
0.039
1070
   172
1070
     1
1070
   173
1070
     0
1070
   271
1070
     0
1070
   279
1070
     0
1070
   288
1070
     1
1070
   341
1005
14D
1070
     5
1000
OPEN30
1002
}
  0
ENDSEC
  0
EOF
