  0
SECTION
  2
HEADER
  9
$ACADVER
  1
AC1015
  9
$ACADMAINTVER
 70
     6
  9
$DWGCODEPAGE
  3
ANSI_932
  9
$INSBASE
 10
0.0
 20
0.0
 30
0.0
  9
$EXTMIN
 10
-6753.411213351377
 20
-2782.90630284664
 30
0.0
  9
$EXTMAX
 10
-1503.411213351377
 20
4592.093697153359
 30
0.0
  9
$LIMMIN
 10
0.0
 20
0.0
  9
$LIMMAX
 10
297.0
 20
210.0
  9
$ORTHOMODE
 70
     1
  9
$REGENMODE
 70
     1
  9
$FILLMODE
 70
     0
  9
$QTEXTMODE
 70
     0
  9
$MIRRTEXT
 70
     1
  9
$LTSCALE
 40
200.0
  9
$ATTMODE
 70
     1
  9
$TEXTSIZE
 40
180.0
  9
$TRACEWID
 40
0.05
  9
$TEXTSTYLE
  7
STANDARD
  9
$CLAYER
  8
1
  9
$CELTYPE
  6
BYLAYER
  9
$CECOLOR
 62
   256
  9
$CELTSCALE
 40
1.0
  9
$DISPSILH
 70
     0
  9
$DIMSCALE
 40
30.0
  9
$DIMASZ
 40
2.0
  9
$DIMEXO
 40
0.5
  9
$DIMDLI
 40
10.0
  9
$DIMRND
 40
0.0
  9
$DIMDLE
 40
0.0
  9
$DIMEXE
 40
1.0
  9
$DIMTP
 40
1.0
  9
$DIMTM
 40
1.0
  9
$DIMTXT
 40
3.0
  9
$DIMCEN
 40
0.0
  9
$DIMTSZ
 40
0.0
  9
$DIMTOL
 70
     0
  9
$DIMLIM
 70
     0
  9
$DIMTIH
 70
     0
  9
$DIMTOH
 70
     0
  9
$DIMSE1
 70
     0
  9
$DIMSE2
 70
     0
  9
$DIMTAD
 70
     1
  9
$DIMZIN
 70
     8
  9
$DIMBLK
  1
Open30
  9
$DIMASO
 70
     1
  9
$DIMSHO
 70
     1
  9
$DIMPOST
  1

  9
$DIMAPOST
  1

  9
$DIMALT
 70
     0
  9
$DIMALTD
 70
     2
  9
$DIMALTF
 40
0.039
  9
$DIMLFAC
 40
1.0
  9
$DIMTOFL
 70
     1
  9
$DIMTVP
 40
0.0
  9
$DIMTIX
 70
     0
  9
$DIMSOXD
 70
     0
  9
$DIMSAH
 70
     0
  9
$DIMBLK1
  1

  9
$DIMBLK2
  1

  9
$DIMSTYLE
  2
IGA
  9
$DIMCLRD
 70
     0
  9
$DIMCLRE
 70
     0
  9
$DIMCLRT
 70
     0
  9
$DIMTFAC
 40
10.0
  9
$DIMGAP
 40
1.0
  9
$DIMJUST
 70
     0
  9
$DIMSD1
 70
     0
  9
$DIMSD2
 70
     0
  9
$DIMTOLJ
 70
     1
  9
$DIMTZIN
 70
     8
  9
$DIMALTZ
 70
     0
  9
$DIMALTTZ
 70
     0
  9
$DIMUPT
 70
     1
  9
$DIMDEC
 70
     0
  9
$DIMTDEC
 70
     0
  9
$DIMALTU
 70
     2
  9
$DIMALTTD
 70
     2
  9
$DIMTXSTY
  7
STANDARD
  9
$DIMAUNIT
 70
     0
  9
$DIMADEC
 70
     0
  9
$DIMALTRND
 40
0.0
  9
$DIMAZIN
 70
     0
  9
$DIMDSEP
 70
    46
  9
$DIMATFIT
 70
     3
  9
$DIMFRAC
 70
     0
  9
$DIMLDRBLK
  1
Open30
  9
$DIMLUNIT
 70
     2
  9
$DIMLWD
 70
    -2
  9
$DIMLWE
 70
    -2
  9
$DIMTMOVE
 70
     0
  9
$LUNITS
 70
     2
  9
$LUPREC
 70
     3
  9
$SKETCHINC
 40
0.1
  9
$FILLETRAD
 40
250.0
  9
$AUNITS
 70
     0
  9
$AUPREC
 70
     0
  9
$MENU
  1
acad
  9
$ELEVATION
 40
0.0
  9
$PELEVATION
 40
0.0
  9
$THICKNESS
 40
0.0
  9
$LIMCHECK
 70
     0
  9
$CHAMFERA
 40
0.5
  9
$CHAMFERB
 40
0.5
  9
$CHAMFERC
 40
20.0
  9
$CHAMFERD
 40
0.0
  9
$SKPOLY
 70
     0
  9
$TDCREATE
 40
2453304.420881979
  9
$TDUCREATE
 40
2453304.045881979
  9
$TDUPDATE
 40
2456463.494996389
  9
$TDUUPDATE
 40
2456463.119996389
  9
$TDINDWG
 40
0.0814158796
  9
$TDUSRTIMER
 40
0.0814158796
  9
$USRTIMER
 70
     1
  9
$ANGBASE
 50
0.0
  9
$ANGDIR
 70
     0
  9
$PDMODE
 70
     0
  9
$PDSIZE
 40
0.0
  9
$PLINEWID
 40
0.0
  9
$SPLFRAME
 70
     0
  9
$SPLINETYPE
 70
     6
  9
$SPLINESEGS
 70
     8
  9
$HANDSEED
  5
937
  9
$SURFTAB1
 70
     6
  9
$SURFTAB2
 70
     6
  9
$SURFTYPE
 70
     6
  9
$SURFU
 70
     6
  9
$SURFV
 70
     6
  9
$UCSBASE
  2

  9
$UCSNAME
  2

  9
$UCSORG
 10
0.0
 20
0.0
 30
0.0
  9
$UCSXDIR
 10
1.0
 20
0.0
 30
0.0
  9
$UCSYDIR
 10
0.0
 20
1.0
 30
0.0
  9
$UCSORTHOREF
  2

  9
$UCSORTHOVIEW
 70
     0
  9
$UCSORGTOP
 10
0.0
 20
0.0
 30
0.0
  9
$UCSORGBOTTOM
 10
0.0
 20
0.0
 30
0.0
  9
$UCSORGLEFT
 10
0.0
 20
0.0
 30
0.0
  9
$UCSORGRIGHT
 10
0.0
 20
0.0
 30
0.0
  9
$UCSORGFRONT
 10
0.0
 20
0.0
 30
0.0
  9
$UCSORGBACK
 10
0.0
 20
0.0
 30
0.0
  9
$PUCSBASE
  2

  9
$PUCSNAME
  2

  9
$PUCSORG
 10
0.0
 20
0.0
 30
0.0
  9
$PUCSXDIR
 10
1.0
 20
0.0
 30
0.0
  9
$PUCSYDIR
 10
0.0
 20
1.0
 30
0.0
  9
$PUCSORTHOREF
  2

  9
$PUCSORTHOVIEW
 70
     0
  9
$PUCSORGTOP
 10
0.0
 20
0.0
 30
0.0
  9
$PUCSORGBOTTOM
 10
0.0
 20
0.0
 30
0.0
  9
$PUCSORGLEFT
 10
0.0
 20
0.0
 30
0.0
  9
$PUCSORGRIGHT
 10
0.0
 20
0.0
 30
0.0
  9
$PUCSORGFRONT
 10
0.0
 20
0.0
 30
0.0
  9
$PUCSORGBACK
 10
0.0
 20
0.0
 30
0.0
  9
$USERI1
 70
     0
  9
$USERI2
 70
     0
  9
$USERI3
 70
     0
  9
$USERI4
 70
     0
  9
$USERI5
 70
     0
  9
$USERR1
 40
0.0
  9
$USERR2
 40
0.0
  9
$USERR3
 40
0.0
  9
$USERR4
 40
0.0
  9
$USERR5
 40
0.0
  9
$WORLDVIEW
 70
     1
  9
$SHADEDGE
 70
     3
  9
$SHADEDIF
 70
    70
  9
$TILEMODE
 70
     1
  9
$MAXACTVP
 70
    16
  9
$PINSBASE
 10
0.0
 20
0.0
 30
0.0
  9
$PLIMCHECK
 70
     0
  9
$PEXTMIN
 10
1.000000000000000E+20
 20
1.000000000000000E+20
 30
1.000000000000000E+20
  9
$PEXTMAX
 10
-1.000000000000000E+20
 20
-1.000000000000000E+20
 30
-1.000000000000000E+20
  9
$PLIMMIN
 10
0.0
 20
0.0
  9
$PLIMMAX
 10
12.0
 20
9.0
  9
$UNITMODE
 70
     0
  9
$VISRETAIN
 70
     0
  9
$PLINEGEN
 70
     0
  9
$PSLTSCALE
 70
     1
  9
$TREEDEPTH
 70
  3020
  9
$CMLSTYLE
  2
STANDARD
  9
$CMLJUST
 70
     0
  9
$CMLSCALE
 40
20.0
  9
$PROXYGRAPHICS
 70
     1
  9
$MEASUREMENT
 70
     0
  9
$CELWEIGHT
370
    -1
  9
$ENDCAPS
280
     0
  9
$JOINSTYLE
280
     0
  9
$LWDISPLAY
290
     0
  9
$INSUNITS
 70
     0
  9
$HYPERLINKBASE
  1

  9
$STYLESHEET
  1

  9
$XEDIT
290
     1
  9
$CEPSNTYPE
380
     0
  9
$PSTYLEMODE
290
     1
  9
$FINGERPRINTGUID
  2
{161F4F2F-7FD4-4B8E-9337-876C5F1D4BED}
  9
$VERSIONGUID
  2
{0FCF69CB-14D4-4E64-87F6-940646E18A54}
  9
$EXTNAMES
290
     1
  9
$PSVPSCALE
 40
0.0
  9
$OLESTARTUP
290
     0
  0
ENDSEC
  0
SECTION
  2
CLASSES
  0
CLASS
  1
ACDBDICTIONARYWDFLT
  2
AcDbDictionaryWithDefault
  3
AutoCAD 2000
 90
        0
280
     1
281
     0
  0
CLASS
  1
ACDBPLACEHOLDER
  2
AcDbPlaceHolder
  3
AutoCAD 2000
 90
        0
280
     1
281
     0
  0
CLASS
  1
LAYOUT
  2
AcDbLayout
  3
AutoCAD 2000
 90
        0
280
     1
281
     0
  0
CLASS
  1
LONG_TRANSACTION
  2
AcDbLongTransaction
  3
AutoCAD 2000
 90
    32768
280
     1
281
     0
  0
CLASS
  1
LWPOLYLINE
  2
AcDbPolyline
  3
AutoCAD 2000
 90
    32768
280
     1
281
     1
  0
CLASS
  1
HATCH
  2
AcDbHatch
  3
AutoCAD 2000
 90
    32768
280
     1
281
     1
  0
CLASS
  1
XRECORD
  2
AcDbXrecord
  3
AutoCAD 2000
 90
    32768
280
     0
281
     0
  0
CLASS
  1
LONG_TRANSACTION
  2
AcDbLongTransaction
  3
AutoCAD 2000
 90
    32768
280
     1
281
     0
  0
CLASS
  1
LWPOLYLINE
  2
AcDbPolyline
  3
AutoCAD 2000
 90
    32768
280
     1
281
     1
  0
CLASS
  1
HATCH
  2
AcDbHatch
  3
AutoCAD 2000
 90
    32768
280
     1
281
     1
  0
CLASS
  1
XRECORD
  2
AcDbXrecord
  3
AutoCAD 2000
 90
    32768
280
     0
281
     0
  0
CLASS
  1
LONG_TRANSACTION
  2
AcDbLongTransaction
  3
AutoCAD 2000
 90
    32768
280
     1
281
     0
  0
CLASS
  1
LWPOLYLINE
  2
AcDbPolyline
  3
AutoCAD 2000
 90
    32768
280
     1
281
     1
  0
CLASS
  1
HATCH
  2
AcDbHatch
  3
AutoCAD 2000
 90
    32768
280
     1
281
     1
  0
CLASS
  1
XRECORD
  2
AcDbXrecord
  3
AutoCAD 2000
 90
    32768
280
     0
281
     0
  0
CLASS
  1
LONG_TRANSACTION
  2
AcDbLongTransaction
  3
AutoCAD 2000
 90
    32768
280
     0
281
     0
  0
CLASS
  1
LWPOLYLINE
  2
AcDbPolyline
  3
AutoCAD 2000
 90
    32768
280
     0
281
     1
  0
CLASS
  1
HATCH
  2
AcDbHatch
  3
AutoCAD 2000
 90
    32768
280
     0
281
     1
  0
CLASS
  1
XRECORD
  2
AcDbXrecord
  3
AutoCAD 2000
 90
    32768
280
     0
281
     0
  0
CLASS
  1
LONG_TRANSACTION
  2
AcDbLongTransaction
  3
AutoCAD 2000
 90
    32768
280
     0
281
     0
  0
CLASS
  1
LWPOLYLINE
  2
AcDbPolyline
  3
AutoCAD 2000
 90
    32768
280
     0
281
     1
  0
CLASS
  1
HATCH
  2
AcDbHatch
  3
AutoCAD 2000
 90
    32768
280
     0
281
     1
  0
CLASS
  1
XRECORD
  2
AcDbXrecord
  3
AutoCAD 2000
 90
    32768
280
     0
281
     0
  0
CLASS
  1
LONG_TRANSACTION
  2
AcDbLongTransaction
  3
AutoCAD 2000
 90
    32768
280
     0
281
     0
  0
CLASS
  1
LWPOLYLINE
  2
AcDbPolyline
  3
AutoCAD 2000
 90
    32768
280
     0
281
     1
  0
CLASS
  1
HATCH
  2
AcDbHatch
  3
AutoCAD 2000
 90
    32768
280
     0
281
     1
  0
CLASS
  1
XRECORD
  2
AcDbXrecord
  3
AutoCAD 2000
 90
    32768
280
     0
281
     0
  0
CLASS
  1
LONG_TRANSACTION
  2
AcDbLongTransaction
  3
AutoCAD 2000
 90
    32768
280
     0
281
     0
  0
CLASS
  1
LWPOLYLINE
  2
AcDbPolyline
  3
AutoCAD 2000
 90
    32768
280
     0
281
     1
  0
CLASS
  1
HATCH
  2
AcDbHatch
  3
AutoCAD 2000
 90
    32768
280
     0
281
     1
  0
CLASS
  1
XRECORD
  2
AcDbXrecord
  3
AutoCAD 2000
 90
    32768
280
     0
281
     0
  0
CLASS
  1
LONG_TRANSACTION
  2
AcDbLongTransaction
  3
AutoCAD 2000
 90
    32768
280
     0
281
     0
  0
CLASS
  1
LWPOLYLINE
  2
AcDbPolyline
  3
AutoCAD 2000
 90
    32768
280
     0
281
     1
  0
CLASS
  1
HATCH
  2
AcDbHatch
  3
AutoCAD 2000
 90
    32768
280
     0
281
     1
  0
CLASS
  1
XRECORD
  2
AcDbXrecord
  3
AutoCAD 2000
 90
    32768
280
     0
281
     0
  0
CLASS
  1
LONG_TRANSACTION
  2
AcDbLongTransaction
  3
AutoCAD 2000
 90
    32768
280
     0
281
     0
  0
CLASS
  1
LWPOLYLINE
  2
AcDbPolyline
  3
AutoCAD 2000
 90
    32768
280
     0
281
     1
  0
CLASS
  1
HATCH
  2
AcDbHatch
  3
AutoCAD 2000
 90
    32768
280
     0
281
     1
  0
CLASS
  1
XRECORD
  2
AcDbXrecord
  3
AutoCAD 2000
 90
    32768
280
     0
281
     0
  0
ENDSEC
  0
SECTION
  2
TABLES
  0
TABLE
  2
VPORT
  5
17
330
0
100
AcDbSymbolTable
 70
     3
  0
VPORT
  5
936
330
17
100
AcDbSymbolTableRecord
100
AcDbViewportTableRecord
  2
*Active
 70
     0
 10
0.0
 20
0.0
 11
1.0
 21
1.0
 12
-4053.893134233546
 22
34.80413293310266
 13
0.0
 23
0.0
 14
10.0
 24
10.0
 15
10.0
 25
10.0
 16
0.0
 26
0.0
 36
1.0
 17
0.0
 27
0.0
 37
0.0
 40
2922.6700177811
 41
1.73997233748271
 42
50.0
 43
0.0
 44
0.0
 50
0.0
 51
0.0
 71
     0
 72
   100
 73
     1
 74
     0
 75
     0
 76
     0
 77
     0
 78
     0
281
     0
 65
     1
110
0.0
120
0.0
130
0.0
111
1.0
121
0.0
131
0.0
112
0.0
122
1.0
132
0.0
 79
     0
146
0.0
  0
ENDTAB
  0
TABLE
  2
LTYPE
  5
13
330
0
100
AcDbSymbolTable
 70
     2
  0
LTYPE
  5
14
330
13
100
AcDbSymbolTableRecord
100
AcDbLinetypeTableRecord
  2
BYBLOCK
 70
     0
  3

 72
    65
 73
     0
 40
0.0
  0
LTYPE
  5
9
330
13
100
AcDbSymbolTableRecord
100
AcDbLinetypeTableRecord
  2
BYLAYER
 70
     0
  3

 72
    65
 73
     0
 40
0.0
  0
LTYPE
  5
8
330
13
100
AcDbSymbolTableRecord
100
AcDbLinetypeTableRecord
  2
CONTINUOUS
 70
     0
  3
Solid line
 72
    65
 73
     0
 40
0.0
  0
LTYPE
  5
120
330
13
100
AcDbSymbolTableRecord
100
AcDbLinetypeTableRecord
  2
CENTER
 70
     0
  3
____ _ ____ _ ____ _ ____ _ ____ _ ____ _ ____ 
 72
    65
 73
     4
 40
2.0
 49
1.25
 74
     0
 49
-0.25
 74
     0
 49
0.25
 74
     0
 49
-0.25
 74
     0
  0
ENDTAB
  0
TABLE
  2
LAYER
  5
10
330
0
100
AcDbSymbolTable
 70
     6
  0
LAYER
  5
7
330
10
100
AcDbSymbolTableRecord
100
AcDbLayerTableRecord
  2
0
 70
     0
 62
     7
  6
CONTINUOUS
370
    -3
390
112
  0
LAYER
  5
F3
330
10
100
AcDbSymbolTableRecord
100
AcDbLayerTableRecord
  2
3
 70
     0
 62
     2
  6
CONTINUOUS
370
    -3
390
112
  0
LAYER
  5
1F
330
10
100
AcDbSymbolTableRecord
100
AcDbLayerTableRecord
  2
1
 70
     0
 62
     4
  6
CONTINUOUS
370
    -3
390
112
  0
LAYER
  5
2F
330
10
100
AcDbSymbolTableRecord
100
AcDbLayerTableRecord
  2
4
 70
     0
 62
     7
  6
CONTINUOUS
370
    -3
390
112
  0
LAYER
  5
121
330
10
100
AcDbSymbolTableRecord
100
AcDbLayerTableRecord
  2
2
 70
     0
 62
     3
  6
CENTER
370
    -3
390
112
  0
LAYER
  5
12A
330
10
100
AcDbSymbolTableRecord
100
AcDbLayerTableRecord
  2
Defpoints
 70
     0
 62
     7
  6
CONTINUOUS
290
     0
370
    -3
390
112
  0
ENDTAB
  0
TABLE
  2
STYLE
  5
11
330
0
100
AcDbSymbolTable
 70
     1
  0
STYLE
  5
12
330
11
100
AcDbSymbolTableRecord
100
AcDbTextStyleTableRecord
  2
STANDARD
 70
     0
 40
0.0
 41
1.0
 50
0.0
 71
     0
 42
180.0
  3
simplex.shx
  4
extfont.shx
  0
ENDTAB
  0
TABLE
  2
VIEW
  5
15
330
0
100
AcDbSymbolTable
 70
     0
  0
ENDTAB
  0
TABLE
  2
UCS
  5
16
330
0
100
AcDbSymbolTable
 70
     0
  0
ENDTAB
  0
TABLE
  2
APPID
  5
19
330
0
100
AcDbSymbolTable
 70
     1
  0
APPID
  5
5
330
19
100
AcDbSymbolTableRecord
100
AcDbRegAppTableRecord
  2
ACAD
 70
     0
  0
ENDTAB
  0
TABLE
  2
DIMSTYLE
  5
1A
330
0
100
AcDbSymbolTable
 70
     1
100
AcDbDimStyleTable
 71
     1
340
21
  0
DIMSTYLE
105
21
102
{ACAD_REACTORS
330
5FC
330
609
330
616
330
625
330
634
330
641
330
65B
330
668
330
675
330
682
330
64E
330
91F
102
}
330
1A
100
AcDbSymbolTableRecord
100
AcDbDimStyleTableRecord
  2
IGA
 70
     0
 40
2.0
 41
2.0
 42
0.5
 43
10.0
 44
1.0
 47
1.0
 48
1.0
 73
     0
 74
     0
 77
     1
 78
     8
140
3.0
141
0.0
143
0.03937
146
10.0
147
1.0
173
     1
271
     1
272
     0
279
     2
284
     8
340
12
  0
ENDTAB
  0
TABLE
  2
BLOCK_RECORD
  5
1
330
0
100
AcDbSymbolTable
 70
    13
  0
BLOCK_RECORD
  5
2
102
{ACAD_XDICTIONARY
360
3
102
}
330
1
100
AcDbSymbolTableRecord
100
AcDbBlockTableRecord
  2
*MODEL_SPACE
340
115
  0
BLOCK_RECORD
  5
B
102
{ACAD_XDICTIONARY
360
C
102
}
330
1
100
AcDbSymbolTableRecord
100
AcDbBlockTableRecord
  2
*PAPER_SPACE
340
116
  0
BLOCK_RECORD
  5
14D
330
1
100
AcDbSymbolTableRecord
100
AcDbBlockTableRecord
  2
_Open30
340
0
102
{BLKREFS
331
8A3
331
8A4
331
8AC
331
8AD
331
8B7
331
8B8
331
8C2
331
8C3
331
8CB
331
8CC
331
8D4
331
8D5
331
8DD
331
8DE
331
8E6
331
8E7
331
8EF
331
8F0
331
8F8
331
8F9
331
901
331
902
331
919
331
91A
331
924
331
925
331
92F
331
930
102
}
  0
BLOCK_RECORD
  5
5FD
330
1
100
AcDbSymbolTableRecord
100
AcDbBlockTableRecord
  2
*D1
340
0
  0
BLOCK_RECORD
  5
60A
330
1
100
AcDbSymbolTableRecord
100
AcDbBlockTableRecord
  2
*D2
340
0
  0
BLOCK_RECORD
  5
617
330
1
100
AcDbSymbolTableRecord
100
AcDbBlockTableRecord
  2
*D3
340
0
  0
BLOCK_RECORD
  5
626
330
1
100
AcDbSymbolTableRecord
100
AcDbBlockTableRecord
  2
*D4
340
0
  0
BLOCK_RECORD
  5
635
330
1
100
AcDbSymbolTableRecord
100
AcDbBlockTableRecord
  2
*D5
340
0
  0
BLOCK_RECORD
  5
642
330
1
100
AcDbSymbolTableRecord
100
AcDbBlockTableRecord
  2
*D6
340
0
  0
BLOCK_RECORD
  5
64F
330
1
100
AcDbSymbolTableRecord
100
AcDbBlockTableRecord
  2
*D7
340
0
  0
BLOCK_RECORD
  5
65C
330
1
100
AcDbSymbolTableRecord
100
AcDbBlockTableRecord
  2
*D8
340
0
  0
BLOCK_RECORD
  5
669
330
1
100
AcDbSymbolTableRecord
100
AcDbBlockTableRecord
  2
*D9
340
0
  0
BLOCK_RECORD
  5
676
330
1
100
AcDbSymbolTableRecord
100
AcDbBlockTableRecord
  2
*D10
340
0
  0
BLOCK_RECORD
  5
683
330
1
100
AcDbSymbolTableRecord
100
AcDbBlockTableRecord
  2
*D11
340
0
  0
BLOCK_RECORD
  5
920
330
1
100
AcDbSymbolTableRecord
100
AcDbBlockTableRecord
  2
*D12
340
0
  0
ENDTAB
  0
ENDSEC
  0
SECTION
  2
BLOCKS
  0
BLOCK
  5
6
330
2
100
AcDbEntity
  8
0
100
AcDbBlockBegin
  2
*MODEL_SPACE
 70
     0
 10
0.0
 20
0.0
 30
0.0
  3
*MODEL_SPACE
  1

  0
ENDBLK
  5
A
330
2
100
AcDbEntity
  8
0
100
AcDbBlockEnd
  0
BLOCK
  5
E
330
B
100
AcDbEntity
 67
     1
  8
0
100
AcDbBlockBegin
  2
*PAPER_SPACE
 70
     0
 10
0.0
 20
0.0
 30
0.0
  3
*PAPER_SPACE
  1

  0
ENDBLK
  5
F
330
B
100
AcDbEntity
 67
     1
  8
0
100
AcDbBlockEnd
  0
BLOCK
  5
151
330
14D
100
AcDbEntity
  8
0
100
AcDbBlockBegin
  2
_Open30
 70
     0
 10
0.0
 20
0.0
 30
0.0
  3
_Open30
  1

  0
LINE
  5
14E
330
14D
100
AcDbEntity
  8
3
 62
     0
370
    -2
100
AcDbLine
 10
-1.0
 20
0.26794919
 30
0.0
 11
0.0
 21
0.0
 31
0.0
  0
LINE
  5
14F
330
14D
100
AcDbEntity
  8
3
 62
     0
370
    -2
100
AcDbLine
 10
0.0
 20
0.0
 30
0.0
 11
-1.0
 21
-0.26794919
 31
0.0
  0
LINE
  5
150
330
14D
100
AcDbEntity
  8
3
 62
     0
370
    -2
100
AcDbLine
 10
0.0
 20
0.0
 30
0.0
 11
-1.0
 21
0.0
 31
0.0
  0
ENDBLK
  5
152
330
14D
100
AcDbEntity
  8
0
100
AcDbBlockEnd
  0
BLOCK
  5
607
330
5FD
100
AcDbEntity
  8
0
100
AcDbBlockBegin
  2
*D1
 70
     1
 10
0.0
 20
0.0
 30
0.0
  3
*D1
  1

  0
LINE
  5
8A0
330
5FD
100
AcDbEntity
  8
3
 62
     0
100
AcDbLine
 10
-5842.373292321666
 20
1534.031321887612
 30
0.0
 11
-6083.710966522282
 21
1534.031321887612
 31
0.0
  0
LINE
  5
8A1
330
5FD
100
AcDbEntity
  8
3
 62
     0
100
AcDbLine
 10
-5842.373292321666
 20
1034.031321887612
 30
0.0
 11
-6083.710966522282
 21
1034.031321887612
 31
0.0
  0
LINE
  5
8A2
330
5FD
100
AcDbEntity
  8
3
 62
     0
100
AcDbLine
 10
-6053.710966522281
 20
1474.031321887611
 30
0.0
 11
-6053.710966522281
 21
1094.031321887612
 31
0.0
  0
INSERT
  5
8A3
330
5FD
100
AcDbEntity
  8
3
 62
     0
100
AcDbBlockReference
  2
_Open30
 10
-6053.710966522281
 20
1534.031321887612
 30
0.0
 41
60.0
 42
60.0
 43
60.0
 50
90.0
  0
INSERT
  5
8A4
330
5FD
100
AcDbEntity
  8
3
 62
     0
100
AcDbBlockReference
  2
_Open30
 10
-6053.710966522281
 20
1034.031321887612
 30
0.0
 41
60.0
 42
60.0
 43
60.0
 50
270.0
  0
MTEXT
  5
8A5
330
5FD
100
AcDbEntity
  8
3
 62
     0
100
AcDbMText
 10
-6128.710966522281
 20
1316.998752571988
 30
0.0
 40
90.0
 41
0.0
 71
     5
 72
     5
  1
\A1;500
 11
0.0000000000000001
 21
1.0
 31
0.0
 73
     1
 44
1.0
  0
POINT
  5
8A6
330
5FD
100
AcDbEntity
  8
Defpoints
 62
     0
100
AcDbPoint
 10
-5827.373292321666
 20
1534.031321887612
 30
0.0
  0
POINT
  5
8A7
330
5FD
100
AcDbEntity
  8
Defpoints
 62
     0
100
AcDbPoint
 10
-5827.373292321666
 20
1034.031321887612
 30
0.0
  0
POINT
  5
8A8
330
5FD
100
AcDbEntity
  8
Defpoints
 62
     0
100
AcDbPoint
 10
-6053.710966522281
 20
1034.031321887612
 30
0.0
  0
ENDBLK
  5
608
330
5FD
100
AcDbEntity
  8
0
100
AcDbBlockEnd
  0
BLOCK
  5
614
330
60A
100
AcDbEntity
  8
0
100
AcDbBlockBegin
  2
*D2
 70
     1
 10
0.0
 20
0.0
 30
0.0
  3
*D2
  1

  0
LINE
  5
8A9
330
60A
100
AcDbEntity
  8
3
 62
     0
100
AcDbLine
 10
-5842.373292321666
 20
1034.031321887612
 30
0.0
 11
-6081.462226813274
 21
1034.031321887612
 31
0.0
  0
LINE
  5
8AA
330
60A
100
AcDbEntity
  8
3
 62
     0
100
AcDbLine
 10
-5546.873292321666
 20
444.031321887612
 30
0.0
 11
-6081.462226813274
 21
444.0313218876122
 31
0.0
  0
LINE
  5
8AB
330
60A
100
AcDbEntity
  8
3
 62
     0
100
AcDbLine
 10
-6051.462226813273
 20
974.0313218876123
 30
0.0
 11
-6051.462226813273
 21
504.0313218876122
 31
0.0
  0
INSERT
  5
8AC
330
60A
100
AcDbEntity
  8
3
 62
     0
100
AcDbBlockReference
  2
_Open30
 10
-6051.462226813273
 20
1034.031321887612
 30
0.0
 41
60.0
 42
60.0
 43
60.0
 50
90.0
  0
INSERT
  5
8AD
330
60A
100
AcDbEntity
  8
3
 62
     0
100
AcDbBlockReference
  2
_Open30
 10
-6051.462226813273
 20
444.0313218876122
 30
0.0
 41
60.0
 42
60.0
 43
60.0
 50
270.0
  0
MTEXT
  5
8AE
330
60A
100
AcDbEntity
  8
3
 62
     0
100
AcDbMText
 10
-6126.462226813274
 20
766.6991109681402
 30
0.0
 40
90.0
 41
0.0
 71
     5
 72
     5
  1
\A1;590
 11
0.0000000000000001
 21
1.0
 31
0.0
 73
     1
 44
1.0
  0
POINT
  5
8AF
330
60A
100
AcDbEntity
  8
Defpoints
 62
     0
100
AcDbPoint
 10
-5827.373292321666
 20
1034.031321887612
 30
0.0
  0
POINT
  5
8B0
330
60A
100
AcDbEntity
  8
Defpoints
 62
     0
100
AcDbPoint
 10
-5531.873292321666
 20
444.031321887612
 30
0.0
  0
POINT
  5
8B1
330
60A
100
AcDbEntity
  8
Defpoints
 62
     0
100
AcDbPoint
 10
-6051.462226813273
 20
444.0313218876122
 30
0.0
  0
ENDBLK
  5
615
330
60A
100
AcDbEntity
  8
0
100
AcDbBlockEnd
  0
BLOCK
  5
623
330
617
100
AcDbEntity
  8
0
100
AcDbBlockBegin
  2
*D3
 70
     1
 10
0.0
 20
0.0
 30
0.0
  3
*D3
  1

  0
LINE
  5
8B2
330
617
100
AcDbEntity
  8
3
 62
     0
100
AcDbLine
 10
-5546.873292321666
 20
444.031321887612
 30
0.0
 11
-6079.322324150045
 21
444.0313218876122
 31
0.0
  0
LINE
  5
8B3
330
617
100
AcDbEntity
  8
3
 62
     0
100
AcDbLine
 10
-5546.873292321666
 20
344.031321887612
 30
0.0
 11
-6079.322324150045
 21
344.0313218876122
 31
0.0
  0
LINE
  5
8B4
330
617
100
AcDbEntity
  8
3
 62
     0
100
AcDbLine
 10
-6049.322324150046
 20
504.0313218876122
 30
0.0
 11
-6049.322324150046
 21
564.0313218876122
 31
0.0
  0
LINE
  5
8B5
330
617
100
AcDbEntity
  8
3
 62
     0
100
AcDbLine
 10
-6049.322324150046
 20
284.0313218876122
 30
0.0
 11
-6049.322324150046
 21
-50.25439239810199
 31
0.0
  0
LINE
  5
8B6
330
617
100
AcDbEntity
  8
3
 62
     0
100
AcDbLine
 10
-6049.322324150046
 20
444.0313218876122
 30
0.0
 11
-6049.322324150046
 21
344.0313218876122
 31
0.0
  0
INSERT
  5
8B7
330
617
100
AcDbEntity
  8
3
 62
     0
100
AcDbBlockReference
  2
_Open30
 10
-6049.322324150046
 20
444.0313218876122
 30
0.0
 41
60.0
 42
60.0
 43
60.0
 50
270.0
  0
INSERT
  5
8B8
330
617
100
AcDbEntity
  8
3
 62
     0
100
AcDbBlockReference
  2
_Open30
 10
-6049.322324150046
 20
344.0313218876122
 30
0.0
 41
60.0
 42
60.0
 43
60.0
 50
90.0
  0
MTEXT
  5
8B9
330
617
100
AcDbEntity
  8
3
 62
     0
100
AcDbMText
 10
-6124.322324150046
 20
86.88846474475415
 30
0.0
 40
90.0
 41
0.0
 71
     5
 72
     5
  1
\A1;100
 11
0.0000000000000001
 21
1.0
 31
0.0
 73
     1
 44
1.0
  0
POINT
  5
8BA
330
617
100
AcDbEntity
  8
Defpoints
 62
     0
100
AcDbPoint
 10
-5531.873292321666
 20
444.031321887612
 30
0.0
  0
POINT
  5
8BB
330
617
100
AcDbEntity
  8
Defpoints
 62
     0
100
AcDbPoint
 10
-5531.873292321666
 20
344.031321887612
 30
0.0
  0
POINT
  5
8BC
330
617
100
AcDbEntity
  8
Defpoints
 62
     0
100
AcDbPoint
 10
-6049.322324150046
 20
344.0313218876122
 30
0.0
  0
ENDBLK
  5
624
330
617
100
AcDbEntity
  8
0
100
AcDbBlockEnd
  0
BLOCK
  5
632
330
626
100
AcDbEntity
  8
0
100
AcDbBlockBegin
  2
*D4
 70
     1
 10
0.0
 20
0.0
 30
0.0
  3
*D4
  1

  0
LINE
  5
914
330
626
100
AcDbEntity
  8
3
 62
     0
370
    -2
100
AcDbLine
 10
-5452.373292321666
 20
384.0313218876122
 30
0.0
 11
-5814.277705638909
 21
384.0313218876123
 31
0.0
  0
LINE
  5
915
330
626
100
AcDbEntity
  8
3
 62
     0
370
    -2
100
AcDbLine
 10
-5496.873292321665
 20
344.031321887612
 30
0.0
 11
-5814.277705638909
 21
344.0313218876121
 31
0.0
  0
LINE
  5
916
330
626
100
AcDbEntity
  8
3
 62
     0
370
    -2
100
AcDbLine
 10
-5784.27770563891
 20
444.0313218876123
 30
0.0
 11
-5784.27770563891
 21
504.0313218876122
 31
0.0
  0
LINE
  5
917
330
626
100
AcDbEntity
  8
3
 62
     0
370
    -2
100
AcDbLine
 10
-5784.27770563891
 20
284.0313218876122
 30
0.0
 11
-5784.27770563891
 21
18.31703617332639
 31
0.0
  0
LINE
  5
918
330
626
100
AcDbEntity
  8
3
 62
     0
370
    -2
100
AcDbLine
 10
-5784.27770563891
 20
384.0313218876123
 30
0.0
 11
-5784.27770563891
 21
344.0313218876121
 31
0.0
  0
INSERT
  5
919
330
626
100
AcDbEntity
  8
3
 62
     0
370
    -2
100
AcDbBlockReference
  2
_Open30
 10
-5784.27770563891
 20
384.0313218876123
 30
0.0
 41
60.0
 42
60.0
 43
60.0
 50
270.0
  0
INSERT
  5
91A
330
626
100
AcDbEntity
  8
3
 62
     0
370
    -2
100
AcDbBlockReference
  2
_Open30
 10
-5784.27770563891
 20
344.0313218876121
 30
0.0
 41
60.0
 42
60.0
 43
60.0
 50
90.0
  0
MTEXT
  5
91B
330
626
100
AcDbEntity
  8
3
 62
     0
100
AcDbMText
 10
-5859.277705638909
 20
121.1741790304683
 30
0.0
 40
90.0
 41
0.0
 71
     5
 72
     1
  1
\A1;40
 11
0.0000000000000001
 21
1.0
 31
0.0
 73
     1
 44
1.0
  0
POINT
  5
91C
330
626
100
AcDbEntity
  8
Defpoints
 62
     0
100
AcDbPoint
 10
-5437.373292321666
 20
384.0313218876122
 30
0.0
  0
POINT
  5
91D
330
626
100
AcDbEntity
  8
Defpoints
 62
     0
100
AcDbPoint
 10
-5481.873292321665
 20
344.031321887612
 30
0.0
  0
POINT
  5
91E
330
626
100
AcDbEntity
  8
Defpoints
 62
     0
100
AcDbPoint
 10
-5784.27770563891
 20
344.0313218876121
 30
0.0
  0
ENDBLK
  5
633
330
626
100
AcDbEntity
  8
0
100
AcDbBlockEnd
  0
BLOCK
  5
63F
330
635
100
AcDbEntity
  8
0
100
AcDbBlockBegin
  2
*D5
 70
     1
 10
0.0
 20
0.0
 30
0.0
  3
*D5
  1

  0
LINE
  5
8C8
330
635
100
AcDbEntity
  8
3
 62
     0
100
AcDbLine
 10
-5842.373292321666
 20
1534.031321887612
 30
0.0
 11
-6377.751576085509
 21
1534.031321887612
 31
0.0
  0
LINE
  5
8C9
330
635
100
AcDbEntity
  8
3
 62
     0
100
AcDbLine
 10
-5542.373292321666
 20
344.031321887612
 30
0.0
 11
-6377.751576085509
 21
344.0313218876123
 31
0.0
  0
LINE
  5
8CA
330
635
100
AcDbEntity
  8
3
 62
     0
100
AcDbLine
 10
-6347.75157608551
 20
1474.031321887611
 30
0.0
 11
-6347.75157608551
 21
404.0313218876122
 31
0.0
  0
INSERT
  5
8CB
330
635
100
AcDbEntity
  8
3
 62
     0
100
AcDbBlockReference
  2
_Open30
 10
-6347.75157608551
 20
1534.031321887612
 30
0.0
 41
60.0
 42
60.0
 43
60.0
 50
90.0
  0
INSERT
  5
8CC
330
635
100
AcDbEntity
  8
3
 62
     0
100
AcDbBlockReference
  2
_Open30
 10
-6347.75157608551
 20
344.0313218876123
 30
0.0
 41
60.0
 42
60.0
 43
60.0
 50
270.0
  0
MTEXT
  5
8CD
330
635
100
AcDbEntity
  8
3
 62
     0
100
AcDbMText
 10
-6422.751576085509
 20
939.9320258819898
 30
0.0
 40
90.0
 41
0.0
 71
     5
 72
     5
  1
\A1;1190
 11
0.0000000000000001
 21
1.0
 31
0.0
 73
     1
 44
1.0
  0
POINT
  5
8CE
330
635
100
AcDbEntity
  8
Defpoints
 62
     0
100
AcDbPoint
 10
-5827.373292321666
 20
1534.031321887612
 30
0.0
  0
POINT
  5
8CF
330
635
100
AcDbEntity
  8
Defpoints
 62
     0
100
AcDbPoint
 10
-5527.373292321666
 20
344.031321887612
 30
0.0
  0
POINT
  5
8D0
330
635
100
AcDbEntity
  8
Defpoints
 62
     0
100
AcDbPoint
 10
-6347.75157608551
 20
344.0313218876123
 30
0.0
  0
ENDBLK
  5
640
330
635
100
AcDbEntity
  8
0
100
AcDbBlockEnd
  0
BLOCK
  5
64C
330
642
100
AcDbEntity
  8
0
100
AcDbBlockBegin
  2
*D6
 70
     1
 10
0.0
 20
0.0
 30
0.0
  3
*D6
  1

  0
LINE
  5
8D1
330
642
100
AcDbEntity
  8
3
 62
     0
100
AcDbLine
 10
-5827.373292321666
 20
1549.031321887611
 30
0.0
 11
-5827.373292321666
 21
1877.522881486114
 31
0.0
  0
LINE
  5
8D2
330
642
100
AcDbEntity
  8
3
 62
     0
100
AcDbLine
 10
-4227.373292321665
 20
1549.031321887611
 30
0.0
 11
-4227.373292321665
 21
1877.522881486114
 31
0.0
  0
LINE
  5
8D3
330
642
100
AcDbEntity
  8
3
 62
     0
100
AcDbLine
 10
-5767.373292321666
 20
1847.522881486114
 30
0.0
 11
-4287.373292321666
 21
1847.522881486114
 31
0.0
  0
INSERT
  5
8D4
330
642
100
AcDbEntity
  8
3
 62
     0
100
AcDbBlockReference
  2
_Open30
 10
-5827.373292321666
 20
1847.522881486114
 30
0.0
 41
60.0
 42
60.0
 43
60.0
 50
180.0
  0
INSERT
  5
8D5
330
642
100
AcDbEntity
  8
3
 62
     0
100
AcDbBlockReference
  2
_Open30
 10
-4227.373292321665
 20
1847.522881486114
 30
0.0
 41
60.0
 42
60.0
 43
60.0
  0
MTEXT
  5
8D6
330
642
100
AcDbEntity
  8
3
 62
     0
100
AcDbMText
 10
-5048.706580274207
 20
1922.522881486114
 30
0.0
 40
90.0
 41
0.0
 71
     5
 72
     5
  1
\A1;1600
 73
     1
 44
1.0
  0
POINT
  5
8D7
330
642
100
AcDbEntity
  8
Defpoints
 62
     0
100
AcDbPoint
 10
-5827.373292321666
 20
1534.031321887612
 30
0.0
  0
POINT
  5
8D8
330
642
100
AcDbEntity
  8
Defpoints
 62
     0
100
AcDbPoint
 10
-4227.373292321665
 20
1534.031321887611
 30
0.0
  0
POINT
  5
8D9
330
642
100
AcDbEntity
  8
Defpoints
 62
     0
100
AcDbPoint
 10
-4227.373292321665
 20
1847.522881486114
 30
0.0
  0
ENDBLK
  5
64D
330
642
100
AcDbEntity
  8
0
100
AcDbBlockEnd
  0
BLOCK
  5
659
330
64F
100
AcDbEntity
  8
0
100
AcDbBlockBegin
  2
*D7
 70
     1
 10
0.0
 20
0.0
 30
0.0
  3
*D7
  1

  0
LINE
  5
8DA
330
64F
100
AcDbEntity
  8
3
 62
     0
100
AcDbLine
 10
-5477.373292321665
 20
359.0313218876122
 30
0.0
 11
-5477.373292321665
 21
-15.60342391976155
 31
0.0
  0
LINE
  5
8DB
330
64F
100
AcDbEntity
  8
3
 62
     0
100
AcDbLine
 10
-4627.373292321665
 20
359.0313218876122
 30
0.0
 11
-4627.373292321665
 21
-15.60342391976155
 31
0.0
  0
LINE
  5
8DC
330
64F
100
AcDbEntity
  8
3
 62
     0
100
AcDbLine
 10
-5417.373292321666
 20
14.39657608023844
 30
0.0
 11
-4687.373292321665
 21
14.39657608023844
 31
0.0
  0
INSERT
  5
8DD
330
64F
100
AcDbEntity
  8
3
 62
     0
100
AcDbBlockReference
  2
_Open30
 10
-5477.373292321665
 20
14.39657608023844
 30
0.0
 41
60.0
 42
60.0
 43
60.0
 50
180.0
  0
INSERT
  5
8DE
330
64F
100
AcDbEntity
  8
3
 62
     0
100
AcDbBlockReference
  2
_Open30
 10
-4627.373292321665
 20
14.39657608023844
 30
0.0
 41
60.0
 42
60.0
 43
60.0
  0
MTEXT
  5
8DF
330
64F
100
AcDbEntity
  8
3
 62
     0
100
AcDbMText
 10
-5017.17189404009
 20
89.39657608023845
 30
0.0
 40
90.0
 41
0.0
 71
     5
 72
     5
  1
\A1;850
 73
     1
 44
1.0
  0
POINT
  5
8E0
330
64F
100
AcDbEntity
  8
Defpoints
 62
     0
100
AcDbPoint
 10
-5477.373292321665
 20
374.0313218876122
 30
0.0
  0
POINT
  5
8E1
330
64F
100
AcDbEntity
  8
Defpoints
 62
     0
100
AcDbPoint
 10
-4627.373292321665
 20
374.0313218876122
 30
0.0
  0
POINT
  5
8E2
330
64F
100
AcDbEntity
  8
Defpoints
 62
     0
100
AcDbPoint
 10
-4627.373292321665
 20
14.39657608023844
 30
0.0
  0
ENDBLK
  5
65A
330
64F
100
AcDbEntity
  8
0
100
AcDbBlockEnd
  0
BLOCK
  5
666
330
65C
100
AcDbEntity
  8
0
100
AcDbBlockBegin
  2
*D8
 70
     1
 10
0.0
 20
0.0
 30
0.0
  3
*D8
  1

  0
LINE
  5
8E3
330
65C
100
AcDbEntity
  8
3
 62
     0
100
AcDbLine
 10
-5527.373292321666
 20
329.031321887612
 30
0.0
 11
-5527.373292321666
 21
-259.0490679809771
 31
0.0
  0
LINE
  5
8E4
330
65C
100
AcDbEntity
  8
3
 62
     0
100
AcDbLine
 10
-4527.373292321665
 20
329.031321887612
 30
0.0
 11
-4527.373292321665
 21
-259.0490679809771
 31
0.0
  0
LINE
  5
8E5
330
65C
100
AcDbEntity
  8
3
 62
     0
100
AcDbLine
 10
-5467.373292321666
 20
-229.0490679809772
 30
0.0
 11
-4587.373292321665
 21
-229.0490679809772
 31
0.0
  0
INSERT
  5
8E6
330
65C
100
AcDbEntity
  8
3
 62
     0
100
AcDbBlockReference
  2
_Open30
 10
-5527.373292321666
 20
-229.0490679809772
 30
0.0
 41
60.0
 42
60.0
 43
60.0
 50
180.0
  0
INSERT
  5
8E7
330
65C
100
AcDbEntity
  8
3
 62
     0
100
AcDbBlockReference
  2
_Open30
 10
-4527.373292321665
 20
-229.0490679809772
 30
0.0
 41
60.0
 42
60.0
 43
60.0
  0
MTEXT
  5
8E8
330
65C
100
AcDbEntity
  8
3
 62
     0
100
AcDbMText
 10
-5042.972984733467
 20
-154.0490679809772
 30
0.0
 40
90.0
 41
0.0
 71
     5
 72
     5
  1
\A1;1000
 73
     1
 44
1.0
  0
POINT
  5
8E9
330
65C
100
AcDbEntity
  8
Defpoints
 62
     0
100
AcDbPoint
 10
-5527.373292321666
 20
344.031321887612
 30
0.0
  0
POINT
  5
8EA
330
65C
100
AcDbEntity
  8
Defpoints
 62
     0
100
AcDbPoint
 10
-4527.373292321665
 20
344.031321887612
 30
0.0
  0
POINT
  5
8EB
330
65C
100
AcDbEntity
  8
Defpoints
 62
     0
100
AcDbPoint
 10
-4527.373292321665
 20
-229.0490679809772
 30
0.0
  0
ENDBLK
  5
667
330
65C
100
AcDbEntity
  8
0
100
AcDbBlockEnd
  0
BLOCK
  5
673
330
669
100
AcDbEntity
  8
0
100
AcDbBlockBegin
  2
*D9
 70
     1
 10
0.0
 20
0.0
 30
0.0
  3
*D9
  1

  0
LINE
  5
8EC
330
669
100
AcDbEntity
  8
3
 62
     0
100
AcDbLine
 10
-3558.156683015142
 20
1149.031321887611
 30
0.0
 11
-3558.156683015142
 21
1845.664556443276
 31
0.0
  0
LINE
  5
8ED
330
669
100
AcDbEntity
  8
3
 62
     0
100
AcDbLine
 10
-1958.156683015141
 20
1149.031321887613
 30
0.0
 11
-1958.156683015141
 21
1845.664556443276
 31
0.0
  0
LINE
  5
8EE
330
669
100
AcDbEntity
  8
3
 62
     0
100
AcDbLine
 10
-3498.156683015142
 20
1815.664556443276
 30
0.0
 11
-2018.156683015141
 21
1815.664556443276
 31
0.0
  0
INSERT
  5
8EF
330
669
100
AcDbEntity
  8
3
 62
     0
100
AcDbBlockReference
  2
_Open30
 10
-3558.156683015142
 20
1815.664556443276
 30
0.0
 41
60.0
 42
60.0
 43
60.0
 50
180.0
  0
INSERT
  5
8F0
330
669
100
AcDbEntity
  8
3
 62
     0
100
AcDbBlockReference
  2
_Open30
 10
-1958.156683015141
 20
1815.664556443276
 30
0.0
 41
60.0
 42
60.0
 43
60.0
  0
MTEXT
  5
8F1
330
669
100
AcDbEntity
  8
3
 62
     0
100
AcDbMText
 10
-2793.428045788241
 20
1890.664556443276
 30
0.0
 40
90.0
 41
0.0
 71
     5
 72
     5
  1
\A1;1600
 73
     1
 44
1.0
  0
POINT
  5
8F2
330
669
100
AcDbEntity
  8
Defpoints
 62
     0
100
AcDbPoint
 10
-3558.156683015142
 20
1134.031321887611
 30
0.0
  0
POINT
  5
8F3
330
669
100
AcDbEntity
  8
Defpoints
 62
     0
100
AcDbPoint
 10
-1958.156683015141
 20
1134.031321887613
 30
0.0
  0
POINT
  5
8F4
330
669
100
AcDbEntity
  8
Defpoints
 62
     0
100
AcDbPoint
 10
-1958.156683015141
 20
1815.664556443276
 30
0.0
  0
ENDBLK
  5
674
330
669
100
AcDbEntity
  8
0
100
AcDbBlockEnd
  0
BLOCK
  5
680
330
676
100
AcDbEntity
  8
0
100
AcDbBlockBegin
  2
*D10
 70
     1
 10
0.0
 20
0.0
 30
0.0
  3
*D10
  1

  0
LINE
  5
8F5
330
676
100
AcDbEntity
  8
3
 62
     0
100
AcDbLine
 10
-3158.156683015142
 20
359.0313218876122
 30
0.0
 11
-3158.156683015142
 21
27.74528488954456
 31
0.0
  0
LINE
  5
8F6
330
676
100
AcDbEntity
  8
3
 62
     0
100
AcDbLine
 10
-2358.15668301514
 20
359.0313218876122
 30
0.0
 11
-2358.15668301514
 21
27.74528488954456
 31
0.0
  0
LINE
  5
8F7
330
676
100
AcDbEntity
  8
3
 62
     0
100
AcDbLine
 10
-3098.156683015142
 20
57.74528488954456
 30
0.0
 11
-2418.156683015141
 21
57.74528488954456
 31
0.0
  0
INSERT
  5
8F8
330
676
100
AcDbEntity
  8
3
 62
     0
100
AcDbBlockReference
  2
_Open30
 10
-3158.156683015142
 20
57.74528488954456
 30
0.0
 41
60.0
 42
60.0
 43
60.0
 50
180.0
  0
INSERT
  5
8F9
330
676
100
AcDbEntity
  8
3
 62
     0
100
AcDbBlockReference
  2
_Open30
 10
-2358.15668301514
 20
57.74528488954456
 30
0.0
 41
60.0
 42
60.0
 43
60.0
  0
MTEXT
  5
8FA
330
676
100
AcDbEntity
  8
3
 62
     0
100
AcDbMText
 10
-2759.367440553404
 20
132.7452848895445
 30
0.0
 40
90.0
 41
0.0
 71
     5
 72
     5
  1
\A1;800
 73
     1
 44
1.0
  0
POINT
  5
8FB
330
676
100
AcDbEntity
  8
Defpoints
 62
     0
100
AcDbPoint
 10
-3158.156683015142
 20
374.0313218876122
 30
0.0
  0
POINT
  5
8FC
330
676
100
AcDbEntity
  8
Defpoints
 62
     0
100
AcDbPoint
 10
-2358.15668301514
 20
374.0313218876122
 30
0.0
  0
POINT
  5
8FD
330
676
100
AcDbEntity
  8
Defpoints
 62
     0
100
AcDbPoint
 10
-2358.15668301514
 20
57.74528488954456
 30
0.0
  0
ENDBLK
  5
681
330
676
100
AcDbEntity
  8
0
100
AcDbBlockEnd
  0
BLOCK
  5
68D
330
683
100
AcDbEntity
  8
0
100
AcDbBlockBegin
  2
*D11
 70
     1
 10
0.0
 20
0.0
 30
0.0
  3
*D11
  1

  0
LINE
  5
8FE
330
683
100
AcDbEntity
  8
3
 62
     0
100
AcDbLine
 10
-3258.15668301514
 20
329.031321887612
 30
0.0
 11
-3258.15668301514
 21
-271.3521583156834
 31
0.0
  0
LINE
  5
8FF
330
683
100
AcDbEntity
  8
3
 62
     0
100
AcDbLine
 10
-2258.156683015142
 20
329.0313218876121
 30
0.0
 11
-2258.156683015142
 21
-271.3521583156835
 31
0.0
  0
LINE
  5
900
330
683
100
AcDbEntity
  8
3
 62
     0
100
AcDbLine
 10
-3198.15668301514
 20
-241.3521583156835
 30
0.0
 11
-2318.156683015142
 21
-241.3521583156835
 31
0.0
  0
INSERT
  5
901
330
683
100
AcDbEntity
  8
3
 62
     0
100
AcDbBlockReference
  2
_Open30
 10
-3258.15668301514
 20
-241.3521583156835
 30
0.0
 41
60.0
 42
60.0
 43
60.0
 50
180.0
  0
INSERT
  5
902
330
683
100
AcDbEntity
  8
3
 62
     0
100
AcDbBlockReference
  2
_Open30
 10
-2258.156683015142
 20
-241.3521583156835
 30
0.0
 41
60.0
 42
60.0
 43
60.0
  0
MTEXT
  5
903
330
683
100
AcDbEntity
  8
3
 62
     0
100
AcDbMText
 10
-2750.295271310671
 20
-166.3521583156834
 30
0.0
 40
90.0
 41
0.0
 71
     5
 72
     5
  1
\A1;1000
 73
     1
 44
1.0
  0
POINT
  5
904
330
683
100
AcDbEntity
  8
Defpoints
 62
     0
100
AcDbPoint
 10
-3258.15668301514
 20
344.031321887612
 30
0.0
  0
POINT
  5
905
330
683
100
AcDbEntity
  8
Defpoints
 62
     0
100
AcDbPoint
 10
-2258.156683015142
 20
344.0313218876121
 30
0.0
  0
POINT
  5
906
330
683
100
AcDbEntity
  8
Defpoints
 62
     0
100
AcDbPoint
 10
-2258.156683015142
 20
-241.3521583156835
 30
0.0
  0
ENDBLK
  5
68E
330
683
100
AcDbEntity
  8
0
100
AcDbBlockEnd
  0
BLOCK
  5
92A
330
920
100
AcDbEntity
  8
0
100
AcDbBlockBegin
  2
*D12
 70
     1
 10
0.0
 20
0.0
 30
0.0
  3
*D12
  1

  0
LINE
  5
92C
330
920
100
AcDbEntity
  8
1
 62
     0
370
    -2
100
AcDbLine
 10
-5427.373292321665
 20
359.0313218876122
 30
0.0
 11
-5427.373292321665
 21
-35.10676429626255
 31
0.0
  0
LINE
  5
92D
330
920
100
AcDbEntity
  8
1
 62
     0
370
    -2
100
AcDbLine
 10
-4627.373292321665
 20
359.0313218876122
 30
0.0
 11
-4627.373292321665
 21
-35.10676429626255
 31
0.0
  0
LINE
  5
92E
330
920
100
AcDbEntity
  8
1
 62
     0
370
    -2
100
AcDbLine
 10
-5367.373292321666
 20
-5.106764296262554
 30
0.0
 11
-4687.373292321665
 21
-5.106764296262554
 31
0.0
  0
INSERT
  5
92F
330
920
100
AcDbEntity
  8
1
 62
     0
370
    -2
100
AcDbBlockReference
  2
_Open30
 10
-5427.373292321665
 20
-5.106764296262554
 30
0.0
 41
60.0
 42
60.0
 43
60.0
 50
180.0
  0
INSERT
  5
930
330
920
100
AcDbEntity
  8
1
 62
     0
370
    -2
100
AcDbBlockReference
  2
_Open30
 10
-4627.373292321665
 20
-5.106764296262554
 30
0.0
 41
60.0
 42
60.0
 43
60.0
  0
MTEXT
  5
931
330
920
100
AcDbEntity
  8
1
 62
     0
100
AcDbMText
 10
-5055.333579817023
 20
69.89323570373745
 30
0.0
 40
90.0
 41
0.0
 71
     5
 72
     1
  1
\A1;800
 73
     1
 44
1.0
  0
POINT
  5
932
330
920
100
AcDbEntity
  8
Defpoints
 62
     0
100
AcDbPoint
 10
-5427.373292321665
 20
374.0313218876122
 30
0.0
  0
POINT
  5
933
330
920
100
AcDbEntity
  8
Defpoints
 62
     0
100
AcDbPoint
 10
-4627.373292321665
 20
374.0313218876122
 30
0.0
  0
POINT
  5
934
330
920
100
AcDbEntity
  8
Defpoints
 62
     0
100
AcDbPoint
 10
-4627.373292321665
 20
-5.106764296262554
 30
0.0
  0
ENDBLK
  5
92B
330
920
100
AcDbEntity
  8
0
100
AcDbBlockEnd
  0
ENDSEC
  0
SECTION
  2
ENTITIES
  0
LINE
  5
24
330
2
100
AcDbEntity
  8
1
100
AcDbLine
 10
-3418.156683015141
 20
1034.031321887612
 30
0.0
 11
-2098.156683015148
 21
1034.031321887612
 31
0.0
  0
LINE
  5
25
330
2
100
AcDbEntity
  8
1
100
AcDbLine
 10
-3262.656683015142
 20
444.031321887612
 30
0.0
 11
-2253.656683015142
 21
444.0313218876121
 31
0.0
  0
LINE
  5
26
330
2
100
AcDbEntity
  8
1
100
AcDbLine
 10
-3262.65668301514
 20
344.031321887612
 30
0.0
 11
-2253.656683015142
 21
344.0313218876121
 31
0.0
  0
LINE
  5
27
330
2
100
AcDbEntity
  8
1
100
AcDbLine
 10
-3258.156683015141
 20
428.531321887612
 30
0.0
 11
-2258.156683015141
 21
428.5313218876103
 31
0.0
  0
LINE
  5
28
330
2
100
AcDbEntity
  8
1
100
AcDbLine
 10
-3258.156683015141
 20
424.0313218876121
 30
0.0
 11
-2258.156683015141
 21
424.031321887612
 31
0.0
  0
LINE
  5
29
330
2
100
AcDbEntity
  8
1
100
AcDbLine
 10
-3031.651034274495
 20
454.0313218876121
 30
0.0
 11
-2484.662331755787
 21
454.0313218876121
 31
0.0
  0
LINE
  5
2A
330
2
100
AcDbEntity
  8
1
100
AcDbLine
 10
-3204.909040749941
 20
1534.031321887612
 30
0.0
 11
-2758.156683015141
 21
1534.031321887612
 31
0.0
  0
LINE
  5
2B
330
2
100
AcDbEntity
  8
1
100
AcDbLine
 10
-3198.156683015141
 20
1184.031321887612
 30
0.0
 11
-2318.156683015141
 21
1184.031321887611
 31
0.0
  0
LINE
  5
2C
330
2
100
AcDbEntity
  8
1
100
AcDbLine
 10
-3198.156683015141
 20
1179.531321887611
 30
0.0
 11
-2318.156683015141
 21
1179.53132188761
 31
0.0
  0
LINE
  5
30
330
2
100
AcDbEntity
  8
4
100
AcDbLine
 10
-5128.411213351377
 20
-2032.90630284664
 30
0.0
 11
-2128.411213351377
 21
-2032.90630284664
 31
0.0
  0
LINE
  5
31
330
2
100
AcDbEntity
  8
4
100
AcDbLine
 10
-5128.411213351377
 20
-1782.90630284664
 30
0.0
 11
-2128.411213351377
 21
-1782.90630284664
 31
0.0
  0
TEXT
  5
32
330
2
100
AcDbEntity
  8
4
100
AcDbText
 10
-3809.214349632215
 20
-1726.476880452719
 30
0.0
 40
125.0
  1
ミツヤ軸流排煙ファン
100
AcDbText
  0
TEXT
  5
33
330
2
100
AcDbEntity
  8
4
100
AcDbText
 10
-3786.774974387675
 20
-1990.007342146782
 30
0.0
 40
125.0
  1
APE#800-3R
100
AcDbText
  0
LINE
  5
35
330
2
100
AcDbEntity
  8
4
100
AcDbLine
 10
-6128.411213351377
 20
3390.615582815371
 30
0.0
 11
-2128.411213351377
 21
3390.615582815371
 31
0.0
  0
LINE
  5
36
330
2
100
AcDbEntity
  8
4
100
AcDbLine
 10
-6128.411213351377
 20
3890.615582815371
 30
0.0
 11
-2128.411213351377
 21
3890.615582815371
 31
0.0
  0
LINE
  5
37
330
2
100
AcDbEntity
  8
4
100
AcDbLine
 10
-5128.411213351377
 20
-1532.90630284664
 30
0.0
 11
-2128.411213351377
 21
-1532.90630284664
 31
0.0
  0
TEXT
  5
38
330
2
100
AcDbEntity
  8
4
100
AcDbText
 10
-3475.171056851344
 20
3175.665800484648
 30
0.0
 40
135.0
  1
縮尺：1/25
100
AcDbText
  0
LINE
  5
39
330
2
100
AcDbEntity
  8
4
100
AcDbLine
 10
-3151.867657451715
 20
4183.72435102774
 30
0.0
 11
-2128.411213351377
 21
4183.72435102774
 31
0.0
  0
LINE
  5
3A
330
2
100
AcDbEntity
  8
4
100
AcDbLine
 10
-2128.411213351377
 20
3920.252654966862
 30
0.0
 11
-3151.867657451715
 21
3920.252654966862
 31
0.0
  0
LINE
  5
3B
330
2
100
AcDbEntity
  8
4
100
AcDbLine
 10
-6753.411213351377
 20
4592.093697153359
 30
0.0
 11
-1503.411213351377
 21
4592.093697153359
 31
0.0
  0
LINE
  5
3C
330
2
100
AcDbEntity
  8
4
100
AcDbLine
 10
-1503.411213351377
 20
-2782.90630284664
 30
0.0
 11
-6753.411213351377
 21
-2782.90630284664
 31
0.0
  0
LINE
  5
3D
330
2
100
AcDbEntity
  8
1
100
AcDbLine
 10
-5427.373292321665
 20
1134.031321887612
 30
0.0
 11
-5427.373292321665
 21
424.0313218876122
 31
0.0
  0
LINE
  5
3E
330
2
100
AcDbEntity
  8
1
100
AcDbLine
 10
-5431.873292321665
 20
1084.935164393972
 30
0.0
 11
-5431.873292321665
 21
619.9479501672017
 31
0.0
  0
LINE
  5
3F
330
2
100
AcDbEntity
  8
2
100
AcDbLine
 10
-5027.373292321666
 20
200.9731216668806
 30
0.0
 11
-5027.373292321666
 21
1675.093357523124
 31
0.0
  0
LINE
  5
40
330
2
100
AcDbEntity
  8
1
100
AcDbLine
 10
-4627.373292321665
 20
1134.031321887611
 30
0.0
 11
-4627.373292321665
 21
424.0313218876122
 31
0.0
  0
LINE
  5
41
330
2
100
AcDbEntity
  8
1
100
AcDbLine
 10
-4565.308599143152
 20
908.0313218876122
 30
0.0
 11
-4565.308599143152
 21
798.0313218876122
 31
0.0
  0
LINE
  5
42
330
2
100
AcDbEntity
  8
1
100
AcDbLine
 10
-4565.308599143152
 20
803.0313218876122
 30
0.0
 11
-4565.308599143152
 21
903.0313218876122
 31
0.0
  0
LINE
  5
43
330
2
100
AcDbEntity
  8
1
100
AcDbLine
 10
-4564.308599143152
 20
802.3753218876121
 30
0.0
 11
-4564.308599143152
 21
902.979321887612
 31
0.0
  0
LINE
  5
44
330
2
100
AcDbEntity
  8
1
100
AcDbLine
 10
-4564.308599143152
 20
798.0313218876122
 30
0.0
 11
-4564.308599143152
 21
907.0313218876121
 31
0.0
  0
LINE
  5
45
330
2
100
AcDbEntity
  8
1
100
AcDbLine
 10
-4622.873292321666
 20
1084.935164393972
 30
0.0
 11
-4622.873292321666
 21
619.9479501672017
 31
0.0
  0
LINE
  5
46
330
2
100
AcDbEntity
  8
1
100
AcDbLine
 10
-4560.202899143152
 20
918.6123218876122
 30
0.0
 11
-4503.751499143152
 21
777.4843218876122
 31
0.0
  0
LINE
  5
47
330
2
100
AcDbEntity
  8
1
100
AcDbLine
 10
-4555.931899143152
 20
918.7053218876126
 30
0.0
 11
-4500.594699143152
 21
780.3623218876123
 31
0.0
  0
LINE
  5
48
330
2
100
AcDbEntity
  8
1
100
AcDbLine
 10
-4504.689899143151
 20
894.412321887612
 30
0.0
 11
-4499.413399143151
 21
786.7833218876121
 31
0.0
  0
LINE
  5
49
330
2
100
AcDbEntity
  8
2
100
AcDbLine
 10
-2758.156683015141
 20
294.031321887612
 30
0.0
 11
-2758.156683015141
 21
1634.031321887612
 31
0.0
  0
LINE
  5
4A
330
2
100
AcDbEntity
  8
1
100
AcDbLine
 10
-3158.156683015141
 20
1184.031321887612
 30
0.0
 11
-3158.156683015141
 21
428.5313218876121
 31
0.0
  0
LINE
  5
4B
330
2
100
AcDbEntity
  8
1
100
AcDbLine
 10
-3162.656683015141
 20
1084.896887605511
 30
0.0
 11
-3162.656683015141
 21
619.9479501672017
 31
0.0
  0
LINE
  5
4C
330
2
100
AcDbEntity
  8
4
100
AcDbLine
 10
-6753.411213351377
 20
-2782.90630284664
 30
0.0
 11
-6753.411213351377
 21
4592.093697153359
 31
0.0
  0
LINE
  5
4D
330
2
100
AcDbEntity
  8
1
100
AcDbLine
 10
-5531.873292321666
 20
444.031321887612
 30
0.0
 11
-4522.873292321666
 21
444.0313218876121
 31
0.0
  0
LINE
  5
4E
330
2
100
AcDbEntity
  8
1
100
AcDbLine
 10
-5531.873292321665
 20
344.031321887612
 30
0.0
 11
-4522.873292321666
 21
344.0313218876121
 31
0.0
  0
LINE
  5
4F
330
2
100
AcDbEntity
  8
1
100
AcDbLine
 10
-5527.373292321666
 20
428.531321887612
 30
0.0
 11
-4527.373292321665
 21
428.5313218876104
 31
0.0
  0
LINE
  5
50
330
2
100
AcDbEntity
  8
1
100
AcDbLine
 10
-5527.373292321666
 20
424.0313218876121
 30
0.0
 11
-4527.373292321665
 21
424.0313218876121
 31
0.0
  0
LINE
  5
51
330
2
100
AcDbEntity
  8
1
100
AcDbLine
 10
-5300.867643581018
 20
454.0313218876121
 30
0.0
 11
-4753.878941062312
 21
454.0313218876121
 31
0.0
  0
LINE
  5
57
330
2
100
AcDbEntity
  8
1
100
AcDbLine
 10
-5431.873292321665
 20
619.9479501672017
 30
0.0
 11
-5431.873292321665
 21
428.5313218876121
 31
0.0
  0
CIRCLE
  5
59
330
2
100
AcDbEntity
  8
1
100
AcDbCircle
 10
-5427.373292321665
 20
384.0313218876122
 30
0.0
 40
7.5
  0
LINE
  5
5A
330
2
100
AcDbEntity
  8
1
100
AcDbLine
 10
-5437.373292321666
 20
384.0313218876122
 30
0.0
 11
-5417.373292321666
 21
384.0313218876122
 31
0.0
  0
LINE
  5
5C
330
2
100
AcDbEntity
  8
1
100
AcDbLine
 10
-5427.373292321665
 20
374.0313218876122
 30
0.0
 11
-5427.373292321665
 21
394.0313218876121
 31
0.0
  0
LINE
  5
5D
330
2
100
AcDbEntity
  8
1
100
AcDbLine
 10
-5517.373292321666
 20
428.5313218876119
 30
0.0
 11
-5517.373292321666
 21
424.0313218876122
 31
0.0
  0
TEXT
  5
61
330
2
100
AcDbEntity
  8
4
100
AcDbText
 10
-5032.156011234123
 20
-1704.048738180108
 30
0.0
 40
125.0
  1
機器名称
100
AcDbText
  0
TEXT
  5
62
330
2
100
AcDbEntity
  8
4
100
AcDbText
 10
-5037.765948289383
 20
-1978.793411016613
 30
0.0
 40
125.0
  1
機器型番
100
AcDbText
  0
LINE
  5
63
330
2
100
AcDbEntity
  8
4
100
AcDbLine
 10
-5128.411213351377
 20
-1532.90630284664
 30
0.0
 11
-5128.411213351377
 21
-2032.90630284664
 31
0.0
  0
LINE
  5
64
330
2
100
AcDbEntity
  8
4
100
AcDbLine
 10
-3878.411213351377
 20
-1532.90630284664
 30
0.0
 11
-3878.411213351376
 21
-2032.90630284664
 31
0.0
  0
LINE
  5
66
330
2
100
AcDbEntity
  8
1
100
AcDbLine
 10
-4527.373292321665
 20
444.6329675368227
 30
0.0
 11
-4753.878941062312
 21
454.0313218876121
 31
0.0
  0
CIRCLE
  5
67
330
2
100
AcDbEntity
  8
1
100
AcDbCircle
 10
-4627.373292321665
 20
384.0313218876122
 30
0.0
 40
7.5
  0
LINE
  5
68
330
2
100
AcDbEntity
  8
1
100
AcDbLine
 10
-4637.373292321665
 20
384.0313218876122
 30
0.0
 11
-4617.373292321666
 21
384.0313218876122
 31
0.0
  0
LINE
  5
69
330
2
100
AcDbEntity
  8
1
100
AcDbLine
 10
-4744.521085193976
 20
853.0313218876122
 30
0.0
 11
-4517.373292321666
 21
853.0313218876122
 31
0.0
  0
LINE
  5
6A
330
2
100
AcDbEntity
  8
1
100
AcDbLine
 10
-4622.873292321666
 20
798.0313218876122
 30
0.0
 11
-4565.308599143152
 21
798.0313218876122
 31
0.0
  0
LINE
  5
6B
330
2
100
AcDbEntity
  8
1
100
AcDbLine
 10
-4622.873292321666
 20
619.9479501672017
 30
0.0
 11
-4622.873292321666
 21
428.5313218876102
 31
0.0
  0
LINE
  5
6C
330
2
100
AcDbEntity
  8
1
100
AcDbLine
 10
-4753.878941062312
 20
728.5313218876108
 30
0.0
 11
-4753.878941062312
 21
454.0313218876121
 31
0.0
  0
LINE
  5
6D
330
2
100
AcDbEntity
  8
1
100
AcDbLine
 10
-4627.373292321665
 20
374.0313218876122
 30
0.0
 11
-4627.373292321665
 21
394.0313218876121
 31
0.0
  0
LINE
  5
6E
330
2
100
AcDbEntity
  8
1
100
AcDbLine
 10
-4753.878941062312
 20
728.5313218876104
 30
0.0
 11
-4703.878941062312
 21
728.5313218876104
 31
0.0
  0
LINE
  5
70
330
2
100
AcDbEntity
  8
1
100
AcDbLine
 10
-4522.873292321666
 20
344.031321887612
 30
0.0
 11
-4522.873292321666
 21
444.031321887612
 31
0.0
  0
LINE
  5
71
330
2
100
AcDbEntity
  8
1
100
AcDbLine
 10
-4527.373292321665
 20
344.031321887612
 30
0.0
 11
-4527.373292321665
 21
444.031321887612
 31
0.0
  0
LINE
  5
72
330
2
100
AcDbEntity
  8
1
100
AcDbLine
 10
-4527.373292321667
 20
444.6329675368227
 30
0.0
 11
-4527.373292321667
 21
478.5313218876098
 31
0.0
  0
LINE
  5
74
330
2
100
AcDbEntity
  8
1
100
AcDbLine
 10
-4587.373292321665
 20
428.5313218876104
 30
0.0
 11
-4587.373292321665
 21
424.0313218876122
 31
0.0
  0
LINE
  5
75
330
2
100
AcDbEntity
  8
1
100
AcDbLine
 10
-4507.970499143151
 20
788.0313218876121
 30
0.0
 11
-4554.308599143152
 21
788.0313218876121
 31
0.0
  0
ARC
  5
76
330
2
100
AcDbEntity
  8
1
100
AcDbCircle
 10
-4554.308599143152
 20
798.0313218876122
 30
0.0
 40
10.0
100
AcDbArc
 50
180.0
 51
270.0
  0
LINE
  5
77
330
2
100
AcDbEntity
  8
1
100
AcDbLine
 10
-4565.308599143152
 20
803.0313218876122
 30
0.0
 11
-4564.308599143152
 21
803.0313218876122
 31
0.0
  0
LINE
  5
78
330
2
100
AcDbEntity
  8
1
100
AcDbLine
 10
-4501.818799143152
 20
783.6423218876125
 30
0.0
 11
-4501.295599143151
 21
783.8513218876124
 31
0.0
  0
LINE
  5
79
330
2
100
AcDbEntity
  8
1
100
AcDbLine
 10
-4503.751499143152
 20
777.4843218876122
 30
0.0
 11
-4501.430299143152
 21
778.412321887612
 31
0.0
  0
LINE
  5
7A
330
2
100
AcDbEntity
  8
1
100
AcDbLine
 10
-4529.308599143152
 20
790.5263218876125
 30
0.0
 11
-4529.308599143152
 21
784.0273218876123
 31
0.0
  0
ARC
  5
7B
330
2
100
AcDbEntity
  8
1
100
AcDbCircle
 10
-4501.987399143152
 20
779.8053218876121
 30
0.0
 40
1.5
100
AcDbArc
 50
291.8010000000002
 51
21.80309999999896
  0
ARC
  5
7C
330
2
100
AcDbEntity
  8
1
100
AcDbCircle
 10
-4502.409799143151
 20
786.6363218876122
 30
0.0
 40
3.0
100
AcDbArc
 50
291.8020999999987
 51
2.805800000000024
  0
LINE
  5
8A
330
2
100
AcDbEntity
  8
1
100
AcDbLine
 10
-5827.373292321666
 20
1134.031321887612
 30
0.0
 11
-4227.373292321665
 21
1134.031321887611
 31
0.0
  0
LINE
  5
8B
330
2
100
AcDbEntity
  8
1
100
AcDbLine
 10
-5827.373292321666
 20
1534.031321887612
 30
0.0
 11
-4227.373292321665
 21
1534.031321887611
 31
0.0
  0
TEXT
  5
8C
330
2
100
AcDbEntity
  8
4
100
AcDbText
 10
-5962.992230027762
 20
3551.796137651604
 30
0.0
 40
180.0
  1
電動機直動立形軸流式排煙ファン
100
AcDbText
  0
TEXT
  5
8D
330
2
100
AcDbEntity
  8
4
100
AcDbText
 10
-6054.048746147248
 20
3172.892391019217
 30
0.0
 40
135.0
  1
左回転前方吐出
100
AcDbText
  0
LINE
  5
8E
330
2
100
AcDbEntity
  8
1
100
AcDbLine
 10
-5827.373292321666
 20
1034.031321887612
 30
0.0
 11
-5827.373292321666
 21
1534.031321887612
 31
0.0
  0
LINE
  5
8F
330
2
100
AcDbEntity
  8
1
100
AcDbLine
 10
-5825.773292321667
 20
1034.031321887612
 30
0.0
 11
-5825.773292321667
 21
1134.031321887612
 31
0.0
  0
LINE
  5
90
330
2
100
AcDbEntity
  8
1
100
AcDbLine
 10
-5827.373292321666
 20
1034.031321887612
 30
0.0
 11
-5825.773292321667
 21
1034.031321887612
 31
0.0
  0
LINE
  5
91
330
2
100
AcDbEntity
  8
1
100
AcDbLine
 10
-5300.86764358102
 20
879.5313218876108
 30
0.0
 11
-5350.867643581019
 21
879.5313218876103
 31
0.0
  0
LINE
  5
92
330
2
100
AcDbEntity
  8
1
100
AcDbLine
 10
-5481.182389076018
 20
1129.53132188761
 30
0.0
 11
-5350.867643581019
 21
879.5313218876103
 31
0.0
  0
LINE
  5
93
330
2
100
AcDbEntity
  8
1
100
AcDbLine
 10
-5431.873292321665
 20
1134.031321887612
 30
0.0
 11
-5431.873292321665
 21
1034.935164393972
 31
0.0
  0
LINE
  5
94
330
2
100
AcDbEntity
  8
1
100
AcDbLine
 10
-5481.182389076018
 20
1134.031321887612
 30
0.0
 11
-5481.182389076018
 21
1129.53132188761
 31
0.0
  0
LINE
  5
95
330
2
100
AcDbEntity
  8
1
100
AcDbLine
 10
-5300.86764358102
 20
879.5313218876103
 30
0.0
 11
-5300.867643581019
 21
1134.031321887612
 31
0.0
  0
LINE
  5
96
330
2
100
AcDbEntity
  8
1
100
AcDbLine
 10
-5445.784549733144
 20
1570.031321887611
 30
0.0
 11
-5469.734617330658
 21
1570.031321887611
 31
0.0
  0
LINE
  5
97
330
2
100
AcDbEntity
  8
1
100
AcDbLine
 10
-5463.623249815672
 20
1560.466939471338
 30
0.0
 11
-5465.373292321666
 21
1560.466939471338
 31
0.0
  0
LINE
  5
98
330
2
100
AcDbEntity
  8
1
100
AcDbLine
 10
-5463.623246745829
 20
1557.627599935475
 30
0.0
 11
-5468.212631857529
 21
1557.627599935475
 31
0.0
  0
LINE
  5
99
330
2
100
AcDbEntity
  8
1
100
AcDbLine
 10
-5442.373292321666
 20
1534.031321887611
 30
0.0
 11
-5472.373292321666
 21
1534.031321887611
 31
0.0
  0
LINE
  5
9A
330
2
100
AcDbEntity
  8
1
100
AcDbLine
 10
-5468.212631857529
 20
1557.627599935475
 30
0.0
 11
-5465.373292321666
 21
1560.466939471338
 31
0.0
  0
LINE
  5
9B
330
2
100
AcDbEntity
  8
1
100
AcDbLine
 10
-5472.373292321666
 20
1534.031321887611
 30
0.0
 11
-5468.212631857529
 21
1557.627599935475
 31
0.0
  0
ARC
  5
9C
330
2
100
AcDbEntity
  8
1
100
AcDbCircle
 10
-5457.373292321666
 20
1583.781321887611
 30
0.0
 40
6.25
100
AcDbArc
 50
359.9999380528415
 51
180.0000619471585
  0
LINE
  5
9D
330
2
100
AcDbEntity
  8
1
100
AcDbLine
 10
-5449.373292321666
 20
1560.466939471338
 30
0.0
 11
-5451.12333482766
 21
1560.466939471338
 31
0.0
  0
LINE
  5
9E
330
2
100
AcDbEntity
  8
1
100
AcDbLine
 10
-5446.533952785803
 20
1557.627599935475
 30
0.0
 11
-5451.123337897502
 21
1557.627599935475
 31
0.0
  0
LINE
  5
9F
330
2
100
AcDbEntity
  8
1
100
AcDbLine
 10
-5446.533952785803
 20
1557.627599935475
 30
0.0
 11
-5449.373292321666
 21
1560.466939471338
 31
0.0
  0
ARC
  5
A0
330
2
100
AcDbEntity
  8
1
100
AcDbCircle
 10
-5457.373292321666
 20
1552.281321887611
 30
0.0
 40
6.25
100
AcDbArc
 50
180.2323324728957
 51
359.7676675271042
  0
LINE
  5
A1
330
2
100
AcDbEntity
  8
1
100
AcDbLine
 10
-5451.123309604681
 20
1583.79602009807
 30
0.0
 11
-5451.123343705202
 21
1552.255978415743
 31
0.0
  0
LINE
  5
A2
330
2
100
AcDbEntity
  8
1
100
AcDbLine
 10
-5463.623275038651
 20
1583.79602009807
 30
0.0
 11
-5463.62324093813
 21
1552.255978415743
 31
0.0
  0
LINE
  5
A3
330
2
100
AcDbEntity
  8
1
100
AcDbLine
 10
-5442.373292321666
 20
1534.031321887611
 30
0.0
 11
-5446.533952785803
 21
1557.627599935475
 31
0.0
  0
LINE
  5
A4
330
2
100
AcDbEntity
  8
1
100
AcDbLine
 10
-5457.373292321666
 20
1612.575126184755
 30
0.0
 11
-5457.373292321666
 21
1527.906734179143
 31
0.0
  0
LINE
  5
A5
330
2
100
AcDbEntity
  8
4
100
AcDbLine
 10
-6128.411213351377
 20
3890.615582815371
 30
0.0
 11
-6128.411213351377
 21
3390.615582815371
 31
0.0
  0
TEXT
  5
A6
330
2
100
AcDbEntity
  8
4
100
AcDbText
 10
-4491.446799686367
 20
3175.665800484648
 30
0.0
 40
135.0
  1
床置ベット
100
AcDbText
  0
LINE
  5
A7
330
2
100
AcDbEntity
  8
1
100
AcDbLine
 10
-4573.564195567313
 20
1129.53132188761
 30
0.0
 11
-4703.878941062312
 21
879.5313218876103
 31
0.0
  0
LINE
  5
A8
330
2
100
AcDbEntity
  8
1
100
AcDbLine
 10
-4622.873292321666
 20
908.0313218876122
 30
0.0
 11
-4565.308599143152
 21
908.0313218876122
 31
0.0
  0
LINE
  5
A9
330
2
100
AcDbEntity
  8
1
100
AcDbLine
 10
-4753.878941062311
 20
879.5313218876103
 30
0.0
 11
-4753.878941062312
 21
1134.031321887611
 31
0.0
  0
LINE
  5
AA
330
2
100
AcDbEntity
  8
1
100
AcDbLine
 10
-4753.878941062311
 20
879.5313218876108
 30
0.0
 11
-4703.878941062312
 21
879.5313218876103
 31
0.0
  0
LINE
  5
AB
330
2
100
AcDbEntity
  8
1
100
AcDbLine
 10
-4622.873292321666
 20
1134.031321887612
 30
0.0
 11
-4622.873292321666
 21
1034.935164393972
 31
0.0
  0
LINE
  5
AC
330
2
100
AcDbEntity
  8
1
100
AcDbLine
 10
-4227.373292321665
 20
1034.031321887611
 30
0.0
 11
-4227.373292321667
 21
1534.031321887611
 31
0.0
  0
LINE
  5
AD
330
2
100
AcDbEntity
  8
1
100
AcDbLine
 10
-4553.470299143152
 20
912.9283218876125
 30
0.0
 11
-4517.848799143152
 21
908.5673218876122
 31
0.0
  0
ARC
  5
AE
330
2
100
AcDbEntity
  8
1
100
AcDbCircle
 10
-4558.308599143152
 20
907.0313218876121
 30
0.0
 40
6.0
100
AcDbArc
 50
90.0
 51
180.0
  0
LINE
  5
AF
330
2
100
AcDbEntity
  8
1
100
AcDbLine
 10
-4565.308599143152
 20
903.0313218876122
 30
0.0
 11
-4564.308599143152
 21
903.0313218876122
 31
0.0
  0
ARC
  5
B0
330
2
100
AcDbEntity
  8
1
100
AcDbCircle
 10
-4557.324699143151
 20
918.1483218876124
 30
0.0
 40
1.500099999999999
100
AcDbArc
 50
21.80230000000044
 51
111.8010000000001
  0
LINE
  5
B1
330
2
100
AcDbEntity
  8
1
100
AcDbLine
 10
-4560.202899143152
 20
918.6123218876122
 30
0.0
 11
-4557.881699143152
 21
919.5403218876121
 31
0.0
  0
LINE
  5
B2
330
2
100
AcDbEntity
  8
1
100
AcDbLine
 10
-4557.906499143151
 20
913.0313218876121
 30
0.0
 11
-4558.308599143152
 21
913.0313218876121
 31
0.0
  0
ARC
  5
B3
330
2
100
AcDbEntity
  8
1
100
AcDbCircle
 10
-4519.671899143151
 20
893.6783218876126
 30
0.0
 40
15.0
100
AcDbArc
 50
2.806699999999718
 51
83.01890000000037
  0
LINE
  5
B4
330
2
100
AcDbEntity
  8
1
100
AcDbLine
 10
-4573.564195567313
 20
1134.031321887612
 30
0.0
 11
-4573.564195567313
 21
1129.53132188761
 31
0.0
  0
LINE
  5
B5
330
2
100
AcDbEntity
  8
1
100
AcDbLine
 10
-4228.973292321665
 20
1034.031321887611
 30
0.0
 11
-4228.973292321666
 21
1134.031321887611
 31
0.0
  0
LINE
  5
B6
330
2
100
AcDbEntity
  8
1
100
AcDbLine
 10
-4228.973292321666
 20
1034.031321887611
 30
0.0
 11
-4227.373292321665
 21
1034.031321887611
 31
0.0
  0
LINE
  5
C6
330
2
100
AcDbEntity
  8
1
100
AcDbLine
 10
-3223.125603269623
 20
1560.031321887612
 30
0.0
 11
-3149.21517929328
 21
1560.031321887612
 31
0.0
  0
LINE
  5
C8
330
2
100
AcDbEntity
  8
1
100
AcDbLine
 10
-3558.156683015142
 20
1134.031321887611
 30
0.0
 11
-3428.946469821147
 21
1394.969279211352
 31
0.0
  0
LINE
  5
C9
330
2
100
AcDbEntity
  8
1
100
AcDbLine
 10
-3558.156683015141
 20
1114.031321887612
 30
0.0
 11
-3418.156683015141
 21
1034.031321887612
 31
0.0
  0
LINE
  5
CA
330
2
100
AcDbEntity
  8
1
100
AcDbLine
 10
-3558.156683015141
 20
1114.031321887612
 30
0.0
 11
-3558.156683015141
 21
1134.031321887613
 31
0.0
  0
LINE
  5
CC
330
2
100
AcDbEntity
  8
1
100
AcDbLine
 10
-3162.656683015141
 20
1179.531321887612
 30
0.0
 11
-3162.656683015141
 21
1034.896887605511
 31
0.0
  0
LINE
  5
CD
330
2
100
AcDbEntity
  8
1
100
AcDbLine
 10
-3031.651034274496
 20
879.5313218876108
 30
0.0
 11
-3081.651034274495
 21
879.5313218876103
 31
0.0
  0
LINE
  5
CE
330
2
100
AcDbEntity
  8
1
100
AcDbLine
 10
-3162.185546990406
 20
1034.031321887612
 30
0.0
 11
-3081.651034274495
 21
879.5313218876103
 31
0.0
  0
LINE
  5
CF
330
2
100
AcDbEntity
  8
1
100
AcDbLine
 10
-3031.651034274496
 20
879.5313218876103
 30
0.0
 11
-3031.651034274495
 21
1034.031321887612
 31
0.0
  0
LINE
  5
D0
330
2
100
AcDbEntity
  8
1
100
AcDbLine
 10
-3198.156683015141
 20
1184.031321887612
 30
0.0
 11
-3198.156683015141
 21
1179.531321887612
 31
0.0
  0
LINE
  5
D3
330
2
100
AcDbEntity
  8
1
100
AcDbLine
 10
-3174.056683015141
 20
1534.031321887612
 30
0.0
 11
-3174.755094256954
 21
1537.992208865926
 31
0.0
  0
LINE
  5
D5
330
2
100
AcDbEntity
  8
1
100
AcDbLine
 10
-3199.056683015141
 20
1534.031321887612
 30
0.0
 11
-3198.358271773327
 21
1537.992208865926
 31
0.0
  0
LINE
  5
D6
330
2
100
AcDbEntity
  8
1
100
AcDbLine
 10
-3201.556683015141
 20
1534.031321887612
 30
0.0
 11
-3171.556683015141
 21
1534.031321887612
 31
0.0
  0
LINE
  5
DB
330
2
100
AcDbEntity
  8
1
100
AcDbLine
 10
-3186.556683015141
 20
1602.575126184756
 30
0.0
 11
-3186.556683015141
 21
1517.906734179143
 31
0.0
  0
TEXT
  5
DC
330
2
100
AcDbEntity
  8
4
100
AcDbText
 10
-3080.987315228152
 20
3982.246400891631
 30
0.0
 40
140.0
  1
No.
100
AcDbText
  0
LINE
  5
DD
330
2
100
AcDbEntity
  8
4
100
AcDbLine
 10
-3151.867657451715
 20
3920.252654966862
 30
0.0
 11
-3151.867657451715
 21
4183.72435102774
 31
0.0
  0
LINE
  5
DE
330
2
100
AcDbEntity
  8
1
100
AcDbLine
 10
-2358.156683015141
 20
1184.031321887611
 30
0.0
 11
-2358.156683015141
 21
428.5313218876102
 31
0.0
  0
LINE
  5
DF
330
2
100
AcDbEntity
  8
1
100
AcDbLine
 10
-2353.656683015141
 20
1084.896887605511
 30
0.0
 11
-2353.656683015141
 21
619.9479501672017
 31
0.0
  0
LINE
  5
E0
330
2
100
AcDbEntity
  8
4
100
AcDbLine
 10
-1503.411213351377
 20
4592.093697153359
 30
0.0
 11
-1503.411213351377
 21
-2782.90630284664
 31
0.0
  0
LINE
  5
E1
330
2
100
AcDbEntity
  8
4
100
AcDbLine
 10
-2128.411213351377
 20
-1532.90630284664
 30
0.0
 11
-2128.411213351377
 21
-2032.90630284664
 31
0.0
  0
LINE
  5
E2
330
2
100
AcDbEntity
  8
1
100
AcDbLine
 10
-2253.656683015142
 20
344.031321887612
 30
0.0
 11
-2253.656683015141
 21
444.031321887612
 31
0.0
  0
LINE
  5
E3
330
2
100
AcDbEntity
  8
1
100
AcDbLine
 10
-2258.156683015142
 20
344.031321887612
 30
0.0
 11
-2258.156683015141
 21
444.031321887612
 31
0.0
  0
LINE
  5
E5
330
2
100
AcDbEntity
  8
1
100
AcDbLine
 10
-2258.156683015141
 20
444.6329675368227
 30
0.0
 11
-2484.662331755787
 21
454.0313218876121
 31
0.0
  0
LINE
  5
E6
330
2
100
AcDbEntity
  8
1
100
AcDbLine
 10
-2484.662331755787
 20
728.5313218876108
 30
0.0
 11
-2484.662331755787
 21
454.0313218876121
 31
0.0
  0
LINE
  5
E7
330
2
100
AcDbEntity
  8
1
100
AcDbLine
 10
-2484.662331755787
 20
728.5313218876104
 30
0.0
 11
-2434.662331755788
 21
728.5313218876104
 31
0.0
  0
LINE
  5
E8
330
2
100
AcDbEntity
  8
1
100
AcDbLine
 10
-2353.656683015141
 20
619.9479501672017
 30
0.0
 11
-2353.656683015141
 21
428.5313218876102
 31
0.0
  0
LINE
  5
E9
330
2
100
AcDbEntity
  8
1
100
AcDbLine
 10
-2258.156683015141
 20
428.5313218876102
 30
0.0
 11
-2258.156683015142
 21
478.5313218876098
 31
0.0
  0
CIRCLE
  5
EB
330
2
100
AcDbEntity
  8
1
100
AcDbCircle
 10
-2358.15668301514
 20
384.0313218876122
 30
0.0
 40
7.5
  0
LINE
  5
EC
330
2
100
AcDbEntity
  8
1
100
AcDbLine
 10
-2358.15668301514
 20
374.0313218876122
 30
0.0
 11
-2358.15668301514
 21
394.0313218876121
 31
0.0
  0
LINE
  5
ED
330
2
100
AcDbEntity
  8
1
100
AcDbLine
 10
-2368.156683015141
 20
384.0313218876122
 30
0.0
 11
-2348.15668301514
 21
384.0313218876122
 31
0.0
  0
LINE
  5
F6
330
2
100
AcDbEntity
  8
1
100
AcDbLine
 10
-2354.127819039877
 20
1034.031321887612
 30
0.0
 11
-2434.662331755788
 21
879.5313218876103
 31
0.0
  0
LINE
  5
F7
330
2
100
AcDbEntity
  8
1
100
AcDbLine
 10
-2484.662331755787
 20
879.5313218876103
 30
0.0
 11
-2484.662331755787
 21
1034.031321887612
 31
0.0
  0
LINE
  5
F8
330
2
100
AcDbEntity
  8
1
100
AcDbLine
 10
-2484.662331755787
 20
879.5313218876108
 30
0.0
 11
-2434.662331755788
 21
879.5313218876103
 31
0.0
  0
LINE
  5
F9
330
2
100
AcDbEntity
  8
1
100
AcDbLine
 10
-2353.656683015141
 20
1179.53132188761
 30
0.0
 11
-2353.656683015141
 21
1034.896887605511
 31
0.0
  0
LINE
  5
FA
330
2
100
AcDbEntity
  8
1
100
AcDbLine
 10
-2318.156683015141
 20
1184.031321887612
 30
0.0
 11
-2318.156683015141
 21
1179.531321887612
 31
0.0
  0
LINE
  5
108
330
2
100
AcDbEntity
  8
1
100
AcDbLine
 10
-1958.156683015141
 20
1114.031321887617
 30
0.0
 11
-1958.156683015141
 21
1134.031321887612
 31
0.0
  0
LINE
  5
109
330
2
100
AcDbEntity
  8
4
100
AcDbLine
 10
-2128.411213351377
 20
3890.615582815371
 30
0.0
 11
-2128.411213351377
 21
3390.615582815371
 31
0.0
  0
LINE
  5
10A
330
2
100
AcDbEntity
  8
4
100
AcDbLine
 10
-2128.411213351377
 20
4183.72435102774
 30
0.0
 11
-2128.411213351377
 21
3920.252654966862
 31
0.0
  0
LINE
  5
10B
330
2
100
AcDbEntity
  8
4
100
AcDbLine
 10
-1503.411213351377
 20
4592.093697153359
 30
0.0
 11
-1503.411213351377
 21
4592.093697153359
 31
0.0
  0
LINE
  5
128
330
2
100
AcDbEntity
  8
1
100
AcDbLine
 10
-1958.156683015141
 20
1114.031321887617
 30
0.0
 11
-2098.15668301514
 21
1034.031321887616
 31
0.0
  0
LINE
  5
5C2
330
2
100
AcDbEntity
  8
1
100
AcDbLine
 10
-4703.878941062312
 20
728.5313218876104
 30
0.0
 11
-4527.373292321667
 21
478.5313218876098
 31
0.0
  0
LINE
  5
5C4
330
2
100
AcDbEntity
  8
1
100
AcDbLine
 10
-5300.867643581019
 20
728.5313218876108
 30
0.0
 11
-5300.867643581019
 21
454.0313218876121
 31
0.0
  0
LINE
  5
5C5
330
2
100
AcDbEntity
  8
1
100
AcDbLine
 10
-5300.867643581019
 20
728.5313218876104
 30
0.0
 11
-5350.867643581019
 21
728.5313218876104
 31
0.0
  0
LINE
  5
5C6
330
2
100
AcDbEntity
  8
1
100
AcDbLine
 10
-5350.867643581019
 20
728.5313218876104
 30
0.0
 11
-5527.373292321665
 21
478.5313218876098
 31
0.0
  0
LINE
  5
5C7
330
2
100
AcDbEntity
  8
1
100
AcDbLine
 10
-5527.373292321665
 20
444.6329675368227
 30
0.0
 11
-5527.373292321665
 21
478.5313218876098
 31
0.0
  0
LINE
  5
5C8
330
2
100
AcDbEntity
  8
1
100
AcDbLine
 10
-5531.873292321666
 20
344.031321887612
 30
0.0
 11
-5531.873292321666
 21
444.031321887612
 31
0.0
  0
LINE
  5
5C9
330
2
100
AcDbEntity
  8
1
100
AcDbLine
 10
-5527.373292321666
 20
344.031321887612
 30
0.0
 11
-5527.373292321666
 21
444.031321887612
 31
0.0
  0
LINE
  5
5CA
330
2
100
AcDbEntity
  8
1
100
AcDbLine
 10
-5527.373292321666
 20
444.6329675368227
 30
0.0
 11
-5300.867643581019
 21
454.0313218876121
 31
0.0
  0
LINE
  5
5CC
330
2
100
AcDbEntity
  8
1
100
AcDbLine
 10
-2434.662331755788
 20
728.5313218876104
 30
0.0
 11
-2258.156683015142
 21
478.5313218876098
 31
0.0
  0
LINE
  5
5D8
330
2
100
AcDbEntity
  8
1
100
AcDbLine
 10
-3258.156683015141
 20
444.6329675368227
 30
0.0
 11
-3031.651034274495
 21
454.0313218876121
 31
0.0
  0
LINE
  5
5D9
330
2
100
AcDbEntity
  8
1
100
AcDbLine
 10
-3081.651034274495
 20
728.5313218876104
 30
0.0
 11
-3258.15668301514
 21
478.5313218876098
 31
0.0
  0
LINE
  5
5DA
330
2
100
AcDbEntity
  8
1
100
AcDbLine
 10
-3031.651034274495
 20
728.5313218876108
 30
0.0
 11
-3031.651034274495
 21
454.0313218876121
 31
0.0
  0
LINE
  5
5DB
330
2
100
AcDbEntity
  8
1
100
AcDbLine
 10
-3031.651034274495
 20
728.5313218876104
 30
0.0
 11
-3081.651034274495
 21
728.5313218876104
 31
0.0
  0
LINE
  5
5DC
330
2
100
AcDbEntity
  8
1
100
AcDbLine
 10
-3162.656683015141
 20
619.9479501672017
 30
0.0
 11
-3162.656683015141
 21
428.5313218876102
 31
0.0
  0
LINE
  5
5DD
330
2
100
AcDbEntity
  8
1
100
AcDbLine
 10
-3148.156683015141
 20
384.0313218876122
 30
0.0
 11
-3168.156683015142
 21
384.0313218876122
 31
0.0
  0
LINE
  5
5DE
330
2
100
AcDbEntity
  8
1
100
AcDbLine
 10
-3158.156683015142
 20
374.0313218876122
 30
0.0
 11
-3158.156683015142
 21
394.0313218876121
 31
0.0
  0
CIRCLE
  5
5DF
330
2
100
AcDbEntity
  8
1
100
AcDbCircle
 10
-3158.156683015142
 20
384.0313218876122
 30
0.0
 40
7.5
  0
LINE
  5
5E0
330
2
100
AcDbEntity
  8
1
100
AcDbLine
 10
-3258.156683015141
 20
428.5313218876102
 30
0.0
 11
-3258.15668301514
 21
478.5313218876098
 31
0.0
  0
LINE
  5
5E1
330
2
100
AcDbEntity
  8
1
100
AcDbLine
 10
-3262.65668301514
 20
344.031321887612
 30
0.0
 11
-3262.656683015142
 21
444.031321887612
 31
0.0
  0
LINE
  5
5E2
330
2
100
AcDbEntity
  8
1
100
AcDbLine
 10
-3258.15668301514
 20
344.031321887612
 30
0.0
 11
-3258.156683015141
 21
444.031321887612
 31
0.0
  0
ARC
  5
5E9
330
2
100
AcDbEntity
  8
1
100
AcDbCircle
 10
-3204.909040749941
 20
1284.031321887612
 30
0.0
 40
250.0
100
AcDbArc
 50
89.99999999999998
 51
153.6564912155224
  0
LINE
  5
5EC
330
2
100
AcDbEntity
  8
1
100
AcDbLine
 10
-2311.404325280341
 20
1534.031321887612
 30
0.0
 11
-2758.156683015141
 21
1534.031321887612
 31
0.0
  0
ARC
  5
5ED
330
2
100
AcDbEntity
  8
1
100
AcDbCircle
 10
-2311.404325280341
 20
1284.031321887612
 30
0.0
 40
250.0
100
AcDbArc
 50
26.34350878447758
 51
90.00000000000003
  0
LINE
  5
5EE
330
2
100
AcDbEntity
  8
1
100
AcDbLine
 10
-1958.15668301514
 20
1134.031321887611
 30
0.0
 11
-2087.366896209135
 21
1394.969279211352
 31
0.0
  0
DIMENSION
  5
5FC
330
2
100
AcDbEntity
  8
3
100
AcDbDimension
  2
*D1
 10
-6053.710966522281
 20
1034.031321887612
 30
0.0
 11
-6053.710966522281
 21
1316.998752571988
 31
0.0
 70
   160
 71
     5
 42
-1.0
  3
IGA
100
AcDbAlignedDimension
 13
-5827.373292321666
 23
1534.031321887612
 33
0.0
 14
-5827.373292321666
 24
1034.031321887612
 34
0.0
 50
90.0
100
AcDbRotatedDimension
1001
ACAD
1000
DSTYLE
1002
{
1070
   287
1070
     3
1070
   287
1070
     3
1070
   287
1070
     3
1070
   287
1070
     3
1070
    40
1040
30.0
1070
   143
1040
0.039
1070
   172
1070
     1
1070
   173
1070
     0
1070
   271
1070
     0
1070
   279
1070
     0
1070
   288
1070
     1
1070
   341
1005
14D
1070
     5
1000
OPEN30
1002
}
  0
DIMENSION
  5
609
330
2
100
AcDbEntity
  8
3
100
AcDbDimension
  2
*D2
 10
-6051.462226813273
 20
444.0313218876122
 30
0.0
 11
-6051.462226813273
 21
766.6991109681402
 31
0.0
 70
   160
 71
     5
 42
-1.0
  3
IGA
100
AcDbAlignedDimension
 13
-5827.373292321666
 23
1034.031321887612
 33
0.0
 14
-5531.873292321666
 24
444.031321887612
 34
0.0
 50
90.0
100
AcDbRotatedDimension
1001
ACAD
1000
DSTYLE
1002
{
1070
   287
1070
     3
1070
   287
1070
     3
1070
   287
1070
     3
1070
   287
1070
     3
1070
    40
1040
30.0
1070
   143
1040
0.039
1070
   172
1070
     1
1070
   173
1070
     0
1070
   271
1070
     0
1070
   279
1070
     0
1070
   288
1070
     1
1070
   341
1005
14D
1070
     5
1000
OPEN30
1002
}
  0
DIMENSION
  5
616
330
2
100
AcDbEntity
  8
3
100
AcDbDimension
  2
*D3
 10
-6049.322324150046
 20
344.0313218876122
 30
0.0
 11
-6049.322324150046
 21
86.88846474475415
 31
0.0
 70
   160
 71
     5
 42
-1.0
  3
IGA
100
AcDbAlignedDimension
 13
-5531.873292321666
 23
444.031321887612
 33
0.0
 14
-5531.873292321666
 24
344.031321887612
 34
0.0
 50
90.0
100
AcDbRotatedDimension
1001
ACAD
1000
DSTYLE
1002
{
1070
   287
1070
     3
1070
   287
1070
     3
1070
   287
1070
     3
1070
   287
1070
     3
1070
    40
1040
30.0
1070
   143
1040
0.039
1070
   172
1070
     1
1070
   173
1070
     0
1070
   271
1070
     0
1070
   279
1070
     0
1070
   288
1070
     1
1070
   341
1005
14D
1070
     5
1000
OPEN30
1002
}
  0
DIMENSION
  5
625
330
2
100
AcDbEntity
  8
3
100
AcDbDimension
  2
*D4
 10
-5784.27770563891
 20
344.0313218876121
 30
0.0
 11
-5784.27770563891
 21
121.1741790304683
 31
0.0
 70
   160
 71
     5
 42
40.00000000000011
  3
IGA
100
AcDbAlignedDimension
 13
-5437.373292321666
 23
384.0313218876122
 33
0.0
 14
-5481.873292321665
 24
344.031321887612
 34
0.0
 50
90.0
100
AcDbRotatedDimension
1001
ACAD
1000
DSTYLE
1002
{
1070
   287
1070
     3
1070
   287
1070
     3
1070
   287
1070
     3
1070
   287
1070
     3
1070
    40
1040
30.0
1070
   143
1040
0.039
1070
   172
1070
     1
1070
   173
1070
     0
1070
   271
1070
     0
1070
   279
1070
     0
1070
   288
1070
     1
1070
   341
1005
14D
1070
     5
1000
OPEN30
1002
}
  0
DIMENSION
  5
634
330
2
100
AcDbEntity
  8
3
100
AcDbDimension
  2
*D5
 10
-6347.75157608551
 20
344.0313218876123
 30
0.0
 11
-6347.75157608551
 21
939.9320258819898
 31
0.0
 70
   160
 71
     5
 42
-1.0
  3
IGA
100
AcDbAlignedDimension
 13
-5827.373292321666
 23
1534.031321887612
 33
0.0
 14
-5527.373292321666
 24
344.031321887612
 34
0.0
 50
90.0
100
AcDbRotatedDimension
1001
ACAD
1000
DSTYLE
1002
{
1070
   287
1070
     3
1070
   287
1070
     3
1070
   287
1070
     3
1070
   287
1070
     3
1070
    40
1040
30.0
1070
   143
1040
0.039
1070
   172
1070
     1
1070
   173
1070
     0
1070
   271
1070
     0
1070
   279
1070
     0
1070
   288
1070
     1
1070
   341
1005
14D
1070
     5
1000
OPEN30
1002
}
  0
DIMENSION
  5
641
330
2
100
AcDbEntity
  8
3
100
AcDbDimension
  2
*D6
 10
-4227.373292321665
 20
1847.522881486114
 30
0.0
 11
-5048.706580274207
 21
1847.522881486114
 31
0.0
 70
   160
 71
     5
 42
-1.0
  3
IGA
100
AcDbAlignedDimension
 13
-5827.373292321666
 23
1534.031321887612
 33
0.0
 14
-4227.373292321665
 24
1534.031321887611
 34
0.0
100
AcDbRotatedDimension
1001
ACAD
1000
DSTYLE
1002
{
1070
   287
1070
     3
1070
   287
1070
     3
1070
   287
1070
     3
1070
   287
1070
     3
1070
    40
1040
30.0
1070
   143
1040
0.039
1070
   172
1070
     1
1070
   173
1070
     0
1070
   271
1070
     0
1070
   279
1070
     0
1070
   288
1070
     1
1070
   341
1005
14D
1070
     5
1000
OPEN30
1002
}
  0
DIMENSION
  5
65B
330
2
100
AcDbEntity
  8
3
100
AcDbDimension
  2
*D8
 10
-4527.373292321665
 20
-229.0490679809772
 30
0.0
 11
-5042.972984733467
 21
-229.0490679809772
 31
0.0
 70
   160
 71
     5
 42
-1.0
  3
IGA
100
AcDbAlignedDimension
 13
-5527.373292321666
 23
344.031321887612
 33
0.0
 14
-4527.373292321665
 24
344.031321887612
 34
0.0
100
AcDbRotatedDimension
1001
ACAD
1000
DSTYLE
1002
{
1070
   287
1070
     3
1070
   287
1070
     3
1070
   287
1070
     3
1070
   287
1070
     3
1070
    40
1040
30.0
1070
   143
1040
0.039
1070
   172
1070
     1
1070
   173
1070
     0
1070
   271
1070
     0
1070
   279
1070
     0
1070
   288
1070
     1
1070
   341
1005
14D
1070
     5
1000
OPEN30
1002
}
  0
DIMENSION
  5
668
330
2
100
AcDbEntity
  8
3
100
AcDbDimension
  2
*D9
 10
-1958.156683015141
 20
1815.664556443276
 30
0.0
 11
-2793.428045788241
 21
1815.664556443276
 31
0.0
 70
   160
 71
     5
 42
-1.0
  3
IGA
100
AcDbAlignedDimension
 13
-3558.156683015142
 23
1134.031321887611
 33
0.0
 14
-1958.156683015141
 24
1134.031321887613
 34
0.0
100
AcDbRotatedDimension
1001
ACAD
1000
DSTYLE
1002
{
1070
   287
1070
     3
1070
   287
1070
     3
1070
   287
1070
     3
1070
   287
1070
     3
1070
    40
1040
30.0
1070
   143
1040
0.039
1070
   172
1070
     1
1070
   173
1070
     0
1070
   271
1070
     0
1070
   279
1070
     0
1070
   288
1070
     1
1070
   341
1005
14D
1070
     5
1000
OPEN30
1002
}
  0
DIMENSION
  5
675
330
2
100
AcDbEntity
  8
3
100
AcDbDimension
  2
*D10
 10
-2358.15668301514
 20
57.74528488954456
 30
0.0
 11
-2759.367440553404
 21
57.74528488954456
 31
0.0
 70
   160
 71
     5
 42
-1.0
  3
IGA
100
AcDbAlignedDimension
 13
-3158.156683015142
 23
374.0313218876122
 33
0.0
 14
-2358.15668301514
 24
374.0313218876122
 34
0.0
100
AcDbRotatedDimension
1001
ACAD
1000
DSTYLE
1002
{
1070
   287
1070
     3
1070
   287
1070
     3
1070
   287
1070
     3
1070
   287
1070
     3
1070
    40
1040
30.0
1070
   143
1040
0.039
1070
   172
1070
     1
1070
   173
1070
     0
1070
   271
1070
     0
1070
   279
1070
     0
1070
   288
1070
     1
1070
   341
1005
14D
1070
     5
1000
OPEN30
1002
}
  0
DIMENSION
  5
682
330
2
100
AcDbEntity
  8
3
100
AcDbDimension
  2
*D11
 10
-2258.156683015142
 20
-241.3521583156835
 30
0.0
 11
-2750.295271310671
 21
-241.3521583156835
 31
0.0
 70
   160
 71
     5
 42
-1.0
  3
IGA
100
AcDbAlignedDimension
 13
-3258.15668301514
 23
344.031321887612
 33
0.0
 14
-2258.156683015142
 24
344.0313218876121
 34
0.0
100
AcDbRotatedDimension
1001
ACAD
1000
DSTYLE
1002
{
1070
   287
1070
     3
1070
   287
1070
     3
1070
   287
1070
     3
1070
   287
1070
     3
1070
    40
1040
30.0
1070
   143
1040
0.039
1070
   172
1070
     1
1070
   173
1070
     0
1070
   271
1070
     0
1070
   279
1070
     0
1070
   288
1070
     1
1070
   341
1005
14D
1070
     5
1000
OPEN30
1002
}
  0
CIRCLE
  5
7C1
330
2
100
AcDbEntity
  8
1
100
AcDbCircle
 10
-3186.556683015141
 20
1560.031321887612
 30
0.0
 40
15.0
  0
ARC
  5
7C2
330
2
100
AcDbEntity
  8
1
100
AcDbCircle
 10
-3186.556683015141
 20
1560.031321887612
 30
0.0
 40
25.0
100
AcDbArc
 50
298.1683296348111
 51
241.8316703651876
  0
LINE
  5
7C3
330
2
100
AcDbEntity
  8
1
100
AcDbLine
 10
-2293.18776276066
 20
1560.031321887612
 30
0.0
 11
-2367.098186737002
 21
1560.031321887612
 31
0.0
  0
LINE
  5
7C4
330
2
100
AcDbEntity
  8
1
100
AcDbLine
 10
-2317.256683015141
 20
1534.031321887612
 30
0.0
 11
-2317.955094256955
 21
1537.992208865926
 31
0.0
  0
LINE
  5
7C5
330
2
100
AcDbEntity
  8
1
100
AcDbLine
 10
-2342.256683015141
 20
1534.031321887612
 30
0.0
 11
-2341.558271773328
 21
1537.992208865926
 31
0.0
  0
ARC
  5
7C6
330
2
100
AcDbEntity
  8
1
100
AcDbCircle
 10
-2329.756683015141
 20
1560.031321887612
 30
0.0
 40
25.0
100
AcDbArc
 50
298.1683296348123
 51
241.8316703651888
  0
LINE
  5
7C7
330
2
100
AcDbEntity
  8
1
100
AcDbLine
 10
-2329.756683015141
 20
1602.575126184756
 30
0.0
 11
-2329.756683015141
 21
1517.906734179143
 31
0.0
  0
CIRCLE
  5
7C8
330
2
100
AcDbEntity
  8
1
100
AcDbCircle
 10
-2329.756683015141
 20
1560.031321887612
 30
0.0
 40
15.0
  0
LINE
  5
7C9
330
2
100
AcDbEntity
  8
1
100
AcDbLine
 10
-2314.756683015141
 20
1534.031321887612
 30
0.0
 11
-2344.756683015142
 21
1534.031321887612
 31
0.0
  0
LINE
  5
7CA
330
2
100
AcDbEntity
  8
1
100
AcDbLine
 10
-4603.623275038651
 20
1583.79602009807
 30
0.0
 11
-4603.623240938129
 21
1552.255978415743
 31
0.0
  0
LINE
  5
7CB
330
2
100
AcDbEntity
  8
1
100
AcDbLine
 10
-4591.123309604681
 20
1583.79602009807
 30
0.0
 11
-4591.123343705202
 21
1552.255978415743
 31
0.0
  0
LINE
  5
7CC
330
2
100
AcDbEntity
  8
1
100
AcDbLine
 10
-4608.962034910187
 20
1570.031321887611
 30
0.0
 11
-4585.011967312673
 21
1570.031321887611
 31
0.0
  0
ARC
  5
7CD
330
2
100
AcDbEntity
  8
1
100
AcDbCircle
 10
-4597.373292321665
 20
1552.281321887611
 30
0.0
 40
6.25
100
AcDbArc
 50
180.2323324728957
 51
359.7676675271042
  0
LINE
  5
7CE
330
2
100
AcDbEntity
  8
1
100
AcDbLine
 10
-4608.212631857528
 20
1557.627599935475
 30
0.0
 11
-4605.373292321665
 21
1560.466939471338
 31
0.0
  0
LINE
  5
7CF
330
2
100
AcDbEntity
  8
1
100
AcDbLine
 10
-4608.212631857528
 20
1557.627599935475
 30
0.0
 11
-4603.623246745829
 21
1557.627599935475
 31
0.0
  0
LINE
  5
7D0
330
2
100
AcDbEntity
  8
1
100
AcDbLine
 10
-4605.373292321665
 20
1560.466939471338
 30
0.0
 11
-4603.623249815671
 21
1560.466939471338
 31
0.0
  0
LINE
  5
7D1
330
2
100
AcDbEntity
  8
1
100
AcDbLine
 10
-4586.533952785803
 20
1557.627599935475
 30
0.0
 11
-4589.373292321666
 21
1560.466939471338
 31
0.0
  0
LINE
  5
7D2
330
2
100
AcDbEntity
  8
1
100
AcDbLine
 10
-4591.123337897502
 20
1557.627599935475
 30
0.0
 11
-4586.533952785803
 21
1557.627599935475
 31
0.0
  0
LINE
  5
7D3
330
2
100
AcDbEntity
  8
1
100
AcDbLine
 10
-4591.12333482766
 20
1560.466939471338
 30
0.0
 11
-4589.373292321666
 21
1560.466939471338
 31
0.0
  0
ARC
  5
7D4
330
2
100
AcDbEntity
  8
1
100
AcDbCircle
 10
-4597.373292321665
 20
1583.781321887611
 30
0.0
 40
6.25
100
AcDbArc
 50
359.9999380528415
 51
180.0000619471585
  0
LINE
  5
7D5
330
2
100
AcDbEntity
  8
1
100
AcDbLine
 10
-4597.373292321665
 20
1612.575126184755
 30
0.0
 11
-4597.373292321665
 21
1527.906734179143
 31
0.0
  0
LINE
  5
7D6
330
2
100
AcDbEntity
  8
1
100
AcDbLine
 10
-4612.373292321666
 20
1534.031321887611
 30
0.0
 11
-4608.212631857528
 21
1557.627599935475
 31
0.0
  0
LINE
  5
7D7
330
2
100
AcDbEntity
  8
1
100
AcDbLine
 10
-4582.373292321666
 20
1534.031321887611
 30
0.0
 11
-4586.533952785803
 21
1557.627599935475
 31
0.0
  0
LINE
  5
7D8
330
2
100
AcDbEntity
  8
1
100
AcDbLine
 10
-4612.373292321666
 20
1534.031321887611
 30
0.0
 11
-4582.373292321666
 21
1534.031321887611
 31
0.0
  0
DIMENSION
  5
91F
330
2
100
AcDbEntity
  8
1
 62
     2
100
AcDbDimension
  2
*D12
 10
-4627.373292321665
 20
-5.106764296262554
 30
0.0
 11
-5055.333579817023
 21
-5.106764296262554
 31
0.0
 70
   160
 71
     5
 42
800.0
  3
IGA
100
AcDbAlignedDimension
 13
-5427.373292321665
 23
374.0313218876122
 33
0.0
 14
-4627.373292321665
 24
374.0313218876122
 34
0.0
100
AcDbRotatedDimension
1001
ACAD
1000
DSTYLE
1002
{
1070
    40
1040
30.0
1070
   143
1040
0.039
1070
   172
1070
     1
1070
   173
1070
     0
1070
   271
1070
     0
1070
   279
1070
     0
1070
   288
1070
     1
1070
   341
1005
14D
1070
   342
1005
14D
1002
}
  0
ENDSEC
  0
SECTION
  2
OBJECTS
  0
DICTIONARY
  5
1E
330
0
100
AcDbDictionary
281
     1
  3
ACAD_GROUP
350
1C
  3
ACAD_LAYOUT
350
113
  3
ACAD_MLINESTYLE
350
1D
  3
ACAD_PLOTSETTINGS
350
114
  3
ACAD_PLOTSTYLENAME
350
111
  0
DICTIONARY
  5
3
330
2
100
AcDbDictionary
280
     1
281
     1
  3
ACAD_LAYOUTSELFREF
360
89A
  0
DICTIONARY
  5
C
330
B
100
AcDbDictionary
280
     1
281
     1
  3
ACAD_LAYOUTSELFREF
360
89B
  0
DICTIONARY
  5
1C
102
{ACAD_REACTORS
330
1E
102
}
330
1E
100
AcDbDictionary
281
     1
  0
DICTIONARY
  5
113
102
{ACAD_REACTORS
330
1E
102
}
330
1E
100
AcDbDictionary
281
     1
  3
Model
350
115
  3
ﾚｲｱｳﾄ1
350
116
  0
DICTIONARY
  5
1D
102
{ACAD_REACTORS
330
1E
102
}
330
1E
100
AcDbDictionary
281
     1
  3
STANDARD
350
20
  0
DICTIONARY
  5
114
102
{ACAD_REACTORS
330
1E
102
}
330
1E
100
AcDbDictionary
281
     1
  0
ACDBDICTIONARYWDFLT
  5
111
102
{ACAD_REACTORS
330
1E
102
}
330
1E
100
AcDbDictionary
281
     1
  3
Normal
350
112
100
AcDbDictionaryWithDefault
340
112
1001
ACAD
1000
TREAT_AS_HARD
1070
     0
1000
TREAT_AS_HARD
1070
     0
1000
TREAT_AS_HARD
1070
     0
1000
TREAT_AS_HARD
1070
     0
1000
TREAT_AS_HARD
1070
     0
1000
TREAT_AS_HARD
1070
     0
  0
XRECORD
  5
89A
102
{ACAD_REACTORS
330
3
102
}
330
3
100
AcDbXrecord
280
     1
340
2
  0
XRECORD
  5
89B
102
{ACAD_REACTORS
330
C
102
}
330
C
100
AcDbXrecord
280
     1
340
B
  0
LAYOUT
  5
115
102
{ACAD_REACTORS
330
113
102
}
330
113
100
AcDbPlotSettings
  1

  2
\\Txbo34x8944cqyd\EPSON LP-6100
  4

  6

 40
0.0
 41
0.0
 42
0.0
 43
0.0
 44
0.0
 45
0.0
 46
0.0
 47
0.0
 48
0.0
 49
0.0
140
0.0
141
0.0
142
1.0
143
1.0
 70
  1712
 72
     0
 73
     0
 74
     0
  7
GOD2000TABLE.ctb
 75
     0
147
1.0
148
0.0
149
0.0
100
AcDbLayout
  1
Model
 70
     1
 71
     0
 10
0.0
 20
0.0
 11
12.0
 21
9.0
 12
0.0
 22
0.0
 32
0.0
 14
0.0
 24
0.0
 34
0.0
 15
0.0
 25
0.0
 35
0.0
146
0.0
 13
0.0
 23
0.0
 33
0.0
 16
1.0
 26
0.0
 36
0.0
 17
0.0
 27
1.0
 37
0.0
 76
     0
330
2
  0
LAYOUT
  5
116
102
{ACAD_REACTORS
330
113
102
}
330
113
100
AcDbPlotSettings
  1

  2
\\Txbo34x8944cqyd\EPSON LP-6100
  4

  6

 40
0.0
 41
0.0
 42
0.0
 43
0.0
 44
0.0
 45
0.0
 46
0.0
 47
0.0
 48
0.0
 49
0.0
140
0.0
141
0.0
142
1.0
143
1.0
 70
   688
 72
     0
 73
     0
 74
     5
  7
GOD2000TABLE.ctb
 75
    16
147
1.0
148
0.0
149
0.0
100
AcDbLayout
  1
ﾚｲｱｳﾄ1
 70
     1
 71
     1
 10
0.0
 20
0.0
 11
12.0
 21
9.0
 12
0.0
 22
0.0
 32
0.0
 14
1.000000000000000E+20
 24
1.000000000000000E+20
 34
1.000000000000000E+20
 15
-1.000000000000000E+20
 25
-1.000000000000000E+20
 35
-1.000000000000000E+20
146
0.0
 13
0.0
 23
0.0
 33
0.0
 16
1.0
 26
0.0
 36
0.0
 17
0.0
 27
1.0
 37
0.0
 76
     0
330
B
  0
MLINESTYLE
  5
20
102
{ACAD_REACTORS
330
1D
102
}
330
1D
100
AcDbMlineStyle
  2
STANDARD
 70
     0
  3

 62
     0
 51
90.0
 52
90.0
 71
     2
 49
0.5
 62
   256
  6
BYLAYER
 49
-0.5
 62
   256
  6
BYLAYER
  0
ACDBPLACEHOLDER
  5
112
102
{ACAD_REACTORS
330
111
102
}
330
111
  0
ENDSEC
  0
EOF
