  0
SECTION
  2
HEADER
  9
$ACADVER
  1
AC1009
  9
$INSBASE
 10
0.0
 20
0.0
 30
0.0
  9
$EXTMIN
 10
500.0
 20
600.0
 30
0.0
  9
$EXTMAX
 10
3700.0
 20
5573.3045229999998
 30
0.0
  9
$LIMMIN
 10
0.0
 20
0.0
  9
$LIMMAX
 10
297.0
 20
210.0
  9
$ORTHOMODE
 70
     0
  9
$REGENMODE
 70
     1
  9
$FILLMODE
 70
     0
  9
$QTEXTMODE
 70
     0
  9
$MIRRTEXT
 70
     1
  9
$DRAGMODE
 70
     2
  9
$LTSCALE
 40
100.0
  9
$OSMODE
 70
    37
  9
$ATTMODE
 70
     1
  9
$TEXTSIZE
 40
180.0
  9
$TRACEWID
 40
0.05
  9
$TEXTSTYLE
  7
STANDARD
  9
$CLAYER
  8
3
  9
$CELTYPE
  6
BYLAYER
  9
$CECOLOR
 62
   256
  9
$DIMSCALE
 40
20.0
  9
$DIMASZ
 40
2.0
  9
$DIMEXO
 40
0.5
  9
$DIMDLI
 40
10.0
  9
$DIMRND
 40
0.0
  9
$DIMDLE
 40
0.0
  9
$DIMEXE
 40
1.0
  9
$DIMTP
 40
1.0
  9
$DIMTM
 40
1.0
  9
$DIMTXT
 40
3.0
  9
$DIMCEN
 40
0.0
  9
$DIMTSZ
 40
0.0
  9
$DIMTOL
 70
     0
  9
$DIMLIM
 70
     0
  9
$DIMTIH
 70
     0
  9
$DIMTOH
 70
     0
  9
$DIMSE1
 70
     0
  9
$DIMSE2
 70
     0
  9
$DIMTAD
 70
     1
  9
$DIMZIN
 70
     8
  9
$DIMBLK
  1

  9
$DIMASO
 70
     1
  9
$DIMSHO
 70
     1
  9
$DIMPOST
  1

  9
$DIMAPOST
  1

  9
$DIMALT
 70
     0
  9
$DIMALTD
 70
     2
  9
$DIMALTF
 40
0.039
  9
$DIMLFAC
 40
1.0
  9
$DIMTOFL
 70
     1
  9
$DIMTVP
 40
0.0
  9
$DIMTIX
 70
     0
  9
$DIMSOXD
 70
     0
  9
$DIMSAH
 70
     1
  9
$DIMBLK1
  1
OPEN
  9
$DIMBLK2
  1
OPEN
  9
$DIMSTYLE
  2
IGA
  9
$DIMCLRD
 70
     0
  9
$DIMCLRE
 70
     0
  9
$DIMCLRT
 70
     0
  9
$DIMTFAC
 40
10.0
  9
$DIMGAP
 40
1.0
  9
$LUNITS
 70
     2
  9
$LUPREC
 70
     3
  9
$SKETCHINC
 40
0.1
  9
$FILLETRAD
 40
50.0
  9
$AUNITS
 70
     0
  9
$AUPREC
 70
     0
  9
$MENU
  1
acad
  9
$ELEVATION
 40
0.0
  9
$PELEVATION
 40
0.0
  9
$THICKNESS
 40
0.0
  9
$LIMCHECK
 70
     0
  9
$BLIPMODE
 70
     0
  9
$CHAMFERA
 40
0.5
  9
$CHAMFERB
 40
0.5
  9
$SKPOLY
 70
     0
  9
$TDCREATE
 40
2450725.6283870372
  9
$TDUPDATE
 40
2454953.6340865511
  9
$TDINDWG
 40
0.0047860301
  9
$TDUSRTIMER
 40
0.0047860301
  9
$USRTIMER
 70
     1
  9
$ANGBASE
 50
0.0
  9
$ANGDIR
 70
     0
  9
$PDMODE
 70
     0
  9
$PDSIZE
 40
0.0
  9
$PLINEWID
 40
0.0
  9
$COORDS
 70
     1
  9
$SPLFRAME
 70
     0
  9
$SPLINETYPE
 70
     6
  9
$SPLINESEGS
 70
     8
  9
$ATTDIA
 70
     0
  9
$ATTREQ
 70
     1
  9
$HANDLING
 70
 10241
  9
$HANDSEED
  5
7B1A
  9
$SURFTAB1
 70
     6
  9
$SURFTAB2
 70
     6
  9
$SURFTYPE
 70
     6
  9
$SURFU
 70
     6
  9
$SURFV
 70
     6
  9
$UCSNAME
  2

  9
$UCSORG
 10
0.0
 20
0.0
 30
0.0
  9
$UCSXDIR
 10
1.0
 20
0.0
 30
0.0
  9
$UCSYDIR
 10
0.0
 20
1.0
 30
0.0
  9
$PUCSNAME
  2

  9
$PUCSORG
 10
0.0
 20
0.0
 30
0.0
  9
$PUCSXDIR
 10
1.0
 20
0.0
 30
0.0
  9
$PUCSYDIR
 10
0.0
 20
1.0
 30
0.0
  9
$USERI1
 70
     0
  9
$USERI2
 70
     0
  9
$USERI3
 70
     0
  9
$USERI4
 70
     0
  9
$USERI5
 70
     0
  9
$USERR1
 40
0.0
  9
$USERR2
 40
0.0
  9
$USERR3
 40
0.0
  9
$USERR4
 40
0.0
  9
$USERR5
 40
0.0
  9
$WORLDVIEW
 70
     1
  9
$SHADEDGE
 70
     3
  9
$SHADEDIF
 70
    70
  9
$TILEMODE
 70
     1
  9
$MAXACTVP
 70
    16
  9
$PLIMCHECK
 70
     0
  9
$PEXTMIN
 10
1.0000000000000000E+020
 20
1.0000000000000000E+020
 30
1.0000000000000000E+020
  9
$PEXTMAX
 10
-1.0000000000000000E+020
 20
-1.0000000000000000E+020
 30
-1.0000000000000000E+020
  9
$PLIMMIN
 10
0.0
 20
0.0
  9
$PLIMMAX
 10
12.0
 20
9.0
  9
$UNITMODE
 70
     0
  9
$VISRETAIN
 70
     0
  9
$PLINEGEN
 70
     0
  9
$PSLTSCALE
 70
     1
  0
ENDSEC
  0
SECTION
  2
TABLES
  0
TABLE
  2
VPORT
 70
     2
  0
VPORT
  2
*ACTIVE
 70
     0
 10
0.0
 20
0.0
 11
1.0
 21
1.0
 12
3977.0042011613809
 22
821.8704373114706
 13
0.0
 23
0.0
 14
10.0
 24
10.0
 15
10.0
 25
10.0
 16
0.0
 26
0.0
 36
1.0
 17
0.0
 27
0.0
 37
0.0
 40
1760.52178598245
 41
3.1666666666666661
 42
50.0
 43
0.0
 44
0.0
 50
0.0
 51
0.0
 71
     0
 72
   100
 73
     1
 74
     0
 75
     0
 76
     0
 77
     0
 78
     0
  0
ENDTAB
  0
TABLE
  2
LTYPE
 70
     2
  0
LTYPE
  2
CONTINUOUS
 70
     0
  3
Solid line
 72
    65
 73
     0
 40
0.0
  0
LTYPE
  2
CENTER
 70
     0
  3
____ _ ____ _ ____ _ ____ _ ____ _ ____ _ ____ 
 72
    65
 73
     4
 40
2.0
 49
1.25
 49
-0.25
 49
0.25
 49
-0.25
  0
ENDTAB
  0
TABLE
  2
LAYER
 70
     6
  0
LAYER
  2
0
 70
     0
 62
     7
  6
CONTINUOUS
  0
LAYER
  2
3
 70
     0
 62
     2
  6
CONTINUOUS
  0
LAYER
  2
2
 70
     0
 62
     3
  6
CENTER
  0
LAYER
  2
1
 70
     0
 62
     4
  6
CONTINUOUS
  0
LAYER
  2
4
 70
     0
 62
     7
  6
CONTINUOUS
  0
LAYER
  2
DEFPOINTS
 70
     0
 62
     7
  6
CONTINUOUS
  0
ENDTAB
  0
TABLE
  2
STYLE
 70
     1
  0
STYLE
  2
STANDARD
 70
     0
 40
0.0
 41
1.0
 50
0.0
 71
     0
 42
180.0
  3
simplex.shx
  4
extfont.shx
  0
ENDTAB
  0
TABLE
  2
VIEW
 70
     0
  0
ENDTAB
  0
TABLE
  2
UCS
 70
     0
  0
ENDTAB
  0
TABLE
  2
APPID
 70
     1
  0
APPID
  2
ACAD
 70
     0
  0
ENDTAB
  0
TABLE
  2
DIMSTYLE
 70
     1
  0
DIMSTYLE
  2
IGA
 70
     0
  3

  4

  5

  6
OPEN
  7
OPEN
 40
2.0
 41
2.0
 42
0.5
 43
10.0
 44
1.0
 45
0.0
 46
0.0
 47
1.0
 48
1.0
140
3.0
141
0.0
142
0.0
143
0.03937
144
1.0
145
0.0
146
10.0
147
1.0
 71
     0
 72
     0
 73
     0
 74
     0
 75
     0
 76
     0
 77
     1
 78
     8
170
     0
171
     2
172
     0
173
     1
174
     0
175
     0
176
     0
177
     0
178
     0
  0
ENDTAB
  0
ENDSEC
  0
SECTION
  2
BLOCKS
  0
BLOCK
  8
0
  2
$MODEL_SPACE
 70
     0
 10
0.0
 20
0.0
 30
0.0
  3
$MODEL_SPACE
  1

  0
ENDBLK
  5
1B
  8
0
  0
BLOCK
 67
     1
  8
0
  2
$PAPER_SPACE
 70
     0
 10
0.0
 20
0.0
 30
0.0
  3
$PAPER_SPACE
  1

  0
ENDBLK
  5
18
 67
     1
  8
0
  0
BLOCK
  8
0
  2
_OPEN
 70
     0
 10
0.0
 20
0.0
 30
0.0
  3
_OPEN
  1

  0
LINE
  5
7A66
  8
0
  6
BYBLOCK
 62
     0
 10
-1.0
 20
0.166667
 30
0.0
 11
0.0
 21
0.0
 31
0.0
  0
LINE
  5
7A67
  8
0
  6
BYBLOCK
 62
     0
 10
0.0
 20
0.0
 30
0.0
 11
-1.0
 21
-0.166667
 31
0.0
  0
LINE
  5
7A68
  8
0
  6
BYBLOCK
 62
     0
 10
0.0
 20
0.0
 30
0.0
 11
-1.0
 21
0.0
 31
0.0
  0
ENDBLK
  5
7A69
  8
0
  0
BLOCK
  8
0
  2
*D1
 70
     1
 10
0.0
 20
0.0
 30
0.0
  3
*D1
  1

  0
LINE
  5
7AE8
  8
3
  6
CONTINUOUS
 62
     0
 10
892.62406099999998
 20
3053.5003679999991
 30
0.0
 11
892.62406099999998
 21
3142.5471710000002
 31
0.0
  0
LINE
  5
7AE9
  8
3
  6
CONTINUOUS
 62
     0
 10
1652.624061
 20
3053.5003679999991
 30
0.0
 11
1652.624061
 21
3142.5471710000002
 31
0.0
  0
LINE
  5
7AEA
  8
3
  6
CONTINUOUS
 62
     0
 10
932.62406099999987
 20
3122.5471710000002
 30
0.0
 11
1612.6240609999991
 21
3122.5471710000002
 31
0.0
  0
INSERT
  5
7AEB
  8
3
  6
CONTINUOUS
 62
     0
  2
_OPEN
 10
892.62406099999998
 20
3122.5471710000002
 30
0.0
 41
40.0
 42
40.0
 43
40.0
 50
180.0
  0
INSERT
  5
7AEC
  8
3
  6
CONTINUOUS
 62
     0
  2
_OPEN
 10
1652.624061
 20
3122.5471710000002
 30
0.0
 41
40.0
 42
40.0
 43
40.0
  0
TEXT
  8
3
  40
60
  5
7B15
  62
0
  72
0
  71
0
 10
1155.46
 20
3066.35
 30
0.000000
  1
760
  0
POINT
  5
7AEE
  8
DEFPOINTS
  6
CONTINUOUS
 62
     0
 10
892.62406099999998
 20
3043.500368
 30
0.0
  0
POINT
  5
7AEF
  8
DEFPOINTS
  6
CONTINUOUS
 62
     0
 10
1652.624061
 20
3043.500368
 30
0.0
  0
POINT
  5
7AF0
  8
DEFPOINTS
  6
CONTINUOUS
 62
     0
 10
1652.624061
 20
3122.5471710000002
 30
0.0
  0
ENDBLK
  5
7A76
  8
0
  0
BLOCK
  8
0
  2
*D2
 70
     1
 10
0.0
 20
0.0
 30
0.0
  3
*D2
  1

  0
LINE
  5
7AF1
  8
3
  6
CONTINUOUS
 62
     0
 10
1782.6240620000001
 20
2613.500368
 30
0.0
 11
1782.6240620000001
 21
3253.8679280000001
 31
0.0
  0
LINE
  5
7AF2
  8
3
  6
CONTINUOUS
 62
     0
 10
892.62406099999998
 20
3013.500368
 30
0.0
 11
892.62406099999998
 21
3253.8679280000001
 31
0.0
  0
LINE
  5
7AF3
  8
3
  6
CONTINUOUS
 62
     0
 10
1742.6240620000001
 20
3233.8679280000001
 30
0.0
 11
932.62406099999987
 21
3233.8679280000001
 31
0.0
  0
INSERT
  5
7AF4
  8
3
  6
CONTINUOUS
 62
     0
  2
_OPEN
 10
1782.6240620000001
 20
3233.8679280000001
 30
0.0
 41
40.0
 42
40.0
 43
40.0
  0
INSERT
  5
7AF5
  8
3
  6
CONTINUOUS
 62
     0
  2
_OPEN
 10
892.62406099999998
 20
3233.8679280000001
 30
0.0
 41
40.0
 42
40.0
 43
40.0
 50
180.0
  0
TEXT
  8
3
  40
60
  5
7B16
  62
0
  72
0
  71
0
 10
1222.30
 20
3177.67
 30
0.000000
  1
890
  0
POINT
  5
7AF7
  8
DEFPOINTS
  6
CONTINUOUS
 62
     0
 10
1782.6240620000001
 20
2603.500368
 30
0.0
  0
POINT
  5
7AF8
  8
DEFPOINTS
  6
CONTINUOUS
 62
     0
 10
892.62406099999998
 20
3003.500368
 30
0.0
  0
POINT
  5
7AF9
  8
DEFPOINTS
  6
CONTINUOUS
 62
     0
 10
892.62406099999998
 20
3233.8679280000001
 30
0.0
  0
ENDBLK
  5
7A83
  8
0
  0
BLOCK
  8
0
  2
*D3
 70
     1
 10
0.0
 20
0.0
 30
0.0
  3
*D3
  1

  0
LINE
  5
7AFA
  8
3
  6
CONTINUOUS
 62
     0
 10
2163.5618009999998
 20
2638.500368
 30
0.0
 11
2163.5618009999998
 21
3265.0000009999999
 31
0.0
  0
LINE
  5
7AFB
  8
3
  6
CONTINUOUS
 62
     0
 10
3201.5618009999998
 20
2638.500368
 30
0.0
 11
3201.5618009999998
 21
3265.0000009999999
 31
0.0
  0
LINE
  5
7AFC
  8
3
  6
CONTINUOUS
 62
     0
 10
2203.5618009999998
 20
3245.0000009999999
 30
0.0
 11
3161.5618009999998
 21
3245.0000009999999
 31
0.0
  0
INSERT
  5
7AFD
  8
3
  6
CONTINUOUS
 62
     0
  2
_OPEN
 10
2163.5618009999998
 20
3245.0000009999999
 30
0.0
 41
40.0
 42
40.0
 43
40.0
 50
180.0
  0
INSERT
  5
7AFE
  8
3
  6
CONTINUOUS
 62
     0
  2
_OPEN
 10
3201.5618009999998
 20
3245.0000009999999
 30
0.0
 41
40.0
 42
40.0
 43
40.0
  0
TEXT
  8
3
  40
60
  5
7B17
  62
0
  72
0
  71
0
 10
2536.75
 20
3188.80
 30
0.000000
  1
1038
  0
POINT
  5
7B00
  8
DEFPOINTS
  6
CONTINUOUS
 62
     0
 10
2163.5618009999998
 20
2628.500368
 30
0.0
  0
POINT
  5
7B01
  8
DEFPOINTS
  6
CONTINUOUS
 62
     0
 10
3201.5618009999998
 20
2628.500368
 30
0.0
  0
POINT
  5
7B02
  8
DEFPOINTS
  6
CONTINUOUS
 62
     0
 10
3201.5618009999998
 20
3245.0000009999999
 30
0.0
  0
ENDBLK
  5
7A90
  8
0
  0
BLOCK
  8
0
  2
*D4
 70
     1
 10
0.0
 20
0.0
 30
0.0
  3
*D4
  1

  0
LINE
  5
7B03
  8
3
  6
CONTINUOUS
 62
     0
 10
882.62406099999987
 20
3003.500368
 30
0.0
 11
743.0489280000005
 21
3003.500368
 31
0.0
  0
LINE
  5
7B04
  8
3
  6
CONTINUOUS
 62
     0
 10
882.62406099999987
 20
2203.5003679999991
 30
0.0
 11
743.04892800000039
 21
2203.5003679999991
 31
0.0
  0
LINE
  5
7B05
  8
3
  6
CONTINUOUS
 62
     0
 10
763.04892800000061
 20
2963.500368
 30
0.0
 11
763.04892800000039
 21
2243.500368
 31
0.0
  0
INSERT
  5
7B06
  8
3
  6
CONTINUOUS
 62
     0
  2
_OPEN
 10
763.04892800000061
 20
3003.500368
 30
0.0
 41
40.0
 42
40.0
 43
40.0
 50
90.0
  0
INSERT
  5
7B07
  8
3
  6
CONTINUOUS
 62
     0
  2
_OPEN
 10
763.04892800000039
 20
2203.5003679999991
 30
0.0
 41
40.0
 42
40.0
 43
40.0
 50
270.0
  0
TEXT
  8
3
  40
60
  5
7B18
  62
0
  72
0
  71
0
 10
593.049
 20
2493.14
 30
0.000000
  1
800
  0
POINT
  5
7B09
  8
DEFPOINTS
  6
CONTINUOUS
 62
     0
 10
892.62406099999998
 20
3003.500368
 30
0.0
  0
POINT
  5
7B0A
  8
DEFPOINTS
  6
CONTINUOUS
 62
     0
 10
892.62406099999998
 20
2203.5003679999991
 30
0.0
  0
POINT
  5
7B0B
  8
DEFPOINTS
  6
CONTINUOUS
 62
     0
 10
763.04892800000039
 20
2203.5003679999991
 30
0.0
  0
ENDBLK
  5
7A9D
  8
0
  0
BLOCK
  8
0
  2
*D5
 70
     1
 10
0.0
 20
0.0
 30
0.0
  3
*D5
  1

  0
LINE
  5
7B0C
  8
3
  6
CONTINUOUS
 62
     0
 10
882.62406099999987
 20
3053.5003679999991
 30
0.0
 11
609.37612300000046
 21
3053.5003679999991
 31
0.0
  0
LINE
  5
7B0D
  8
3
  6
CONTINUOUS
 62
     0
 10
882.62406099999987
 20
2163.500368
 30
0.0
 11
609.37612300000035
 21
2163.500368
 31
0.0
  0
LINE
  5
7B0E
  8
3
  6
CONTINUOUS
 62
     0
 10
629.37612300000046
 20
3013.500368
 30
0.0
 11
629.37612300000035
 21
2203.5003679999991
 31
0.0
  0
INSERT
  5
7B0F
  8
3
  6
CONTINUOUS
 62
     0
  2
_OPEN
 10
629.37612300000046
 20
3053.5003679999991
 30
0.0
 41
40.0
 42
40.0
 43
40.0
 50
90.0
  0
INSERT
  5
7B10
  8
3
  6
CONTINUOUS
 62
     0
  2
_OPEN
 10
629.37612300000035
 20
2163.500368
 30
0.0
 41
40.0
 42
40.0
 43
40.0
 50
270.0
  0
TEXT
  8
3
  40
60
  5
7B19
  62
0
  72
0
  71
0
 10
459.376
 20
2493.14
 30
0.000000
  1
890
  0
POINT
  5
7B12
  8
DEFPOINTS
  6
CONTINUOUS
 62
     0
 10
892.62406099999998
 20
3053.5003679999991
 30
0.0
  0
POINT
  5
7B13
  8
DEFPOINTS
  6
CONTINUOUS
 62
     0
 10
892.62406099999998
 20
2163.500368
 30
0.0
  0
POINT
  5
7B14
  8
DEFPOINTS
  6
CONTINUOUS
 62
     0
 10
629.37612300000035
 20
2163.500368
 30
0.0
  0
ENDBLK
  5
7AAA
  8
0
  0
ENDSEC
  0
SECTION
  2
ENTITIES
  0
LINE
  5
7A26
  8
2
  6
CENTER
 10
2182.5618009999998
 20
2603.500368
 30
0.0
 11
3182.5618009999998
 21
2603.500368
 31
0.0
  0
CIRCLE
  5
7A27
  8
1
  6
CONTINUOUS
 10
2682.5618009999998
 20
2603.500368
 30
0.0
 40
400.0
  0
CIRCLE
  5
7A28
  8
1
  6
CONTINUOUS
 10
2682.5618009999998
 20
2603.500368
 30
0.0
 40
440.0
  0
CIRCLE
  5
7A29
  8
1
  6
CONTINUOUS
 10
2682.5618009999998
 20
2603.500368
 30
0.0
 40
254.0
  0
LINE
  5
7A2A
  8
2
  6
CENTER
 10
842.62406099999998
 20
2603.500368
 30
0.0
 11
1832.6240609999991
 21
2603.500368
 31
0.0
  0
LINE
  5
7A2B
  8
4
  6
CONTINUOUS
 10
1067.857534999999
 20
3401.1262069999998
 30
0.0
 11
1167.8575350000001
 21
3351.1262069999998
 31
0.0
  0
LINE
  5
7A2C
  8
4
  6
CONTINUOUS
 10
1067.857534999999
 20
3401.1262069999998
 30
0.0
 11
1167.8575350000001
 21
3451.1262069999998
 31
0.0
  0
LINE
  5
7A2D
  8
4
  6
CONTINUOUS
 10
1067.857534999999
 20
3401.1262069999998
 30
0.0
 11
1505.854239
 21
3401.1262069999998
 31
0.0
  0
LINE
  5
7A2E
  8
1
  6
CONTINUOUS
 10
892.62406099999998
 20
3003.500368
 30
0.0
 11
1652.624061
 21
3003.500368
 31
0.0
  0
LINE
  5
7A2F
  8
1
  6
CONTINUOUS
 10
892.62406099999998
 20
2203.5003679999991
 30
0.0
 11
1652.624061
 21
2203.5003679999991
 31
0.0
  0
LINE
  5
7A30
  8
1
  6
CONTINUOUS
 10
1092.624061
 20
2349.500368
 30
0.0
 11
1092.624061
 21
2857.500368
 31
0.0
  0
LINE
  5
7A31
  8
1
  6
CONTINUOUS
 10
942.62406099999998
 20
2349.500368
 30
0.0
 11
942.62406099999998
 21
2857.500368
 31
0.0
  0
LINE
  5
7A32
  8
1
  6
CONTINUOUS
 10
892.62406099999998
 20
2163.500368
 30
0.0
 11
892.62406099999998
 21
3043.500368
 31
0.0
  0
LINE
  5
7A33
  8
1
  6
CONTINUOUS
 10
1067.624061
 20
2226.6243349999991
 30
0.0
 11
1092.624061
 21
2349.500368
 31
0.0
  0
LINE
  5
7A34
  8
1
  6
CONTINUOUS
 10
942.62406099999998
 20
2349.500368
 30
0.0
 11
967.62406099999998
 21
2226.6243349999991
 31
0.0
  0
LINE
  5
7A35
  8
1
  6
CONTINUOUS
 10
967.62406099999998
 20
2226.6243349999991
 30
0.0
 11
1067.624061
 21
2226.6243349999991
 31
0.0
  0
LINE
  5
7A36
  8
1
  6
CONTINUOUS
 10
942.62406099999998
 20
2349.500368
 30
0.0
 11
1092.624061
 21
2349.500368
 31
0.0
  0
LINE
  5
7A37
  8
1
  6
CONTINUOUS
 10
1067.624061
 20
2980.376401
 30
0.0
 11
1092.624061
 21
2857.500368
 31
0.0
  0
LINE
  5
7A38
  8
1
  6
CONTINUOUS
 10
967.62406099999998
 20
2980.376401
 30
0.0
 11
1067.624061
 21
2980.376401
 31
0.0
  0
LINE
  5
7A39
  8
1
  6
CONTINUOUS
 10
942.62406099999998
 20
2857.500368
 30
0.0
 11
967.62406099999998
 21
2980.376401
 31
0.0
  0
LINE
  5
7A3A
  8
1
  6
CONTINUOUS
 10
942.62406099999998
 20
2857.500368
 30
0.0
 11
1092.624061
 21
2857.500368
 31
0.0
  0
ARC
  5
7A3B
  8
1
  6
CONTINUOUS
 10
1469.4856
 20
2603.500368
 30
0.0
 40
313.13846199999989
 50
305.79226599999998
 51
54.207733999999988
  0
LINE
  5
7A3C
  8
1
  6
CONTINUOUS
 10
1652.624061
 20
2163.500368
 30
0.0
 11
1652.624061
 21
3043.500368
 31
0.0
  0
LINE
  5
7A3D
  8
1
  6
CONTINUOUS
 10
2163.5618009999998
 20
2578.500368
 30
0.0
 11
2243.2726029999999
 21
2578.500368
 31
0.0
  0
LINE
  5
7A3E
  8
1
  6
CONTINUOUS
 10
2163.5618009999998
 20
2628.500368
 30
0.0
 11
2243.2726029999999
 21
2628.500368
 31
0.0
  0
LINE
  5
7A3F
  8
1
  6
CONTINUOUS
 10
2163.5618009999998
 20
2578.500368
 30
0.0
 11
2163.5618009999998
 21
2628.500368
 31
0.0
  0
LINE
  5
7A40
  8
4
  6
CONTINUOUS
 10
1505.854239
 20
3401.1262069999998
 30
0.0
 11
1553.5378129999999
 21
3401.1262069999998
 31
0.0
  0
LINE
  5
7A41
  8
2
  6
CENTER
 10
2682.5618009999998
 20
2103.500368
 30
0.0
 11
2682.5618009999998
 21
3103.500368
 31
0.0
  0
LINE
  5
7A42
  8
1
  6
CONTINUOUS
 10
3121.8509999999992
 20
2578.500368
 30
0.0
 11
3201.5618009999998
 21
2578.500368
 31
0.0
  0
LINE
  5
7A43
  8
1
  6
CONTINUOUS
 10
3121.8509999999992
 20
2628.500368
 30
0.0
 11
3201.5618009999998
 21
2628.500368
 31
0.0
  0
LINE
  5
7A44
  8
1
  6
CONTINUOUS
 10
3201.5618009999998
 20
2578.500368
 30
0.0
 11
3201.5618009999998
 21
2628.500368
 31
0.0
  0
LINE
  5
7A45
  8
4
  6
CONTINUOUS
 10
3700.0
 20
1000.0
 30
0.0
 11
3700.0
 21
600.0
 31
0.0
  0
LINE
  5
7A46
  8
4
  6
CONTINUOUS
 10
2300.0
 20
1000.0
 30
0.0
 11
2300.0
 21
600.0
 31
0.0
  0
LINE
  5
7A47
  8
4
  6
CONTINUOUS
 10
1300.0
 20
1000.0
 30
0.0
 11
1300.0
 21
600.0
 31
0.0
  0
LINE
  5
7A4A
  8
4
  6
CONTINUOUS
 10
1300.0
 20
600.0
 30
0.0
 11
3700.0
 21
600.0
 31
0.0
  0
LINE
  5
7A4B
  8
4
  6
CONTINUOUS
 10
1300.0
 20
800.0
 30
0.0
 11
3700.0
 21
800.0
 31
0.0
  0
TEXT
  5
7A4C
  8
4
  6
CONTINUOUS
 10
1377.004162
 20
863.086052
 30
0.0
 40
100.0
  1
機器名称
  0
TEXT
  5
7A4D
  8
4
  6
CONTINUOUS
 10
1372.516212
 20
643.29031299999986
 30
0.0
 40
100.0
  1
機器型番
  0
TEXT
  5
7A4E
  8
4
  6
CONTINUOUS
 10
2355.3574910000002
 20
845.14353800000015
 30
0.0
 40
100.0
  1
ミツヤ軸流排煙ファン
  0
TEXT
  5
7A4F
  8
4
  6
CONTINUOUS
 10
2373.3089909999999
 20
634.31916899999999
 30
0.0
 40
100.0
  1
APE#800-1M
  0
TEXT
  5
7A51
  8
4
  6
CONTINUOUS
 10
1809.5715309999989
 20
4766.8576830000002
 30
0.0
 40
108.0
  1
天井吊形
  0
TEXT
  5
7A52
  8
4
  6
CONTINUOUS
 10
632.33518700000002
 20
5067.7619520000007
 30
0.0
 40
144.0
  1
電動機直動横形軸流式排煙ファン
  0
LINE
  5
7A53
  8
4
  6
CONTINUOUS
 10
500.0
 20
4938.8175090000004
 30
0.0
 11
3700.0
 21
4938.8175090000004
 31
0.0
  0
LINE
  5
7A54
  8
4
  6
CONTINUOUS
 10
500.0
 20
5338.8175090000004
 30
0.0
 11
3700.0
 21
5338.8175090000004
 31
0.0
  0
LINE
  5
7A55
  8
4
  6
CONTINUOUS
 10
1300.0
 20
1000.0
 30
0.0
 11
3700.0
 21
1000.0
 31
0.0
  0
LINE
  5
7A56
  8
4
  6
CONTINUOUS
 10
500.0
 20
5338.8175090000004
 30
0.0
 11
500.0
 21
4938.8175090000004
 31
0.0
  0
TEXT
  5
7A57
  8
4
  6
CONTINUOUS
 10
669.97924499999999
 20
4764.6389549999994
 30
0.0
 40
108.0
  1
左回転前方吐出
  0
TEXT
  5
7A58
  8
4
  6
CONTINUOUS
 10
2937.9391179999998
 20
5412.122163
 30
0.0
 40
112.0
  1
No.
  0
TEXT
  5
7A59
  8
4
  6
CONTINUOUS
 10
2622.5921250000001
 20
4766.8576830000002
 30
0.0
 40
108.0
  1
縮尺：1/20
  0
LINE
  5
7A5A
  8
4
  6
CONTINUOUS
 10
3700.0
 20
5338.8175090000004
 30
0.0
 11
3700.0
 21
4938.8175090000004
 31
0.0
  0
LINE
  5
7A5C
  8
4
  6
CONTINUOUS
 10
2881.234845
 20
5362.5271659999999
 30
0.0
 11
2881.234845
 21
5573.3045229999998
 31
0.0
  0
LINE
  5
7A5D
  8
4
  6
CONTINUOUS
 10
2881.234845
 20
5573.3045229999998
 30
0.0
 11
3700.0
 21
5573.3045229999998
 31
0.0
  0
LINE
  5
7A5E
  8
4
  6
CONTINUOUS
 10
3700.0
 20
5573.3045229999998
 30
0.0
 11
3700.0
 21
5362.5271659999999
 31
0.0
  0
LINE
  5
7A5F
  8
4
  6
CONTINUOUS
 10
3700.0
 20
5362.5271659999999
 30
0.0
 11
2881.234845
 21
5362.5271659999999
 31
0.0
  0
DIMENSION
  5
7A77
  8
3
  6
CONTINUOUS
  2
*D1
 10
1652.624061
 20
3122.5471710000002
 30
0.0
 11
1275.4613569999999
 21
3122.5471710000002
 31
0.0
 70
   128
 13
892.62406099999998
 23
3043.500368
 33
0.0
 14
1652.624061
 24
3043.500368
 34
0.0
1001
ACAD
1000
DSTYLE
1002
{
1070
   287
1070
     3
1070
    40
1040
20.0
1070
   143
1040
0.039
1070
   172
1070
     1
1070
   271
1070
     0
1070
   279
1070
     0
1070
   288
1070
     1
1002
}
  0
DIMENSION
  5
7A84
  8
3
  6
CONTINUOUS
  2
*D2
 10
892.62406099999998
 20
3233.8679280000001
 30
0.0
 11
1342.2977699999999
 21
3233.8679280000001
 31
0.0
 70
   128
 13
1782.6240620000001
 23
2603.500368
 33
0.0
 14
892.62406099999998
 24
3003.500368
 34
0.0
1001
ACAD
1000
DSTYLE
1002
{
1070
   287
1070
     3
1070
    40
1040
20.0
1070
   143
1040
0.039
1070
   172
1070
     1
1070
   271
1070
     0
1070
   279
1070
     0
1070
   288
1070
     1
1002
}
  0
DIMENSION
  5
7A91
  8
3
  6
CONTINUOUS
  2
*D3
 10
3201.5618009999998
 20
3245.0000009999999
 30
0.0
 11
2656.7470509999998
 21
3245.0000009999999
 31
0.0
 70
   128
 13
2163.5618009999998
 23
2628.500368
 33
0.0
 14
3201.5618009999998
 24
2628.500368
 34
0.0
1001
ACAD
1000
DSTYLE
1002
{
1070
   287
1070
     3
1070
    40
1040
20.0
1070
   143
1040
0.039
1070
   172
1070
     1
1070
   271
1070
     0
1070
   279
1070
     0
1070
   288
1070
     1
1002
}
  0
DIMENSION
  5
7A9E
  8
3
  6
CONTINUOUS
  2
*D4
 10
763.04892800000039
 20
2203.5003679999991
 30
0.0
 11
763.04892800000005
 21
2599.3396210000001
 31
0.0
 70
   128
 13
892.62406099999998
 23
3003.500368
 33
0.0
 14
892.62406099999998
 24
2203.5003679999991
 34
0.0
 50
90.0
1001
ACAD
1000
DSTYLE
1002
{
1070
   287
1070
     3
1070
    40
1040
20.0
1070
   143
1040
0.039
1070
   172
1070
     1
1070
   271
1070
     0
1070
   279
1070
     0
1070
   288
1070
     1
1002
}
  0
DIMENSION
  5
7AAB
  8
3
  6
CONTINUOUS
  2
*D5
 10
629.37612300000035
 20
2163.500368
 30
0.0
 11
629.37612300000001
 21
2599.3396210000001
 31
0.0
 70
   128
 13
892.62406099999998
 23
3053.5003679999991
 33
0.0
 14
892.62406099999998
 24
2163.500368
 34
0.0
 50
90.0
1001
ACAD
1000
DSTYLE
1002
{
1070
   287
1070
     3
1070
    40
1040
20.0
1070
   143
1040
0.039
1070
   172
1070
     1
1070
   271
1070
     0
1070
   279
1070
     0
1070
   288
1070
     1
1002
}
  0
ENDSEC
  0
EOF
