  0
SECTION
  2
HEADER
  9
$ACADVER
  1
AC1009
  9
$INSBASE
 10
0.0
 20
0.0
 30
0.0
  9
$EXTMIN
 10
-6753.4112133513772
 20
-2782.9063028466398
 30
0.0
  9
$EXTMAX
 10
-1503.411213351377
 20
4592.0936971533592
 30
0.0
  9
$LIMMIN
 10
0.0
 20
0.0
  9
$LIMMAX
 10
297.0
 20
210.0
  9
$ORTHOMODE
 70
     0
  9
$REGENMODE
 70
     1
  9
$FILLMODE
 70
     0
  9
$QTEXTMODE
 70
     0
  9
$MIRRTEXT
 70
     1
  9
$DRAGMODE
 70
     2
  9
$LTSCALE
 40
200.0
  9
$OSMODE
 70
    37
  9
$ATTMODE
 70
     1
  9
$TEXTSIZE
 40
180.0
  9
$TRACEWID
 40
0.05
  9
$TEXTSTYLE
  7
STANDARD
  9
$CLAYER
  8
3
  9
$CELTYPE
  6
BYLAYER
  9
$CECOLOR
 62
   256
  9
$DIMSCALE
 40
30.0
  9
$DIMASZ
 40
2.0
  9
$DIMEXO
 40
0.5
  9
$DIMDLI
 40
10.0
  9
$DIMRND
 40
0.0
  9
$DIMDLE
 40
0.0
  9
$DIMEXE
 40
1.0
  9
$DIMTP
 40
1.0
  9
$DIMTM
 40
1.0
  9
$DIMTXT
 40
3.0
  9
$DIMCEN
 40
0.0
  9
$DIMTSZ
 40
0.0
  9
$DIMTOL
 70
     0
  9
$DIMLIM
 70
     0
  9
$DIMTIH
 70
     0
  9
$DIMTOH
 70
     0
  9
$DIMSE1
 70
     0
  9
$DIMSE2
 70
     0
  9
$DIMTAD
 70
     1
  9
$DIMZIN
 70
     8
  9
$DIMBLK
  1
OPEN30
  9
$DIMASO
 70
     1
  9
$DIMSHO
 70
     1
  9
$DIMPOST
  1

  9
$DIMAPOST
  1

  9
$DIMALT
 70
     0
  9
$DIMALTD
 70
     2
  9
$DIMALTF
 40
0.039
  9
$DIMLFAC
 40
1.0
  9
$DIMTOFL
 70
     1
  9
$DIMTVP
 40
0.0
  9
$DIMTIX
 70
     0
  9
$DIMSOXD
 70
     0
  9
$DIMSAH
 70
     0
  9
$DIMBLK1
  1

  9
$DIMBLK2
  1

  9
$DIMSTYLE
  2
IGA
  9
$DIMCLRD
 70
     0
  9
$DIMCLRE
 70
     0
  9
$DIMCLRT
 70
     0
  9
$DIMTFAC
 40
10.0
  9
$DIMGAP
 40
1.0
  9
$LUNITS
 70
     2
  9
$LUPREC
 70
     3
  9
$SKETCHINC
 40
0.1
  9
$FILLETRAD
 40
250.0
  9
$AUNITS
 70
     0
  9
$AUPREC
 70
     0
  9
$MENU
  1
acad
  9
$ELEVATION
 40
0.0
  9
$PELEVATION
 40
0.0
  9
$THICKNESS
 40
0.0
  9
$LIMCHECK
 70
     0
  9
$BLIPMODE
 70
     0
  9
$CHAMFERA
 40
0.5
  9
$CHAMFERB
 40
0.5
  9
$SKPOLY
 70
     0
  9
$TDCREATE
 40
2453304.4208819792
  9
$TDUPDATE
 40
2454953.6358015039
  9
$TDINDWG
 40
0.0941908912
  9
$TDUSRTIMER
 40
0.0941908912
  9
$USRTIMER
 70
     1
  9
$ANGBASE
 50
0.0
  9
$ANGDIR
 70
     0
  9
$PDMODE
 70
     0
  9
$PDSIZE
 40
0.0
  9
$PLINEWID
 40
0.0
  9
$COORDS
 70
     1
  9
$SPLFRAME
 70
     0
  9
$SPLINETYPE
 70
     6
  9
$SPLINESEGS
 70
     8
  9
$ATTDIA
 70
     0
  9
$ATTREQ
 70
     1
  9
$HANDLING
 70
 10241
  9
$HANDSEED
  5
C3C
  9
$SURFTAB1
 70
     6
  9
$SURFTAB2
 70
     6
  9
$SURFTYPE
 70
     6
  9
$SURFU
 70
     6
  9
$SURFV
 70
     6
  9
$UCSNAME
  2

  9
$UCSORG
 10
0.0
 20
0.0
 30
0.0
  9
$UCSXDIR
 10
1.0
 20
0.0
 30
0.0
  9
$UCSYDIR
 10
0.0
 20
1.0
 30
0.0
  9
$PUCSNAME
  2

  9
$PUCSORG
 10
0.0
 20
0.0
 30
0.0
  9
$PUCSXDIR
 10
1.0
 20
0.0
 30
0.0
  9
$PUCSYDIR
 10
0.0
 20
1.0
 30
0.0
  9
$USERI1
 70
     0
  9
$USERI2
 70
     0
  9
$USERI3
 70
     0
  9
$USERI4
 70
     0
  9
$USERI5
 70
     0
  9
$USERR1
 40
0.0
  9
$USERR2
 40
0.0
  9
$USERR3
 40
0.0
  9
$USERR4
 40
0.0
  9
$USERR5
 40
0.0
  9
$WORLDVIEW
 70
     1
  9
$SHADEDGE
 70
     3
  9
$SHADEDIF
 70
    70
  9
$TILEMODE
 70
     1
  9
$MAXACTVP
 70
    16
  9
$PLIMCHECK
 70
     0
  9
$PEXTMIN
 10
1.0000000000000000E+020
 20
1.0000000000000000E+020
 30
1.0000000000000000E+020
  9
$PEXTMAX
 10
-1.0000000000000000E+020
 20
-1.0000000000000000E+020
 30
-1.0000000000000000E+020
  9
$PLIMMIN
 10
0.0
 20
0.0
  9
$PLIMMAX
 10
12.0
 20
9.0
  9
$UNITMODE
 70
     0
  9
$VISRETAIN
 70
     0
  9
$PLINEGEN
 70
     0
  9
$PSLTSCALE
 70
     1
  0
ENDSEC
  0
SECTION
  2
TABLES
  0
TABLE
  2
VPORT
 70
     2
  0
VPORT
  2
*ACTIVE
 70
     0
 10
0.0
 20
0.0
 11
1.0
 21
1.0
 12
-1686.6470768515489
 22
-1921.5536503993701
 13
0.0
 23
0.0
 14
10.0
 24
10.0
 15
10.0
 25
10.0
 16
0.0
 26
0.0
 36
1.0
 17
0.0
 27
0.0
 37
0.0
 40
2356.7904209560188
 41
3.1666666666666661
 42
50.0
 43
0.0
 44
0.0
 50
0.0
 51
0.0
 71
     0
 72
   100
 73
     1
 74
     0
 75
     0
 76
     0
 77
     0
 78
     0
  0
ENDTAB
  0
TABLE
  2
LTYPE
 70
     2
  0
LTYPE
  2
CONTINUOUS
 70
     0
  3
Solid line
 72
    65
 73
     0
 40
0.0
  0
LTYPE
  2
CENTER
 70
     0
  3
____ _ ____ _ ____ _ ____ _ ____ _ ____ _ ____ 
 72
    65
 73
     4
 40
2.0
 49
1.25
 49
-0.25
 49
0.25
 49
-0.25
  0
ENDTAB
  0
TABLE
  2
LAYER
 70
     6
  0
LAYER
  2
0
 70
     0
 62
     7
  6
CONTINUOUS
  0
LAYER
  2
3
 70
     0
 62
     2
  6
CONTINUOUS
  0
LAYER
  2
1
 70
     0
 62
     4
  6
CONTINUOUS
  0
LAYER
  2
4
 70
     0
 62
     7
  6
CONTINUOUS
  0
LAYER
  2
2
 70
     0
 62
     3
  6
CENTER
  0
LAYER
  2
DEFPOINTS
 70
     0
 62
     7
  6
CONTINUOUS
  0
ENDTAB
  0
TABLE
  2
STYLE
 70
     1
  0
STYLE
  2
STANDARD
 70
     0
 40
0.0
 41
1.0
 50
0.0
 71
     0
 42
180.0
  3
simplex.shx
  4
extfont.shx
  0
ENDTAB
  0
TABLE
  2
VIEW
 70
     0
  0
ENDTAB
  0
TABLE
  2
UCS
 70
     0
  0
ENDTAB
  0
TABLE
  2
APPID
 70
     1
  0
APPID
  2
ACAD
 70
     0
  0
ENDTAB
  0
TABLE
  2
DIMSTYLE
 70
     1
  0
DIMSTYLE
  2
IGA
 70
     0
  3

  4

  5

  6

  7

 40
2.0
 41
2.0
 42
0.5
 43
10.0
 44
1.0
 45
0.0
 46
0.0
 47
1.0
 48
1.0
140
3.0
141
0.0
142
0.0
143
0.03937
144
1.0
145
0.0
146
10.0
147
1.0
 71
     0
 72
     0
 73
     0
 74
     0
 75
     0
 76
     0
 77
     1
 78
     8
170
     0
171
     2
172
     0
173
     1
174
     0
175
     0
176
     0
177
     0
178
     0
  0
ENDTAB
  0
ENDSEC
  0
SECTION
  2
BLOCKS
  0
BLOCK
  8
0
  2
$MODEL_SPACE
 70
     0
 10
0.0
 20
0.0
 30
0.0
  3
$MODEL_SPACE
  1

  0
ENDBLK
  5
A
  8
0
  0
BLOCK
 67
     1
  8
0
  2
$PAPER_SPACE
 70
     0
 10
0.0
 20
0.0
 30
0.0
  3
$PAPER_SPACE
  1

  0
ENDBLK
  5
F
 67
     1
  8
0
  0
BLOCK
  8
0
  2
_OPEN
 70
     0
 10
0.0
 20
0.0
 30
0.0
  3
_OPEN
  1

  0
LINE
  5
11B
  8
0
  6
BYBLOCK
 62
     0
 10
-1.0
 20
0.1666666666666666
 30
0.0
 11
0.0
 21
0.0
 31
0.0
  0
LINE
  5
11C
  8
0
  6
BYBLOCK
 62
     0
 10
0.0
 20
0.0
 30
0.0
 11
-1.0
 21
-0.1666666666666666
 31
0.0
  0
LINE
  5
11D
  8
0
  6
BYBLOCK
 62
     0
 10
0.0
 20
0.0
 30
0.0
 11
-1.0
 21
0.0
 31
0.0
  0
ENDBLK
  5
11F
  8
0
  0
BLOCK
  8
0
  2
_OPEN30
 70
     0
 10
0.0
 20
0.0
 30
0.0
  3
_OPEN30
  1

  0
LINE
  5
14E
  8
3
 62
     0
 10
-1.0
 20
0.26794919
 30
0.0
 11
0.0
 21
0.0
 31
0.0
  0
LINE
  5
14F
  8
3
 62
     0
 10
0.0
 20
0.0
 30
0.0
 11
-1.0
 21
-0.26794919
 31
0.0
  0
LINE
  5
150
  8
3
 62
     0
 10
0.0
 20
0.0
 30
0.0
 11
-1.0
 21
0.0
 31
0.0
  0
ENDBLK
  5
152
  8
0
  0
BLOCK
  8
0
  2
*D2
 70
     1
 10
0.0
 20
0.0
 30
0.0
  3
*D2
  1

  0
LINE
  5
BCA
  8
3
 62
     0
 10
-5742.3732923216658
 20
1534.031321887612
 30
0.0
 11
-5975.9201342503648
 21
1534.031321887612
 31
0.0
  0
LINE
  5
BCB
  8
3
 62
     0
 10
-5742.3732923216658
 20
1034.031321887612
 30
0.0
 11
-5975.9201342503648
 21
1034.031321887612
 31
0.0
  0
LINE
  5
BCC
  8
3
 62
     0
 10
-5945.9201342503657
 20
1474.031321887612
 30
0.0
 11
-5945.9201342503657
 21
1094.031321887612
 31
0.0
  0
INSERT
  5
BCD
  8
3
 62
     0
  2
_OPEN30
 10
-5945.9201342503657
 20
1534.031321887612
 30
0.0
 41
60.0
 42
60.0
 43
60.0
 50
90.0
  0
INSERT
  5
BCE
  8
3
 62
     0
  2
_OPEN30
 10
-5945.9201342503657
 20
1034.031321887612
 30
0.0
 41
60.0
 42
60.0
 43
60.0
 50
270.0
  0
TEXT
  8
3
  40
90
  5
C31
  62
0
  72
0
  71
0
 10
-6200.92
 20
1139.20
 30
0.000000
  1
500
  0
POINT
  5
BD0
  8
DEFPOINTS
 62
     0
 10
-5727.3732923216648
 20
1534.031321887612
 30
0.0
  0
POINT
  5
BD1
  8
DEFPOINTS
 62
     0
 10
-5727.3732923216648
 20
1034.031321887612
 30
0.0
  0
POINT
  5
BD2
  8
DEFPOINTS
 62
     0
 10
-5945.9201342503657
 20
1034.031321887612
 30
0.0
  0
ENDBLK
  5
9D6
  8
0
  0
BLOCK
  8
0
  2
*D3
 70
     1
 10
0.0
 20
0.0
 30
0.0
  3
*D3
  1

  0
LINE
  5
BD3
  8
3
 62
     0
 10
-5742.3732923216658
 20
1034.031321887612
 30
0.0
 11
-5974.9841142391006
 21
1034.031321887612
 31
0.0
  0
LINE
  5
BD4
  8
3
 62
     0
 10
-5496.8732923216667
 20
444.03132188761208
 30
0.0
 11
-5974.9841142391006
 21
444.03132188761231
 31
0.0
  0
LINE
  5
BD5
  8
3
 62
     0
 10
-5944.9841142391006
 20
974.03132188761231
 30
0.0
 11
-5944.9841142391006
 21
504.03132188761219
 31
0.0
  0
INSERT
  5
BD6
  8
3
 62
     0
  2
_OPEN30
 10
-5944.9841142391006
 20
1034.031321887612
 30
0.0
 41
60.0
 42
60.0
 43
60.0
 50
90.0
  0
INSERT
  5
BD7
  8
3
 62
     0
  2
_OPEN30
 10
-5944.9841142391006
 20
444.03132188761219
 30
0.0
 41
60.0
 42
60.0
 43
60.0
 50
270.0
  0
TEXT
  8
3
  40
90
  5
C32
  62
0
  72
0
  71
0
 10
-6199.98
 20
585.936
 30
0.000000
  1
590
  0
POINT
  5
BD9
  8
DEFPOINTS
 62
     0
 10
-5727.3732923216648
 20
1034.031321887612
 30
0.0
  0
POINT
  5
BDA
  8
DEFPOINTS
 62
     0
 10
-5481.8732923216658
 20
444.03132188761208
 30
0.0
  0
POINT
  5
BDB
  8
DEFPOINTS
 62
     0
 10
-5944.9841142391006
 20
444.03132188761219
 30
0.0
  0
ENDBLK
  5
9E3
  8
0
  0
BLOCK
  8
0
  2
*D4
 70
     1
 10
0.0
 20
0.0
 30
0.0
  3
*D4
  1

  0
LINE
  5
BDC
  8
3
 62
     0
 10
-5496.8732923216658
 20
444.03132188761202
 30
0.0
 11
-5972.0123524368828
 21
444.03132188761219
 31
0.0
  0
LINE
  5
BDD
  8
3
 62
     0
 10
-5496.8732923216667
 20
344.03132188761202
 30
0.0
 11
-5972.0123524368828
 21
344.03132188761219
 31
0.0
  0
LINE
  5
BDE
  8
3
 62
     0
 10
-5942.0123524368828
 20
504.03132188761208
 30
0.0
 11
-5942.0123524368828
 21
564.03132188761219
 31
0.0
  0
LINE
  5
BDF
  8
3
 62
     0
 10
-5942.0123524368828
 20
284.03132188761219
 30
0.0
 11
-5942.0123524368828
 21
-50.254392398102013
 31
0.0
  0
LINE
  5
BE0
  8
3
 62
     0
 10
-5942.0123524368828
 20
444.03132188761219
 30
0.0
 11
-5942.0123524368828
 21
344.03132188761208
 31
0.0
  0
INSERT
  5
BE1
  8
3
 62
     0
  2
_OPEN30
 10
-5942.0123524368828
 20
444.03132188761219
 30
0.0
 41
60.0
 42
60.0
 43
60.0
 50
270.0
  0
INSERT
  5
BE2
  8
3
 62
     0
  2
_OPEN30
 10
-5942.0123524368828
 20
344.03132188761208
 30
0.0
 41
60.0
 42
60.0
 43
60.0
 50
90.0
  0
TEXT
  8
3
  40
90
  5
C33
  62
0
  72
0
  71
0
 10
-6197.01
 20
-72.4115
 30
0.000000
  1
100
  0
POINT
  5
BE4
  8
DEFPOINTS
 62
     0
 10
-5481.8732923216648
 20
444.03132188761202
 30
0.0
  0
POINT
  5
BE5
  8
DEFPOINTS
 62
     0
 10
-5481.8732923216658
 20
344.03132188761202
 30
0.0
  0
POINT
  5
BE6
  8
DEFPOINTS
 62
     0
 10
-5942.0123524368828
 20
344.03132188761208
 30
0.0
  0
ENDBLK
  5
9F2
  8
0
  0
BLOCK
  8
0
  2
*D5
 70
     1
 10
0.0
 20
0.0
 30
0.0
  3
*D5
  1

  0
LINE
  5
BE7
  8
3
 62
     0
 10
-5742.3732923216658
 20
1534.031321887612
 30
0.0
 11
-6243.8264668344491
 21
1534.031321887612
 31
0.0
  0
LINE
  5
BE8
  8
3
 62
     0
 10
-5496.8732923216667
 20
344.03132188761202
 30
0.0
 11
-6243.8264668344491
 21
344.03132188761231
 31
0.0
  0
LINE
  5
BE9
  8
3
 62
     0
 10
-6213.8264668344491
 20
1474.0313218876111
 30
0.0
 11
-6213.8264668344491
 21
404.03132188761219
 31
0.0
  0
INSERT
  5
BEA
  8
3
 62
     0
  2
_OPEN30
 10
-6213.8264668344491
 20
1534.031321887612
 30
0.0
 41
60.0
 42
60.0
 43
60.0
 50
90.0
  0
INSERT
  5
BEB
  8
3
 62
     0
  2
_OPEN30
 10
-6213.8264668344491
 20
344.03132188761231
 30
0.0
 41
60.0
 42
60.0
 43
60.0
 50
270.0
  0
TEXT
  8
3
  40
90
  5
C34
  62
0
  72
0
  71
0
 10
-6468.83
 20
833.600
 30
0.000000
  1
1190
  0
POINT
  5
BED
  8
DEFPOINTS
 62
     0
 10
-5727.3732923216648
 20
1534.031321887612
 30
0.0
  0
POINT
  5
BEE
  8
DEFPOINTS
 62
     0
 10
-5481.8732923216658
 20
344.03132188761202
 30
0.0
  0
POINT
  5
BEF
  8
DEFPOINTS
 62
     0
 10
-6213.8264668344491
 20
344.03132188761231
 30
0.0
  0
ENDBLK
  5
9FF
  8
0
  0
BLOCK
  8
0
  2
*D6
 70
     1
 10
0.0
 20
0.0
 30
0.0
  3
*D6
  1

  0
LINE
  5
BF0
  8
3
 62
     0
 10
-5727.3732923216648
 20
1549.0313218876111
 30
0.0
 11
-5727.3732923216648
 21
1854.5396261349631
 31
0.0
  0
LINE
  5
BF1
  8
3
 62
     0
 10
-4327.3732923216658
 20
1549.0313218876111
 30
0.0
 11
-4327.3732923216658
 21
1854.5396261349631
 31
0.0
  0
LINE
  5
BF2
  8
3
 62
     0
 10
-5667.3732923216658
 20
1824.5396261349631
 30
0.0
 11
-4387.3732923216648
 21
1824.5396261349631
 31
0.0
  0
INSERT
  5
BF3
  8
3
 62
     0
  2
_OPEN30
 10
-5727.3732923216648
 20
1824.5396261349631
 30
0.0
 41
60.0
 42
60.0
 43
60.0
 50
180.0
  0
INSERT
  5
BF4
  8
3
 62
     0
  2
_OPEN30
 10
-4327.3732923216658
 20
1824.5396261349631
 30
0.0
 41
60.0
 42
60.0
 43
60.0
  0
TEXT
  8
3
  40
90
  5
C35
  62
0
  72
0
  71
0
 10
-5221.63
 20
1740.24
 30
0.000000
  1
1400
  0
POINT
  5
BF6
  8
DEFPOINTS
 62
     0
 10
-5727.3732923216648
 20
1534.031321887612
 30
0.0
  0
POINT
  5
BF7
  8
DEFPOINTS
 62
     0
 10
-4327.3732923216658
 20
1534.0313218876111
 30
0.0
  0
POINT
  5
BF8
  8
DEFPOINTS
 62
     0
 10
-4327.3732923216658
 20
1824.5396261349631
 30
0.0
  0
ENDBLK
  5
A0C
  8
0
  0
BLOCK
  8
0
  2
*D7
 70
     1
 10
0.0
 20
0.0
 30
0.0
  3
*D7
  1

  0
LINE
  5
BF9
  8
3
 62
     0
 10
-5382.3732923216658
 20
359.03132188761219
 30
0.0
 11
-5382.3732923216658
 21
-9.4552344141811773
 31
0.0
  0
LINE
  5
BFA
  8
3
 62
     0
 10
-4672.3732923216648
 20
359.03132188761219
 30
0.0
 11
-4672.3732923216648
 21
-9.4552344141811773
 31
0.0
  0
LINE
  5
BFB
  8
3
 62
     0
 10
-5322.3732923216658
 20
20.544765585818819
 30
0.0
 11
-4732.3732923216658
 21
20.544765585818819
 31
0.0
  0
INSERT
  5
BFC
  8
3
 62
     0
  2
_OPEN30
 10
-5382.3732923216658
 20
20.544765585818819
 30
0.0
 41
60.0
 42
60.0
 43
60.0
 50
180.0
  0
INSERT
  5
BFD
  8
3
 62
     0
  2
_OPEN30
 10
-4672.3732923216648
 20
20.544765585818819
 30
0.0
 41
60.0
 42
60.0
 43
60.0
  0
TEXT
  8
3
  40
90
  5
C36
  62
0
  72
0
  71
0
 10
-5207.05
 20
-63.7552
 30
0.000000
  1
710
  0
POINT
  5
BFF
  8
DEFPOINTS
 62
     0
 10
-5382.3732923216658
 20
374.03132188761219
 30
0.0
  0
POINT
  5
C00
  8
DEFPOINTS
 62
     0
 10
-4672.3732923216648
 20
374.03132188761219
 30
0.0
  0
POINT
  5
C01
  8
DEFPOINTS
 62
     0
 10
-4672.3732923216648
 20
20.544765585818819
 30
0.0
  0
ENDBLK
  5
A19
  8
0
  0
BLOCK
  8
0
  2
*D8
 70
     1
 10
0.0
 20
0.0
 30
0.0
  3
*D8
  1

  0
LINE
  5
C02
  8
3
 62
     0
 10
-5477.3732923216648
 20
329.03132188761191
 30
0.0
 11
-5477.3732923216648
 21
-259.10212215076888
 31
0.0
  0
LINE
  5
C03
  8
3
 62
     0
 10
-4577.3732923216658
 20
329.03132188761191
 30
0.0
 11
-4577.3732923216658
 21
-259.10212215076888
 31
0.0
  0
LINE
  5
C04
  8
3
 62
     0
 10
-5417.3732923216658
 20
-229.10212215076899
 30
0.0
 11
-4637.3732923216648
 21
-229.10212215076899
 31
0.0
  0
INSERT
  5
C05
  8
3
 62
     0
  2
_OPEN30
 10
-5477.3732923216648
 20
-229.10212215076899
 30
0.0
 41
60.0
 42
60.0
 43
60.0
 50
180.0
  0
INSERT
  5
C06
  8
3
 62
     0
  2
_OPEN30
 10
-4577.3732923216658
 20
-229.10212215076899
 30
0.0
 41
60.0
 42
60.0
 43
60.0
  0
TEXT
  8
3
  40
90
  5
C37
  62
0
  72
0
  71
0
 10
-5181.99
 20
-313.402
 30
0.000000
  1
900
  0
POINT
  5
C08
  8
DEFPOINTS
 62
     0
 10
-5477.3732923216648
 20
344.03132188761191
 30
0.0
  0
POINT
  5
C09
  8
DEFPOINTS
 62
     0
 10
-4577.3732923216658
 20
344.03132188761191
 30
0.0
  0
POINT
  5
C0A
  8
DEFPOINTS
 62
     0
 10
-4577.3732923216658
 20
-229.10212215076899
 30
0.0
  0
ENDBLK
  5
A26
  8
0
  0
BLOCK
  8
0
  2
*D9
 70
     1
 10
0.0
 20
0.0
 30
0.0
  3
*D9
  1

  0
LINE
  5
C0B
  8
3
 62
     0
 10
-5407.3732923216658
 20
384.03132188761219
 30
0.0
 11
-5718.5315153516931
 21
384.03132188761219
 31
0.0
  0
LINE
  5
C0C
  8
3
 62
     0
 10
-5496.8732923216658
 20
344.03132188761202
 30
0.0
 11
-5718.5315153516931
 21
344.03132188761208
 31
0.0
  0
LINE
  5
C0D
  8
3
 62
     0
 10
-5688.5315153516931
 20
444.03132188761219
 30
0.0
 11
-5688.5315153516931
 21
504.03132188761219
 31
0.0
  0
LINE
  5
C0E
  8
3
 62
     0
 10
-5688.5315153516931
 20
284.03132188761208
 30
0.0
 11
-5688.5315153516931
 21
18.317036173326422
 31
0.0
  0
LINE
  5
C0F
  8
3
 62
     0
 10
-5688.5315153516931
 20
384.03132188761219
 30
0.0
 11
-5688.5315153516931
 21
344.03132188761208
 31
0.0
  0
INSERT
  5
C10
  8
3
 62
     0
  2
_OPEN30
 10
-5688.5315153516931
 20
384.03132188761219
 30
0.0
 41
60.0
 42
60.0
 43
60.0
 50
270.0
  0
INSERT
  5
C11
  8
3
 62
     0
  2
_OPEN30
 10
-5688.5315153516931
 20
344.03132188761208
 30
0.0
 41
60.0
 42
60.0
 43
60.0
 50
90.0
  0
TEXT
  8
3
  40
90
  5
C38
  62
0
  72
0
  71
0
 10
-5943.53
 20
-38.1258
 30
0.000000
  1
40
  0
POINT
  5
C13
  8
DEFPOINTS
 62
     0
 10
-5392.3732923216658
 20
384.03132188761219
 30
0.0
  0
POINT
  5
C14
  8
DEFPOINTS
 62
     0
 10
-5481.8732923216648
 20
344.03132188761202
 30
0.0
  0
POINT
  5
C15
  8
DEFPOINTS
 62
     0
 10
-5688.5315153516931
 20
344.03132188761208
 30
0.0
  0
ENDBLK
  5
A35
  8
0
  0
BLOCK
  8
0
  2
*D10
 70
     1
 10
0.0
 20
0.0
 30
0.0
  3
*D10
  1

  0
LINE
  5
C16
  8
3
 62
     0
 10
-3458.1566830151419
 20
1149.0313218876131
 30
0.0
 11
-3458.1566830151419
 21
1825.500963397782
 31
0.0
  0
LINE
  5
C17
  8
3
 62
     0
 10
-2058.156683015141
 20
1149.0313218876131
 30
0.0
 11
-2058.156683015141
 21
1825.500963397782
 31
0.0
  0
LINE
  5
C18
  8
3
 62
     0
 10
-3398.156683015141
 20
1795.500963397782
 30
0.0
 11
-2118.156683015141
 21
1795.500963397782
 31
0.0
  0
INSERT
  5
C19
  8
3
 62
     0
  2
_OPEN30
 10
-3458.1566830151419
 20
1795.500963397782
 30
0.0
 41
60.0
 42
60.0
 43
60.0
 50
180.0
  0
INSERT
  5
C1A
  8
3
 62
     0
  2
_OPEN30
 10
-2058.156683015141
 20
1795.500963397782
 30
0.0
 41
60.0
 42
60.0
 43
60.0
  0
TEXT
  8
3
  40
90
  5
C39
  62
0
  72
0
  71
0
 10
-2946.47
 20
1711.20
 30
0.000000
  1
1400
  0
POINT
  5
C1C
  8
DEFPOINTS
 62
     0
 10
-3458.1566830151419
 20
1134.0313218876131
 30
0.0
  0
POINT
  5
C1D
  8
DEFPOINTS
 62
     0
 10
-2058.156683015141
 20
1134.0313218876131
 30
0.0
  0
POINT
  5
C1E
  8
DEFPOINTS
 62
     0
 10
-2058.156683015141
 20
1795.500963397782
 30
0.0
  0
ENDBLK
  5
A42
  8
0
  0
BLOCK
  8
0
  2
*D11
 70
     1
 10
0.0
 20
0.0
 30
0.0
  3
*D11
  1

  0
LINE
  5
C1F
  8
3
 62
     0
 10
-3113.1566830151419
 20
359.03132188761219
 30
0.0
 11
-3113.1566830151419
 21
26.89439320455131
 31
0.0
  0
LINE
  5
C20
  8
3
 62
     0
 10
-2403.1566830151401
 20
359.03132188761219
 30
0.0
 11
-2403.1566830151401
 21
26.89439320455131
 31
0.0
  0
LINE
  5
C21
  8
3
 62
     0
 10
-3053.1566830151419
 20
56.894393204551307
 30
0.0
 11
-2463.156683015141
 21
56.894393204551307
 31
0.0
  0
INSERT
  5
C22
  8
3
 62
     0
  2
_OPEN30
 10
-3113.1566830151419
 20
56.894393204551307
 30
0.0
 41
60.0
 42
60.0
 43
60.0
 50
180.0
  0
INSERT
  5
C23
  8
3
 62
     0
  2
_OPEN30
 10
-2403.1566830151401
 20
56.894393204551307
 30
0.0
 41
60.0
 42
60.0
 43
60.0
  0
TEXT
  8
3
  40
90
  5
C3A
  62
0
  72
0
  71
0
 10
-2933.46
 20
-27.4056
 30
0.000000
  1
710
  0
POINT
  5
C25
  8
DEFPOINTS
 62
     0
 10
-3113.1566830151419
 20
374.03132188761219
 30
0.0
  0
POINT
  5
C26
  8
DEFPOINTS
 62
     0
 10
-2403.1566830151401
 20
374.03132188761219
 30
0.0
  0
POINT
  5
C27
  8
DEFPOINTS
 62
     0
 10
-2403.1566830151401
 20
56.894393204551307
 30
0.0
  0
ENDBLK
  5
A81
  8
0
  0
BLOCK
  8
0
  2
*D12
 70
     1
 10
0.0
 20
0.0
 30
0.0
  3
*D12
  1

  0
LINE
  5
C28
  8
3
 62
     0
 10
-3208.1566830151401
 20
329.03132188761191
 30
0.0
 11
-3208.1566830151401
 21
-257.19271202978769
 31
0.0
  0
LINE
  5
C29
  8
3
 62
     0
 10
-2308.1566830151419
 20
329.03132188761191
 30
0.0
 11
-2308.1566830151419
 21
-257.19271202978769
 31
0.0
  0
LINE
  5
C2A
  8
3
 62
     0
 10
-3148.1566830151401
 20
-227.1927120297878
 30
0.0
 11
-2368.1566830151419
 21
-227.1927120297878
 31
0.0
  0
INSERT
  5
C2B
  8
3
 62
     0
  2
_OPEN30
 10
-3208.1566830151401
 20
-227.1927120297878
 30
0.0
 41
60.0
 42
60.0
 43
60.0
 50
180.0
  0
INSERT
  5
C2C
  8
3
 62
     0
  2
_OPEN30
 10
-2308.1566830151419
 20
-227.1927120297878
 30
0.0
 41
60.0
 42
60.0
 43
60.0
  0
TEXT
  8
3
  40
90
  5
C3B
  62
0
  72
0
  71
0
 10
-2923.18
 20
-311.493
 30
0.000000
  1
900
  0
POINT
  5
C2E
  8
DEFPOINTS
 62
     0
 10
-3208.1566830151401
 20
344.03132188761191
 30
0.0
  0
POINT
  5
C2F
  8
DEFPOINTS
 62
     0
 10
-2308.1566830151419
 20
344.03132188761191
 30
0.0
  0
POINT
  5
C30
  8
DEFPOINTS
 62
     0
 10
-2308.1566830151419
 20
-227.1927120297878
 30
0.0
  0
ENDBLK
  5
A8E
  8
0
  0
ENDSEC
  0
SECTION
  2
ENTITIES
  0
LINE
  5
24
  8
1
 10
-3318.156683015141
 20
1034.031321887612
 30
0.0
 11
-2198.156683015141
 21
1034.031321887612
 31
0.0
  0
LINE
  5
25
  8
1
 10
-3212.656683015141
 20
444.03132188761208
 30
0.0
 11
-2303.656683015141
 21
444.03132188761208
 31
0.0
  0
LINE
  5
26
  8
1
 10
-3212.6566830151401
 20
344.03132188761202
 30
0.0
 11
-2303.6566830151419
 21
344.03132188761202
 31
0.0
  0
LINE
  5
27
  8
1
 10
-3208.1566830151419
 20
428.53132188761191
 30
0.0
 11
-2308.1566830151419
 21
428.53132188761049
 31
0.0
  0
LINE
  5
28
  8
1
 10
-3208.1566830151419
 20
424.03132188761208
 30
0.0
 11
-2308.156683015141
 21
424.03132188761208
 31
0.0
  0
LINE
  5
29
  8
1
 10
-2986.651034274495
 20
454.03132188761208
 30
0.0
 11
-2484.6623317557869
 21
454.03132188761208
 31
0.0
  0
LINE
  5
2A
  8
1
 10
-3104.9090407499398
 20
1534.031321887612
 30
0.0
 11
-2758.156683015141
 21
1534.031321887612
 31
0.0
  0
LINE
  5
2B
  8
1
 10
-3153.1566830151419
 20
1184.031321887612
 30
0.0
 11
-2363.1566830151419
 21
1184.031321887612
 31
0.0
  0
LINE
  5
2C
  8
1
 10
-3153.1566830151419
 20
1179.5313218876111
 30
0.0
 11
-2363.156683015141
 21
1179.5313218876099
 31
0.0
  0
LINE
  5
30
  8
4
 10
-5128.4112133513772
 20
-2032.9063028466401
 30
0.0
 11
-2128.4112133513768
 21
-2032.9063028466401
 31
0.0
  0
LINE
  5
31
  8
4
 10
-5128.4112133513772
 20
-1782.9063028466401
 30
0.0
 11
-2128.4112133513768
 21
-1782.9063028466401
 31
0.0
  0
TEXT
  5
32
  8
4
 10
-3809.2143496322151
 20
-1726.4768804527189
 30
0.0
 40
125.0
  1
ミツヤ軸流排煙ファン
  0
TEXT
  5
33
  8
4
 10
-3786.7749743876748
 20
-1990.0073421467821
 30
0.0
 40
125.0
  1
APE#710-3R
  0
LINE
  5
35
  8
4
 10
-6128.4112133513772
 20
3390.615582815371
 30
0.0
 11
-2128.4112133513768
 21
3390.615582815371
 31
0.0
  0
LINE
  5
36
  8
4
 10
-6128.4112133513772
 20
3890.615582815371
 30
0.0
 11
-2128.4112133513768
 21
3890.615582815371
 31
0.0
  0
LINE
  5
37
  8
4
 10
-5128.4112133513772
 20
-1532.9063028466401
 30
0.0
 11
-2128.4112133513768
 21
-1532.9063028466401
 31
0.0
  0
TEXT
  5
38
  8
4
 10
-3475.171056851344
 20
3175.6658004846481
 30
0.0
 40
135.0
  1
縮尺：1/25
  0
LINE
  5
39
  8
4
 10
-3151.8676574517149
 20
4183.7243510277403
 30
0.0
 11
-2128.4112133513768
 21
4183.7243510277403
 31
0.0
  0
LINE
  5
3A
  8
4
 10
-2128.4112133513768
 20
3920.2526549668619
 30
0.0
 11
-3151.8676574517149
 21
3920.2526549668619
 31
0.0
  0
LINE
  5
3B
  8
4
 10
-6753.4112133513772
 20
4592.0936971533592
 30
0.0
 11
-1503.411213351377
 21
4592.0936971533592
 31
0.0
  0
LINE
  5
3C
  8
4
 10
-1503.411213351377
 20
-2782.9063028466398
 30
0.0
 11
-6753.4112133513772
 21
-2782.9063028466398
 31
0.0
  0
LINE
  5
3D
  8
1
 10
-5387.3732923216648
 20
1134.031321887612
 30
0.0
 11
-5387.3732923216648
 21
424.03132188761219
 31
0.0
  0
LINE
  5
3E
  8
1
 10
-5391.8732923216648
 20
1084.9351643939719
 30
0.0
 11
-5391.8732923216648
 21
619.94795016720172
 31
0.0
  0
LINE
  5
3F
  8
2
 10
-5027.3732923216658
 20
200.97312166688059
 30
0.0
 11
-5027.3732923216658
 21
1675.093357523124
 31
0.0
  0
LINE
  5
40
  8
1
 10
-4672.3732923216648
 20
1134.0313218876111
 30
0.0
 11
-4672.3732923216648
 21
424.03132188761219
 31
0.0
  0
LINE
  5
41
  8
1
 10
-4610.3085991431517
 20
908.03132188761219
 30
0.0
 11
-4610.3085991431517
 21
798.03132188761219
 31
0.0
  0
LINE
  5
42
  8
1
 10
-4610.3085991431517
 20
803.03132188761219
 30
0.0
 11
-4610.3085991431517
 21
903.03132188761219
 31
0.0
  0
LINE
  5
43
  8
1
 10
-4609.3085991431526
 20
802.37532188761213
 30
0.0
 11
-4609.3085991431526
 21
902.97932188761195
 31
0.0
  0
LINE
  5
44
  8
1
 10
-4609.3085991431526
 20
798.03132188761219
 30
0.0
 11
-4609.3085991431526
 21
907.03132188761208
 31
0.0
  0
LINE
  5
45
  8
1
 10
-4667.8732923216648
 20
1084.9351643939719
 30
0.0
 11
-4667.8732923216648
 21
619.94795016720172
 31
0.0
  0
LINE
  5
46
  8
1
 10
-4605.2028991431534
 20
918.61232188761221
 30
0.0
 11
-4548.7514991431517
 21
777.48432188761217
 31
0.0
  0
LINE
  5
47
  8
1
 10
-4600.9318991431519
 20
918.70532188761263
 30
0.0
 11
-4545.594699143151
 21
780.36232188761232
 31
0.0
  0
LINE
  5
48
  8
1
 10
-4549.6898991431508
 20
894.41232188761205
 30
0.0
 11
-4544.4133991431509
 21
786.78332188761215
 31
0.0
  0
LINE
  5
49
  8
2
 10
-2758.156683015141
 20
294.03132188761202
 30
0.0
 11
-2758.156683015141
 21
1634.031321887612
 31
0.0
  0
LINE
  5
4A
  8
1
 10
-3113.156683015141
 20
1184.031321887612
 30
0.0
 11
-3113.156683015141
 21
428.53132188761208
 31
0.0
  0
LINE
  5
4B
  8
1
 10
-3117.656683015141
 20
1084.896887605511
 30
0.0
 11
-3117.656683015141
 21
619.94795016720172
 31
0.0
  0
LINE
  5
4C
  8
4
 10
-6753.4112133513772
 20
-2782.9063028466398
 30
0.0
 11
-6753.4112133513772
 21
4592.0936971533592
 31
0.0
  0
LINE
  5
4D
  8
1
 10
-5481.8732923216658
 20
444.03132188761208
 30
0.0
 11
-4572.8732923216648
 21
444.03132188761208
 31
0.0
  0
LINE
  5
4E
  8
1
 10
-5481.8732923216658
 20
344.03132188761202
 30
0.0
 11
-4572.8732923216648
 21
344.03132188761208
 31
0.0
  0
LINE
  5
4F
  8
1
 10
-5477.3732923216648
 20
428.53132188761191
 30
0.0
 11
-4577.3732923216658
 21
428.53132188761037
 31
0.0
  0
LINE
  5
50
  8
1
 10
-5477.3732923216648
 20
424.03132188761208
 30
0.0
 11
-4577.3732923216658
 21
424.03132188761202
 31
0.0
  0
LINE
  5
51
  8
1
 10
-5255.8676435810194
 20
454.03132188761202
 30
0.0
 11
-4798.8789410623112
 21
454.03132188761208
 31
0.0
  0
TEXT
  5
61
  8
4
 10
-5032.1560112341231
 20
-1704.0487381801081
 30
0.0
 40
125.0
  1
機器名称
  0
TEXT
  5
62
  8
4
 10
-5037.7659482893832
 20
-1978.7934110166129
 30
0.0
 40
125.0
  1
機器型番
  0
LINE
  5
63
  8
4
 10
-5128.4112133513772
 20
-1532.9063028466401
 30
0.0
 11
-5128.4112133513772
 21
-2032.9063028466401
 31
0.0
  0
LINE
  5
64
  8
4
 10
-3878.4112133513768
 20
-1532.9063028466401
 30
0.0
 11
-3878.4112133513759
 21
-2032.9063028466401
 31
0.0
  0
LINE
  5
66
  8
1
 10
-4572.3732923216658
 20
444.6329675368226
 30
0.0
 11
-4798.8789410623112
 21
454.03132188761208
 31
0.0
  0
CIRCLE
  5
67
  8
1
 10
-4672.3732923216648
 20
384.03132188761219
 30
0.0
 40
7.5
  0
LINE
  5
68
  8
1
 10
-4682.3732923216658
 20
384.03132188761219
 30
0.0
 11
-4662.3732923216658
 21
384.03132188761219
 31
0.0
  0
LINE
  5
69
  8
1
 10
-4789.5210851939764
 20
853.03132188761219
 30
0.0
 11
-4562.3732923216648
 21
853.03132188761219
 31
0.0
  0
LINE
  5
6A
  8
1
 10
-4667.8732923216648
 20
798.03132188761219
 30
0.0
 11
-4610.3085991431517
 21
798.03132188761219
 31
0.0
  0
LINE
  5
6B
  8
1
 10
-4667.8732923216648
 20
619.94795016720172
 30
0.0
 11
-4667.8732923216648
 21
428.5313218876102
 31
0.0
  0
LINE
  5
6C
  8
1
 10
-4798.8789410623112
 20
728.53132188761083
 30
0.0
 11
-4798.8789410623112
 21
454.03132188761208
 31
0.0
  0
LINE
  5
6D
  8
1
 10
-4672.3732923216648
 20
374.03132188761219
 30
0.0
 11
-4672.3732923216648
 21
394.03132188761208
 31
0.0
  0
LINE
  5
6E
  8
1
 10
-4798.8789410623112
 20
728.53132188761037
 30
0.0
 11
-4748.8789410623122
 21
728.53132188761037
 31
0.0
  0
LINE
  5
70
  8
1
 10
-4572.8732923216648
 20
344.03132188761191
 30
0.0
 11
-4572.8732923216648
 21
444.03132188761202
 31
0.0
  0
LINE
  5
71
  8
1
 10
-4577.3732923216658
 20
344.03132188761191
 30
0.0
 11
-4577.3732923216658
 21
444.03132188761202
 31
0.0
  0
LINE
  5
72
  8
1
 10
-4577.3732923216667
 20
444.6329675368226
 30
0.0
 11
-4577.3732923216667
 21
478.53132188760981
 31
0.0
  0
LINE
  5
74
  8
1
 10
-4632.3732923216648
 20
428.53132188761037
 30
0.0
 11
-4632.3732923216648
 21
424.03132188761219
 31
0.0
  0
LINE
  5
75
  8
1
 10
-4552.9704991431508
 20
788.03132188761208
 30
0.0
 11
-4599.3085991431517
 21
788.03132188761208
 31
0.0
  0
ARC
  5
76
  8
1
 10
-4599.3085991431517
 20
798.03132188761219
 30
0.0
 40
10.0
 50
180.0
 51
270.0
  0
LINE
  5
77
  8
1
 10
-4610.3085991431517
 20
803.03132188761219
 30
0.0
 11
-4609.3085991431526
 21
803.03132188761219
 31
0.0
  0
LINE
  5
78
  8
1
 10
-4546.8187991431523
 20
783.64232188761252
 30
0.0
 11
-4546.2955991431518
 21
783.85132188761236
 31
0.0
  0
LINE
  5
79
  8
1
 10
-4548.7514991431517
 20
777.48432188761217
 30
0.0
 11
-4546.4302991431523
 21
778.41232188761205
 31
0.0
  0
LINE
  5
7A
  8
1
 10
-4574.3085991431526
 20
790.52632188761254
 30
0.0
 11
-4574.3085991431526
 21
784.02732188761229
 31
0.0
  0
ARC
  5
7B
  8
1
 10
-4546.9873991431523
 20
779.80532188761208
 30
0.0
 40
1.5
 50
291.80100000000022
 51
21.80309999999896
  0
ARC
  5
7C
  8
1
 10
-4547.4097991431518
 20
786.63632188761221
 30
0.0
 40
3.0
 50
291.80209999999869
 51
2.8058000000000241
  0
LINE
  5
8A
  8
1
 10
-5727.3732923216648
 20
1134.031321887612
 30
0.0
 11
-4327.3732923216658
 21
1134.0313218876111
 31
0.0
  0
LINE
  5
8B
  8
1
 10
-5727.3732923216648
 20
1534.031321887612
 30
0.0
 11
-4327.3732923216658
 21
1534.0313218876111
 31
0.0
  0
TEXT
  5
8C
  8
4
 10
-5962.9922300277622
 20
3551.7961376516041
 30
0.0
 40
180.0
  1
電動機直動立形軸流式排煙ファン
  0
TEXT
  5
8D
  8
4
 10
-6054.0487461472476
 20
3172.892391019217
 30
0.0
 40
135.0
  1
左回転前方吐出
  0
LINE
  5
8E
  8
1
 10
-5727.3732923216648
 20
1034.031321887612
 30
0.0
 11
-5727.3732923216648
 21
1534.031321887612
 31
0.0
  0
LINE
  5
8F
  8
1
 10
-5725.7732923216663
 20
1034.031321887612
 30
0.0
 11
-5725.7732923216663
 21
1134.031321887612
 31
0.0
  0
LINE
  5
90
  8
1
 10
-5727.3732923216648
 20
1034.031321887612
 30
0.0
 11
-5725.7732923216663
 21
1034.031321887612
 31
0.0
  0
LINE
  5
91
  8
1
 10
-5260.8676435810203
 20
879.53132188761083
 30
0.0
 11
-5310.8676435810194
 21
879.53132188761026
 31
0.0
  0
LINE
  5
92
  8
1
 10
-5441.1823890760179
 20
1129.5313218876099
 30
0.0
 11
-5310.8676435810194
 21
879.53132188761026
 31
0.0
  0
LINE
  5
93
  8
1
 10
-5391.8732923216648
 20
1134.031321887612
 30
0.0
 11
-5391.8732923216648
 21
1034.9351643939719
 31
0.0
  0
LINE
  5
94
  8
1
 10
-5441.1823890760179
 20
1134.031321887612
 30
0.0
 11
-5441.1823890760179
 21
1129.5313218876099
 31
0.0
  0
LINE
  5
95
  8
1
 10
-5260.8676435810203
 20
879.53132188761026
 30
0.0
 11
-5260.8676435810194
 21
1134.031321887612
 31
0.0
  0
LINE
  5
96
  8
1
 10
-5392.7845497331446
 20
1571.031321887612
 30
0.0
 11
-5416.7346173306587
 21
1571.031321887612
 31
0.0
  0
LINE
  5
97
  8
1
 10
-5410.6232498156714
 20
1560.466939471338
 30
0.0
 11
-5412.3732923216658
 21
1560.466939471338
 31
0.0
  0
LINE
  5
98
  8
1
 10
-5410.6232467458303
 20
1557.627599935475
 30
0.0
 11
-5415.2126318575283
 21
1557.627599935475
 31
0.0
  0
LINE
  5
99
  8
1
 10
-5389.3732923216658
 20
1534.0313218876111
 30
0.0
 11
-5419.3732923216648
 21
1534.0313218876111
 31
0.0
  0
LINE
  5
9A
  8
1
 10
-5415.2126318575283
 20
1557.627599935475
 30
0.0
 11
-5412.3732923216658
 21
1560.466939471338
 31
0.0
  0
LINE
  5
9B
  8
1
 10
-5419.3732923216648
 20
1534.0313218876111
 30
0.0
 11
-5415.2126318575283
 21
1557.627599935475
 31
0.0
  0
ARC
  5
9C
  8
1
 10
-5404.3732923216658
 20
1589.781321887612
 30
0.0
 40
6.25
 50
359.99993805284151
 51
180.00006194715851
  0
LINE
  5
9D
  8
1
 10
-5396.3732923216658
 20
1560.466939471338
 30
0.0
 11
-5398.1233348276601
 21
1560.466939471338
 31
0.0
  0
LINE
  5
9E
  8
1
 10
-5393.5339527858032
 20
1557.627599935475
 30
0.0
 11
-5398.1233378975012
 21
1557.627599935475
 31
0.0
  0
LINE
  5
9F
  8
1
 10
-5393.5339527858032
 20
1557.627599935475
 30
0.0
 11
-5396.3732923216658
 21
1560.466939471338
 31
0.0
  0
ARC
  5
A0
  8
1
 10
-5404.3732923216658
 20
1552.2813218876111
 30
0.0
 40
6.25
 50
180.23233247289571
 51
359.76766752710421
  0
LINE
  5
A1
  8
1
 10
-5398.1233031209176
 20
1589.792940430598
 30
0.0
 11
-5398.1233437052024
 21
1552.2559784157429
 31
0.0
  0
LINE
  5
A2
  8
1
 10
-5410.6232815224121
 20
1589.792940430927
 30
0.0
 11
-5410.6232409381291
 21
1552.2559784157429
 31
0.0
  0
LINE
  5
A3
  8
1
 10
-5389.3732923216658
 20
1534.0313218876111
 30
0.0
 11
-5393.5339527858032
 21
1557.627599935475
 31
0.0
  0
LINE
  5
A4
  8
1
 10
-5404.3732923216658
 20
1612.5751261847549
 30
0.0
 11
-5404.3732923216658
 21
1527.9067341791431
 31
0.0
  0
LINE
  5
A5
  8
4
 10
-6128.4112133513772
 20
3890.615582815371
 30
0.0
 11
-6128.4112133513772
 21
3390.615582815371
 31
0.0
  0
TEXT
  5
A6
  8
4
 10
-4491.4467996863668
 20
3175.6658004846481
 30
0.0
 40
135.0
  1
床置ベット
  0
LINE
  5
A7
  8
1
 10
-4618.5641955673118
 20
1129.5313218876099
 30
0.0
 11
-4748.8789410623122
 21
879.53132188761026
 31
0.0
  0
LINE
  5
A8
  8
1
 10
-4667.8732923216648
 20
908.03132188761219
 30
0.0
 11
-4610.3085991431517
 21
908.03132188761219
 31
0.0
  0
LINE
  5
A9
  8
1
 10
-4798.8789410623112
 20
879.53132188761026
 30
0.0
 11
-4798.8789410623112
 21
1134.0313218876111
 31
0.0
  0
LINE
  5
AA
  8
1
 10
-4798.8789410623112
 20
879.53132188761083
 30
0.0
 11
-4748.8789410623122
 21
879.53132188761026
 31
0.0
  0
LINE
  5
AB
  8
1
 10
-4667.8732923216648
 20
1134.031321887612
 30
0.0
 11
-4667.8732923216648
 21
1034.9351643939719
 31
0.0
  0
LINE
  5
AC
  8
1
 10
-4327.3732923216658
 20
1034.0313218876111
 30
0.0
 11
-4327.3732923216667
 21
1534.0313218876111
 31
0.0
  0
LINE
  5
AD
  8
1
 10
-4598.4702991431523
 20
912.92832188761247
 30
0.0
 11
-4562.8487991431521
 21
908.56732188761225
 31
0.0
  0
ARC
  5
AE
  8
1
 10
-4603.3085991431526
 20
907.03132188761208
 30
0.0
 40
6.0
 50
90.0
 51
180.0
  0
LINE
  5
AF
  8
1
 10
-4610.3085991431517
 20
903.03132188761219
 30
0.0
 11
-4609.3085991431526
 21
903.03132188761219
 31
0.0
  0
ARC
  5
B0
  8
1
 10
-4602.3246991431506
 20
918.14832188761238
 30
0.0
 40
1.5000999999999991
 50
21.802300000000439
 51
111.8010000000001
  0
LINE
  5
B1
  8
1
 10
-4605.2028991431534
 20
918.61232188761221
 30
0.0
 11
-4602.8816991431531
 21
919.54032188761209
 31
0.0
  0
LINE
  5
B2
  8
1
 10
-4602.9064991431514
 20
913.03132188761208
 30
0.0
 11
-4603.3085991431526
 21
913.03132188761208
 31
0.0
  0
ARC
  5
B3
  8
1
 10
-4564.6718991431517
 20
893.67832188761258
 30
0.0
 40
15.0
 50
2.8066999999997182
 51
83.018900000000372
  0
LINE
  5
B4
  8
1
 10
-4618.5641955673127
 20
1134.031321887612
 30
0.0
 11
-4618.5641955673118
 21
1129.5313218876099
 31
0.0
  0
LINE
  5
B5
  8
1
 10
-4328.9732923216652
 20
1034.0313218876111
 30
0.0
 11
-4328.9732923216652
 21
1134.0313218876111
 31
0.0
  0
LINE
  5
B6
  8
1
 10
-4328.9732923216652
 20
1034.0313218876111
 30
0.0
 11
-4327.3732923216658
 21
1034.0313218876111
 31
0.0
  0
LINE
  5
C6
  8
1
 10
-3170.1256032696228
 20
1560.031321887612
 30
0.0
 11
-3096.21517929328
 21
1560.031321887612
 31
0.0
  0
LINE
  5
C8
  8
1
 10
-3458.1566830151419
 20
1134.0313218876111
 30
0.0
 11
-3328.9464698211468
 21
1394.9692792113531
 31
0.0
  0
LINE
  5
C9
  8
1
 10
-3458.1566830151419
 20
1114.031321887612
 30
0.0
 11
-3318.156683015141
 21
1034.031321887612
 31
0.0
  0
LINE
  5
CA
  8
1
 10
-3458.156683015141
 20
1114.031321887612
 30
0.0
 11
-3458.1566830151419
 21
1134.0313218876131
 31
0.0
  0
LINE
  5
CC
  8
1
 10
-3117.656683015141
 20
1179.531321887612
 30
0.0
 11
-3117.656683015141
 21
1034.896887605511
 31
0.0
  0
LINE
  5
CD
  8
1
 10
-2986.6510342744959
 20
879.53132188761083
 30
0.0
 11
-3036.651034274495
 21
879.53132188761026
 31
0.0
  0
LINE
  5
CE
  8
1
 10
-3117.1855469904058
 20
1034.031321887612
 30
0.0
 11
-3036.651034274495
 21
879.53132188761026
 31
0.0
  0
LINE
  5
CF
  8
1
 10
-2986.6510342744959
 20
879.53132188761026
 30
0.0
 11
-2986.651034274495
 21
1034.031321887612
 31
0.0
  0
LINE
  5
D0
  8
1
 10
-3153.156683015141
 20
1184.031321887612
 30
0.0
 11
-3153.156683015141
 21
1179.531321887612
 31
0.0
  0
LINE
  5
D3
  8
1
 10
-3121.0566830151411
 20
1534.031321887612
 30
0.0
 11
-3121.7550942569551
 21
1537.9922088659259
 31
0.0
  0
LINE
  5
D5
  8
1
 10
-3146.0566830151411
 20
1534.031321887612
 30
0.0
 11
-3145.358271773327
 21
1537.9922088659259
 31
0.0
  0
LINE
  5
D6
  8
1
 10
-3148.5566830151411
 20
1534.031321887612
 30
0.0
 11
-3118.5566830151411
 21
1534.031321887612
 31
0.0
  0
LINE
  5
DB
  8
1
 10
-3133.5566830151411
 20
1602.5751261847561
 30
0.0
 11
-3133.5566830151411
 21
1517.9067341791431
 31
0.0
  0
TEXT
  5
DC
  8
4
 10
-3080.9873152281521
 20
3982.2464008916309
 30
0.0
 40
140.0
  1
No.
  0
LINE
  5
DD
  8
4
 10
-3151.8676574517149
 20
3920.2526549668619
 30
0.0
 11
-3151.8676574517149
 21
4183.7243510277403
 31
0.0
  0
LINE
  5
DE
  8
1
 10
-2403.156683015141
 20
1184.031321887612
 30
0.0
 11
-2403.156683015141
 21
428.5313218876102
 31
0.0
  0
LINE
  5
DF
  8
1
 10
-2398.656683015141
 20
1084.896887605511
 30
0.0
 11
-2398.656683015141
 21
619.94795016720172
 31
0.0
  0
LINE
  5
E0
  8
4
 10
-1503.411213351377
 20
4592.0936971533592
 30
0.0
 11
-1503.411213351377
 21
-2782.9063028466398
 31
0.0
  0
LINE
  5
E1
  8
4
 10
-2128.4112133513768
 20
-1532.9063028466401
 30
0.0
 11
-2128.4112133513768
 21
-2032.9063028466401
 31
0.0
  0
LINE
  5
E2
  8
1
 10
-2303.6566830151419
 20
344.03132188761191
 30
0.0
 11
-2303.656683015141
 21
444.03132188761202
 31
0.0
  0
LINE
  5
E3
  8
1
 10
-2308.1566830151419
 20
344.03132188761191
 30
0.0
 11
-2308.156683015141
 21
444.03132188761202
 31
0.0
  0
LINE
  5
E5
  8
1
 10
-2303.156683015141
 20
444.6329675368226
 30
0.0
 11
-2529.6623317557869
 21
454.03132188761208
 31
0.0
  0
LINE
  5
E6
  8
1
 10
-2529.6623317557869
 20
728.53132188761083
 30
0.0
 11
-2529.6623317557869
 21
454.03132188761208
 31
0.0
  0
LINE
  5
E7
  8
1
 10
-2529.6623317557869
 20
728.53132188761037
 30
0.0
 11
-2479.6623317557869
 21
728.53132188761037
 31
0.0
  0
LINE
  5
E8
  8
1
 10
-2398.656683015141
 20
619.94795016720172
 30
0.0
 11
-2398.656683015141
 21
428.5313218876102
 31
0.0
  0
LINE
  5
E9
  8
1
 10
-2308.156683015141
 20
428.5313218876102
 30
0.0
 11
-2308.1566830151419
 21
478.53132188760981
 31
0.0
  0
CIRCLE
  5
EB
  8
1
 10
-2403.1566830151401
 20
384.03132188761219
 30
0.0
 40
7.5
  0
LINE
  5
EC
  8
1
 10
-2403.1566830151401
 20
374.03132188761219
 30
0.0
 11
-2403.1566830151401
 21
394.03132188761208
 31
0.0
  0
LINE
  5
ED
  8
1
 10
-2413.156683015141
 20
384.03132188761219
 30
0.0
 11
-2393.1566830151401
 21
384.03132188761219
 31
0.0
  0
LINE
  5
F6
  8
1
 10
-2399.1278190398771
 20
1034.031321887612
 30
0.0
 11
-2479.6623317557869
 21
879.53132188761026
 31
0.0
  0
LINE
  5
F7
  8
1
 10
-2529.6623317557869
 20
879.53132188761026
 30
0.0
 11
-2529.6623317557869
 21
1034.031321887612
 31
0.0
  0
LINE
  5
F8
  8
1
 10
-2529.6623317557869
 20
879.53132188761083
 30
0.0
 11
-2479.6623317557869
 21
879.53132188761026
 31
0.0
  0
LINE
  5
F9
  8
1
 10
-2398.656683015141
 20
1179.5313218876099
 30
0.0
 11
-2398.656683015141
 21
1034.896887605511
 31
0.0
  0
LINE
  5
FA
  8
1
 10
-2363.156683015141
 20
1184.031321887612
 30
0.0
 11
-2363.156683015141
 21
1179.531321887612
 31
0.0
  0
LINE
  5
108
  8
1
 10
-2058.156683015141
 20
1114.031321887617
 30
0.0
 11
-2058.156683015141
 21
1134.031321887612
 31
0.0
  0
LINE
  5
109
  8
4
 10
-2128.4112133513768
 20
3890.615582815371
 30
0.0
 11
-2128.4112133513768
 21
3390.615582815371
 31
0.0
  0
LINE
  5
10A
  8
4
 10
-2128.4112133513768
 20
4183.7243510277403
 30
0.0
 11
-2128.4112133513768
 21
3920.2526549668619
 31
0.0
  0
LINE
  5
10B
  8
4
 10
-1503.411213351377
 20
4592.0936971533592
 30
0.0
 11
-1503.411213351377
 21
4592.0936971533592
 31
0.0
  0
LINE
  5
128
  8
1
 10
-2058.156683015141
 20
1114.031321887617
 30
0.0
 11
-2198.1566830151401
 21
1034.0313218876161
 31
0.0
  0
LINE
  5
5EC
  8
1
 10
-2411.4043252803422
 20
1534.031321887612
 30
0.0
 11
-2758.156683015141
 21
1534.031321887612
 31
0.0
  0
LINE
  5
852
  8
1
 10
-4748.8789410623122
 20
728.53132188761037
 30
0.0
 11
-4577.3732923216667
 21
478.53132188760981
 31
0.0
  0
LINE
  5
85F
  8
1
 10
-5305.8676435810194
 20
728.53132188761037
 30
0.0
 11
-5477.3732923216648
 21
478.53132188760981
 31
0.0
  0
LINE
  5
860
  8
1
 10
-5482.3732923216658
 20
444.6329675368226
 30
0.0
 11
-5255.8676435810194
 21
454.03132188761208
 31
0.0
  0
LINE
  5
861
  8
1
 10
-5386.8732923216658
 20
619.94795016720172
 30
0.0
 11
-5386.8732923216658
 21
428.5313218876102
 31
0.0
  0
LINE
  5
862
  8
1
 10
-5255.8676435810194
 20
728.53132188761083
 30
0.0
 11
-5255.8676435810194
 21
454.03132188761208
 31
0.0
  0
CIRCLE
  5
863
  8
1
 10
-5382.3732923216658
 20
384.03132188761219
 30
0.0
 40
7.5
  0
LINE
  5
864
  8
1
 10
-5372.3732923216658
 20
384.03132188761219
 30
0.0
 11
-5392.3732923216658
 21
384.03132188761219
 31
0.0
  0
LINE
  5
865
  8
1
 10
-5422.3732923216648
 20
428.53132188761037
 30
0.0
 11
-5422.3732923216648
 21
424.03132188761219
 31
0.0
  0
LINE
  5
866
  8
1
 10
-5382.3732923216658
 20
374.03132188761219
 30
0.0
 11
-5382.3732923216658
 21
394.03132188761208
 31
0.0
  0
LINE
  5
867
  8
1
 10
-5255.8676435810194
 20
728.53132188761037
 30
0.0
 11
-5305.8676435810194
 21
728.53132188761037
 31
0.0
  0
LINE
  5
868
  8
1
 10
-5477.3732923216648
 20
444.6329675368226
 30
0.0
 11
-5477.3732923216648
 21
478.53132188760981
 31
0.0
  0
LINE
  5
869
  8
1
 10
-5477.3732923216648
 20
344.03132188761191
 30
0.0
 11
-5477.3732923216648
 21
444.03132188761202
 31
0.0
  0
LINE
  5
86A
  8
1
 10
-5481.8732923216648
 20
344.03132188761191
 30
0.0
 11
-5481.8732923216648
 21
444.03132188761202
 31
0.0
  0
CIRCLE
  5
99D
  8
1
 10
-3133.5566830151411
 20
1560.031321887612
 30
0.0
 40
15.0
  0
CIRCLE
  5
99E
  8
1
 10
-3133.5566830151411
 20
1560.031321887612
 30
0.0
 40
25.0
  0
LINE
  5
99F
  8
1
 10
-2346.1877627606591
 20
1560.031321887612
 30
0.0
 11
-2420.0981867370028
 21
1560.031321887612
 31
0.0
  0
LINE
  5
9A0
  8
1
 10
-2382.7566830151409
 20
1602.5751261847561
 30
0.0
 11
-2382.7566830151409
 21
1517.9067341791431
 31
0.0
  0
LINE
  5
9A1
  8
1
 10
-2395.2566830151418
 20
1534.031321887612
 30
0.0
 11
-2394.5582717733269
 21
1537.9922088659259
 31
0.0
  0
LINE
  5
9A2
  8
1
 10
-2370.2566830151418
 20
1534.031321887612
 30
0.0
 11
-2370.9550942569549
 21
1537.9922088659259
 31
0.0
  0
CIRCLE
  5
9A3
  8
1
 10
-2382.7566830151409
 20
1560.031321887612
 30
0.0
 40
25.0
  0
CIRCLE
  5
9A4
  8
1
 10
-2382.7566830151409
 20
1560.031321887612
 30
0.0
 40
15.0
  0
LINE
  5
9A5
  8
1
 10
-2367.7566830151409
 20
1534.031321887612
 30
0.0
 11
-2397.7566830151409
 21
1534.031321887612
 31
0.0
  0
LINE
  5
9A6
  8
1
 10
-4656.623281522413
 20
1589.792940430598
 30
0.0
 11
-4656.6232409381291
 21
1552.2559784157429
 31
0.0
  0
LINE
  5
9A7
  8
1
 10
-4644.1233031209194
 20
1589.792940430927
 30
0.0
 11
-4644.1233437052024
 21
1552.2559784157429
 31
0.0
  0
ARC
  5
9A8
  8
1
 10
-4650.3732923216658
 20
1589.781321887612
 30
0.0
 40
6.25
 50
359.99993805284151
 51
180.00006194715851
  0
LINE
  5
9A9
  8
1
 10
-4661.962034910187
 20
1571.031321887612
 30
0.0
 11
-4638.0119673126728
 21
1571.031321887612
 31
0.0
  0
LINE
  5
9AA
  8
1
 10
-4650.3732923216658
 20
1612.5751261847549
 30
0.0
 11
-4650.3732923216658
 21
1527.9067341791431
 31
0.0
  0
LINE
  5
9AB
  8
1
 10
-4665.3732923216658
 20
1534.0313218876111
 30
0.0
 11
-4661.2126318575283
 21
1557.627599935475
 31
0.0
  0
ARC
  5
9AC
  8
1
 10
-4650.3732923216658
 20
1552.2813218876111
 30
0.0
 40
6.25
 50
180.23233247289571
 51
359.76766752710421
  0
LINE
  5
9AD
  8
1
 10
-4661.2126318575283
 20
1557.627599935475
 30
0.0
 11
-4658.3732923216648
 21
1560.466939471338
 31
0.0
  0
LINE
  5
9AE
  8
1
 10
-4661.2126318575283
 20
1557.627599935475
 30
0.0
 11
-4656.6232467458294
 21
1557.627599935475
 31
0.0
  0
LINE
  5
9AF
  8
1
 10
-4658.3732923216648
 20
1560.466939471338
 30
0.0
 11
-4656.6232498156714
 21
1560.466939471338
 31
0.0
  0
LINE
  5
9B0
  8
1
 10
-4635.3732923216648
 20
1534.0313218876111
 30
0.0
 11
-4639.5339527858032
 21
1557.627599935475
 31
0.0
  0
LINE
  5
9B1
  8
1
 10
-4639.5339527858032
 20
1557.627599935475
 30
0.0
 11
-4642.3732923216658
 21
1560.466939471338
 31
0.0
  0
LINE
  5
9B2
  8
1
 10
-4665.3732923216658
 20
1534.0313218876111
 30
0.0
 11
-4635.3732923216648
 21
1534.0313218876111
 31
0.0
  0
LINE
  5
9B3
  8
1
 10
-4644.1233378975021
 20
1557.627599935475
 30
0.0
 11
-4639.5339527858032
 21
1557.627599935475
 31
0.0
  0
LINE
  5
9B4
  8
1
 10
-4644.1233348276601
 20
1560.466939471338
 30
0.0
 11
-4642.3732923216658
 21
1560.466939471338
 31
0.0
  0
ARC
  5
9B8
  8
1
 10
-3104.9090407499398
 20
1284.031321887612
 30
0.0
 40
250.0
 50
89.999999999999986
 51
153.65649121552241
  0
LINE
  5
9B9
  8
1
 10
-2058.1566830151419
 20
1114.031321887612
 30
0.0
 11
-2058.156683015141
 21
1134.0313218876131
 31
0.0
  0
LINE
  5
9BA
  8
1
 10
-2058.156683015141
 20
1114.031321887612
 30
0.0
 11
-2198.156683015141
 21
1034.031321887612
 31
0.0
  0
LINE
  5
9BB
  8
1
 10
-2058.1566830151401
 20
1134.0313218876111
 30
0.0
 11
-2187.366896209136
 21
1394.9692792113531
 31
0.0
  0
ARC
  5
9BC
  8
1
 10
-2411.4043252803422
 20
1284.031321887612
 30
0.0
 40
250.0
 50
26.343508784477581
 51
90.000000000000028
  0
DIMENSION
  5
9CA
  8
3
  2
*D2
 10
-5945.9201342503657
 20
1034.031321887612
 30
0.0
 11
-5945.9201342503657
 21
1298.499355627511
 31
0.0
 70
   128
 13
-5727.3732923216648
 23
1534.031321887612
 33
0.0
 14
-5727.3732923216648
 24
1034.031321887612
 34
0.0
 50
90.0
1001
ACAD
1000
DSTYLE
1002
{
1070
   287
1070
     3
1070
   287
1070
     3
1070
   287
1070
     3
1070
    40
1040
30.0
1070
   143
1040
0.039
1070
   172
1070
     1
1070
   173
1070
     0
1070
   271
1070
     0
1070
   279
1070
     0
1070
   288
1070
     1
1070
   341
1005
14D
1070
     5
1000
OPEN30
1002
}
  0
DIMENSION
  5
9D7
  8
3
  2
*D3
 10
-5944.9841142391006
 20
444.03132188761219
 30
0.0
 11
-5944.9841142391006
 21
745.23571969084867
 31
0.0
 70
   128
 13
-5727.3732923216648
 23
1034.031321887612
 33
0.0
 14
-5481.8732923216658
 24
444.03132188761208
 34
0.0
 50
90.0
1001
ACAD
1000
DSTYLE
1002
{
1070
   287
1070
     3
1070
   287
1070
     3
1070
   287
1070
     3
1070
    40
1040
30.0
1070
   143
1040
0.039
1070
   172
1070
     1
1070
   173
1070
     0
1070
   271
1070
     0
1070
   279
1070
     0
1070
   288
1070
     1
1070
   341
1005
14D
1070
     5
1000
OPEN30
1002
}
  0
DIMENSION
  5
9E4
  8
3
  2
*D4
 10
-5942.0123524368828
 20
344.03132188761208
 30
0.0
 11
-5942.0123524368828
 21
86.888464744754145
 31
0.0
 70
   128
 13
-5481.8732923216648
 23
444.03132188761202
 33
0.0
 14
-5481.8732923216658
 24
344.03132188761202
 34
0.0
 50
90.0
1001
ACAD
1000
DSTYLE
1002
{
1070
   287
1070
     3
1070
   287
1070
     3
1070
   287
1070
     3
1070
    40
1040
30.0
1070
   143
1040
0.039
1070
   172
1070
     1
1070
   173
1070
     0
1070
   271
1070
     0
1070
   279
1070
     0
1070
   288
1070
     1
1070
   341
1005
14D
1070
     5
1000
OPEN30
1002
}
  0
DIMENSION
  5
9F3
  8
3
  2
*D5
 10
-6213.8264668344491
 20
344.03132188761231
 30
0.0
 11
-6213.8264668344491
 21
992.89958488693446
 31
0.0
 70
   128
 13
-5727.3732923216648
 23
1534.031321887612
 33
0.0
 14
-5481.8732923216658
 24
344.03132188761202
 34
0.0
 50
90.0
1001
ACAD
1000
DSTYLE
1002
{
1070
   287
1070
     3
1070
   287
1070
     3
1070
   287
1070
     3
1070
    40
1040
30.0
1070
   143
1040
0.039
1070
   172
1070
     1
1070
   173
1070
     0
1070
   271
1070
     0
1070
   279
1070
     0
1070
   288
1070
     1
1070
   341
1005
14D
1070
     5
1000
OPEN30
1002
}
  0
DIMENSION
  5
A00
  8
3
  2
*D6
 10
-4327.3732923216658
 20
1824.5396261349631
 30
0.0
 11
-5041.62806726095
 21
1824.5396261349631
 31
0.0
 70
   128
 13
-5727.3732923216648
 23
1534.031321887612
 33
0.0
 14
-4327.3732923216658
 24
1534.0313218876111
 34
0.0
1001
ACAD
1000
DSTYLE
1002
{
1070
   287
1070
     3
1070
   287
1070
     3
1070
   287
1070
     3
1070
    40
1040
30.0
1070
   143
1040
0.039
1070
   172
1070
     1
1070
   173
1070
     0
1070
   271
1070
     0
1070
   279
1070
     0
1070
   288
1070
     1
1070
   341
1005
14D
1070
     5
1000
OPEN30
1002
}
  0
DIMENSION
  5
A0D
  8
3
  2
*D7
 10
-4672.3732923216648
 20
20.544765585818819
 30
0.0
 11
-5027.0471871571799
 21
20.544765585818819
 31
0.0
 70
   128
 13
-5382.3732923216658
 23
374.03132188761219
 33
0.0
 14
-4672.3732923216648
 24
374.03132188761219
 34
0.0
1001
ACAD
1000
DSTYLE
1002
{
1070
   287
1070
     3
1070
   287
1070
     3
1070
   287
1070
     3
1070
    40
1040
30.0
1070
   143
1040
0.039
1070
   172
1070
     1
1070
   173
1070
     0
1070
   271
1070
     0
1070
   279
1070
     0
1070
   288
1070
     1
1070
   341
1005
14D
1070
     5
1000
OPEN30
1002
}
  0
DIMENSION
  5
A1A
  8
3
  2
*D8
 10
-4577.3732923216658
 20
-229.10212215076899
 30
0.0
 11
-5001.9885014746396
 21
-229.10212215076899
 31
0.0
 70
   128
 13
-5477.3732923216648
 23
344.03132188761191
 33
0.0
 14
-4577.3732923216658
 24
344.03132188761191
 34
0.0
1001
ACAD
1000
DSTYLE
1002
{
1070
   287
1070
     3
1070
   287
1070
     3
1070
   287
1070
     3
1070
    40
1040
30.0
1070
   143
1040
0.039
1070
   172
1070
     1
1070
   173
1070
     0
1070
   271
1070
     0
1070
   279
1070
     0
1070
   288
1070
     1
1070
   341
1005
14D
1070
     5
1000
OPEN30
1002
}
  0
DIMENSION
  5
A27
  8
3
  2
*D9
 10
-5688.5315153516931
 20
344.03132188761208
 30
0.0
 11
-5688.5315153516931
 21
121.1741790304683
 31
0.0
 70
   128
 13
-5392.3732923216658
 23
384.03132188761219
 33
0.0
 14
-5481.8732923216648
 24
344.03132188761202
 34
0.0
 50
90.0
1001
ACAD
1000
DSTYLE
1002
{
1070
   287
1070
     3
1070
   287
1070
     3
1070
   287
1070
     3
1070
    40
1040
30.0
1070
   143
1040
0.039
1070
   172
1070
     1
1070
   173
1070
     0
1070
   271
1070
     0
1070
   279
1070
     0
1070
   288
1070
     1
1070
   341
1005
14D
1070
     5
1000
OPEN30
1002
}
  0
DIMENSION
  5
A36
  8
3
  2
*D10
 10
-2058.156683015141
 20
1795.500963397782
 30
0.0
 11
-2766.468263554721
 21
1795.500963397782
 31
0.0
 70
   128
 13
-3458.1566830151419
 23
1134.0313218876131
 33
0.0
 14
-2058.156683015141
 24
1134.0313218876131
 34
0.0
1001
ACAD
1000
DSTYLE
1002
{
1070
   287
1070
     3
1070
   287
1070
     3
1070
   287
1070
     3
1070
    40
1040
30.0
1070
   143
1040
0.039
1070
   172
1070
     1
1070
   173
1070
     0
1070
   271
1070
     0
1070
   279
1070
     0
1070
   288
1070
     1
1070
   341
1005
14D
1070
     5
1000
OPEN30
1002
}
  0
LINE
  5
A5C
  8
1
 10
-2479.6623317557869
 20
728.53132188761037
 30
0.0
 11
-2308.1566830151419
 21
478.53132188760981
 31
0.0
  0
LINE
  5
A5D
  8
1
 10
-3036.651034274495
 20
728.53132188761037
 30
0.0
 11
-3208.1566830151401
 21
478.53132188760981
 31
0.0
  0
LINE
  5
A5E
  8
1
 10
-3103.156683015141
 20
384.03132188761219
 30
0.0
 11
-3123.1566830151419
 21
384.03132188761219
 31
0.0
  0
CIRCLE
  5
A5F
  8
1
 10
-3113.1566830151419
 20
384.03132188761219
 30
0.0
 40
7.5
  0
LINE
  5
A60
  8
1
 10
-3213.156683015141
 20
444.6329675368226
 30
0.0
 11
-2986.651034274495
 21
454.03132188761208
 31
0.0
  0
LINE
  5
A61
  8
1
 10
-2986.651034274495
 20
728.53132188761083
 30
0.0
 11
-2986.651034274495
 21
454.03132188761208
 31
0.0
  0
LINE
  5
A62
  8
1
 10
-3113.1566830151419
 20
374.03132188761219
 30
0.0
 11
-3113.1566830151419
 21
394.03132188761208
 31
0.0
  0
LINE
  5
A63
  8
1
 10
-2986.651034274495
 20
728.53132188761037
 30
0.0
 11
-3036.651034274495
 21
728.53132188761037
 31
0.0
  0
LINE
  5
A64
  8
1
 10
-3117.656683015141
 20
619.94795016720172
 30
0.0
 11
-3117.656683015141
 21
428.5313218876102
 31
0.0
  0
LINE
  5
A65
  8
1
 10
-3208.1566830151419
 20
428.5313218876102
 30
0.0
 11
-3208.1566830151401
 21
478.53132188760981
 31
0.0
  0
LINE
  5
A66
  8
1
 10
-3212.6566830151401
 20
344.03132188761191
 30
0.0
 11
-3212.6566830151419
 21
444.03132188761202
 31
0.0
  0
LINE
  5
A67
  8
1
 10
-3208.1566830151401
 20
344.03132188761191
 30
0.0
 11
-3208.1566830151419
 21
444.03132188761202
 31
0.0
  0
DIMENSION
  5
A75
  8
3
  2
*D11
 10
-2403.1566830151401
 20
56.894393204551307
 30
0.0
 11
-2753.4628969601099
 21
56.894393204551307
 31
0.0
 70
   128
 13
-3113.1566830151419
 23
374.03132188761219
 33
0.0
 14
-2403.1566830151401
 24
374.03132188761219
 34
0.0
1001
ACAD
1000
DSTYLE
1002
{
1070
   287
1070
     3
1070
   287
1070
     3
1070
   287
1070
     3
1070
    40
1040
30.0
1070
   143
1040
0.039
1070
   172
1070
     1
1070
   173
1070
     0
1070
   271
1070
     0
1070
   279
1070
     0
1070
   288
1070
     1
1070
   341
1005
14D
1070
     5
1000
OPEN30
1002
}
  0
DIMENSION
  5
A82
  8
3
  2
*D12
 10
-2308.1566830151419
 20
-227.1927120297878
 30
0.0
 11
-2743.1849174824451
 21
-227.1927120297878
 31
0.0
 70
   128
 13
-3208.1566830151401
 23
344.03132188761191
 33
0.0
 14
-2308.1566830151419
 24
344.03132188761191
 34
0.0
1001
ACAD
1000
DSTYLE
1002
{
1070
   287
1070
     3
1070
   287
1070
     3
1070
   287
1070
     3
1070
    40
1040
30.0
1070
   143
1040
0.039
1070
   172
1070
     1
1070
   173
1070
     0
1070
   271
1070
     0
1070
   279
1070
     0
1070
   288
1070
     1
1070
   341
1005
14D
1070
     5
1000
OPEN30
1002
}
  0
ENDSEC
  0
EOF
