  0
SECTION
  2
HEADER
  9
$ACADVER
  1
AC1009
  9
$INSBASE
 10
0.0
 20
0.0
 30
0.0
  9
$EXTMIN
 10
375.0
 20
450.0
 30
0.0
  9
$EXTMAX
 10
2775.0
 20
4179.978392
 30
0.0
  9
$LIMMIN
 10
0.0
 20
0.0
  9
$LIMMAX
 10
297.0
 20
210.0
  9
$ORTHOMODE
 70
     0
  9
$REGENMODE
 70
     1
  9
$FILLMODE
 70
     0
  9
$QTEXTMODE
 70
     0
  9
$MIRRTEXT
 70
     1
  9
$DRAGMODE
 70
     2
  9
$LTSCALE
 40
100.0
  9
$OSMODE
 70
    37
  9
$ATTMODE
 70
     1
  9
$TEXTSIZE
 40
180.0
  9
$TRACEWID
 40
0.05
  9
$TEXTSTYLE
  7
STANDARD
  9
$CLAYER
  8
3
  9
$CELTYPE
  6
BYLAYER
  9
$CECOLOR
 62
   256
  9
$DIMSCALE
 40
15.0
  9
$DIMASZ
 40
2.0
  9
$DIMEXO
 40
0.5
  9
$DIMDLI
 40
10.0
  9
$DIMRND
 40
0.0
  9
$DIMDLE
 40
0.0
  9
$DIMEXE
 40
1.0
  9
$DIMTP
 40
1.0
  9
$DIMTM
 40
1.0
  9
$DIMTXT
 40
3.0
  9
$DIMCEN
 40
0.0
  9
$DIMTSZ
 40
0.0
  9
$DIMTOL
 70
     0
  9
$DIMLIM
 70
     0
  9
$DIMTIH
 70
     0
  9
$DIMTOH
 70
     0
  9
$DIMSE1
 70
     0
  9
$DIMSE2
 70
     0
  9
$DIMTAD
 70
     1
  9
$DIMZIN
 70
     8
  9
$DIMBLK
  1

  9
$DIMASO
 70
     1
  9
$DIMSHO
 70
     1
  9
$DIMPOST
  1

  9
$DIMAPOST
  1

  9
$DIMALT
 70
     0
  9
$DIMALTD
 70
     2
  9
$DIMALTF
 40
0.039
  9
$DIMLFAC
 40
1.0
  9
$DIMTOFL
 70
     1
  9
$DIMTVP
 40
0.0
  9
$DIMTIX
 70
     0
  9
$DIMSOXD
 70
     0
  9
$DIMSAH
 70
     1
  9
$DIMBLK1
  1
OPEN
  9
$DIMBLK2
  1
OPEN
  9
$DIMSTYLE
  2
IGA
  9
$DIMCLRD
 70
     0
  9
$DIMCLRE
 70
     0
  9
$DIMCLRT
 70
     0
  9
$DIMTFAC
 40
10.0
  9
$DIMGAP
 40
1.0
  9
$LUNITS
 70
     2
  9
$LUPREC
 70
     3
  9
$SKETCHINC
 40
0.1
  9
$FILLETRAD
 40
50.0
  9
$AUNITS
 70
     0
  9
$AUPREC
 70
     0
  9
$MENU
  1
acad
  9
$ELEVATION
 40
0.0
  9
$PELEVATION
 40
0.0
  9
$THICKNESS
 40
0.0
  9
$LIMCHECK
 70
     0
  9
$BLIPMODE
 70
     0
  9
$CHAMFERA
 40
0.5
  9
$CHAMFERB
 40
0.5
  9
$SKPOLY
 70
     0
  9
$TDCREATE
 40
2450725.6148679391
  9
$TDUPDATE
 40
2454953.6340375352
  9
$TDINDWG
 40
0.0044448727
  9
$TDUSRTIMER
 40
0.0044448727
  9
$USRTIMER
 70
     1
  9
$ANGBASE
 50
0.0
  9
$ANGDIR
 70
     0
  9
$PDMODE
 70
     0
  9
$PDSIZE
 40
0.0
  9
$PLINEWID
 40
0.0
  9
$COORDS
 70
     1
  9
$SPLFRAME
 70
     0
  9
$SPLINETYPE
 70
     6
  9
$SPLINESEGS
 70
     8
  9
$ATTDIA
 70
     0
  9
$ATTREQ
 70
     1
  9
$HANDLING
 70
 10241
  9
$HANDSEED
  5
7BC5
  9
$SURFTAB1
 70
     6
  9
$SURFTAB2
 70
     6
  9
$SURFTYPE
 70
     6
  9
$SURFU
 70
     6
  9
$SURFV
 70
     6
  9
$UCSNAME
  2

  9
$UCSORG
 10
0.0
 20
0.0
 30
0.0
  9
$UCSXDIR
 10
1.0
 20
0.0
 30
0.0
  9
$UCSYDIR
 10
0.0
 20
1.0
 30
0.0
  9
$PUCSNAME
  2

  9
$PUCSORG
 10
0.0
 20
0.0
 30
0.0
  9
$PUCSXDIR
 10
1.0
 20
0.0
 30
0.0
  9
$PUCSYDIR
 10
0.0
 20
1.0
 30
0.0
  9
$USERI1
 70
     0
  9
$USERI2
 70
     0
  9
$USERI3
 70
     0
  9
$USERI4
 70
     0
  9
$USERI5
 70
     0
  9
$USERR1
 40
0.0
  9
$USERR2
 40
0.0
  9
$USERR3
 40
0.0
  9
$USERR4
 40
0.0
  9
$USERR5
 40
0.0
  9
$WORLDVIEW
 70
     1
  9
$SHADEDGE
 70
     3
  9
$SHADEDIF
 70
    70
  9
$TILEMODE
 70
     1
  9
$MAXACTVP
 70
    16
  9
$PLIMCHECK
 70
     0
  9
$PEXTMIN
 10
1.0000000000000000E+020
 20
1.0000000000000000E+020
 30
1.0000000000000000E+020
  9
$PEXTMAX
 10
-1.0000000000000000E+020
 20
-1.0000000000000000E+020
 30
-1.0000000000000000E+020
  9
$PLIMMIN
 10
0.0
 20
0.0
  9
$PLIMMAX
 10
12.0
 20
9.0
  9
$UNITMODE
 70
     0
  9
$VISRETAIN
 70
     0
  9
$PLINEGEN
 70
     0
  9
$PSLTSCALE
 70
     1
  0
ENDSEC
  0
SECTION
  2
TABLES
  0
TABLE
  2
VPORT
 70
     2
  0
VPORT
  2
*ACTIVE
 70
     0
 10
0.0
 20
0.0
 11
1.0
 21
1.0
 12
3000.6607104078348
 22
585.07581855200885
 13
0.0
 23
0.0
 14
10.0
 24
10.0
 15
10.0
 25
10.0
 16
0.0
 26
0.0
 36
1.0
 17
0.0
 27
0.0
 37
0.0
 40
1303.9889607432281
 41
3.1666666666666661
 42
50.0
 43
0.0
 44
0.0
 50
0.0
 51
0.0
 71
     0
 72
   100
 73
     1
 74
     0
 75
     0
 76
     0
 77
     0
 78
     0
  0
ENDTAB
  0
TABLE
  2
LTYPE
 70
     2
  0
LTYPE
  2
CONTINUOUS
 70
     0
  3
Solid line
 72
    65
 73
     0
 40
0.0
  0
LTYPE
  2
CENTER
 70
     0
  3
____ _ ____ _ ____ _ ____ _ ____ _ ____ _ ____ 
 72
    65
 73
     4
 40
2.0
 49
1.25
 49
-0.25
 49
0.25
 49
-0.25
  0
ENDTAB
  0
TABLE
  2
LAYER
 70
     6
  0
LAYER
  2
0
 70
     0
 62
     7
  6
CONTINUOUS
  0
LAYER
  2
3
 70
     0
 62
     2
  6
CONTINUOUS
  0
LAYER
  2
2
 70
     0
 62
     3
  6
CENTER
  0
LAYER
  2
1
 70
     0
 62
     4
  6
CONTINUOUS
  0
LAYER
  2
4
 70
     0
 62
     7
  6
CONTINUOUS
  0
LAYER
  2
DEFPOINTS
 70
     0
 62
     7
  6
CONTINUOUS
  0
ENDTAB
  0
TABLE
  2
STYLE
 70
     1
  0
STYLE
  2
STANDARD
 70
     0
 40
0.0
 41
1.0
 50
0.0
 71
     0
 42
180.0
  3
simplex.shx
  4
extfont.shx
  0
ENDTAB
  0
TABLE
  2
VIEW
 70
     0
  0
ENDTAB
  0
TABLE
  2
UCS
 70
     0
  0
ENDTAB
  0
TABLE
  2
APPID
 70
     1
  0
APPID
  2
ACAD
 70
     0
  0
ENDTAB
  0
TABLE
  2
DIMSTYLE
 70
     1
  0
DIMSTYLE
  2
IGA
 70
     0
  3

  4

  5

  6
OPEN
  7
OPEN
 40
2.0
 41
2.0
 42
0.5
 43
10.0
 44
1.0
 45
0.0
 46
0.0
 47
1.0
 48
1.0
140
3.0
141
0.0
142
0.0
143
0.03937
144
1.0
145
0.0
146
10.0
147
1.0
 71
     0
 72
     0
 73
     0
 74
     0
 75
     0
 76
     0
 77
     1
 78
     8
170
     0
171
     2
172
     0
173
     1
174
     0
175
     0
176
     0
177
     0
178
     0
  0
ENDTAB
  0
ENDSEC
  0
SECTION
  2
BLOCKS
  0
BLOCK
  8
0
  2
$MODEL_SPACE
 70
     0
 10
0.0
 20
0.0
 30
0.0
  3
$MODEL_SPACE
  1

  0
ENDBLK
  5
1B
  8
0
  0
BLOCK
 67
     1
  8
0
  2
$PAPER_SPACE
 70
     0
 10
0.0
 20
0.0
 30
0.0
  3
$PAPER_SPACE
  1

  0
ENDBLK
  5
18
 67
     1
  8
0
  0
BLOCK
  8
0
  2
_OPEN
 70
     0
 10
0.0
 20
0.0
 30
0.0
  3
_OPEN
  1

  0
LINE
  5
7A62
  8
0
  6
BYBLOCK
 62
     0
 10
-1.0
 20
0.166667
 30
0.0
 11
0.0
 21
0.0
 31
0.0
  0
LINE
  5
7A63
  8
0
  6
BYBLOCK
 62
     0
 10
0.0
 20
0.0
 30
0.0
 11
-1.0
 21
-0.166667
 31
0.0
  0
LINE
  5
7A64
  8
0
  6
BYBLOCK
 62
     0
 10
0.0
 20
0.0
 30
0.0
 11
-1.0
 21
0.0
 31
0.0
  0
ENDBLK
  5
7A65
  8
0
  0
BLOCK
  8
0
  2
*D1
 70
     1
 10
0.0
 20
0.0
 30
0.0
  3
*D1
  1

  0
LINE
  5
7B93
  8
3
 62
     0
 10
502.27468399999992
 20
2503.204792
 30
0.0
 11
502.27468399999992
 21
2629.0706799999998
 31
0.0
  0
LINE
  5
7B94
  8
3
 62
     0
 10
1262.274684
 20
2503.204792
 30
0.0
 11
1262.274684
 21
2629.0706799999998
 31
0.0
  0
LINE
  5
7B95
  8
3
 62
     0
 10
532.27468399999987
 20
2614.0706799999998
 30
0.0
 11
1232.274684
 21
2614.0706799999998
 31
0.0
  0
INSERT
  5
7B96
  8
3
 62
     0
  2
_OPEN
 10
502.27468399999992
 20
2614.0706799999998
 30
0.0
 41
30.0
 42
30.0
 43
30.0
 50
180.0
  0
INSERT
  5
7B97
  8
3
 62
     0
  2
_OPEN
 10
1262.274684
 20
2614.0706799999998
 30
0.0
 41
30.0
 42
30.0
 43
30.0
  0
TEXT
  8
3
  40
45
  5
7BC0
  62
0
  72
0
  71
0
 10
825.668
 20
2571.92
 30
0.000000
  1
760
  0
POINT
  5
7B99
  8
DEFPOINTS
 62
     0
 10
502.27468399999992
 20
2495.704792
 30
0.0
  0
POINT
  5
7B9A
  8
DEFPOINTS
 62
     0
 10
1262.274684
 20
2495.704792
 30
0.0
  0
POINT
  5
7B9B
  8
DEFPOINTS
 62
     0
 10
1262.274684
 20
2614.0706799999998
 30
0.0
  0
ENDBLK
  5
7B48
  8
0
  0
BLOCK
  8
0
  2
*D2
 70
     1
 10
0.0
 20
0.0
 30
0.0
  3
*D2
  1

  0
LINE
  5
7B9C
  8
3
 62
     0
 10
1319.774684
 20
2100.704792
 30
0.0
 11
1448.3868
 21
2100.704792
 31
0.0
  0
LINE
  5
7B9D
  8
3
 62
     0
 10
1259.7746839999991
 20
1650.704792
 30
0.0
 11
1448.3868
 21
1650.704792
 31
0.0
  0
LINE
  5
7B9E
  8
3
 62
     0
 10
1433.3868
 20
2070.704792
 30
0.0
 11
1433.3868
 21
1680.704792
 31
0.0
  0
INSERT
  5
7B9F
  8
3
 62
     0
  2
_OPEN
 10
1433.3868
 20
2100.704792
 30
0.0
 41
30.0
 42
30.0
 43
30.0
 50
90.0
  0
INSERT
  5
7BA0
  8
3
 62
     0
  2
_OPEN
 10
1433.3868
 20
1650.704792
 30
0.0
 41
30.0
 42
30.0
 43
30.0
 50
270.0
  0
TEXT
  8
3
  40
45
  5
7BC1
  62
0
  72
0
  71
0
 10
1305.89
 20
1777.61
 30
0.000000
  1
450
  0
POINT
  5
7BA2
  8
DEFPOINTS
 62
     0
 10
1312.274684
 20
2100.704792
 30
0.0
  0
POINT
  5
7BA3
  8
DEFPOINTS
 62
     0
 10
1252.274684
 20
1650.704792
 30
0.0
  0
POINT
  5
7BA4
  8
DEFPOINTS
 62
     0
 10
1433.3868
 20
1650.704792
 30
0.0
  0
ENDBLK
  5
7B53
  8
0
  0
BLOCK
  8
0
  2
*D3
 70
     1
 10
0.0
 20
0.0
 30
0.0
  3
*D3
  1

  0
LINE
  5
7BA5
  8
3
 62
     0
 10
1269.774684
 20
2495.704792
 30
0.0
 11
1602.9298429999999
 21
2495.704792
 31
0.0
  0
LINE
  5
7BA6
  8
3
 62
     0
 10
1259.7746839999991
 20
1650.704792
 30
0.0
 11
1602.9298429999999
 21
1650.7047919999991
 31
0.0
  0
LINE
  5
7BA7
  8
3
 62
     0
 10
1587.9298429999999
 20
2465.704792
 30
0.0
 11
1587.9298429999999
 21
1680.704792
 31
0.0
  0
INSERT
  5
7BA8
  8
3
 62
     0
  2
_OPEN
 10
1587.9298429999999
 20
2495.704792
 30
0.0
 41
30.0
 42
30.0
 43
30.0
 50
90.0
  0
INSERT
  5
7BA9
  8
3
 62
     0
  2
_OPEN
 10
1587.9298429999999
 20
1650.7047919999991
 30
0.0
 41
30.0
 42
30.0
 43
30.0
 50
270.0
  0
TEXT
  8
3
  40
45
  5
7BC2
  62
0
  72
0
  71
0
 10
1460.43
 20
1993.84
 30
0.000000
  1
845
  0
POINT
  5
7BAB
  8
DEFPOINTS
 62
     0
 10
1262.274684
 20
2495.704792
 30
0.0
  0
POINT
  5
7BAC
  8
DEFPOINTS
 62
     0
 10
1252.274684
 20
1650.704792
 30
0.0
  0
POINT
  5
7BAD
  8
DEFPOINTS
 62
     0
 10
1587.9298429999999
 20
1650.7047919999991
 30
0.0
  0
ENDBLK
  5
7B5E
  8
0
  0
BLOCK
  8
0
  2
*D4
 70
     1
 10
0.0
 20
0.0
 30
0.0
  3
*D4
  1

  0
LINE
  5
7BAE
  8
3
 62
     0
 10
1849.647876
 20
2108.2047919999991
 30
0.0
 11
1849.647876
 21
2659.9607329999999
 31
0.0
  0
LINE
  5
7BAF
  8
3
 62
     0
 10
2639.647876
 20
2108.2047919999991
 30
0.0
 11
2639.647876
 21
2659.9607329999999
 31
0.0
  0
LINE
  5
7BB0
  8
3
 62
     0
 10
1879.647876
 20
2644.9607329999999
 30
0.0
 11
2609.647876
 21
2644.9607329999999
 31
0.0
  0
INSERT
  5
7BB1
  8
3
 62
     0
  2
_OPEN
 10
1849.647876
 20
2644.9607329999999
 30
0.0
 41
30.0
 42
30.0
 43
30.0
 50
180.0
  0
INSERT
  5
7BB2
  8
3
 62
     0
  2
_OPEN
 10
2639.647876
 20
2644.9607329999999
 30
0.0
 41
30.0
 42
30.0
 43
30.0
  0
TEXT
  8
3
  40
45
  5
7BC3
  62
0
  72
0
  71
0
 10
2154.74
 20
2602.81
 30
0.000000
  1
790
  0
POINT
  5
7BB4
  8
DEFPOINTS
 62
     0
 10
1849.647876
 20
2100.704792
 30
0.0
  0
POINT
  5
7BB5
  8
DEFPOINTS
 62
     0
 10
2639.647876
 20
2100.704792
 30
0.0
  0
POINT
  5
7BB6
  8
DEFPOINTS
 62
     0
 10
2639.647876
 20
2644.9607329999999
 30
0.0
  0
ENDBLK
  5
7B69
  8
0
  0
BLOCK
  8
0
  2
*D5
 70
     1
 10
0.0
 20
0.0
 30
0.0
  3
*D5
  1

  0
LINE
  5
7BB7
  8
3
 62
     0
 10
1929.647876
 20
1643.2047919999991
 30
0.0
 11
1929.647876
 21
1432.9712010000001
 31
0.0
  0
LINE
  5
7BB8
  8
3
 62
     0
 10
2559.647876
 20
1643.2047919999991
 30
0.0
 11
2559.647876
 21
1432.9712010000001
 31
0.0
  0
LINE
  5
7BB9
  8
3
 62
     0
 10
1959.647876
 20
1447.9712010000001
 30
0.0
 11
2529.647876
 21
1447.9712010000001
 31
0.0
  0
INSERT
  5
7BBA
  8
3
 62
     0
  2
_OPEN
 10
1929.647876
 20
1447.9712010000001
 30
0.0
 41
30.0
 42
30.0
 43
30.0
 50
180.0
  0
INSERT
  5
7BBB
  8
3
 62
     0
  2
_OPEN
 10
2559.647876
 20
1447.9712010000001
 30
0.0
 41
30.0
 42
30.0
 43
30.0
  0
TEXT
  8
3
  40
45
  5
7BC4
  62
0
  72
0
  71
0
 10
2170.19
 20
1405.82
 30
0.000000
  1
630
  0
POINT
  5
7BBD
  8
DEFPOINTS
 62
     0
 10
1929.647876
 20
1650.704792
 30
0.0
  0
POINT
  5
7BBE
  8
DEFPOINTS
 62
     0
 10
2559.647876
 20
1650.704792
 30
0.0
  0
POINT
  5
7BBF
  8
DEFPOINTS
 62
     0
 10
2559.647876
 20
1447.9712010000001
 30
0.0
  0
ENDBLK
  5
7B74
  8
0
  0
ENDSEC
  0
SECTION
  2
ENTITIES
  0
LINE
  5
7A41
  8
4
 10
2775.0
 20
750.0
 30
0.0
 11
2775.0
 21
450.0
 31
0.0
  0
LINE
  5
7A42
  8
4
 10
1725.0
 20
750.0
 30
0.0
 11
1725.0
 21
450.0
 31
0.0
  0
LINE
  5
7A43
  8
4
 10
975.0
 20
750.0
 30
0.0
 11
975.0
 21
450.0
 31
0.0
  0
LINE
  5
7A46
  8
4
 10
975.0
 20
450.0
 30
0.0
 11
2775.0
 21
450.0
 31
0.0
  0
LINE
  5
7A47
  8
4
 10
975.0
 20
600.0
 30
0.0
 11
2775.0
 21
600.0
 31
0.0
  0
TEXT
  5
7A48
  8
4
 10
1032.753121
 20
647.31453899999985
 30
0.0
 40
75.0
  1
機器名称
  0
TEXT
  5
7A49
  8
4
 10
1029.387158999999
 20
482.46773499999989
 30
0.0
 40
75.0
  1
機器型番
  0
TEXT
  5
7A4A
  8
4
 10
1766.518118
 20
633.85765300000003
 30
0.0
 40
75.0
  1
ミツヤ軸流排煙ファン
  0
TEXT
  5
7A4B
  8
4
 10
1779.9817430000001
 20
475.73937599999999
 30
0.0
 40
75.0
  1
APE#710-1M
  0
TEXT
  5
7A4D
  8
4
 10
1357.1786480000001
 20
3575.1432619999991
 30
0.0
 40
81.0
  1
床置ベット
  0
TEXT
  5
7A4E
  8
4
 10
474.25139000000001
 20
3800.8214640000001
 30
0.0
 40
108.0
  1
電動機直動横形軸流式排煙ファン
  0
LINE
  5
7A4F
  8
4
 10
375.0
 20
3704.1131310000001
 30
0.0
 11
2775.0
 21
3704.1131310000001
 31
0.0
  0
LINE
  5
7A50
  8
4
 10
375.0
 20
4004.1131310000001
 30
0.0
 11
2775.0
 21
4004.1131310000001
 31
0.0
  0
LINE
  5
7A51
  8
4
 10
975.0
 20
750.0
 30
0.0
 11
2775.0
 21
750.0
 31
0.0
  0
LINE
  5
7A52
  8
4
 10
375.0
 20
4004.1131310000001
 30
0.0
 11
375.0
 21
3704.1131310000001
 31
0.0
  0
TEXT
  5
7A53
  8
4
 10
533.39303299999995
 20
3573.4792159999988
 30
0.0
 40
81.0
  1
左回転前方吐出
  0
TEXT
  5
7A54
  8
4
 10
2203.454338999999
 20
4059.091621999999
 30
0.0
 40
84.0
  1
No.
  0
TEXT
  5
7A55
  8
4
 10
1966.944094
 20
3575.1432619999991
 30
0.0
 40
81.0
  1
縮尺：1/15
  0
LINE
  5
7A56
  8
4
 10
2775.0
 20
4004.1131310000001
 30
0.0
 11
2775.0
 21
3704.1131310000001
 31
0.0
  0
LINE
  5
7A58
  8
4
 10
2160.9261339999989
 20
4021.8953750000001
 30
0.0
 11
2160.9261339999989
 21
4179.978392
 31
0.0
  0
LINE
  5
7A59
  8
4
 10
2160.9261339999989
 20
4179.978392
 30
0.0
 11
2775.0
 21
4179.978392
 31
0.0
  0
LINE
  5
7A5A
  8
4
 10
2775.0
 20
4179.978392
 30
0.0
 11
2775.0
 21
4021.8953750000001
 31
0.0
  0
LINE
  5
7A5B
  8
4
 10
2775.0
 20
4021.8953750000001
 30
0.0
 11
2160.9261339999989
 21
4021.8953750000001
 31
0.0
  0
LINE
  5
7AC8
  8
2
 10
1799.647876
 20
2100.704792
 30
0.0
 11
2689.647876
 21
2100.704792
 31
0.0
  0
CIRCLE
  5
7AC9
  8
1
 10
2244.647876
 20
2100.704792
 30
0.0
 40
395.0
  0
LINE
  5
7ACA
  8
1
 10
702.27468399999987
 20
2303.704792
 30
0.0
 11
702.27468399999987
 21
1897.704792
 31
0.0
  0
LINE
  5
7ACB
  8
1
 10
552.27468399999987
 20
2303.704792
 30
0.0
 11
552.27468399999987
 21
1897.704792
 31
0.0
  0
LINE
  5
7ACC
  8
1
 10
1262.274684
 20
2495.704792
 30
0.0
 11
1262.274684
 21
1705.704792
 31
0.0
  0
LINE
  5
7ACD
  8
1
 10
502.27468399999992
 20
2495.704792
 30
0.0
 11
502.27468399999992
 21
1705.704792
 31
0.0
  0
LINE
  5
7ACE
  8
1
 10
512.27468399999987
 20
1650.704792
 30
0.0
 11
1252.274684
 21
1650.704792
 31
0.0
  0
LINE
  5
7ACF
  8
1
 10
502.27468399999992
 20
1745.704792
 30
0.0
 11
1262.274684
 21
1745.704792
 31
0.0
  0
LINE
  5
7AD0
  8
1
 10
512.27468399999987
 20
1862.377287
 30
0.0
 11
512.27468399999987
 21
1650.704792
 31
0.0
  0
LINE
  5
7AD1
  8
1
 10
677.27468399999987
 20
1755.704792
 30
0.0
 11
702.27468399999987
 21
1897.704792
 31
0.0
  0
LINE
  5
7AD2
  8
1
 10
577.27468399999987
 20
1755.704792
 30
0.0
 11
677.27468399999987
 21
1755.704792
 31
0.0
  0
LINE
  5
7AD3
  8
1
 10
552.27468399999987
 20
1897.704792
 30
0.0
 11
577.27468399999987
 21
1755.704792
 31
0.0
  0
LINE
  5
7AD4
  8
1
 10
552.27468399999987
 20
1897.704792
 30
0.0
 11
702.27468399999987
 21
1897.704792
 31
0.0
  0
LINE
  5
7AD5
  8
1
 10
1252.274684
 20
1862.377287
 30
0.0
 11
1252.274684
 21
1650.704792
 31
0.0
  0
LINE
  5
7AD6
  8
2
 10
452.27468399999992
 20
2100.704792
 30
0.0
 11
1312.274684
 21
2100.704792
 31
0.0
  0
LINE
  5
7AD7
  8
1
 10
502.27468399999992
 20
2455.704792
 30
0.0
 11
1262.274684
 21
2455.704792
 31
0.0
  0
LINE
  5
7AD8
  8
1
 10
677.27468399999987
 20
2445.704792
 30
0.0
 11
702.27468399999987
 21
2303.704792
 31
0.0
  0
LINE
  5
7AD9
  8
1
 10
552.27468399999987
 20
2303.704792
 30
0.0
 11
577.27468399999987
 21
2445.704792
 31
0.0
  0
LINE
  5
7ADA
  8
1
 10
552.27468399999987
 20
2303.704792
 30
0.0
 11
702.27468399999987
 21
2303.704792
 31
0.0
  0
LINE
  5
7ADB
  8
0
 10
679.54990799999985
 20
2830.2115669999998
 30
0.0
 11
1121.007517
 21
2830.2115669999998
 31
0.0
  0
LINE
  5
7ADC
  8
0
 10
679.54990799999985
 20
2830.2115669999998
 30
0.0
 11
779.54990799999985
 21
2780.2115669999998
 31
0.0
  0
LINE
  5
7ADD
  8
0
 10
679.54990799999985
 20
2830.2115669999998
 30
0.0
 11
779.54990799999985
 21
2880.2115669999998
 31
0.0
  0
LINE
  5
7ADE
  8
1
 10
577.27468399999987
 20
2445.704792
 30
0.0
 11
677.27468399999987
 21
2445.704792
 31
0.0
  0
CIRCLE
  5
7ADF
  8
1
 10
2244.647876
 20
2100.704792
 30
0.0
 40
203.0
  0
CIRCLE
  5
7AE0
  8
1
 10
2244.647876
 20
2100.704792
 30
0.0
 40
355.0
  0
LINE
  5
7AE1
  8
2
 10
2244.647876
 20
2545.704792
 30
0.0
 11
2244.647876
 21
1600.704792
 31
0.0
  0
LINE
  5
7AE2
  8
1
 10
1929.647876
 20
1650.704792
 30
0.0
 11
2559.647876
 21
1650.704792
 31
0.0
  0
LINE
  5
7AE3
  8
1
 10
1929.647876
 20
1862.377287
 30
0.0
 11
1929.647876
 21
1650.704792
 31
0.0
  0
LINE
  5
7AE4
  8
1
 10
2559.647876
 20
1862.377287
 30
0.0
 11
2559.647876
 21
1650.704792
 31
0.0
  0
DIMENSION
  5
7AF1
  8
3
  2
*D1
 10
1262.274684
 20
2614.0706799999998
 30
0.0
 11
915.66757799999982
 21
2614.0706799999998
 31
0.0
 70
   128
 13
502.27468399999992
 23
2495.704792
 33
0.0
 14
1262.274684
 24
2495.704792
 34
0.0
1001
ACAD
1000
DSTYLE
1002
{
1070
   287
1070
     3
1070
    40
1040
15.0
1070
   143
1040
0.039
1070
   172
1070
     1
1070
   271
1070
     0
1070
   279
1070
     0
1070
   288
1070
     1
1002
}
  0
DIMENSION
  5
7AFE
  8
3
  2
*D2
 10
1433.3868
 20
1650.704792
 30
0.0
 11
1433.3868
 21
1857.264398999999
 31
0.0
 70
   128
 13
1312.274684
 23
2100.704792
 33
0.0
 14
1252.274684
 24
1650.704792
 34
0.0
 50
90.0
1001
ACAD
1000
DSTYLE
1002
{
1070
   287
1070
     3
1070
    40
1040
15.0
1070
   143
1040
0.039
1070
   172
1070
     1
1070
   271
1070
     0
1070
   279
1070
     0
1070
   288
1070
     1
1002
}
  0
DIMENSION
  5
7B0B
  8
3
  2
*D3
 10
1587.9298429999999
 20
1650.7047919999991
 30
0.0
 11
1587.929842999999
 21
2073.494768
 31
0.0
 70
   128
 13
1262.274684
 23
2495.704792
 33
0.0
 14
1252.274684
 24
1650.704792
 34
0.0
 50
90.0
1001
ACAD
1000
DSTYLE
1002
{
1070
   287
1070
     3
1070
    40
1040
15.0
1070
   143
1040
0.039
1070
   172
1070
     1
1070
   271
1070
     0
1070
   279
1070
     0
1070
   288
1070
     1
1002
}
  0
DIMENSION
  5
7B18
  8
3
  2
*D4
 10
2639.647876
 20
2644.9607329999999
 30
0.0
 11
2244.7378170000002
 21
2644.9607329999999
 31
0.0
 70
   128
 13
1849.647876
 23
2100.704792
 33
0.0
 14
2639.647876
 24
2100.704792
 34
0.0
1001
ACAD
1000
DSTYLE
1002
{
1070
   287
1070
     3
1070
    40
1040
15.0
1070
   143
1040
0.039
1070
   172
1070
     1
1070
   271
1070
     0
1070
   279
1070
     0
1070
   288
1070
     1
1002
}
  0
DIMENSION
  5
7B25
  8
3
  2
*D5
 10
2559.647876
 20
1447.9712010000001
 30
0.0
 11
2260.1921239999988
 21
1447.9712010000001
 31
0.0
 70
   128
 13
1929.647876
 23
1650.704792
 33
0.0
 14
2559.647876
 24
1650.704792
 34
0.0
1001
ACAD
1000
DSTYLE
1002
{
1070
   287
1070
     3
1070
    40
1040
15.0
1070
   143
1040
0.039
1070
   172
1070
     1
1070
   271
1070
     0
1070
   279
1070
     0
1070
   288
1070
     1
1002
}
  0
ENDSEC
  0
EOF
