  0
SECTION
  2
HEADER
  9
$ACADVER
  1
AC1009
  9
$INSBASE
 10
0.0
 20
0.0
 30
0.0
  9
$EXTMIN
 10
-6746.4204398848642
 20
-1817.2033734408101
 30
0.0
  9
$EXTMAX
 10
-2546.4204398848628
 20
4082.796626559189
 30
0.0
  9
$LIMMIN
 10
0.0
 20
0.0
  9
$LIMMAX
 10
297.0
 20
210.0
  9
$ORTHOMODE
 70
     0
  9
$REGENMODE
 70
     1
  9
$FILLMODE
 70
     0
  9
$QTEXTMODE
 70
     0
  9
$MIRRTEXT
 70
     1
  9
$DRAGMODE
 70
     2
  9
$LTSCALE
 40
100.0
  9
$OSMODE
 70
    37
  9
$ATTMODE
 70
     1
  9
$TEXTSIZE
 40
180.0
  9
$TRACEWID
 40
0.05
  9
$TEXTSTYLE
  7
STANDARD
  9
$CLAYER
  8
3
  9
$CELTYPE
  6
BYLAYER
  9
$CECOLOR
 62
   256
  9
$DIMSCALE
 40
20.0
  9
$DIMASZ
 40
2.0
  9
$DIMEXO
 40
0.5
  9
$DIMDLI
 40
10.0
  9
$DIMRND
 40
0.0
  9
$DIMDLE
 40
0.0
  9
$DIMEXE
 40
1.0
  9
$DIMTP
 40
1.0
  9
$DIMTM
 40
1.0
  9
$DIMTXT
 40
3.0
  9
$DIMCEN
 40
0.0
  9
$DIMTSZ
 40
0.0
  9
$DIMTOL
 70
     0
  9
$DIMLIM
 70
     0
  9
$DIMTIH
 70
     0
  9
$DIMTOH
 70
     0
  9
$DIMSE1
 70
     0
  9
$DIMSE2
 70
     0
  9
$DIMTAD
 70
     1
  9
$DIMZIN
 70
     8
  9
$DIMBLK
  1

  9
$DIMASO
 70
     1
  9
$DIMSHO
 70
     1
  9
$DIMPOST
  1

  9
$DIMAPOST
  1

  9
$DIMALT
 70
     0
  9
$DIMALTD
 70
     2
  9
$DIMALTF
 40
0.039
  9
$DIMLFAC
 40
1.0
  9
$DIMTOFL
 70
     1
  9
$DIMTVP
 40
0.0
  9
$DIMTIX
 70
     0
  9
$DIMSOXD
 70
     0
  9
$DIMSAH
 70
     1
  9
$DIMBLK1
  1
OPEN
  9
$DIMBLK2
  1
OPEN
  9
$DIMSTYLE
  2
IGA
  9
$DIMCLRD
 70
     0
  9
$DIMCLRE
 70
     0
  9
$DIMCLRT
 70
     0
  9
$DIMTFAC
 40
10.0
  9
$DIMGAP
 40
1.0
  9
$LUNITS
 70
     2
  9
$LUPREC
 70
     3
  9
$SKETCHINC
 40
0.1
  9
$FILLETRAD
 40
50.0
  9
$AUNITS
 70
     0
  9
$AUPREC
 70
     0
  9
$MENU
  1
acad
  9
$ELEVATION
 40
0.0
  9
$PELEVATION
 40
0.0
  9
$THICKNESS
 40
0.0
  9
$LIMCHECK
 70
     0
  9
$BLIPMODE
 70
     0
  9
$CHAMFERA
 40
0.5
  9
$CHAMFERB
 40
0.5
  9
$SKPOLY
 70
     0
  9
$TDCREATE
 40
2453249.427640046
  9
$TDUPDATE
 40
2454953.63574905
  9
$TDINDWG
 40
0.052678669
  9
$TDUSRTIMER
 40
0.052678669
  9
$USRTIMER
 70
     1
  9
$ANGBASE
 50
0.0
  9
$ANGDIR
 70
     0
  9
$PDMODE
 70
     0
  9
$PDSIZE
 40
0.0
  9
$PLINEWID
 40
0.0
  9
$COORDS
 70
     1
  9
$SPLFRAME
 70
     0
  9
$SPLINETYPE
 70
     6
  9
$SPLINESEGS
 70
     8
  9
$ATTDIA
 70
     0
  9
$ATTREQ
 70
     1
  9
$HANDLING
 70
 10241
  9
$HANDSEED
  5
8946
  9
$SURFTAB1
 70
     6
  9
$SURFTAB2
 70
     6
  9
$SURFTYPE
 70
     6
  9
$SURFU
 70
     6
  9
$SURFV
 70
     6
  9
$UCSNAME
  2

  9
$UCSORG
 10
0.0
 20
0.0
 30
0.0
  9
$UCSXDIR
 10
1.0
 20
0.0
 30
0.0
  9
$UCSYDIR
 10
0.0
 20
1.0
 30
0.0
  9
$PUCSNAME
  2

  9
$PUCSORG
 10
0.0
 20
0.0
 30
0.0
  9
$PUCSXDIR
 10
1.0
 20
0.0
 30
0.0
  9
$PUCSYDIR
 10
0.0
 20
1.0
 30
0.0
  9
$USERI1
 70
     0
  9
$USERI2
 70
     0
  9
$USERI3
 70
     0
  9
$USERI4
 70
     0
  9
$USERI5
 70
     0
  9
$USERR1
 40
0.0
  9
$USERR2
 40
0.0
  9
$USERR3
 40
0.0
  9
$USERR4
 40
0.0
  9
$USERR5
 40
0.0
  9
$WORLDVIEW
 70
     1
  9
$SHADEDGE
 70
     3
  9
$SHADEDIF
 70
    70
  9
$TILEMODE
 70
     1
  9
$MAXACTVP
 70
    16
  9
$PLIMCHECK
 70
     0
  9
$PEXTMIN
 10
1.0000000000000000E+020
 20
1.0000000000000000E+020
 30
1.0000000000000000E+020
  9
$PEXTMAX
 10
-1.0000000000000000E+020
 20
-1.0000000000000000E+020
 30
-1.0000000000000000E+020
  9
$PLIMMIN
 10
0.0
 20
0.0
  9
$PLIMMAX
 10
12.0
 20
9.0
  9
$UNITMODE
 70
     0
  9
$VISRETAIN
 70
     0
  9
$PLINEGEN
 70
     0
  9
$PSLTSCALE
 70
     1
  0
ENDSEC
  0
SECTION
  2
TABLES
  0
TABLE
  2
VPORT
 70
     2
  0
VPORT
  2
*ACTIVE
 70
     0
 10
0.0
 20
0.0
 11
1.0
 21
1.0
 12
-2819.882503338838
 22
-1121.148169028254
 13
0.0
 23
0.0
 14
10.0
 24
10.0
 15
10.0
 25
10.0
 16
0.0
 26
0.0
 36
1.0
 17
0.0
 27
0.0
 37
0.0
 40
1716.4362661765749
 41
3.1666666666666661
 42
50.0
 43
0.0
 44
0.0
 50
0.0
 51
0.0
 71
     0
 72
   100
 73
     1
 74
     0
 75
     0
 76
     0
 77
     0
 78
     0
  0
ENDTAB
  0
TABLE
  2
LTYPE
 70
     2
  0
LTYPE
  2
CONTINUOUS
 70
     0
  3
Solid line
 72
    65
 73
     0
 40
0.0
  0
LTYPE
  2
CENTER
 70
     0
  3
____ _ ____ _ ____ _ ____ _ ____ _ ____ _ ____ 
 72
    65
 73
     4
 40
2.0
 49
1.25
 49
-0.25
 49
0.25
 49
-0.25
  0
ENDTAB
  0
TABLE
  2
LAYER
 70
     6
  0
LAYER
  2
0
 70
     0
 62
     7
  6
CONTINUOUS
  0
LAYER
  2
3
 70
     0
 62
     2
  6
CONTINUOUS
  0
LAYER
  2
2
 70
     0
 62
     3
  6
CENTER
  0
LAYER
  2
1
 70
     0
 62
     4
  6
CONTINUOUS
  0
LAYER
  2
4
 70
     0
 62
     7
  6
CONTINUOUS
  0
LAYER
  2
DEFPOINTS
 70
     0
 62
     7
  6
CONTINUOUS
  0
ENDTAB
  0
TABLE
  2
STYLE
 70
     1
  0
STYLE
  2
STANDARD
 70
     0
 40
0.0
 41
1.0
 50
0.0
 71
     0
 42
180.0
  3
simplex.shx
  4
extfont.shx
  0
ENDTAB
  0
TABLE
  2
VIEW
 70
     0
  0
ENDTAB
  0
TABLE
  2
UCS
 70
     0
  0
ENDTAB
  0
TABLE
  2
APPID
 70
     1
  0
APPID
  2
ACAD
 70
     0
  0
ENDTAB
  0
TABLE
  2
DIMSTYLE
 70
     1
  0
DIMSTYLE
  2
IGA
 70
     0
  3

  4

  5

  6
OPEN
  7
OPEN
 40
2.0
 41
2.0
 42
0.5
 43
10.0
 44
1.0
 45
0.0
 46
0.0
 47
1.0
 48
1.0
140
3.0
141
0.0
142
0.0
143
0.03937
144
1.0
145
0.0
146
10.0
147
1.0
 71
     0
 72
     0
 73
     0
 74
     0
 75
     0
 76
     0
 77
     1
 78
     8
170
     0
171
     2
172
     0
173
     1
174
     0
175
     0
176
     0
177
     0
178
     0
  0
ENDTAB
  0
ENDSEC
  0
SECTION
  2
BLOCKS
  0
BLOCK
  8
0
  2
$MODEL_SPACE
 70
     0
 10
0.0
 20
0.0
 30
0.0
  3
$MODEL_SPACE
  1

  0
ENDBLK
  5
1B
  8
0
  0
BLOCK
 67
     1
  8
0
  2
$PAPER_SPACE
 70
     0
 10
0.0
 20
0.0
 30
0.0
  3
$PAPER_SPACE
  1

  0
ENDBLK
  5
18
 67
     1
  8
0
  0
BLOCK
  8
0
  2
_OPEN
 70
     0
 10
0.0
 20
0.0
 30
0.0
  3
_OPEN
  1

  0
LINE
  5
79FD
  8
0
  6
BYBLOCK
 62
     0
 10
-1.0
 20
0.1666666666666666
 30
0.0
 11
0.0
 21
0.0
 31
0.0
  0
LINE
  5
79FE
  8
0
  6
BYBLOCK
 62
     0
 10
0.0
 20
0.0
 30
0.0
 11
-1.0
 21
-0.1666666666666666
 31
0.0
  0
LINE
  5
79FF
  8
0
  6
BYBLOCK
 62
     0
 10
0.0
 20
0.0
 30
0.0
 11
-1.0
 21
0.0
 31
0.0
  0
ENDBLK
  5
7A01
  8
0
  0
BLOCK
  8
0
  2
*D1
 70
     1
 10
0.0
 20
0.0
 30
0.0
  3
*D1
  1

  0
LINE
  5
88D4
  8
3
 62
     0
 10
-5871.4515173875043
 20
1672.8997349195281
 30
0.0
 11
-6019.5770547676011
 21
1672.8997349195281
 31
0.0
  0
LINE
  5
88D5
  8
3
 62
     0
 10
-5871.4515173875043
 20
1272.8997349195281
 30
0.0
 11
-6019.5770547676011
 21
1272.8997349195281
 31
0.0
  0
LINE
  5
88D6
  8
3
 62
     0
 10
-5999.5770547676002
 20
1632.8997349195281
 30
0.0
 11
-5999.5770547676002
 21
1312.8997349195281
 31
0.0
  0
INSERT
  5
88D7
  8
3
 62
     0
  2
_OPEN
 10
-5999.5770547676002
 20
1672.8997349195281
 30
0.0
 41
40.0
 42
40.0
 43
40.0
 50
90.0
  0
INSERT
  5
88D8
  8
3
 62
     0
  2
_OPEN
 10
-5999.5770547676002
 20
1272.8997349195281
 30
0.0
 41
40.0
 42
40.0
 43
40.0
 50
270.0
  0
TEXT
  8
3
  40
60
  5
893B
  62
0
  72
0
  71
0
 10
-6169.58
 20
1379.14
 30
0.000000
  1
400
  0
POINT
  5
88DA
  8
DEFPOINTS
 62
     0
 10
-5861.4515173875043
 20
1672.8997349195281
 30
0.0
  0
POINT
  5
88DB
  8
DEFPOINTS
 62
     0
 10
-5861.4515173875043
 20
1272.8997349195281
 30
0.0
  0
POINT
  5
88DC
  8
DEFPOINTS
 62
     0
 10
-5999.5770547676002
 20
1272.8997349195281
 30
0.0
  0
ENDBLK
  5
8702
  8
0
  0
BLOCK
  8
0
  2
*D2
 70
     1
 10
0.0
 20
0.0
 30
0.0
  3
*D2
  1

  0
LINE
  5
88DD
  8
3
 62
     0
 10
-5871.4515173875043
 20
1272.8997349195281
 30
0.0
 11
-6019.5770547676011
 21
1272.8997349195281
 31
0.0
  0
LINE
  5
88DE
  8
3
 62
     0
 10
-5650.9515173875043
 20
772.89973491952878
 30
0.0
 11
-6019.5770547676011
 21
772.8997349195289
 31
0.0
  0
LINE
  5
88DF
  8
3
 62
     0
 10
-5999.5770547676002
 20
1232.8997349195281
 30
0.0
 11
-5999.5770547676002
 21
812.8997349195289
 31
0.0
  0
INSERT
  5
88E0
  8
3
 62
     0
  2
_OPEN
 10
-5999.5770547676002
 20
1272.8997349195281
 30
0.0
 41
40.0
 42
40.0
 43
40.0
 50
90.0
  0
INSERT
  5
88E1
  8
3
 62
     0
  2
_OPEN
 10
-5999.5770547676002
 20
772.8997349195289
 30
0.0
 41
40.0
 42
40.0
 43
40.0
 50
270.0
  0
TEXT
  8
3
  40
60
  5
893C
  62
0
  72
0
  71
0
 10
-6169.58
 20
950.765
 30
0.000000
  1
500
  0
POINT
  5
88E3
  8
DEFPOINTS
 62
     0
 10
-5861.4515173875043
 20
1272.8997349195281
 30
0.0
  0
POINT
  5
88E4
  8
DEFPOINTS
 62
     0
 10
-5640.9515173875043
 20
772.89973491952878
 30
0.0
  0
POINT
  5
88E5
  8
DEFPOINTS
 62
     0
 10
-5999.5770547676002
 20
772.8997349195289
 30
0.0
  0
ENDBLK
  5
870F
  8
0
  0
BLOCK
  8
0
  2
*D3
 70
     1
 10
0.0
 20
0.0
 30
0.0
  3
*D3
  1

  0
LINE
  5
88E6
  8
3
 62
     0
 10
-5650.9515173875043
 20
772.89973491952878
 30
0.0
 11
-6019.5770547676011
 21
772.8997349195289
 31
0.0
  0
LINE
  5
88E7
  8
3
 62
     0
 10
-5650.9515173875043
 20
672.89973491952878
 30
0.0
 11
-6019.5770547676011
 21
672.8997349195289
 31
0.0
  0
LINE
  5
88E8
  8
3
 62
     0
 10
-5999.5770547676002
 20
812.8997349195289
 30
0.0
 11
-5999.5770547676002
 21
852.8997349195289
 31
0.0
  0
LINE
  5
88E9
  8
3
 62
     0
 10
-5999.5770547676002
 20
632.89973491952878
 30
0.0
 11
-5999.5770547676002
 21
410.04259206238601
 31
0.0
  0
LINE
  5
88EA
  8
3
 62
     0
 10
-5999.5770547676002
 20
772.8997349195289
 30
0.0
 11
-5999.5770547676002
 21
672.8997349195289
 31
0.0
  0
INSERT
  5
88EB
  8
3
 62
     0
  2
_OPEN
 10
-5999.5770547676002
 20
772.8997349195289
 30
0.0
 41
40.0
 42
40.0
 43
40.0
 50
270.0
  0
INSERT
  5
88EC
  8
3
 62
     0
  2
_OPEN
 10
-5999.5770547676002
 20
672.8997349195289
 30
0.0
 41
40.0
 42
40.0
 43
40.0
 50
90.0
  0
TEXT
  8
3
  40
60
  5
893D
  62
0
  72
0
  71
0
 10
-6169.58
 20
395.271
 30
0.000000
  1
100
  0
POINT
  5
88EE
  8
DEFPOINTS
 62
     0
 10
-5640.9515173875043
 20
772.89973491952878
 30
0.0
  0
POINT
  5
88EF
  8
DEFPOINTS
 62
     0
 10
-5640.9515173875043
 20
672.89973491952878
 30
0.0
  0
POINT
  5
88F0
  8
DEFPOINTS
 62
     0
 10
-5999.5770547676002
 20
672.8997349195289
 30
0.0
  0
ENDBLK
  5
871E
  8
0
  0
BLOCK
  8
0
  2
*D4
 70
     1
 10
0.0
 20
0.0
 30
0.0
  3
*D4
  1

  0
LINE
  5
88F1
  8
3
 62
     0
 10
-5571.4515173875043
 20
712.89973491952867
 30
0.0
 11
-5843.164901399894
 21
712.89973491952867
 31
0.0
  0
LINE
  5
88F2
  8
3
 62
     0
 10
-5650.9515173875043
 20
672.89973491952878
 30
0.0
 11
-5843.164901399894
 21
672.89973491952878
 31
0.0
  0
LINE
  5
88F3
  8
3
 62
     0
 10
-5823.164901399894
 20
752.89973491952878
 30
0.0
 11
-5823.164901399894
 21
792.89973491952867
 31
0.0
  0
LINE
  5
88F4
  8
3
 62
     0
 10
-5823.164901399894
 20
632.89973491952878
 30
0.0
 11
-5823.164901399894
 21
455.75687777667167
 31
0.0
  0
LINE
  5
88F5
  8
3
 62
     0
 10
-5823.164901399894
 20
712.89973491952867
 30
0.0
 11
-5823.164901399894
 21
672.89973491952878
 31
0.0
  0
INSERT
  5
88F6
  8
3
 62
     0
  2
_OPEN
 10
-5823.164901399894
 20
712.89973491952867
 30
0.0
 41
40.0
 42
40.0
 43
40.0
 50
270.0
  0
INSERT
  5
88F7
  8
3
 62
     0
  2
_OPEN
 10
-5823.164901399894
 20
672.89973491952878
 30
0.0
 41
40.0
 42
40.0
 43
40.0
 50
90.0
  0
TEXT
  8
3
  40
60
  5
893E
  62
0
  72
0
  71
0
 10
-5993.16
 20
418.128
 30
0.000000
  1
40
  0
POINT
  5
88F9
  8
DEFPOINTS
 62
     0
 10
-5561.4515173875043
 20
712.89973491952867
 30
0.0
  0
POINT
  5
88FA
  8
DEFPOINTS
 62
     0
 10
-5640.9515173875043
 20
672.89973491952878
 30
0.0
  0
POINT
  5
88FB
  8
DEFPOINTS
 62
     0
 10
-5823.164901399894
 20
672.89973491952878
 30
0.0
  0
ENDBLK
  5
872D
  8
0
  0
BLOCK
  8
0
  2
*D5
 70
     1
 10
0.0
 20
0.0
 30
0.0
  3
*D5
  1

  0
LINE
  5
88FC
  8
3
 62
     0
 10
-5871.4515173875043
 20
1672.8997349195281
 30
0.0
 11
-6237.6420387107428
 21
1672.8997349195281
 31
0.0
  0
LINE
  5
88FD
  8
3
 62
     0
 10
-5650.9515173875043
 20
672.89973491952878
 30
0.0
 11
-6237.6420387107428
 21
672.8997349195289
 31
0.0
  0
LINE
  5
88FE
  8
3
 62
     0
 10
-6217.6420387107419
 20
1632.8997349195281
 30
0.0
 11
-6217.6420387107419
 21
712.89973491952878
 31
0.0
  0
INSERT
  5
88FF
  8
3
 62
     0
  2
_OPEN
 10
-6217.6420387107419
 20
1672.8997349195281
 30
0.0
 41
40.0
 42
40.0
 43
40.0
 50
90.0
  0
INSERT
  5
8900
  8
3
 62
     0
  2
_OPEN
 10
-6217.6420387107419
 20
672.8997349195289
 30
0.0
 41
40.0
 42
40.0
 43
40.0
 50
270.0
  0
TEXT
  8
3
  40
60
  5
893F
  62
0
  72
0
  71
0
 10
-6387.64
 20
1068.26
 30
0.000000
  1
1000
  0
POINT
  5
8902
  8
DEFPOINTS
 62
     0
 10
-5861.4515173875043
 20
1672.8997349195281
 30
0.0
  0
POINT
  5
8903
  8
DEFPOINTS
 62
     0
 10
-5640.9515173875043
 20
672.89973491952878
 30
0.0
  0
POINT
  5
8904
  8
DEFPOINTS
 62
     0
 10
-6217.6420387107419
 20
672.8997349195289
 30
0.0
  0
ENDBLK
  5
873A
  8
0
  0
BLOCK
  8
0
  2
*D6
 70
     1
 10
0.0
 20
0.0
 30
0.0
  3
*D6
  1

  0
LINE
  5
8905
  8
3
 62
     0
 10
-5551.4515173875052
 20
692.89973491952867
 30
0.0
 11
-5551.4515173875052
 21
433.9414179660979
 31
0.0
  0
LINE
  5
8906
  8
3
 62
     0
 10
-4921.4515173875043
 20
692.89973491952867
 30
0.0
 11
-4921.4515173875043
 21
433.9414179660979
 31
0.0
  0
LINE
  5
8907
  8
3
 62
     0
 10
-5511.4515173875043
 20
453.94141796609802
 30
0.0
 11
-4961.4515173875043
 21
453.94141796609802
 31
0.0
  0
INSERT
  5
8908
  8
3
 62
     0
  2
_OPEN
 10
-5551.4515173875052
 20
453.94141796609802
 30
0.0
 41
40.0
 42
40.0
 43
40.0
 50
180.0
  0
INSERT
  5
8909
  8
3
 62
     0
  2
_OPEN
 10
-4921.4515173875043
 20
453.94141796609802
 30
0.0
 41
40.0
 42
40.0
 43
40.0
  0
TEXT
  8
3
  40
60
  5
8940
  62
0
  72
0
  71
0
 10
-5353.85
 20
397.741
 30
0.000000
  1
630
  0
POINT
  5
890B
  8
DEFPOINTS
 62
     0
 10
-5551.4515173875052
 20
702.89973491952878
 30
0.0
  0
POINT
  5
890C
  8
DEFPOINTS
 62
     0
 10
-4921.4515173875043
 20
702.89973491952878
 30
0.0
  0
POINT
  5
890D
  8
DEFPOINTS
 62
     0
 10
-4921.4515173875043
 20
453.94141796609802
 30
0.0
  0
ENDBLK
  5
8747
  8
0
  0
BLOCK
  8
0
  2
*D7
 70
     1
 10
0.0
 20
0.0
 30
0.0
  3
*D7
  1

  0
LINE
  5
890E
  8
3
 62
     0
 10
-5636.4515173875043
 20
662.89973491952867
 30
0.0
 11
-5636.4515173875043
 21
258.33431163522067
 31
0.0
  0
LINE
  5
890F
  8
3
 62
     0
 10
-4836.4515173875043
 20
662.89973491952867
 30
0.0
 11
-4836.4515173875043
 21
258.33431163522067
 31
0.0
  0
LINE
  5
8910
  8
3
 62
     0
 10
-5596.4515173875043
 20
278.33431163522067
 30
0.0
 11
-4876.4515173875043
 21
278.33431163522067
 31
0.0
  0
INSERT
  5
8911
  8
3
 62
     0
  2
_OPEN
 10
-5636.4515173875043
 20
278.33431163522067
 30
0.0
 41
40.0
 42
40.0
 43
40.0
 50
180.0
  0
INSERT
  5
8912
  8
3
 62
     0
  2
_OPEN
 10
-4836.4515173875043
 20
278.33431163522067
 30
0.0
 41
40.0
 42
40.0
 43
40.0
  0
TEXT
  8
3
  40
60
  5
8941
  62
0
  72
0
  71
0
 10
-5352.04
 20
222.134
 30
0.000000
  1
800
  0
POINT
  5
8914
  8
DEFPOINTS
 62
     0
 10
-5636.4515173875043
 20
672.89973491952878
 30
0.0
  0
POINT
  5
8915
  8
DEFPOINTS
 62
     0
 10
-4836.4515173875043
 20
672.89973491952878
 30
0.0
  0
POINT
  5
8916
  8
DEFPOINTS
 62
     0
 10
-4836.4515173875043
 20
278.33431163522067
 30
0.0
  0
ENDBLK
  5
8754
  8
0
  0
BLOCK
  8
0
  2
*D8
 70
     1
 10
0.0
 20
0.0
 30
0.0
  3
*D8
  1

  0
LINE
  5
8917
  8
3
 62
     0
 10
-5861.4515173875043
 20
1682.8997349195281
 30
0.0
 11
-5861.4515173875043
 21
1932.1605982831859
 31
0.0
  0
LINE
  5
8918
  8
3
 62
     0
 10
-4611.4515173875043
 20
1682.8997349195281
 30
0.0
 11
-4611.4515173875043
 21
1932.1605982831859
 31
0.0
  0
LINE
  5
8919
  8
3
 62
     0
 10
-5821.4515173875043
 20
1912.1605982831859
 30
0.0
 11
-4651.4515173875052
 21
1912.1605982831859
 31
0.0
  0
INSERT
  5
891A
  8
3
 62
     0
  2
_OPEN
 10
-5861.4515173875043
 20
1912.1605982831859
 30
0.0
 41
40.0
 42
40.0
 43
40.0
 50
180.0
  0
INSERT
  5
891B
  8
3
 62
     0
  2
_OPEN
 10
-4611.4515173875043
 20
1912.1605982831859
 30
0.0
 41
40.0
 42
40.0
 43
40.0
  0
TEXT
  8
3
  40
60
  5
8942
  62
0
  72
0
  71
0
 10
-5370.00
 20
1855.96
 30
0.000000
  1
1250
  0
POINT
  5
891D
  8
DEFPOINTS
 62
     0
 10
-5861.4515173875043
 20
1672.8997349195281
 30
0.0
  0
POINT
  5
891E
  8
DEFPOINTS
 62
     0
 10
-4611.4515173875043
 20
1672.8997349195281
 30
0.0
  0
POINT
  5
891F
  8
DEFPOINTS
 62
     0
 10
-4611.4515173875043
 20
1912.1605982831859
 30
0.0
  0
ENDBLK
  5
8761
  8
0
  0
BLOCK
  8
0
  2
*D9
 70
     1
 10
0.0
 20
0.0
 30
0.0
  3
*D9
  1

  0
LINE
  5
8920
  8
3
 62
     0
 10
-4091.4515173875038
 20
1382.8997349195281
 30
0.0
 11
-4091.4515173875038
 21
1920.1158738794099
 31
0.0
  0
LINE
  5
8921
  8
3
 62
     0
 10
-2841.4515173875038
 20
1382.899734919534
 30
0.0
 11
-2841.4515173875038
 21
1920.1158738794099
 31
0.0
  0
LINE
  5
8922
  8
3
 62
     0
 10
-4051.4515173875038
 20
1900.1158738794111
 30
0.0
 11
-2881.4515173875038
 21
1900.1158738794111
 31
0.0
  0
INSERT
  5
8923
  8
3
 62
     0
  2
_OPEN
 10
-4091.4515173875038
 20
1900.1158738794111
 30
0.0
 41
40.0
 42
40.0
 43
40.0
 50
180.0
  0
INSERT
  5
8924
  8
3
 62
     0
  2
_OPEN
 10
-2841.4515173875038
 20
1900.1158738794111
 30
0.0
 41
40.0
 42
40.0
 43
40.0
  0
TEXT
  8
3
  40
60
  5
8943
  62
0
  72
0
  71
0
 10
-3603.75
 20
1843.92
 30
0.000000
  1
1250
  0
POINT
  5
8926
  8
DEFPOINTS
 62
     0
 10
-4091.4515173875038
 20
1372.899734919527
 30
0.0
  0
POINT
  5
8927
  8
DEFPOINTS
 62
     0
 10
-2841.4515173875038
 20
1372.899734919534
 30
0.0
  0
POINT
  5
8928
  8
DEFPOINTS
 62
     0
 10
-2841.4515173875038
 20
1900.1158738794111
 30
0.0
  0
ENDBLK
  5
876E
  8
0
  0
BLOCK
  8
0
  2
*D10
 70
     1
 10
0.0
 20
0.0
 30
0.0
  3
*D10
  1

  0
LINE
  5
8929
  8
3
 62
     0
 10
-3781.4515173875038
 20
692.89973491952867
 30
0.0
 11
-3781.4515173875038
 21
427.10166802726962
 31
0.0
  0
LINE
  5
892A
  8
3
 62
     0
 10
-3151.4515173875038
 20
692.89973491952867
 30
0.0
 11
-3151.4515173875038
 21
427.10166802726962
 31
0.0
  0
LINE
  5
892B
  8
3
 62
     0
 10
-3741.4515173875038
 20
447.10166802726962
 30
0.0
 11
-3191.4515173875038
 21
447.10166802726962
 31
0.0
  0
INSERT
  5
892C
  8
3
 62
     0
  2
_OPEN
 10
-3781.4515173875038
 20
447.10166802726962
 30
0.0
 41
40.0
 42
40.0
 43
40.0
 50
180.0
  0
INSERT
  5
892D
  8
3
 62
     0
  2
_OPEN
 10
-3151.4515173875038
 20
447.10166802726962
 30
0.0
 41
40.0
 42
40.0
 43
40.0
  0
TEXT
  8
3
  40
60
  5
8944
  62
0
  72
0
  71
0
 10
-3576.85
 20
390.902
 30
0.000000
  1
630
  0
POINT
  5
892F
  8
DEFPOINTS
 62
     0
 10
-3781.4515173875038
 20
702.89973491952878
 30
0.0
  0
POINT
  5
8930
  8
DEFPOINTS
 62
     0
 10
-3151.4515173875038
 20
702.89973491952878
 30
0.0
  0
POINT
  5
8931
  8
DEFPOINTS
 62
     0
 10
-3151.4515173875038
 20
447.10166802726962
 30
0.0
  0
ENDBLK
  5
877B
  8
0
  0
BLOCK
  8
0
  2
*D11
 70
     1
 10
0.0
 20
0.0
 30
0.0
  3
*D11
  1

  0
LINE
  5
8932
  8
3
 62
     0
 10
-3866.4515173875038
 20
662.89973491952867
 30
0.0
 11
-3866.4515173875038
 21
261.01256584613469
 31
0.0
  0
LINE
  5
8933
  8
3
 62
     0
 10
-3066.4515173875038
 20
662.89973491952867
 30
0.0
 11
-3066.4515173875038
 21
261.01256584613469
 31
0.0
  0
LINE
  5
8934
  8
3
 62
     0
 10
-3826.4515173875038
 20
281.01256584613469
 30
0.0
 11
-3106.4515173875038
 21
281.01256584613469
 31
0.0
  0
INSERT
  5
8935
  8
3
 62
     0
  2
_OPEN
 10
-3866.4515173875038
 20
281.01256584613469
 30
0.0
 41
40.0
 42
40.0
 43
40.0
 50
180.0
  0
INSERT
  5
8936
  8
3
 62
     0
  2
_OPEN
 10
-3066.4515173875038
 20
281.01256584613469
 30
0.0
 41
40.0
 42
40.0
 43
40.0
  0
TEXT
  8
3
  40
60
  5
8945
  62
0
  72
0
  71
0
 10
-3572.29
 20
224.813
 30
0.000000
  1
800
  0
POINT
  5
8938
  8
DEFPOINTS
 62
     0
 10
-3866.4515173875038
 20
672.89973491952878
 30
0.0
  0
POINT
  5
8939
  8
DEFPOINTS
 62
     0
 10
-3066.4515173875038
 20
672.89973491952878
 30
0.0
  0
POINT
  5
893A
  8
DEFPOINTS
 62
     0
 10
-3066.4515173875038
 20
281.01256584613469
 30
0.0
  0
ENDBLK
  5
8788
  8
0
  0
ENDSEC
  0
SECTION
  2
ENTITIES
  0
LINE
  5
8006
  8
4
 10
-3046.4204398848628
 20
-817.20337344081042
 30
0.0
 11
-3046.4204398848628
 21
-1217.2033734408101
 31
0.0
  0
LINE
  5
8007
  8
4
 10
-4446.4204398848633
 20
-817.20337344081042
 30
0.0
 11
-4446.4204398848642
 21
-1217.2033734408101
 31
0.0
  0
LINE
  5
8008
  8
4
 10
-5446.4204398848642
 20
-817.20337344081042
 30
0.0
 11
-5446.4204398848642
 21
-1217.2033734408101
 31
0.0
  0
LINE
  5
800B
  8
4
 10
-5446.4204398848642
 20
-1217.2033734408101
 30
0.0
 11
-3046.4204398848628
 21
-1217.2033734408101
 31
0.0
  0
LINE
  5
800C
  8
4
 10
-5446.4204398848642
 20
-1017.20337344081
 30
0.0
 11
-3046.4204398848628
 21
-1017.20337344081
 31
0.0
  0
TEXT
  5
800D
  8
4
 10
-5369.41627819106
 20
-954.11732170758467
 30
0.0
 40
100.0
  1
機器名称
  0
TEXT
  5
800E
  8
4
 10
-5373.9042278352681
 20
-1173.913059976788
 30
0.0
 40
100.0
  1
機器型番
  0
TEXT
  5
800F
  8
4
 10
-4391.0629489095327
 20
-972.05983552567341
 30
0.0
 40
100.0
  1
ミツヤ軸流排煙ファン
  0
TEXT
  5
8010
  8
4
 10
-4373.1114487139021
 20
-1182.8842048809231
 30
0.0
 40
100.0
  1
APE＃630-3R
  0
TEXT
  5
8012
  8
4
 10
-5064.0605725408959
 20
2949.6543092242209
 30
0.0
 40
107.9999999999999
  1
床置ベット
  0
TEXT
  5
8013
  8
4
 10
-6114.0852532259714
 20
3250.5585789577849
 30
0.0
 40
144.0
  1
電動機直動立型軸流式排煙ファン
  0
LINE
  5
8014
  8
4
 10
-6246.4204398848642
 20
3121.6141350887988
 30
0.0
 11
-3046.4204398848628
 21
3121.6141350887988
 31
0.0
  0
LINE
  5
8015
  8
4
 10
-6246.4204398848642
 20
3521.6141350887988
 30
0.0
 11
-3046.4204398848628
 21
3521.6141350887988
 31
0.0
  0
LINE
  5
8016
  8
4
 10
-5446.4204398848642
 20
-817.20337344081042
 30
0.0
 11
-3046.4204398848628
 21
-817.20337344081042
 31
0.0
  0
LINE
  5
8017
  8
4
 10
-6246.4204398848642
 20
3521.6141350887988
 30
0.0
 11
-6246.4204398848642
 21
3121.6141350887988
 31
0.0
  0
TEXT
  5
8018
  8
4
 10
-6105.4642621031298
 20
2947.4355816518769
 30
0.0
 40
107.9999999999999
  1
左回転前方吐出
  0
TEXT
  5
8019
  8
4
 10
-3808.4813213862831
 20
3594.9187895498071
 30
0.0
 40
112.0
  1
No.
  0
TEXT
  5
801A
  8
4
 10
-4123.8283146848371
 20
2949.6543092242209
 30
0.0
 40
107.9999999999999
  1
縮尺：1/20
  0
LINE
  5
801B
  8
4
 10
-3046.4204398848628
 20
3521.6141350887988
 30
0.0
 11
-3046.4204398848628
 21
3121.6141350887988
 31
0.0
  0
LINE
  5
801C
  8
4
 10
-2546.4204398848628
 20
4082.796626559189
 30
0.0
 11
-2546.4204398848628
 21
4082.796626559189
 31
0.0
  0
LINE
  5
801D
  8
4
 10
-3865.1855951651341
 20
3545.3237928099911
 30
0.0
 11
-3865.1855951651341
 21
3756.1011496586939
 31
0.0
  0
LINE
  5
801E
  8
4
 10
-3865.1855951651341
 20
3756.1011496586939
 30
0.0
 11
-3046.4204398848628
 21
3756.1011496586939
 31
0.0
  0
LINE
  5
801F
  8
4
 10
-3046.4204398848628
 20
3756.1011496586939
 30
0.0
 11
-3046.4204398848628
 21
3545.3237928099911
 31
0.0
  0
LINE
  5
8020
  8
4
 10
-3046.4204398848628
 20
3545.3237928099911
 30
0.0
 11
-3865.1855951651341
 21
3545.3237928099911
 31
0.0
  0
LINE
  5
8021
  8
4
 10
-6746.4204398848642
 20
-1817.2033734408101
 30
0.0
 11
-6746.4204398848642
 21
4082.796626559189
 31
0.0
  0
LINE
  5
8022
  8
4
 10
-6746.4204398848642
 20
4082.796626559189
 30
0.0
 11
-2546.4204398848628
 21
4082.796626559189
 31
0.0
  0
LINE
  5
8023
  8
4
 10
-2546.4204398848628
 20
4082.796626559189
 30
0.0
 11
-2546.4204398848628
 21
-1817.2033734408101
 31
0.0
  0
LINE
  5
8024
  8
4
 10
-2546.4204398848628
 20
-1817.2033734408101
 30
0.0
 11
-6746.4204398848642
 21
-1817.2033734408101
 31
0.0
  0
LINE
  5
85AB
  8
1
 10
-5551.4515173875016
 20
1352.899734919527
 30
0.0
 11
-5551.4515173875052
 21
752.89973491952878
 31
0.0
  0
LINE
  5
85AC
  8
1
 10
-5555.9515173875016
 20
1352.899734919527
 30
0.0
 11
-5555.9515173875043
 21
948.8163631991174
 31
0.0
  0
LINE
  5
85AD
  8
2
 10
-5236.4515173875043
 20
572.89973491952878
 30
0.0
 11
-5236.4515173875043
 21
1772.899734919527
 31
0.0
  0
LINE
  5
85AE
  8
1
 10
-4921.4515173875043
 20
1352.899734919527
 30
0.0
 11
-4921.4515173875043
 21
752.89973491952878
 31
0.0
  0
LINE
  5
85AF
  8
1
 10
-4859.3868242089902
 20
1186.8997349195281
 30
0.0
 11
-4859.3868242089902
 21
1076.8997349195281
 31
0.0
  0
LINE
  5
85B0
  8
1
 10
-4859.3868242089902
 20
1081.8997349195281
 30
0.0
 11
-4859.3868242089902
 21
1181.8997349195281
 31
0.0
  0
LINE
  5
85B1
  8
1
 10
-4858.3868242089911
 20
1081.2437349195279
 30
0.0
 11
-4858.3868242089911
 21
1181.847734919528
 31
0.0
  0
LINE
  5
85B2
  8
1
 10
-4858.3868242089911
 20
1076.8997349195281
 30
0.0
 11
-4858.3868242089911
 21
1185.8997349195281
 31
0.0
  0
LINE
  5
85B3
  8
1
 10
-4916.9515173875043
 20
1352.899734919527
 30
0.0
 11
-4916.9515173875043
 21
948.8163631991174
 31
0.0
  0
LINE
  5
85B4
  8
1
 10
-4854.2811242089901
 20
1197.4807349195289
 30
0.0
 11
-4797.8297242089902
 21
1056.3527349195281
 31
0.0
  0
LINE
  5
85B5
  8
1
 10
-4850.0101242089886
 20
1197.5737349195281
 30
0.0
 11
-4794.6729242089887
 21
1059.230734919528
 31
0.0
  0
LINE
  5
85B6
  8
1
 10
-4798.7681242089893
 20
1173.280734919528
 30
0.0
 11
-4793.4916242089894
 21
1065.6517349195281
 31
0.0
  0
LINE
  5
85B8
  8
1
 10
-5640.9515173875043
 20
772.89973491952878
 30
0.0
 11
-4831.9515173875052
 21
772.89973491952878
 31
0.0
  0
LINE
  5
85B9
  8
1
 10
-5640.9515173875043
 20
672.89973491952878
 30
0.0
 11
-4831.9515173875052
 21
672.89973491952878
 31
0.0
  0
LINE
  5
85BA
  8
1
 10
-5636.4515173875043
 20
757.39973491952787
 30
0.0
 11
-4836.4515173875043
 21
757.39973491952685
 31
0.0
  0
LINE
  5
85BB
  8
1
 10
-5636.4515173875043
 20
752.89973491952878
 30
0.0
 11
-4836.4515173875043
 21
752.89973491952878
 31
0.0
  0
LINE
  5
85BC
  8
1
 10
-5441.9458686468579
 20
782.89973491952878
 30
0.0
 11
-5030.9571661281498
 21
782.89973491952878
 31
0.0
  0
LINE
  5
85BD
  8
1
 10
-5640.9515173875043
 20
672.89973491952878
 30
0.0
 11
-5640.9515173875043
 21
772.89973491952878
 31
0.0
  0
LINE
  5
85BE
  8
1
 10
-5636.4515173875043
 20
672.89973491952878
 30
0.0
 11
-5636.4515173875043
 21
772.89973491952878
 31
0.0
  0
LINE
  5
85BF
  8
1
 10
-5636.4515173875016
 20
774.12377261964684
 30
0.0
 11
-5424.945868646857
 21
782.89973491952878
 31
0.0
  0
LINE
  5
85C0
  8
1
 10
-5636.4515173875043
 20
757.39973491952685
 30
0.0
 11
-5636.4515173875016
 21
822.89973491952867
 31
0.0
  0
LINE
  5
85C1
  8
1
 10
-5555.9515173875043
 20
948.8163631991174
 30
0.0
 11
-5555.9515173875043
 21
757.39973491952878
 31
0.0
  0
LINE
  5
85C2
  8
1
 10
-5441.9458686468579
 20
1007.399734919527
 30
0.0
 11
-5441.9458686468579
 21
782.89973491952878
 31
0.0
  0
CIRCLE
  5
85C3
  8
1
 10
-5551.4515173875052
 20
712.89973491952867
 30
0.0
 40
7.5
  0
LINE
  5
85C4
  8
1
 10
-5561.4515173875043
 20
712.89973491952867
 30
0.0
 11
-5541.4515173875043
 21
712.89973491952867
 31
0.0
  0
LINE
  5
85C5
  8
1
 10
-5551.4515173875052
 20
702.89973491952878
 30
0.0
 11
-5551.4515173875052
 21
722.89973491952878
 31
0.0
  0
LINE
  5
85C6
  8
1
 10
-5591.4515173875043
 20
757.39973491952787
 30
0.0
 11
-5591.4515173875043
 21
752.89973491952878
 31
0.0
  0
LINE
  5
85C7
  8
1
 10
-5441.9458686468579
 20
1007.399734919527
 30
0.0
 11
-5476.945868646857
 21
1007.399734919527
 31
0.0
  0
LINE
  5
85CD
  8
1
 10
-5038.5993102598131
 20
1131.8997349195281
 30
0.0
 11
-4811.4515173875043
 21
1131.8997349195281
 31
0.0
  0
LINE
  5
85CE
  8
1
 10
-4916.9515173875043
 20
1076.8997349195281
 30
0.0
 11
-4859.3868242089902
 21
1076.8997349195281
 31
0.0
  0
LINE
  5
85CF
  8
1
 10
-4802.0487242089894
 20
1066.8997349195281
 30
0.0
 11
-4848.3868242089902
 21
1066.8997349195281
 31
0.0
  0
ARC
  5
85D0
  8
1
 10
-4848.3868242089902
 20
1076.8997349195281
 30
0.0
 40
10.0
 50
180.0
 51
270.0
  0
LINE
  5
85D1
  8
1
 10
-4859.3868242089902
 20
1081.8997349195281
 30
0.0
 11
-4858.3868242089911
 21
1081.8997349195281
 31
0.0
  0
LINE
  5
85D2
  8
1
 10
-4795.897024208989
 20
1062.510734919528
 30
0.0
 11
-4795.3738242089894
 21
1062.719734919528
 31
0.0
  0
LINE
  5
85D3
  8
1
 10
-4797.8297242089902
 20
1056.3527349195281
 30
0.0
 11
-4795.508524208989
 21
1057.280734919528
 31
0.0
  0
LINE
  5
85D4
  8
1
 10
-4823.3868242089911
 20
1069.394734919528
 30
0.0
 11
-4823.3868242089911
 21
1062.895734919528
 31
0.0
  0
ARC
  5
85D5
  8
1
 10
-4796.065624208989
 20
1058.673734919528
 30
0.0
 40
1.5
 50
291.80099999998419
 51
21.803100000012421
  0
ARC
  5
85D6
  8
1
 10
-4796.4880242089894
 20
1065.5047349195279
 30
0.0
 40
3.0
 50
291.80210000000989
 51
2.8058000000065131
  0
LINE
  5
85D7
  8
1
 10
-5861.4515173875043
 20
1352.899734919527
 30
0.0
 11
-4611.4515173875043
 21
1352.899734919527
 31
0.0
  0
LINE
  5
85D8
  8
1
 10
-5861.4515173875043
 20
1672.8997349195281
 30
0.0
 11
-4611.4515173875043
 21
1672.8997349195281
 31
0.0
  0
LINE
  5
85DB
  8
1
 10
-5861.4515173875043
 20
1272.8997349195281
 30
0.0
 11
-5861.4515173875043
 21
1672.8997349195281
 31
0.0
  0
LINE
  5
85DC
  8
1
 10
-5859.8515173875039
 20
1272.8997349195281
 30
0.0
 11
-5859.8515173875039
 21
1352.899734919527
 31
0.0
  0
LINE
  5
85DD
  8
1
 10
-5861.4515173875043
 20
1272.8997349195281
 30
0.0
 11
-5859.8515173875039
 21
1272.8997349195281
 31
0.0
  0
LINE
  5
85DE
  8
1
 10
-5561.8627747989813
 20
1698.8997349195281
 30
0.0
 11
-5585.8128423964963
 21
1698.8997349195281
 31
0.0
  0
LINE
  5
85DF
  8
1
 10
-5558.4515173875052
 20
1672.8997349195281
 30
0.0
 11
-5588.4515173875043
 21
1672.8997349195281
 31
0.0
  0
LINE
  5
85E0
  8
1
 10
-5585.9515173875043
 20
1672.8997349195281
 30
0.0
 11
-5582.072323811919
 21
1694.8997349195281
 31
0.0
  0
ARC
  5
85E1
  8
1
 10
-5573.4515173875043
 20
1717.6497349195281
 30
0.0
 40
6.25
 50
359.9999380528439
 51
180.00006194715601
  0
LINE
  5
85E2
  8
1
 10
-5567.2015400741111
 20
1717.666574815376
 30
0.0
 11
-5567.2015646892069
 21
1694.899734919527
 31
0.0
  0
LINE
  5
85E3
  8
1
 10
-5579.7014947008938
 20
1717.6665748156031
 30
0.0
 11
-5579.7014700857999
 21
1694.899734919527
 31
0.0
  0
LINE
  5
85E4
  8
1
 10
-5560.9515173875043
 20
1672.8997349195281
 30
0.0
 11
-5564.8307109630878
 21
1694.8997349195281
 31
0.0
  0
LINE
  5
85E5
  8
1
 10
-5573.4515173875043
 20
1741.4435392166711
 30
0.0
 11
-5573.4515173875043
 21
1656.775147211059
 31
0.0
  0
LINE
  5
85E8
  8
1
 10
-4916.9515173875043
 20
1186.8997349195281
 30
0.0
 11
-4859.3868242089902
 21
1186.8997349195281
 31
0.0
  0
LINE
  5
85E9
  8
1
 10
-4916.9515173875043
 20
1352.899734919527
 30
0.0
 11
-4916.9515173875043
 21
1273.8035774258881
 31
0.0
  0
LINE
  5
85EA
  8
1
 10
-4611.4515173875043
 20
1272.899734919527
 30
0.0
 11
-4611.4515173875043
 21
1672.8997349195281
 31
0.0
  0
LINE
  5
85EB
  8
1
 10
-4847.5485242089881
 20
1191.796734919528
 30
0.0
 11
-4811.9270242089897
 21
1187.4357349195291
 31
0.0
  0
ARC
  5
85EC
  8
1
 10
-4852.3868242089902
 20
1185.8997349195281
 30
0.0
 40
6.0
 50
90.0
 51
180.0
  0
LINE
  5
85ED
  8
1
 10
-4859.3868242089902
 20
1181.8997349195281
 30
0.0
 11
-4858.3868242089911
 21
1181.8997349195281
 31
0.0
  0
ARC
  5
85EE
  8
1
 10
-4851.4029242089891
 20
1197.016734919529
 30
0.0
 40
1.5000999999999991
 50
21.8023000000012
 51
111.8009999999841
  0
LINE
  5
85EF
  8
1
 10
-4854.2811242089901
 20
1197.4807349195289
 30
0.0
 11
-4851.9599242089898
 21
1198.4087349195279
 31
0.0
  0
LINE
  5
85F0
  8
1
 10
-4851.9847242089891
 20
1191.8997349195281
 30
0.0
 11
-4852.3868242089902
 21
1191.8997349195281
 31
0.0
  0
ARC
  5
85F1
  8
1
 10
-4813.7501242089902
 20
1172.546734919528
 30
0.0
 40
15.0
 50
2.8067000000018392
 51
83.018899999984399
  0
LINE
  5
85F2
  8
1
 10
-4613.0515173875028
 20
1272.899734919527
 30
0.0
 11
-4613.0515173875028
 21
1352.899734919527
 31
0.0
  0
LINE
  5
85F3
  8
1
 10
-4613.0515173875028
 20
1272.899734919527
 30
0.0
 11
-4611.4515173875043
 21
1272.899734919527
 31
0.0
  0
LINE
  5
85FB
  8
1
 10
-5636.4515173875016
 20
822.89973491952867
 30
0.0
 11
-5476.945868646857
 21
1007.399734919527
 31
0.0
  0
LINE
  5
85FC
  8
1
 10
-4831.9515173875052
 20
672.89973491952878
 30
0.0
 11
-4831.9515173875052
 21
772.89973491952878
 31
0.0
  0
LINE
  5
85FD
  8
1
 10
-5030.9571661281498
 20
1007.399734919527
 30
0.0
 11
-5030.9571661281498
 21
782.89973491952878
 31
0.0
  0
LINE
  5
85FE
  8
1
 10
-4836.4515173875043
 20
822.89973491952867
 30
0.0
 11
-4995.9571661281498
 21
1007.399734919527
 31
0.0
  0
LINE
  5
85FF
  8
1
 10
-4916.9515173875043
 20
948.8163631991174
 30
0.0
 11
-4916.9515173875043
 21
757.39973491952878
 31
0.0
  0
LINE
  5
8600
  8
1
 10
-4836.4515173875043
 20
774.12377261964684
 30
0.0
 11
-5047.9571661281489
 21
782.89973491952878
 31
0.0
  0
LINE
  5
8601
  8
1
 10
-4836.4515173875043
 20
757.39973491952685
 30
0.0
 11
-4836.4515173875043
 21
822.89973491952867
 31
0.0
  0
LINE
  5
8602
  8
1
 10
-4836.4515173875043
 20
672.89973491952878
 30
0.0
 11
-4836.4515173875043
 21
772.89973491952878
 31
0.0
  0
LINE
  5
8603
  8
1
 10
-4881.4515173875043
 20
757.39973491952787
 30
0.0
 11
-4881.4515173875043
 21
752.89973491952878
 31
0.0
  0
CIRCLE
  5
8604
  8
1
 10
-4921.4515173875043
 20
712.89973491952867
 30
0.0
 40
7.5
  0
LINE
  5
8605
  8
1
 10
-4911.4515173875043
 20
712.89973491952867
 30
0.0
 11
-4931.4515173875043
 21
712.89973491952867
 31
0.0
  0
LINE
  5
8606
  8
1
 10
-4921.4515173875043
 20
702.89973491952878
 30
0.0
 11
-4921.4515173875043
 21
722.89973491952878
 31
0.0
  0
LINE
  5
8607
  8
1
 10
-5030.9571661281498
 20
1007.399734919527
 30
0.0
 11
-4995.9571661281507
 21
1007.399734919527
 31
0.0
  0
LINE
  5
8608
  8
1
 10
-5441.9458686468579
 20
1168.3997349195299
 30
0.0
 11
-5441.9458686468579
 21
1352.899734919527
 31
0.0
  0
LINE
  5
8609
  8
1
 10
-5441.9458686468579
 20
1168.3997349195299
 30
0.0
 11
-5476.945868646857
 21
1168.3997349195299
 31
0.0
  0
LINE
  5
860A
  8
1
 10
-5636.4515173875016
 20
1352.899734919527
 30
0.0
 11
-5476.945868646857
 21
1168.3997349195299
 31
0.0
  0
LINE
  5
860B
  8
1
 10
-5030.9571661281498
 20
1168.3997349195299
 30
0.0
 11
-5030.9571661281479
 21
1352.899734919527
 31
0.0
  0
LINE
  5
860C
  8
1
 10
-5030.9571661281498
 20
1168.3997349195299
 30
0.0
 11
-4995.9571661281507
 21
1168.3997349195299
 31
0.0
  0
LINE
  5
860D
  8
1
 10
-4836.4515173875061
 20
1352.899734919527
 30
0.0
 11
-4995.9571661281498
 21
1168.3997349195299
 31
0.0
  0
LINE
  5
860E
  8
1
 10
-3260.9571661281502
 20
1168.3997349195299
 30
0.0
 11
-3260.9571661281502
 21
1272.899734919527
 31
0.0
  0
LINE
  5
860F
  8
1
 10
-3151.4515173875038
 20
1418.399734919529
 30
0.0
 11
-3151.4515173875038
 21
752.89973491952878
 31
0.0
  0
LINE
  5
8610
  8
1
 10
-3146.9515173875038
 20
1418.399734919529
 30
0.0
 11
-3146.9515173875038
 21
948.8163631991174
 31
0.0
  0
LINE
  5
8611
  8
1
 10
-3135.6138583048591
 20
1272.899734919527
 30
0.0
 11
-3225.9571661281502
 21
1168.3997349195299
 31
0.0
  0
LINE
  5
8612
  8
1
 10
-3671.945868646857
 20
1168.3997349195299
 30
0.0
 11
-3671.945868646857
 21
1272.899734919527
 31
0.0
  0
LINE
  5
8613
  8
1
 10
-3781.451517387502
 20
1418.3997349195281
 30
0.0
 11
-3781.4515173875038
 21
752.89973491952878
 31
0.0
  0
LINE
  5
8614
  8
1
 10
-3785.951517387502
 20
1418.3997349195281
 30
0.0
 11
-3785.9515173875038
 21
948.8163631991174
 31
0.0
  0
LINE
  5
8615
  8
1
 10
-3797.289176470149
 20
1272.899734919527
 30
0.0
 11
-3706.945868646857
 21
1168.3997349195299
 31
0.0
  0
LINE
  5
8616
  8
2
 10
-3466.4515173875038
 20
572.89973491952878
 30
0.0
 11
-3466.4515173875038
 21
1772.899734919527
 31
0.0
  0
LINE
  5
8617
  8
1
 10
-3870.9515173875038
 20
772.89973491952878
 30
0.0
 11
-3061.9515173875038
 21
772.89973491952878
 31
0.0
  0
LINE
  5
8618
  8
1
 10
-3870.9515173875038
 20
672.89973491952878
 30
0.0
 11
-3061.9515173875038
 21
672.89973491952878
 31
0.0
  0
LINE
  5
8619
  8
1
 10
-3870.9515173875038
 20
672.89973491952878
 30
0.0
 11
-3870.9515173875038
 21
772.89973491952878
 31
0.0
  0
LINE
  5
861A
  8
1
 10
-3866.4515173875038
 20
757.39973491952787
 30
0.0
 11
-3066.4515173875038
 21
757.39973491952685
 31
0.0
  0
LINE
  5
861B
  8
1
 10
-3866.4515173875038
 20
752.89973491952878
 30
0.0
 11
-3066.4515173875038
 21
752.89973491952878
 31
0.0
  0
LINE
  5
861C
  8
1
 10
-3671.945868646857
 20
782.89973491952878
 30
0.0
 11
-3260.9571661281502
 21
782.89973491952878
 31
0.0
  0
LINE
  5
861D
  8
1
 10
-3671.945868646857
 20
1007.399734919527
 30
0.0
 11
-3671.945868646857
 21
782.89973491952878
 31
0.0
  0
LINE
  5
861E
  8
1
 10
-3866.451517387502
 20
822.89973491952867
 30
0.0
 11
-3706.945868646857
 21
1007.399734919527
 31
0.0
  0
LINE
  5
861F
  8
1
 10
-3785.9515173875038
 20
948.8163631991174
 30
0.0
 11
-3785.9515173875038
 21
757.39973491952878
 31
0.0
  0
LINE
  5
8620
  8
1
 10
-3866.451517387502
 20
774.12377261964684
 30
0.0
 11
-3654.945868646857
 21
782.89973491952878
 31
0.0
  0
LINE
  5
8621
  8
1
 10
-3866.4515173875038
 20
757.39973491952685
 30
0.0
 11
-3866.451517387502
 21
822.89973491952867
 31
0.0
  0
LINE
  5
8622
  8
1
 10
-3866.4515173875038
 20
672.89973491952878
 30
0.0
 11
-3866.4515173875038
 21
772.89973491952878
 31
0.0
  0
LINE
  5
8623
  8
1
 10
-3821.4515173875038
 20
757.39973491952787
 30
0.0
 11
-3821.4515173875038
 21
752.89973491952878
 31
0.0
  0
CIRCLE
  5
8624
  8
1
 10
-3781.4515173875038
 20
712.89973491952867
 30
0.0
 40
7.5
  0
LINE
  5
8625
  8
1
 10
-3791.4515173875038
 20
712.89973491952867
 30
0.0
 11
-3771.4515173875038
 21
712.89973491952867
 31
0.0
  0
LINE
  5
8626
  8
1
 10
-3781.4515173875038
 20
702.89973491952878
 30
0.0
 11
-3781.4515173875038
 21
722.89973491952878
 31
0.0
  0
LINE
  5
8627
  8
1
 10
-3671.945868646857
 20
1007.399734919527
 30
0.0
 11
-3706.945868646857
 21
1007.399734919527
 31
0.0
  0
LINE
  5
8628
  8
1
 10
-3671.945868646857
 20
1168.3997349195299
 30
0.0
 11
-3706.945868646857
 21
1168.3997349195299
 31
0.0
  0
LINE
  5
8629
  8
1
 10
-3077.548524208989
 20
1191.796734919528
 30
0.0
 11
-3041.9270242089892
 21
1187.4357349195291
 31
0.0
  0
LINE
  5
862A
  8
1
 10
-3268.5993102598131
 20
1131.8997349195281
 30
0.0
 11
-3041.4515173875038
 21
1131.8997349195281
 31
0.0
  0
LINE
  5
862B
  8
1
 10
-3032.0487242089889
 20
1066.8997349195281
 30
0.0
 11
-3078.3868242089902
 21
1066.8997349195281
 31
0.0
  0
LINE
  5
862C
  8
1
 10
-3080.0101242089891
 20
1197.5737349195281
 30
0.0
 11
-3024.6729242089891
 21
1059.230734919528
 31
0.0
  0
LINE
  5
862D
  8
1
 10
-3084.2811242089901
 20
1197.4807349195289
 30
0.0
 11
-3027.8297242089898
 21
1056.3527349195281
 31
0.0
  0
LINE
  5
862E
  8
1
 10
-3146.9515173875038
 20
948.8163631991174
 30
0.0
 11
-3146.9515173875038
 21
757.39973491952878
 31
0.0
  0
LINE
  5
862F
  8
1
 10
-3066.4515173875038
 20
822.89973491952867
 30
0.0
 11
-3225.9571661281502
 21
1007.399734919527
 31
0.0
  0
LINE
  5
8630
  8
1
 10
-3260.9571661281502
 20
1007.399734919527
 30
0.0
 11
-3260.9571661281502
 21
782.89973491952878
 31
0.0
  0
LINE
  5
8631
  8
1
 10
-3066.4515173875038
 20
774.12377261964684
 30
0.0
 11
-3277.9571661281502
 21
782.89973491952878
 31
0.0
  0
LINE
  5
8632
  8
1
 10
-3066.4515173875038
 20
757.39973491952685
 30
0.0
 11
-3066.4515173875038
 21
822.89973491952867
 31
0.0
  0
LINE
  5
8633
  8
1
 10
-3151.4515173875038
 20
702.89973491952878
 30
0.0
 11
-3151.4515173875038
 21
722.89973491952878
 31
0.0
  0
LINE
  5
8634
  8
1
 10
-3141.4515173875038
 20
712.89973491952867
 30
0.0
 11
-3161.4515173875038
 21
712.89973491952867
 31
0.0
  0
CIRCLE
  5
8635
  8
1
 10
-3151.4515173875038
 20
712.89973491952867
 30
0.0
 40
7.5
  0
LINE
  5
8636
  8
1
 10
-3111.4515173875038
 20
757.39973491952787
 30
0.0
 11
-3111.4515173875038
 21
752.89973491952878
 31
0.0
  0
LINE
  5
8637
  8
1
 10
-3066.4515173875038
 20
672.89973491952878
 30
0.0
 11
-3066.4515173875038
 21
772.89973491952878
 31
0.0
  0
LINE
  5
8638
  8
1
 10
-3061.9515173875038
 20
672.89973491952878
 30
0.0
 11
-3061.9515173875038
 21
772.89973491952878
 31
0.0
  0
LINE
  5
8639
  8
1
 10
-3260.9571661281502
 20
1007.399734919527
 30
0.0
 11
-3225.957166128152
 21
1007.399734919527
 31
0.0
  0
LINE
  5
863A
  8
1
 10
-3260.9571661281502
 20
1168.3997349195299
 30
0.0
 11
-3225.957166128152
 21
1168.3997349195299
 31
0.0
  0
LINE
  5
863B
  8
1
 10
-3088.3868242089902
 20
1076.8997349195281
 30
0.0
 11
-3088.3868242089902
 21
1185.8997349195281
 31
0.0
  0
LINE
  5
863C
  8
1
 10
-3088.3868242089902
 20
1081.2437349195279
 30
0.0
 11
-3088.3868242089902
 21
1181.847734919528
 31
0.0
  0
LINE
  5
863D
  8
1
 10
-3089.3868242089902
 20
1081.8997349195281
 30
0.0
 11
-3089.3868242089902
 21
1181.8997349195281
 31
0.0
  0
LINE
  5
863E
  8
1
 10
-3089.3868242089902
 20
1186.8997349195281
 30
0.0
 11
-3089.3868242089902
 21
1076.8997349195281
 31
0.0
  0
LINE
  5
863F
  8
1
 10
-3146.9515173875038
 20
1076.8997349195281
 30
0.0
 11
-3089.3868242089902
 21
1076.8997349195281
 31
0.0
  0
LINE
  5
8640
  8
1
 10
-3053.3868242089902
 20
1069.394734919528
 30
0.0
 11
-3053.3868242089902
 21
1062.895734919528
 31
0.0
  0
LINE
  5
8641
  8
1
 10
-3089.3868242089902
 20
1081.8997349195281
 30
0.0
 11
-3088.3868242089902
 21
1081.8997349195281
 31
0.0
  0
ARC
  5
8642
  8
1
 10
-3078.3868242089902
 20
1076.8997349195281
 30
0.0
 40
10.0
 50
180.0
 51
270.0
  0
LINE
  5
8643
  8
1
 10
-3146.9515173875038
 20
1186.8997349195281
 30
0.0
 11
-3089.3868242089902
 21
1186.8997349195281
 31
0.0
  0
LINE
  5
8644
  8
1
 10
-3081.9847242089891
 20
1191.8997349195281
 30
0.0
 11
-3082.3868242089902
 21
1191.8997349195281
 31
0.0
  0
LINE
  5
8645
  8
1
 10
-3084.2811242089901
 20
1197.4807349195289
 30
0.0
 11
-3081.9599242089898
 21
1198.4087349195279
 31
0.0
  0
ARC
  5
8646
  8
1
 10
-3081.4029242089891
 20
1197.016734919529
 30
0.0
 40
1.5000999999999991
 50
21.8023000000012
 51
111.8009999999841
  0
LINE
  5
8647
  8
1
 10
-3089.3868242089902
 20
1181.8997349195281
 30
0.0
 11
-3088.3868242089902
 21
1181.8997349195281
 31
0.0
  0
ARC
  5
8648
  8
1
 10
-3082.3868242089902
 20
1185.8997349195281
 30
0.0
 40
6.0
 50
90.0
 51
180.0
  0
LINE
  5
8649
  8
1
 10
-3028.7681242089889
 20
1173.280734919528
 30
0.0
 11
-3023.4916242089889
 21
1065.6517349195281
 31
0.0
  0
ARC
  5
864A
  8
1
 10
-3026.4880242089889
 20
1065.5047349195279
 30
0.0
 40
3.0
 50
291.80210000000989
 51
2.8058000000065131
  0
ARC
  5
864B
  8
1
 10
-3026.0656242089899
 20
1058.673734919528
 30
0.0
 40
1.5
 50
291.80099999998419
 51
21.803100000012421
  0
LINE
  5
864C
  8
1
 10
-3027.8297242089898
 20
1056.3527349195281
 30
0.0
 11
-3025.5085242089899
 21
1057.280734919528
 31
0.0
  0
LINE
  5
864D
  8
1
 10
-3025.897024208989
 20
1062.510734919528
 30
0.0
 11
-3025.3738242089889
 21
1062.719734919528
 31
0.0
  0
ARC
  5
864E
  8
1
 10
-3043.7501242089888
 20
1172.546734919528
 30
0.0
 40
15.0
 50
2.8067000000018392
 51
83.018899999984399
  0
LINE
  5
864F
  8
1
 10
-3951.4515173875038
 20
1272.899734919527
 30
0.0
 11
-2981.4515173875038
 21
1272.899734919527
 31
0.0
  0
LINE
  5
8650
  8
1
 10
-3838.4181873629132
 20
1672.8997349195281
 30
0.0
 11
-3094.4848474120931
 21
1672.8997349195281
 31
0.0
  0
LINE
  5
8651
  8
1
 10
-4091.4515173875038
 20
1352.8997349195281
 30
0.0
 11
-4091.4515173875038
 21
1372.899734919527
 31
0.0
  0
LINE
  5
8652
  8
1
 10
-3763.4515173875038
 20
1698.8997349195281
 30
0.0
 11
-3843.4515173875038
 21
1698.8997349195281
 31
0.0
  0
LINE
  5
8653
  8
1
 10
-3788.4515173875038
 20
1672.8997349195281
 30
0.0
 11
-3818.4515173875038
 21
1672.8997349195281
 31
0.0
  0
LINE
  5
8654
  8
1
 10
-3815.9515173875038
 20
1672.8997349195281
 30
0.0
 11
-3815.2531061456898
 21
1676.8606218978421
 31
0.0
  0
LINE
  5
8655
  8
1
 10
-3803.4515173875038
 20
1738.899734919527
 30
0.0
 11
-3803.4515173875038
 21
1656.775147211059
 31
0.0
  0
LINE
  5
8656
  8
1
 10
-3790.9515173875038
 20
1672.8997349195281
 30
0.0
 11
-3791.6499286293169
 21
1676.8606218978421
 31
0.0
  0
LINE
  5
8657
  8
1
 10
-3146.9515173875038
 20
1352.899734919527
 30
0.0
 11
-3146.9515173875038
 21
1273.8035774258881
 31
0.0
  0
LINE
  5
8658
  8
1
 10
-2841.4515173875038
 20
1352.899734919527
 30
0.0
 11
-2841.4515173875038
 21
1372.8997349195299
 31
0.0
  0
LINE
  5
8659
  8
1
 10
-3821.4515173875038
 20
1418.3997349195281
 30
0.0
 11
-3821.4515173875038
 21
1422.8997349195281
 31
0.0
  0
LINE
  5
865A
  8
1
 10
-3111.4515173875038
 20
1418.3997349195281
 30
0.0
 11
-3111.4515173875038
 21
1422.8997349195281
 31
0.0
  0
LINE
  5
865B
  8
1
 10
-3821.4515173875038
 20
1422.8997349195281
 30
0.0
 11
-3111.451517387502
 21
1422.8997349195281
 31
0.0
  0
LINE
  5
865C
  8
1
 10
-3821.4515173875038
 20
1418.3997349195281
 30
0.0
 11
-3111.4515173875038
 21
1418.399734919529
 31
0.0
  0
CIRCLE
  5
865D
  8
1
 10
-3803.4515173875038
 20
1698.8997349195281
 30
0.0
 40
15.0
  0
CIRCLE
  5
865E
  8
1
 10
-3803.4515173875038
 20
1698.8997349195281
 30
0.0
 40
25.0
  0
LINE
  5
865F
  8
1
 10
-3169.4515173875038
 20
1698.8997349195281
 30
0.0
 11
-3089.4515173875038
 21
1698.8997349195281
 31
0.0
  0
CIRCLE
  5
8660
  8
1
 10
-3129.4515173875038
 20
1698.8997349195281
 30
0.0
 40
25.0
  0
CIRCLE
  5
8661
  8
1
 10
-3129.4515173875038
 20
1698.8997349195281
 30
0.0
 40
15.0
  0
LINE
  5
8662
  8
1
 10
-3144.4515173875038
 20
1672.8997349195281
 30
0.0
 11
-3114.4515173875038
 21
1672.8997349195281
 31
0.0
  0
LINE
  5
8663
  8
1
 10
-3129.4515173875038
 20
1738.899734919527
 30
0.0
 11
-3129.4515173875038
 21
1656.775147211059
 31
0.0
  0
LINE
  5
8664
  8
1
 10
-3116.9515173875038
 20
1672.8997349195281
 30
0.0
 11
-3117.6499286293179
 21
1676.8606218978421
 31
0.0
  0
LINE
  5
8665
  8
1
 10
-3141.9515173875038
 20
1672.8997349195281
 30
0.0
 11
-3141.2531061456898
 21
1676.8606218978421
 31
0.0
  0
LINE
  5
8666
  8
1
 10
-5582.0723238119208
 20
1694.899734919527
 30
0.0
 11
-5564.8307109630878
 21
1694.899734919527
 31
0.0
  0
LINE
  5
8667
  8
1
 10
-4899.4515173875043
 20
1741.4435392166711
 30
0.0
 11
-4899.4515173875043
 21
1656.775147211059
 31
0.0
  0
LINE
  5
8668
  8
1
 10
-4890.8307109630869
 20
1694.899734919527
 30
0.0
 11
-4908.0723238119172
 21
1694.899734919527
 31
0.0
  0
ARC
  5
8669
  8
1
 10
-4899.4515173875043
 20
1717.6497349195281
 30
0.0
 40
6.25
 50
359.9999380528439
 51
180.00006194715601
  0
LINE
  5
866A
  8
1
 10
-4911.0402599760228
 20
1698.8997349195281
 30
0.0
 11
-4887.0901923785104
 21
1698.8997349195281
 31
0.0
  0
LINE
  5
866B
  8
1
 10
-4914.4515173875043
 20
1672.8997349195281
 30
0.0
 11
-4884.4515173875043
 21
1672.8997349195281
 31
0.0
  0
LINE
  5
866C
  8
1
 10
-4886.9515173875052
 20
1672.8997349195281
 30
0.0
 11
-4890.8307109630869
 21
1694.8997349195281
 31
0.0
  0
LINE
  5
866D
  8
1
 10
-4893.201540074112
 20
1717.6665748156031
 30
0.0
 11
-4893.201564689206
 21
1694.899734919527
 31
0.0
  0
LINE
  5
866E
  8
1
 10
-4911.9515173875043
 20
1672.8997349195281
 30
0.0
 11
-4908.0723238119172
 21
1694.8997349195281
 31
0.0
  0
LINE
  5
866F
  8
1
 10
-4905.7014947008938
 20
1717.666574815376
 30
0.0
 11
-4905.7014700857999
 21
1694.899734919527
 31
0.0
  0
LINE
  5
8670
  8
1
 10
-4091.4515173875038
 20
1352.899734919527
 30
0.0
 11
-3951.4515173875038
 21
1272.899734919527
 31
0.0
  0
LINE
  5
8671
  8
1
 10
-4055.7514982779462
 20
1506.1340200675711
 30
0.0
 11
-4091.4515173875038
 21
1372.899734919527
 31
0.0
  0
ARC
  5
8672
  8
1
 10
-3838.4181873629132
 20
1447.899734919527
 30
0.0
 40
225.0
 50
90.0
 51
165.00000000000551
  0
ARC
  5
8673
  8
1
 10
-3094.4848474120931
 20
1447.899734919527
 30
0.0
 40
225.0
 50
14.999999999994451
 51
90.0
  0
LINE
  5
8674
  8
1
 10
-2877.1515364970578
 20
1506.1340200675711
 30
0.0
 11
-2841.451517387502
 21
1372.899734919527
 31
0.0
  0
LINE
  5
8675
  8
1
 10
-2841.4515173875038
 20
1352.899734919527
 30
0.0
 11
-2981.4515173875038
 21
1272.899734919527
 31
0.0
  0
LINE
  5
8676
  8
1
 10
-2841.451517387502
 20
1352.8997349195281
 30
0.0
 11
-2841.4515173875038
 21
1372.899734919527
 31
0.0
  0
DIMENSION
  5
86F6
  8
3
  2
*D1
 10
-5999.5770547676002
 20
1272.8997349195281
 30
0.0
 11
-5999.5770547676002
 21
1485.3367543899999
 31
0.0
 70
   128
 13
-5861.4515173875043
 23
1672.8997349195281
 33
0.0
 14
-5861.4515173875043
 24
1272.8997349195281
 34
0.0
 50
90.0
1001
ACAD
1000
DSTYLE
1002
{
1070
   287
1070
     3
1070
   287
1070
     3
1070
   287
1070
     3
1070
    40
1040
20.0
1070
   143
1040
0.039
1070
   172
1070
     1
1070
   271
1070
     0
1070
   279
1070
     0
1070
   288
1070
     1
1002
}
  0
DIMENSION
  5
8703
  8
3
  2
*D2
 10
-5999.5770547676002
 20
772.8997349195289
 30
0.0
 11
-5999.5770547676002
 21
1056.964541087003
 31
0.0
 70
   128
 13
-5861.4515173875043
 23
1272.8997349195281
 33
0.0
 14
-5640.9515173875043
 24
772.89973491952878
 34
0.0
 50
90.0
1001
ACAD
1000
DSTYLE
1002
{
1070
   287
1070
     3
1070
   287
1070
     3
1070
   287
1070
     3
1070
    40
1040
20.0
1070
   143
1040
0.039
1070
   172
1070
     1
1070
   271
1070
     0
1070
   279
1070
     0
1070
   288
1070
     1
1002
}
  0
DIMENSION
  5
8710
  8
3
  2
*D3
 10
-5999.5770547676002
 20
672.8997349195289
 30
0.0
 11
-5999.5770547676002
 21
501.47116349095643
 31
0.0
 70
   128
 13
-5640.9515173875043
 23
772.89973491952878
 33
0.0
 14
-5640.9515173875043
 24
672.89973491952878
 34
0.0
 50
90.0
1001
ACAD
1000
DSTYLE
1002
{
1070
   287
1070
     3
1070
   287
1070
     3
1070
   287
1070
     3
1070
    40
1040
20.0
1070
   143
1040
0.039
1070
   172
1070
     1
1070
   271
1070
     0
1070
   279
1070
     0
1070
   288
1070
     1
1002
}
  0
DIMENSION
  5
871F
  8
3
  2
*D4
 10
-5823.164901399894
 20
672.89973491952878
 30
0.0
 11
-5823.164901399894
 21
524.32830634809932
 31
0.0
 70
   128
 13
-5561.4515173875043
 23
712.89973491952867
 33
0.0
 14
-5640.9515173875043
 24
672.89973491952878
 34
0.0
 50
90.0
1001
ACAD
1000
DSTYLE
1002
{
1070
   287
1070
     3
1070
   287
1070
     3
1070
   287
1070
     3
1070
    40
1040
20.0
1070
   143
1040
0.039
1070
   172
1070
     1
1070
   271
1070
     0
1070
   279
1070
     0
1070
   288
1070
     1
1002
}
  0
DIMENSION
  5
872E
  8
3
  2
*D5
 10
-6217.6420387107419
 20
672.8997349195289
 30
0.0
 11
-6217.6420387107419
 21
1174.4609199903191
 31
0.0
 70
   128
 13
-5861.4515173875043
 23
1672.8997349195281
 33
0.0
 14
-5640.9515173875043
 24
672.89973491952878
 34
0.0
 50
90.0
1001
ACAD
1000
DSTYLE
1002
{
1070
   287
1070
     3
1070
   287
1070
     3
1070
   287
1070
     3
1070
    40
1040
20.0
1070
   143
1040
0.039
1070
   172
1070
     1
1070
   271
1070
     0
1070
   279
1070
     0
1070
   288
1070
     1
1002
}
  0
DIMENSION
  5
873B
  8
3
  2
*D6
 10
-4921.4515173875043
 20
453.94141796609802
 30
0.0
 11
-5233.8483256984991
 21
453.94141796609802
 31
0.0
 70
   128
 13
-5551.4515173875052
 23
702.89973491952878
 33
0.0
 14
-4921.4515173875043
 24
702.89973491952878
 34
0.0
1001
ACAD
1000
DSTYLE
1002
{
1070
   287
1070
     3
1070
   287
1070
     3
1070
   287
1070
     3
1070
    40
1040
20.0
1070
   143
1040
0.039
1070
   172
1070
     1
1070
   271
1070
     0
1070
   279
1070
     0
1070
   288
1070
     1
1002
}
  0
DIMENSION
  5
8748
  8
3
  2
*D7
 10
-4836.4515173875043
 20
278.33431163522067
 30
0.0
 11
-5232.0362295393743
 21
278.33431163522067
 31
0.0
 70
   128
 13
-5636.4515173875043
 23
672.89973491952878
 33
0.0
 14
-4836.4515173875043
 24
672.89973491952878
 34
0.0
1001
ACAD
1000
DSTYLE
1002
{
1070
   287
1070
     3
1070
   287
1070
     3
1070
   287
1070
     3
1070
    40
1040
20.0
1070
   143
1040
0.039
1070
   172
1070
     1
1070
   271
1070
     0
1070
   279
1070
     0
1070
   288
1070
     1
1002
}
  0
DIMENSION
  5
8755
  8
3
  2
*D8
 10
-4611.4515173875043
 20
1912.1605982831859
 30
0.0
 11
-5250.0026908585896
 21
1912.1605982831859
 31
0.0
 70
   128
 13
-5861.4515173875043
 23
1672.8997349195281
 33
0.0
 14
-4611.4515173875043
 24
1672.8997349195281
 34
0.0
1001
ACAD
1000
DSTYLE
1002
{
1070
   287
1070
     3
1070
   287
1070
     3
1070
   287
1070
     3
1070
    40
1040
20.0
1070
   143
1040
0.039
1070
   172
1070
     1
1070
   271
1070
     0
1070
   279
1070
     0
1070
   288
1070
     1
1002
}
  0
DIMENSION
  5
8762
  8
3
  2
*D9
 10
-2841.4515173875038
 20
1900.1158738794111
 30
0.0
 11
-3483.7541142000482
 21
1900.1158738794111
 31
0.0
 70
   128
 13
-4091.4515173875038
 23
1372.899734919527
 33
0.0
 14
-2841.4515173875038
 24
1372.899734919534
 34
0.0
1001
ACAD
1000
DSTYLE
1002
{
1070
   287
1070
     3
1070
   287
1070
     3
1070
   287
1070
     3
1070
    40
1040
20.0
1070
   143
1040
0.039
1070
   172
1070
     1
1070
   271
1070
     0
1070
   279
1070
     0
1070
   288
1070
     1
1002
}
  0
DIMENSION
  5
876F
  8
3
  2
*D10
 10
-3151.4515173875038
 20
447.10166802726962
 30
0.0
 11
-3456.846792672357
 21
447.10166802726962
 31
0.0
 70
   128
 13
-3781.4515173875038
 23
702.89973491952878
 33
0.0
 14
-3151.4515173875038
 24
702.89973491952878
 34
0.0
1001
ACAD
1000
DSTYLE
1002
{
1070
   287
1070
     3
1070
   287
1070
     3
1070
   287
1070
     3
1070
    40
1040
20.0
1070
   143
1040
0.039
1070
   172
1070
     1
1070
   271
1070
     0
1070
   279
1070
     0
1070
   288
1070
     1
1002
}
  0
DIMENSION
  5
877C
  8
3
  2
*D11
 10
-3066.4515173875038
 20
281.01256584613469
 30
0.0
 11
-3452.2920721414921
 21
281.01256584613469
 31
0.0
 70
   128
 13
-3866.4515173875038
 23
672.89973491952878
 33
0.0
 14
-3066.4515173875038
 24
672.89973491952878
 34
0.0
1001
ACAD
1000
DSTYLE
1002
{
1070
   287
1070
     3
1070
   287
1070
     3
1070
   287
1070
     3
1070
    40
1040
20.0
1070
   143
1040
0.039
1070
   172
1070
     1
1070
   271
1070
     0
1070
   279
1070
     0
1070
   288
1070
     1
1002
}
  0
ENDSEC
  0
EOF
