  0
SECTION
  2
HEADER
  9
$ACADVER
  1
AC1009
  9
$INSBASE
 10
0.0
 20
0.0
 30
0.0
  9
$EXTMIN
 10
-6746.4204398848642
 20
-1817.2033734408101
 30
0.0
  9
$EXTMAX
 10
-2546.4204398848628
 20
4082.796626559189
 30
0.0
  9
$LIMMIN
 10
0.0
 20
0.0
  9
$LIMMAX
 10
297.0
 20
210.0
  9
$ORTHOMODE
 70
     0
  9
$REGENMODE
 70
     1
  9
$FILLMODE
 70
     0
  9
$QTEXTMODE
 70
     0
  9
$MIRRTEXT
 70
     1
  9
$DRAGMODE
 70
     2
  9
$LTSCALE
 40
100.0
  9
$OSMODE
 70
    37
  9
$ATTMODE
 70
     1
  9
$TEXTSIZE
 40
180.0
  9
$TRACEWID
 40
0.05
  9
$TEXTSTYLE
  7
STANDARD
  9
$CLAYER
  8
3
  9
$CELTYPE
  6
BYLAYER
  9
$CECOLOR
 62
   256
  9
$DIMSCALE
 40
20.0
  9
$DIMASZ
 40
2.0
  9
$DIMEXO
 40
0.5
  9
$DIMDLI
 40
10.0
  9
$DIMRND
 40
0.0
  9
$DIMDLE
 40
0.0
  9
$DIMEXE
 40
1.0
  9
$DIMTP
 40
1.0
  9
$DIMTM
 40
1.0
  9
$DIMTXT
 40
3.0
  9
$DIMCEN
 40
0.0
  9
$DIMTSZ
 40
0.0
  9
$DIMTOL
 70
     0
  9
$DIMLIM
 70
     0
  9
$DIMTIH
 70
     0
  9
$DIMTOH
 70
     0
  9
$DIMSE1
 70
     0
  9
$DIMSE2
 70
     0
  9
$DIMTAD
 70
     1
  9
$DIMZIN
 70
     8
  9
$DIMBLK
  1

  9
$DIMASO
 70
     1
  9
$DIMSHO
 70
     1
  9
$DIMPOST
  1

  9
$DIMAPOST
  1

  9
$DIMALT
 70
     0
  9
$DIMALTD
 70
     2
  9
$DIMALTF
 40
0.039
  9
$DIMLFAC
 40
1.0
  9
$DIMTOFL
 70
     1
  9
$DIMTVP
 40
0.0
  9
$DIMTIX
 70
     0
  9
$DIMSOXD
 70
     0
  9
$DIMSAH
 70
     1
  9
$DIMBLK1
  1
OPEN
  9
$DIMBLK2
  1
OPEN
  9
$DIMSTYLE
  2
IGA
  9
$DIMCLRD
 70
     0
  9
$DIMCLRE
 70
     0
  9
$DIMCLRT
 70
     0
  9
$DIMTFAC
 40
10.0
  9
$DIMGAP
 40
1.0
  9
$LUNITS
 70
     2
  9
$LUPREC
 70
     3
  9
$SKETCHINC
 40
0.1
  9
$FILLETRAD
 40
50.0
  9
$AUNITS
 70
     0
  9
$AUPREC
 70
     0
  9
$MENU
  1
acad
  9
$ELEVATION
 40
0.0
  9
$PELEVATION
 40
0.0
  9
$THICKNESS
 40
0.0
  9
$LIMCHECK
 70
     0
  9
$BLIPMODE
 70
     0
  9
$CHAMFERA
 40
0.5
  9
$CHAMFERB
 40
0.5
  9
$SKPOLY
 70
     0
  9
$TDCREATE
 40
2453249.427640046
  9
$TDUPDATE
 40
2454953.6363062379
  9
$TDINDWG
 40
0.0623229514
  9
$TDUSRTIMER
 40
0.0623229514
  9
$USRTIMER
 70
     1
  9
$ANGBASE
 50
0.0
  9
$ANGDIR
 70
     0
  9
$PDMODE
 70
     0
  9
$PDSIZE
 40
0.0
  9
$PLINEWID
 40
0.0
  9
$COORDS
 70
     1
  9
$SPLFRAME
 70
     0
  9
$SPLINETYPE
 70
     6
  9
$SPLINESEGS
 70
     8
  9
$ATTDIA
 70
     0
  9
$ATTREQ
 70
     1
  9
$HANDLING
 70
 10241
  9
$HANDSEED
  5
8B30
  9
$SURFTAB1
 70
     6
  9
$SURFTAB2
 70
     6
  9
$SURFTYPE
 70
     6
  9
$SURFU
 70
     6
  9
$SURFV
 70
     6
  9
$UCSNAME
  2

  9
$UCSORG
 10
0.0
 20
0.0
 30
0.0
  9
$UCSXDIR
 10
1.0
 20
0.0
 30
0.0
  9
$UCSYDIR
 10
0.0
 20
1.0
 30
0.0
  9
$PUCSNAME
  2

  9
$PUCSORG
 10
0.0
 20
0.0
 30
0.0
  9
$PUCSXDIR
 10
1.0
 20
0.0
 30
0.0
  9
$PUCSYDIR
 10
0.0
 20
1.0
 30
0.0
  9
$USERI1
 70
     0
  9
$USERI2
 70
     0
  9
$USERI3
 70
     0
  9
$USERI4
 70
     0
  9
$USERI5
 70
     0
  9
$USERR1
 40
0.0
  9
$USERR2
 40
0.0
  9
$USERR3
 40
0.0
  9
$USERR4
 40
0.0
  9
$USERR5
 40
0.0
  9
$WORLDVIEW
 70
     1
  9
$SHADEDGE
 70
     3
  9
$SHADEDIF
 70
    70
  9
$TILEMODE
 70
     1
  9
$MAXACTVP
 70
    16
  9
$PLIMCHECK
 70
     0
  9
$PEXTMIN
 10
1.0000000000000000E+020
 20
1.0000000000000000E+020
 30
1.0000000000000000E+020
  9
$PEXTMAX
 10
-1.0000000000000000E+020
 20
-1.0000000000000000E+020
 30
-1.0000000000000000E+020
  9
$PLIMMIN
 10
0.0
 20
0.0
  9
$PLIMMAX
 10
12.0
 20
9.0
  9
$UNITMODE
 70
     0
  9
$VISRETAIN
 70
     0
  9
$PLINEGEN
 70
     0
  9
$PSLTSCALE
 70
     1
  0
ENDSEC
  0
SECTION
  2
TABLES
  0
TABLE
  2
VPORT
 70
     2
  0
VPORT
  2
*ACTIVE
 70
     0
 10
0.0
 20
0.0
 11
1.0
 21
1.0
 12
-2797.8769079185008
 22
-1089.294884530869
 13
0.0
 23
0.0
 14
10.0
 24
10.0
 15
10.0
 25
10.0
 16
0.0
 26
0.0
 36
1.0
 17
0.0
 27
0.0
 37
0.0
 40
1730.334536968368
 41
3.1666666666666661
 42
50.0
 43
0.0
 44
0.0
 50
0.0
 51
0.0
 71
     0
 72
   100
 73
     1
 74
     0
 75
     0
 76
     0
 77
     0
 78
     0
  0
ENDTAB
  0
TABLE
  2
LTYPE
 70
     2
  0
LTYPE
  2
CONTINUOUS
 70
     0
  3
Solid line
 72
    65
 73
     0
 40
0.0
  0
LTYPE
  2
CENTER
 70
     0
  3
____ _ ____ _ ____ _ ____ _ ____ _ ____ _ ____ 
 72
    65
 73
     4
 40
2.0
 49
1.25
 49
-0.25
 49
0.25
 49
-0.25
  0
ENDTAB
  0
TABLE
  2
LAYER
 70
     6
  0
LAYER
  2
0
 70
     0
 62
     7
  6
CONTINUOUS
  0
LAYER
  2
3
 70
     0
 62
     2
  6
CONTINUOUS
  0
LAYER
  2
2
 70
     0
 62
     3
  6
CENTER
  0
LAYER
  2
1
 70
     0
 62
     4
  6
CONTINUOUS
  0
LAYER
  2
4
 70
     0
 62
     7
  6
CONTINUOUS
  0
LAYER
  2
DEFPOINTS
 70
     0
 62
     7
  6
CONTINUOUS
  0
ENDTAB
  0
TABLE
  2
STYLE
 70
     1
  0
STYLE
  2
STANDARD
 70
     0
 40
0.0
 41
1.0
 50
0.0
 71
     0
 42
180.0
  3
simplex.shx
  4
extfont.shx
  0
ENDTAB
  0
TABLE
  2
VIEW
 70
     0
  0
ENDTAB
  0
TABLE
  2
UCS
 70
     0
  0
ENDTAB
  0
TABLE
  2
APPID
 70
     1
  0
APPID
  2
ACAD
 70
     0
  0
ENDTAB
  0
TABLE
  2
DIMSTYLE
 70
     1
  0
DIMSTYLE
  2
IGA
 70
     0
  3

  4

  5

  6
OPEN
  7
OPEN
 40
2.0
 41
2.0
 42
0.5
 43
10.0
 44
1.0
 45
0.0
 46
0.0
 47
1.0
 48
1.0
140
3.0
141
0.0
142
0.0
143
0.03937
144
1.0
145
0.0
146
10.0
147
1.0
 71
     0
 72
     0
 73
     0
 74
     0
 75
     0
 76
     0
 77
     1
 78
     8
170
     0
171
     2
172
     0
173
     1
174
     0
175
     0
176
     0
177
     0
178
     0
  0
ENDTAB
  0
ENDSEC
  0
SECTION
  2
BLOCKS
  0
BLOCK
  8
0
  2
$MODEL_SPACE
 70
     0
 10
0.0
 20
0.0
 30
0.0
  3
$MODEL_SPACE
  1

  0
ENDBLK
  5
1B
  8
0
  0
BLOCK
 67
     1
  8
0
  2
$PAPER_SPACE
 70
     0
 10
0.0
 20
0.0
 30
0.0
  3
$PAPER_SPACE
  1

  0
ENDBLK
  5
18
 67
     1
  8
0
  0
BLOCK
  8
0
  2
_OPEN
 70
     0
 10
0.0
 20
0.0
 30
0.0
  3
_OPEN
  1

  0
LINE
  5
79FD
  8
0
  6
BYBLOCK
 62
     0
 10
-1.0
 20
0.1666666666666666
 30
0.0
 11
0.0
 21
0.0
 31
0.0
  0
LINE
  5
79FE
  8
0
  6
BYBLOCK
 62
     0
 10
0.0
 20
0.0
 30
0.0
 11
-1.0
 21
-0.1666666666666666
 31
0.0
  0
LINE
  5
79FF
  8
0
  6
BYBLOCK
 62
     0
 10
0.0
 20
0.0
 30
0.0
 11
-1.0
 21
0.0
 31
0.0
  0
ENDBLK
  5
7A01
  8
0
  0
BLOCK
  8
0
  2
*D1
 70
     1
 10
0.0
 20
0.0
 30
0.0
  3
*D1
  1

  0
LINE
  5
8ABE
  8
3
 62
     0
 10
-5806.4515173875043
 20
1672.8997349195281
 30
0.0
 11
-6013.1708793778671
 21
1672.8997349195281
 31
0.0
  0
LINE
  5
8ABF
  8
3
 62
     0
 10
-5804.8515173875039
 20
1272.8997349195281
 30
0.0
 11
-6013.1708793778671
 21
1272.8997349195281
 31
0.0
  0
LINE
  5
8AC0
  8
3
 62
     0
 10
-5993.1708793778671
 20
1632.8997349195281
 30
0.0
 11
-5993.1708793778671
 21
1312.8997349195281
 31
0.0
  0
INSERT
  5
8AC1
  8
3
 62
     0
  2
_OPEN
 10
-5993.1708793778671
 20
1672.8997349195281
 30
0.0
 41
40.0
 42
40.0
 43
40.0
 50
90.0
  0
INSERT
  5
8AC2
  8
3
 62
     0
  2
_OPEN
 10
-5993.1708793778671
 20
1272.8997349195281
 30
0.0
 41
40.0
 42
40.0
 43
40.0
 50
270.0
  0
TEXT
  8
3
  40
60
  5
8B25
  62
0
  72
0
  71
0
 10
-6163.17
 20
1372.98
 30
0.000000
  1
400
  0
POINT
  5
8AC4
  8
DEFPOINTS
 62
     0
 10
-5796.4515173875043
 20
1672.8997349195281
 30
0.0
  0
POINT
  5
8AC5
  8
DEFPOINTS
 62
     0
 10
-5794.851517387503
 20
1272.8997349195281
 30
0.0
  0
POINT
  5
8AC6
  8
DEFPOINTS
 62
     0
 10
-5993.1708793778671
 20
1272.8997349195281
 30
0.0
  0
ENDBLK
  5
88E0
  8
0
  0
BLOCK
  8
0
  2
*D2
 70
     1
 10
0.0
 20
0.0
 30
0.0
  3
*D2
  1

  0
LINE
  5
8AC7
  8
3
 62
     0
 10
-5806.4515173875043
 20
1272.8997349195281
 30
0.0
 11
-6010.2357603320197
 21
1272.8997349195281
 31
0.0
  0
LINE
  5
8AC8
  8
3
 62
     0
 10
-5605.9515173875043
 20
772.89973491952878
 30
0.0
 11
-6010.2357603320197
 21
772.8997349195289
 31
0.0
  0
LINE
  5
8AC9
  8
3
 62
     0
 10
-5990.2357603320188
 20
1232.8997349195281
 30
0.0
 11
-5990.2357603320188
 21
812.8997349195289
 31
0.0
  0
INSERT
  5
8ACA
  8
3
 62
     0
  2
_OPEN
 10
-5990.2357603320188
 20
1272.8997349195281
 30
0.0
 41
40.0
 42
40.0
 43
40.0
 50
90.0
  0
INSERT
  5
8ACB
  8
3
 62
     0
  2
_OPEN
 10
-5990.2357603320188
 20
772.8997349195289
 30
0.0
 41
40.0
 42
40.0
 43
40.0
 50
270.0
  0
TEXT
  8
3
  40
60
  5
8B26
  62
0
  72
0
  71
0
 10
-6160.24
 20
927.268
 30
0.000000
  1
500
  0
POINT
  5
8ACD
  8
DEFPOINTS
 62
     0
 10
-5796.4515173875043
 20
1272.8997349195281
 30
0.0
  0
POINT
  5
8ACE
  8
DEFPOINTS
 62
     0
 10
-5595.9515173875043
 20
772.89973491952878
 30
0.0
  0
POINT
  5
8ACF
  8
DEFPOINTS
 62
     0
 10
-5990.2357603320188
 20
772.8997349195289
 30
0.0
  0
ENDBLK
  5
88ED
  8
0
  0
BLOCK
  8
0
  2
*D3
 70
     1
 10
0.0
 20
0.0
 30
0.0
  3
*D3
  1

  0
LINE
  5
8AD0
  8
3
 62
     0
 10
-5605.9515173875043
 20
772.89973491952878
 30
0.0
 11
-6010.2357603320197
 21
772.8997349195289
 31
0.0
  0
LINE
  5
8AD1
  8
3
 62
     0
 10
-5605.9515173875043
 20
672.89973491952878
 30
0.0
 11
-6010.2357603320197
 21
672.8997349195289
 31
0.0
  0
LINE
  5
8AD2
  8
3
 62
     0
 10
-5990.2357603320188
 20
812.8997349195289
 30
0.0
 11
-5990.2357603320188
 21
852.8997349195289
 31
0.0
  0
LINE
  5
8AD3
  8
3
 62
     0
 10
-5990.2357603320188
 20
632.89973491952878
 30
0.0
 11
-5990.2357603320188
 21
410.04259206238601
 31
0.0
  0
LINE
  5
8AD4
  8
3
 62
     0
 10
-5990.2357603320188
 20
772.8997349195289
 30
0.0
 11
-5990.2357603320188
 21
672.8997349195289
 31
0.0
  0
INSERT
  5
8AD5
  8
3
 62
     0
  2
_OPEN
 10
-5990.2357603320188
 20
772.8997349195289
 30
0.0
 41
40.0
 42
40.0
 43
40.0
 50
270.0
  0
INSERT
  5
8AD6
  8
3
 62
     0
  2
_OPEN
 10
-5990.2357603320188
 20
672.8997349195289
 30
0.0
 41
40.0
 42
40.0
 43
40.0
 50
90.0
  0
TEXT
  8
3
  40
60
  5
8B27
  62
0
  72
0
  71
0
 10
-6160.24
 20
395.271
 30
0.000000
  1
100
  0
POINT
  5
8AD8
  8
DEFPOINTS
 62
     0
 10
-5595.9515173875043
 20
772.89973491952878
 30
0.0
  0
POINT
  5
8AD9
  8
DEFPOINTS
 62
     0
 10
-5595.9515173875043
 20
672.89973491952878
 30
0.0
  0
POINT
  5
8ADA
  8
DEFPOINTS
 62
     0
 10
-5990.2357603320188
 20
672.8997349195289
 30
0.0
  0
ENDBLK
  5
88FC
  8
0
  0
BLOCK
  8
0
  2
*D4
 70
     1
 10
0.0
 20
0.0
 30
0.0
  3
*D4
  1

  0
LINE
  5
8ADB
  8
3
 62
     0
 10
-5806.4515173875043
 20
1672.8997349195281
 30
0.0
 11
-6239.1733984542807
 21
1672.8997349195281
 31
0.0
  0
LINE
  5
8ADC
  8
3
 62
     0
 10
-5615.9515173875043
 20
672.89973491952878
 30
0.0
 11
-6239.1733984542807
 21
672.8997349195289
 31
0.0
  0
LINE
  5
8ADD
  8
3
 62
     0
 10
-6219.1733984542798
 20
1632.899734919529
 30
0.0
 11
-6219.1733984542798
 21
712.89973491952878
 31
0.0
  0
INSERT
  5
8ADE
  8
3
 62
     0
  2
_OPEN
 10
-6219.1733984542798
 20
1672.8997349195281
 30
0.0
 41
40.0
 42
40.0
 43
40.0
 50
90.0
  0
INSERT
  5
8ADF
  8
3
 62
     0
  2
_OPEN
 10
-6219.1733984542798
 20
672.8997349195289
 30
0.0
 41
40.0
 42
40.0
 43
40.0
 50
270.0
  0
TEXT
  8
3
  40
60
  5
8B28
  62
0
  72
0
  71
0
 10
-6389.17
 20
1053.36
 30
0.000000
  1
1000
  0
POINT
  5
8AE1
  8
DEFPOINTS
 62
     0
 10
-5796.4515173875043
 20
1672.8997349195281
 30
0.0
  0
POINT
  5
8AE2
  8
DEFPOINTS
 62
     0
 10
-5605.9515173875043
 20
672.89973491952878
 30
0.0
  0
POINT
  5
8AE3
  8
DEFPOINTS
 62
     0
 10
-6219.1733984542798
 20
672.8997349195289
 30
0.0
  0
ENDBLK
  5
8909
  8
0
  0
BLOCK
  8
0
  2
*D5
 70
     1
 10
0.0
 20
0.0
 30
0.0
  3
*D5
  1

  0
LINE
  5
8AE4
  8
3
 62
     0
 10
-5536.4515173875043
 20
712.89973491952867
 30
0.0
 11
-5825.3246247413408
 21
712.89973491952867
 31
0.0
  0
LINE
  5
8AE5
  8
3
 62
     0
 10
-5605.9515173875043
 20
672.89973491952878
 30
0.0
 11
-5825.3246247413408
 21
672.89973491952878
 31
0.0
  0
LINE
  5
8AE6
  8
3
 62
     0
 10
-5805.3246247413408
 20
752.89973491952878
 30
0.0
 11
-5805.3246247413408
 21
792.89973491952867
 31
0.0
  0
LINE
  5
8AE7
  8
3
 62
     0
 10
-5805.3246247413408
 20
632.89973491952878
 30
0.0
 11
-5805.3246247413408
 21
455.75687777667167
 31
0.0
  0
LINE
  5
8AE8
  8
3
 62
     0
 10
-5805.3246247413408
 20
712.89973491952867
 30
0.0
 11
-5805.3246247413408
 21
672.89973491952878
 31
0.0
  0
INSERT
  5
8AE9
  8
3
 62
     0
  2
_OPEN
 10
-5805.3246247413408
 20
712.89973491952867
 30
0.0
 41
40.0
 42
40.0
 43
40.0
 50
270.0
  0
INSERT
  5
8AEA
  8
3
 62
     0
  2
_OPEN
 10
-5805.3246247413408
 20
672.89973491952878
 30
0.0
 41
40.0
 42
40.0
 43
40.0
 50
90.0
  0
TEXT
  8
3
  40
60
  5
8B29
  62
0
  72
0
  71
0
 10
-5975.32
 20
418.128
 30
0.000000
  1
40
  0
POINT
  5
8AEC
  8
DEFPOINTS
 62
     0
 10
-5526.4515173875052
 20
712.89973491952867
 30
0.0
  0
POINT
  5
8AED
  8
DEFPOINTS
 62
     0
 10
-5595.9515173875043
 20
672.89973491952878
 30
0.0
  0
POINT
  5
8AEE
  8
DEFPOINTS
 62
     0
 10
-5805.3246247413408
 20
672.89973491952878
 30
0.0
  0
ENDBLK
  5
8918
  8
0
  0
BLOCK
  8
0
  2
*D6
 70
     1
 10
0.0
 20
0.0
 30
0.0
  3
*D6
  1

  0
LINE
  5
8AEF
  8
3
 62
     0
 10
-5516.4515173875052
 20
692.89973491952867
 30
0.0
 11
-5516.4515173875052
 21
433.30394898835033
 31
0.0
  0
LINE
  5
8AF0
  8
3
 62
     0
 10
-4956.4515173875043
 20
692.89973491952867
 30
0.0
 11
-4956.4515173875043
 21
433.30394898835033
 31
0.0
  0
LINE
  5
8AF1
  8
3
 62
     0
 10
-5476.4515173875052
 20
453.30394898835038
 30
0.0
 11
-4996.4515173875043
 21
453.30394898835038
 31
0.0
  0
INSERT
  5
8AF2
  8
3
 62
     0
  2
_OPEN
 10
-5516.4515173875052
 20
453.30394898835038
 30
0.0
 41
40.0
 42
40.0
 43
40.0
 50
180.0
  0
INSERT
  5
8AF3
  8
3
 62
     0
  2
_OPEN
 10
-4956.4515173875043
 20
453.30394898835038
 30
0.0
 41
40.0
 42
40.0
 43
40.0
  0
TEXT
  8
3
  40
60
  5
8B2A
  62
0
  72
0
  71
0
 10
-5348.57
 20
397.104
 30
0.000000
  1
560
  0
POINT
  5
8AF5
  8
DEFPOINTS
 62
     0
 10
-5516.4515173875052
 20
702.89973491952878
 30
0.0
  0
POINT
  5
8AF6
  8
DEFPOINTS
 62
     0
 10
-4956.4515173875043
 20
702.89973491952878
 30
0.0
  0
POINT
  5
8AF7
  8
DEFPOINTS
 62
     0
 10
-4956.4515173875043
 20
453.30394898835038
 30
0.0
  0
ENDBLK
  5
8925
  8
0
  0
BLOCK
  8
0
  2
*D7
 70
     1
 10
0.0
 20
0.0
 30
0.0
  3
*D7
  1

  0
LINE
  5
8AF8
  8
3
 62
     0
 10
-5591.4515173875043
 20
662.89973491952867
 30
0.0
 11
-5591.4515173875043
 21
243.7492378219649
 31
0.0
  0
LINE
  5
8AF9
  8
3
 62
     0
 10
-4881.4515173875043
 20
662.89973491952867
 30
0.0
 11
-4881.4515173875043
 21
243.7492378219649
 31
0.0
  0
LINE
  5
8AFA
  8
3
 62
     0
 10
-5551.4515173875052
 20
263.74923782196493
 30
0.0
 11
-4921.4515173875043
 21
263.74923782196493
 31
0.0
  0
INSERT
  5
8AFB
  8
3
 62
     0
  2
_OPEN
 10
-5591.4515173875043
 20
263.74923782196493
 30
0.0
 41
40.0
 42
40.0
 43
40.0
 50
180.0
  0
INSERT
  5
8AFC
  8
3
 62
     0
  2
_OPEN
 10
-4881.4515173875043
 20
263.74923782196493
 30
0.0
 41
40.0
 42
40.0
 43
40.0
  0
TEXT
  8
3
  40
60
  5
8B2B
  62
0
  72
0
  71
0
 10
-5353.08
 20
207.549
 30
0.000000
  1
710
  0
POINT
  5
8AFE
  8
DEFPOINTS
 62
     0
 10
-5591.4515173875043
 20
672.89973491952878
 30
0.0
  0
POINT
  5
8AFF
  8
DEFPOINTS
 62
     0
 10
-4881.4515173875043
 20
672.89973491952878
 30
0.0
  0
POINT
  5
8B00
  8
DEFPOINTS
 62
     0
 10
-4881.4515173875043
 20
263.74923782196493
 30
0.0
  0
ENDBLK
  5
8932
  8
0
  0
BLOCK
  8
0
  2
*D8
 70
     1
 10
0.0
 20
0.0
 30
0.0
  3
*D8
  1

  0
LINE
  5
8B01
  8
3
 62
     0
 10
-5796.4515173875043
 20
1682.899734919529
 30
0.0
 11
-5796.4515173875043
 21
1924.1215939234951
 31
0.0
  0
LINE
  5
8B02
  8
3
 62
     0
 10
-4676.4515173875034
 20
1682.8997349195281
 30
0.0
 11
-4676.4515173875034
 21
1924.1215939234951
 31
0.0
  0
LINE
  5
8B03
  8
3
 62
     0
 10
-5756.4515173875043
 20
1904.1215939234951
 30
0.0
 11
-4716.4515173875034
 21
1904.1215939234951
 31
0.0
  0
INSERT
  5
8B04
  8
3
 62
     0
  2
_OPEN
 10
-5796.4515173875043
 20
1904.1215939234951
 30
0.0
 41
40.0
 42
40.0
 43
40.0
 50
180.0
  0
INSERT
  5
8B05
  8
3
 62
     0
  2
_OPEN
 10
-4676.4515173875034
 20
1904.1215939234951
 30
0.0
 41
40.0
 42
40.0
 43
40.0
  0
TEXT
  8
3
  40
60
  5
8B2C
  62
0
  72
0
  71
0
 10
-5371.71
 20
1847.92
 30
0.000000
  1
1120
  0
POINT
  5
8B07
  8
DEFPOINTS
 62
     0
 10
-5796.4515173875043
 20
1672.8997349195281
 30
0.0
  0
POINT
  5
8B08
  8
DEFPOINTS
 62
     0
 10
-4676.4515173875034
 20
1672.8997349195281
 30
0.0
  0
POINT
  5
8B09
  8
DEFPOINTS
 62
     0
 10
-4676.4515173875034
 20
1904.1215939234951
 30
0.0
  0
ENDBLK
  5
893F
  8
0
  0
BLOCK
  8
0
  2
*D9
 70
     1
 10
0.0
 20
0.0
 30
0.0
  3
*D9
  1

  0
LINE
  5
8B0A
  8
3
 62
     0
 10
-4026.4515173875052
 20
1382.8997349195281
 30
0.0
 11
-4026.4515173875052
 21
1903.6846753317459
 31
0.0
  0
LINE
  5
8B0B
  8
3
 62
     0
 10
-2906.4515173875038
 20
1382.899734919534
 30
0.0
 11
-2906.4515173875038
 21
1903.6846753317459
 31
0.0
  0
LINE
  5
8B0C
  8
3
 62
     0
 10
-3986.4515173875038
 20
1883.684675331745
 30
0.0
 11
-2946.4515173875038
 21
1883.684675331745
 31
0.0
  0
INSERT
  5
8B0D
  8
3
 62
     0
  2
_OPEN
 10
-4026.4515173875052
 20
1883.684675331745
 30
0.0
 41
40.0
 42
40.0
 43
40.0
 50
180.0
  0
INSERT
  5
8B0E
  8
3
 62
     0
  2
_OPEN
 10
-2906.4515173875038
 20
1883.684675331745
 30
0.0
 41
40.0
 42
40.0
 43
40.0
  0
TEXT
  8
3
  40
60
  5
8B2D
  62
0
  72
0
  71
0
 10
-3598.74
 20
1827.48
 30
0.000000
  1
1120
  0
POINT
  5
8B10
  8
DEFPOINTS
 62
     0
 10
-4026.4515173875052
 20
1372.899734919527
 30
0.0
  0
POINT
  5
8B11
  8
DEFPOINTS
 62
     0
 10
-2906.4515173875038
 20
1372.899734919534
 30
0.0
  0
POINT
  5
8B12
  8
DEFPOINTS
 62
     0
 10
-2906.4515173875038
 20
1883.684675331745
 30
0.0
  0
ENDBLK
  5
8959
  8
0
  0
BLOCK
  8
0
  2
*D10
 70
     1
 10
0.0
 20
0.0
 30
0.0
  3
*D10
  1

  0
LINE
  5
8B13
  8
3
 62
     0
 10
-3746.4515173875038
 20
692.89973491952867
 30
0.0
 11
-3746.4515173875038
 21
406.31467484277158
 31
0.0
  0
LINE
  5
8B14
  8
3
 62
     0
 10
-3186.4515173875038
 20
692.89973491952867
 30
0.0
 11
-3186.4515173875038
 21
406.31467484277158
 31
0.0
  0
LINE
  5
8B15
  8
3
 62
     0
 10
-3706.4515173875038
 20
426.31467484277158
 30
0.0
 11
-3226.4515173875038
 21
426.31467484277158
 31
0.0
  0
INSERT
  5
8B16
  8
3
 62
     0
  2
_OPEN
 10
-3746.4515173875038
 20
426.31467484277158
 30
0.0
 41
40.0
 42
40.0
 43
40.0
 50
180.0
  0
INSERT
  5
8B17
  8
3
 62
     0
  2
_OPEN
 10
-3186.4515173875038
 20
426.31467484277158
 30
0.0
 41
40.0
 42
40.0
 43
40.0
  0
TEXT
  8
3
  40
60
  5
8B2E
  62
0
  72
0
  71
0
 10
-3574.22
 20
370.115
 30
0.000000
  1
560
  0
POINT
  5
8B19
  8
DEFPOINTS
 62
     0
 10
-3746.4515173875038
 20
702.89973491952878
 30
0.0
  0
POINT
  5
8B1A
  8
DEFPOINTS
 62
     0
 10
-3186.4515173875038
 20
702.89973491952878
 30
0.0
  0
POINT
  5
8B1B
  8
DEFPOINTS
 62
     0
 10
-3186.4515173875038
 20
426.31467484277158
 30
0.0
  0
ENDBLK
  5
8966
  8
0
  0
BLOCK
  8
0
  2
*D11
 70
     1
 10
0.0
 20
0.0
 30
0.0
  3
*D11
  1

  0
LINE
  5
8B1C
  8
3
 62
     0
 10
-3821.4515173875038
 20
662.89973491952867
 30
0.0
 11
-3821.4515173875038
 21
226.57441586438651
 31
0.0
  0
LINE
  5
8B1D
  8
3
 62
     0
 10
-3111.4515173875038
 20
662.89973491952867
 30
0.0
 11
-3111.4515173875038
 21
226.57441586438651
 31
0.0
  0
LINE
  5
8B1E
  8
3
 62
     0
 10
-3781.4515173875038
 20
246.57441586438651
 30
0.0
 11
-3151.4515173875038
 21
246.57441586438651
 31
0.0
  0
INSERT
  5
8B1F
  8
3
 62
     0
  2
_OPEN
 10
-3821.4515173875038
 20
246.57441586438651
 30
0.0
 41
40.0
 42
40.0
 43
40.0
 50
180.0
  0
INSERT
  5
8B20
  8
3
 62
     0
  2
_OPEN
 10
-3111.4515173875038
 20
246.57441586438651
 30
0.0
 41
40.0
 42
40.0
 43
40.0
  0
TEXT
  8
3
  40
60
  5
8B2F
  62
0
  72
0
  71
0
 10
-3571.95
 20
190.374
 30
0.000000
  1
710
  0
POINT
  5
8B22
  8
DEFPOINTS
 62
     0
 10
-3821.4515173875038
 20
672.89973491952878
 30
0.0
  0
POINT
  5
8B23
  8
DEFPOINTS
 62
     0
 10
-3111.4515173875038
 20
672.89973491952878
 30
0.0
  0
POINT
  5
8B24
  8
DEFPOINTS
 62
     0
 10
-3111.4515173875038
 20
246.57441586438651
 30
0.0
  0
ENDBLK
  5
8973
  8
0
  0
ENDSEC
  0
SECTION
  2
ENTITIES
  0
LINE
  5
8006
  8
4
 10
-3046.4204398848628
 20
-817.20337344081042
 30
0.0
 11
-3046.4204398848628
 21
-1217.2033734408101
 31
0.0
  0
LINE
  5
8007
  8
4
 10
-4446.4204398848633
 20
-817.20337344081042
 30
0.0
 11
-4446.4204398848642
 21
-1217.2033734408101
 31
0.0
  0
LINE
  5
8008
  8
4
 10
-5446.4204398848642
 20
-817.20337344081042
 30
0.0
 11
-5446.4204398848642
 21
-1217.2033734408101
 31
0.0
  0
LINE
  5
800B
  8
4
 10
-5446.4204398848642
 20
-1217.2033734408101
 30
0.0
 11
-3046.4204398848628
 21
-1217.2033734408101
 31
0.0
  0
LINE
  5
800C
  8
4
 10
-5446.4204398848642
 20
-1017.20337344081
 30
0.0
 11
-3046.4204398848628
 21
-1017.20337344081
 31
0.0
  0
TEXT
  5
800D
  8
4
 10
-5369.41627819106
 20
-954.11732170758467
 30
0.0
 40
100.0
  1
機器名称
  0
TEXT
  5
800E
  8
4
 10
-5373.9042278352681
 20
-1173.913059976788
 30
0.0
 40
100.0
  1
機器型番
  0
TEXT
  5
800F
  8
4
 10
-4391.0629489095327
 20
-972.05983552567341
 30
0.0
 40
100.0
  1
ミツヤ軸流排煙ファン
  0
TEXT
  5
8010
  8
4
 10
-4373.1114487139021
 20
-1182.8842048809231
 30
0.0
 40
100.0
  1
APE＃560-3R
  0
TEXT
  5
8012
  8
4
 10
-5064.0605725408959
 20
2949.6543092242209
 30
0.0
 40
107.9999999999999
  1
床置ベット
  0
TEXT
  5
8013
  8
4
 10
-6114.0852532259714
 20
3250.5585789577849
 30
0.0
 40
144.0
  1
電動機直動立型軸流式排煙ファン
  0
LINE
  5
8014
  8
4
 10
-6246.4204398848642
 20
3121.6141350887988
 30
0.0
 11
-3046.4204398848628
 21
3121.6141350887988
 31
0.0
  0
LINE
  5
8015
  8
4
 10
-6246.4204398848642
 20
3521.6141350887988
 30
0.0
 11
-3046.4204398848628
 21
3521.6141350887988
 31
0.0
  0
LINE
  5
8016
  8
4
 10
-5446.4204398848642
 20
-817.20337344081042
 30
0.0
 11
-3046.4204398848628
 21
-817.20337344081042
 31
0.0
  0
LINE
  5
8017
  8
4
 10
-6246.4204398848642
 20
3521.6141350887988
 30
0.0
 11
-6246.4204398848642
 21
3121.6141350887988
 31
0.0
  0
TEXT
  5
8018
  8
4
 10
-6105.4642621031298
 20
2947.4355816518769
 30
0.0
 40
107.9999999999999
  1
左回転前方吐出
  0
TEXT
  5
8019
  8
4
 10
-3808.4813213862831
 20
3594.9187895498071
 30
0.0
 40
112.0
  1
No.
  0
TEXT
  5
801A
  8
4
 10
-4123.8283146848371
 20
2949.6543092242209
 30
0.0
 40
107.9999999999999
  1
縮尺：1/20
  0
LINE
  5
801B
  8
4
 10
-3046.4204398848628
 20
3521.6141350887988
 30
0.0
 11
-3046.4204398848628
 21
3121.6141350887988
 31
0.0
  0
LINE
  5
801C
  8
4
 10
-2546.4204398848628
 20
4082.796626559189
 30
0.0
 11
-2546.4204398848628
 21
4082.796626559189
 31
0.0
  0
LINE
  5
801D
  8
4
 10
-3865.1855951651341
 20
3545.3237928099911
 30
0.0
 11
-3865.1855951651341
 21
3756.1011496586939
 31
0.0
  0
LINE
  5
801E
  8
4
 10
-3865.1855951651341
 20
3756.1011496586939
 30
0.0
 11
-3046.4204398848628
 21
3756.1011496586939
 31
0.0
  0
LINE
  5
801F
  8
4
 10
-3046.4204398848628
 20
3756.1011496586939
 30
0.0
 11
-3046.4204398848628
 21
3545.3237928099911
 31
0.0
  0
LINE
  5
8020
  8
4
 10
-3046.4204398848628
 20
3545.3237928099911
 30
0.0
 11
-3865.1855951651341
 21
3545.3237928099911
 31
0.0
  0
LINE
  5
8021
  8
4
 10
-6746.4204398848642
 20
-1817.2033734408101
 30
0.0
 11
-6746.4204398848642
 21
4082.796626559189
 31
0.0
  0
LINE
  5
8022
  8
4
 10
-6746.4204398848642
 20
4082.796626559189
 30
0.0
 11
-2546.4204398848628
 21
4082.796626559189
 31
0.0
  0
LINE
  5
8023
  8
4
 10
-2546.4204398848628
 20
4082.796626559189
 30
0.0
 11
-2546.4204398848628
 21
-1817.2033734408101
 31
0.0
  0
LINE
  5
8024
  8
4
 10
-2546.4204398848628
 20
-1817.2033734408101
 30
0.0
 11
-6746.4204398848642
 21
-1817.2033734408101
 31
0.0
  0
LINE
  5
85AB
  8
1
 10
-5516.4515173875016
 20
1352.899734919527
 30
0.0
 11
-5516.4515173875052
 21
752.89973491952878
 31
0.0
  0
LINE
  5
85AC
  8
1
 10
-5520.9515173875016
 20
1352.899734919527
 30
0.0
 11
-5520.9515173875052
 21
948.8163631991174
 31
0.0
  0
LINE
  5
85AD
  8
2
 10
-5236.4515173875043
 20
572.89973491952878
 30
0.0
 11
-5236.4515173875043
 21
1772.899734919527
 31
0.0
  0
LINE
  5
85AE
  8
1
 10
-4956.4515173875043
 20
1352.899734919527
 30
0.0
 11
-4956.4515173875043
 21
752.89973491952878
 31
0.0
  0
LINE
  5
85AF
  8
1
 10
-4894.3868242089902
 20
1186.8997349195281
 30
0.0
 11
-4894.3868242089902
 21
1076.8997349195281
 31
0.0
  0
LINE
  5
85B0
  8
1
 10
-4894.3868242089902
 20
1081.8997349195281
 30
0.0
 11
-4894.3868242089902
 21
1181.8997349195281
 31
0.0
  0
LINE
  5
85B1
  8
1
 10
-4893.3868242089902
 20
1081.2437349195279
 30
0.0
 11
-4893.3868242089902
 21
1181.847734919528
 31
0.0
  0
LINE
  5
85B2
  8
1
 10
-4893.3868242089902
 20
1076.8997349195281
 30
0.0
 11
-4893.3868242089902
 21
1185.8997349195281
 31
0.0
  0
LINE
  5
85B3
  8
1
 10
-4951.9515173875043
 20
1352.899734919527
 30
0.0
 11
-4951.9515173875043
 21
948.8163631991174
 31
0.0
  0
LINE
  5
85B4
  8
1
 10
-4889.2811242089911
 20
1197.4807349195289
 30
0.0
 11
-4832.8297242089902
 21
1056.3527349195281
 31
0.0
  0
LINE
  5
85B5
  8
1
 10
-4885.0101242089904
 20
1197.5737349195281
 30
0.0
 11
-4829.6729242089887
 21
1059.230734919528
 31
0.0
  0
LINE
  5
85B6
  8
1
 10
-4833.7681242089893
 20
1173.280734919528
 30
0.0
 11
-4828.4916242089894
 21
1065.6517349195281
 31
0.0
  0
LINE
  5
85B8
  8
1
 10
-5595.9515173875043
 20
772.89973491952878
 30
0.0
 11
-4876.9515173875034
 21
772.89973491952878
 31
0.0
  0
LINE
  5
85B9
  8
1
 10
-5595.9515173875043
 20
672.89973491952878
 30
0.0
 11
-4876.9515173875034
 21
672.89973491952878
 31
0.0
  0
LINE
  5
85BA
  8
1
 10
-5591.4515173875043
 20
757.39973491952765
 30
0.0
 11
-4881.4515173875034
 21
757.39973491952708
 31
0.0
  0
LINE
  5
85BB
  8
1
 10
-5591.4515173875043
 20
752.89973491952856
 30
0.0
 11
-4881.4515173875034
 21
752.89973491952878
 31
0.0
  0
LINE
  5
85BC
  8
1
 10
-5406.945868646857
 20
782.89973491952878
 30
0.0
 11
-5065.9571661281507
 21
782.89973491952856
 31
0.0
  0
LINE
  5
85BD
  8
1
 10
-5595.9515173875043
 20
672.89973491952878
 30
0.0
 11
-5595.9515173875043
 21
772.89973491952878
 31
0.0
  0
LINE
  5
85BE
  8
1
 10
-5591.4515173875043
 20
672.89973491952878
 30
0.0
 11
-5591.4515173875043
 21
772.89973491952878
 31
0.0
  0
LINE
  5
85BF
  8
1
 10
-5591.4515173875043
 20
774.53870065358524
 30
0.0
 11
-5389.945868646857
 21
782.89973491952878
 31
0.0
  0
LINE
  5
85C0
  8
1
 10
-5591.4515173875043
 20
757.39973491952685
 30
0.0
 11
-5591.4515173875016
 21
822.89973491952867
 31
0.0
  0
LINE
  5
85C1
  8
1
 10
-5520.9515173875052
 20
948.8163631991174
 30
0.0
 11
-5520.9515173875052
 21
757.39973491952878
 31
0.0
  0
LINE
  5
85C2
  8
1
 10
-5406.945868646857
 20
982.39973491952696
 30
0.0
 11
-5406.945868646857
 21
782.89973491952878
 31
0.0
  0
CIRCLE
  5
85C3
  8
1
 10
-5516.4515173875052
 20
712.89973491952867
 30
0.0
 40
7.5
  0
LINE
  5
85C4
  8
1
 10
-5526.4515173875052
 20
712.89973491952867
 30
0.0
 11
-5506.4515173875043
 21
712.89973491952867
 31
0.0
  0
LINE
  5
85C5
  8
1
 10
-5516.4515173875052
 20
702.89973491952878
 30
0.0
 11
-5516.4515173875052
 21
722.89973491952878
 31
0.0
  0
LINE
  5
85C6
  8
1
 10
-5556.4515173875043
 20
757.39973491952787
 30
0.0
 11
-5556.4515173875043
 21
752.89973491952878
 31
0.0
  0
LINE
  5
85C7
  8
1
 10
-5406.945868646857
 20
982.39973491952696
 30
0.0
 11
-5441.9458686468579
 21
982.39973491952696
 31
0.0
  0
LINE
  5
85CD
  8
1
 10
-5073.5993102598131
 20
1131.8997349195281
 30
0.0
 11
-4846.4515173875043
 21
1131.8997349195281
 31
0.0
  0
LINE
  5
85CE
  8
1
 10
-4951.9515173875043
 20
1076.8997349195281
 30
0.0
 11
-4894.3868242089902
 21
1076.8997349195281
 31
0.0
  0
LINE
  5
85CF
  8
1
 10
-4837.0487242089894
 20
1066.8997349195281
 30
0.0
 11
-4883.3868242089902
 21
1066.8997349195281
 31
0.0
  0
ARC
  5
85D0
  8
1
 10
-4883.3868242089902
 20
1076.8997349195281
 30
0.0
 40
10.0
 50
180.0
 51
270.0
  0
LINE
  5
85D1
  8
1
 10
-4894.3868242089902
 20
1081.8997349195281
 30
0.0
 11
-4893.3868242089902
 21
1081.8997349195281
 31
0.0
  0
LINE
  5
85D2
  8
1
 10
-4830.897024208989
 20
1062.510734919528
 30
0.0
 11
-4830.3738242089894
 21
1062.719734919528
 31
0.0
  0
LINE
  5
85D3
  8
1
 10
-4832.8297242089902
 20
1056.3527349195281
 30
0.0
 11
-4830.5085242089899
 21
1057.280734919528
 31
0.0
  0
LINE
  5
85D4
  8
1
 10
-4858.3868242089911
 20
1069.394734919528
 30
0.0
 11
-4858.3868242089911
 21
1062.895734919528
 31
0.0
  0
ARC
  5
85D5
  8
1
 10
-4831.065624208989
 20
1058.673734919528
 30
0.0
 40
1.5
 50
291.80099999998419
 51
21.803100000012421
  0
ARC
  5
85D6
  8
1
 10
-4831.4880242089894
 20
1065.5047349195279
 30
0.0
 40
3.0
 50
291.80210000000989
 51
2.8058000000065131
  0
LINE
  5
85D7
  8
1
 10
-5796.4515173875043
 20
1352.8997349195281
 30
0.0
 11
-4676.4515173875034
 21
1352.899734919527
 31
0.0
  0
LINE
  5
85D8
  8
1
 10
-5796.4515173875043
 20
1672.8997349195281
 30
0.0
 11
-4676.4515173875034
 21
1672.8997349195281
 31
0.0
  0
LINE
  5
85DB
  8
1
 10
-5796.4515173875043
 20
1272.8997349195281
 30
0.0
 11
-5796.4515173875043
 21
1672.8997349195281
 31
0.0
  0
LINE
  5
85DC
  8
1
 10
-5794.851517387503
 20
1272.8997349195281
 30
0.0
 11
-5794.851517387503
 21
1352.899734919527
 31
0.0
  0
LINE
  5
85DD
  8
1
 10
-5796.4515173875043
 20
1272.8997349195281
 30
0.0
 11
-5794.851517387503
 21
1272.8997349195281
 31
0.0
  0
LINE
  5
85DE
  8
1
 10
-5526.8627747989813
 20
1698.8997349195281
 30
0.0
 11
-5550.8128423964963
 21
1698.8997349195281
 31
0.0
  0
LINE
  5
85DF
  8
1
 10
-5523.4515173875043
 20
1672.8997349195281
 30
0.0
 11
-5553.4515173875043
 21
1672.8997349195281
 31
0.0
  0
LINE
  5
85E0
  8
1
 10
-5550.9515173875043
 20
1672.8997349195281
 30
0.0
 11
-5547.072323811919
 21
1694.8997349195281
 31
0.0
  0
ARC
  5
85E1
  8
1
 10
-5538.4515173875043
 20
1717.6497349195281
 30
0.0
 40
6.25
 50
359.9999380528439
 51
180.00006194715601
  0
LINE
  5
85E2
  8
1
 10
-5532.201540074112
 20
1717.666574815376
 30
0.0
 11
-5532.2015646892069
 21
1694.899734919527
 31
0.0
  0
LINE
  5
85E3
  8
1
 10
-5544.7014947008938
 20
1717.6665748156031
 30
0.0
 11
-5544.7014700857999
 21
1694.899734919527
 31
0.0
  0
LINE
  5
85E4
  8
1
 10
-5525.9515173875043
 20
1672.8997349195281
 30
0.0
 11
-5529.8307109630869
 21
1694.8997349195281
 31
0.0
  0
LINE
  5
85E5
  8
1
 10
-5538.4515173875043
 20
1741.4435392166711
 30
0.0
 11
-5538.4515173875043
 21
1656.775147211059
 31
0.0
  0
LINE
  5
85E8
  8
1
 10
-4951.9515173875043
 20
1186.8997349195281
 30
0.0
 11
-4894.3868242089902
 21
1186.8997349195281
 31
0.0
  0
LINE
  5
85E9
  8
1
 10
-4951.9515173875043
 20
1352.899734919527
 30
0.0
 11
-4951.9515173875043
 21
1273.8035774258881
 31
0.0
  0
LINE
  5
85EA
  8
1
 10
-4676.4515173875043
 20
1272.899734919527
 30
0.0
 11
-4676.4515173875043
 21
1672.8997349195281
 31
0.0
  0
LINE
  5
85EB
  8
1
 10
-4882.5485242089881
 20
1191.796734919528
 30
0.0
 11
-4846.9270242089897
 21
1187.4357349195291
 31
0.0
  0
ARC
  5
85EC
  8
1
 10
-4887.3868242089911
 20
1185.8997349195281
 30
0.0
 40
6.0
 50
90.0
 51
180.0
  0
LINE
  5
85ED
  8
1
 10
-4894.3868242089902
 20
1181.8997349195281
 30
0.0
 11
-4893.3868242089902
 21
1181.8997349195281
 31
0.0
  0
ARC
  5
85EE
  8
1
 10
-4886.4029242089891
 20
1197.016734919529
 30
0.0
 40
1.5000999999999991
 50
21.8023000000012
 51
111.8009999999841
  0
LINE
  5
85EF
  8
1
 10
-4889.2811242089911
 20
1197.4807349195289
 30
0.0
 11
-4886.9599242089898
 21
1198.4087349195279
 31
0.0
  0
LINE
  5
85F0
  8
1
 10
-4886.9847242089891
 20
1191.8997349195281
 30
0.0
 11
-4887.3868242089911
 21
1191.8997349195281
 31
0.0
  0
ARC
  5
85F1
  8
1
 10
-4848.7501242089893
 20
1172.546734919528
 30
0.0
 40
15.0
 50
2.8067000000018392
 51
83.018899999984399
  0
LINE
  5
85F2
  8
1
 10
-4678.0515173875028
 20
1272.899734919527
 30
0.0
 11
-4678.0515173875028
 21
1352.899734919527
 31
0.0
  0
LINE
  5
85F3
  8
1
 10
-4678.0515173875028
 20
1272.899734919527
 30
0.0
 11
-4676.4515173875043
 21
1272.899734919527
 31
0.0
  0
LINE
  5
85FC
  8
1
 10
-4876.9515173875043
 20
672.89973491952878
 30
0.0
 11
-4876.9515173875043
 21
772.89973491952878
 31
0.0
  0
LINE
  5
85FD
  8
1
 10
-5065.9571661281489
 20
982.39973491952685
 30
0.0
 11
-5065.9571661281498
 21
782.89973491952878
 31
0.0
  0
LINE
  5
85FF
  8
1
 10
-4951.9515173875043
 20
948.8163631991174
 30
0.0
 11
-4951.9515173875043
 21
757.39973491952878
 31
0.0
  0
LINE
  5
8600
  8
1
 10
-4881.4515173875043
 20
774.53870065358524
 30
0.0
 11
-5082.9571661281489
 21
782.89973491952878
 31
0.0
  0
LINE
  5
8601
  8
1
 10
-4881.4515173875043
 20
757.39973491952685
 30
0.0
 11
-4881.4515173875043
 21
822.89973491952867
 31
0.0
  0
LINE
  5
8602
  8
1
 10
-4881.4515173875043
 20
672.89973491952878
 30
0.0
 11
-4881.4515173875043
 21
772.89973491952878
 31
0.0
  0
LINE
  5
8603
  8
1
 10
-4916.4515173875043
 20
757.39973491952787
 30
0.0
 11
-4916.4515173875043
 21
752.89973491952878
 31
0.0
  0
CIRCLE
  5
8604
  8
1
 10
-4956.4515173875043
 20
712.89973491952867
 30
0.0
 40
7.5
  0
LINE
  5
8605
  8
1
 10
-4946.4515173875043
 20
712.89973491952867
 30
0.0
 11
-4966.4515173875043
 21
712.89973491952867
 31
0.0
  0
LINE
  5
8606
  8
1
 10
-4956.4515173875043
 20
702.89973491952878
 30
0.0
 11
-4956.4515173875043
 21
722.89973491952878
 31
0.0
  0
LINE
  5
8607
  8
1
 10
-5065.9571661281498
 20
982.39973491952696
 30
0.0
 11
-5030.9571661281516
 21
982.39973491952696
 31
0.0
  0
LINE
  5
8608
  8
1
 10
-5406.945868646857
 20
1168.3997349195299
 30
0.0
 11
-5406.945868646857
 21
1352.899734919527
 31
0.0
  0
LINE
  5
8609
  8
1
 10
-5406.945868646857
 20
1168.3997349195299
 30
0.0
 11
-5441.9458686468579
 21
1168.3997349195299
 31
0.0
  0
LINE
  5
860A
  8
1
 10
-5601.4515173875016
 20
1352.899734919527
 30
0.0
 11
-5441.9458686468579
 21
1168.3997349195299
 31
0.0
  0
LINE
  5
860B
  8
1
 10
-5065.9571661281498
 20
1168.3997349195299
 30
0.0
 11
-5065.9571661281479
 21
1352.899734919527
 31
0.0
  0
LINE
  5
860C
  8
1
 10
-5065.9571661281498
 20
1168.3997349195299
 30
0.0
 11
-5030.9571661281516
 21
1168.3997349195299
 31
0.0
  0
LINE
  5
860D
  8
1
 10
-4871.4515173875061
 20
1352.899734919527
 30
0.0
 11
-5030.9571661281498
 21
1168.3997349195299
 31
0.0
  0
LINE
  5
860E
  8
1
 10
-3295.9571661281502
 20
1168.3997349195299
 30
0.0
 11
-3295.9571661281502
 21
1272.899734919527
 31
0.0
  0
LINE
  5
860F
  8
1
 10
-3186.4515173875038
 20
1418.399734919529
 30
0.0
 11
-3186.4515173875038
 21
752.89973491952878
 31
0.0
  0
LINE
  5
8610
  8
1
 10
-3181.9515173875038
 20
1418.399734919529
 30
0.0
 11
-3181.9515173875038
 21
948.8163631991174
 31
0.0
  0
LINE
  5
8611
  8
1
 10
-3170.6138583048591
 20
1272.899734919527
 30
0.0
 11
-3260.9571661281502
 21
1168.3997349195299
 31
0.0
  0
LINE
  5
8612
  8
1
 10
-3636.9458686468561
 20
1168.3997349195299
 30
0.0
 11
-3636.9458686468561
 21
1272.899734919527
 31
0.0
  0
LINE
  5
8613
  8
1
 10
-3746.4515173875029
 20
1418.3997349195281
 30
0.0
 11
-3746.4515173875038
 21
752.89973491952878
 31
0.0
  0
LINE
  5
8614
  8
1
 10
-3750.951517387502
 20
1418.3997349195281
 30
0.0
 11
-3750.9515173875038
 21
948.8163631991174
 31
0.0
  0
LINE
  5
8615
  8
1
 10
-3762.289176470149
 20
1272.899734919527
 30
0.0
 11
-3671.945868646857
 21
1168.3997349195299
 31
0.0
  0
LINE
  5
8616
  8
2
 10
-3466.4515173875038
 20
572.89973491952878
 30
0.0
 11
-3466.4515173875038
 21
1772.899734919527
 31
0.0
  0
LINE
  5
8617
  8
1
 10
-3825.9515173875029
 20
772.89973491952878
 30
0.0
 11
-3106.9515173875029
 21
772.89973491952856
 31
0.0
  0
LINE
  5
8618
  8
1
 10
-3825.9515173875029
 20
672.89973491952878
 30
0.0
 11
-3106.9515173875029
 21
672.89973491952878
 31
0.0
  0
LINE
  5
8619
  8
1
 10
-3825.9515173875038
 20
672.89973491952878
 30
0.0
 11
-3825.9515173875038
 21
772.89973491952878
 31
0.0
  0
LINE
  5
861A
  8
1
 10
-3821.4515173875038
 20
757.39973491952787
 30
0.0
 11
-3106.9515173875029
 21
757.39973491952708
 31
0.0
  0
LINE
  5
861B
  8
1
 10
-3821.4515173875038
 20
752.89973491952856
 30
0.0
 11
-3106.9515173875029
 21
752.89973491952878
 31
0.0
  0
LINE
  5
861C
  8
1
 10
-3636.9458686468561
 20
782.89973491952878
 30
0.0
 11
-3295.9571661281502
 21
782.89973491952878
 31
0.0
  0
LINE
  5
861D
  8
1
 10
-3636.945868646857
 20
982.39973491952696
 30
0.0
 11
-3636.9458686468561
 21
782.89973491952878
 31
0.0
  0
LINE
  5
861F
  8
1
 10
-3750.9515173875038
 20
948.8163631991174
 30
0.0
 11
-3750.9515173875038
 21
757.39973491952878
 31
0.0
  0
LINE
  5
8620
  8
1
 10
-3821.4515173875029
 20
774.53870065358524
 30
0.0
 11
-3619.945868646857
 21
782.89973491952878
 31
0.0
  0
LINE
  5
8621
  8
1
 10
-3821.4515173875038
 20
757.39973491952685
 30
0.0
 11
-3821.4515173875029
 21
822.89973491952867
 31
0.0
  0
LINE
  5
8622
  8
1
 10
-3821.4515173875038
 20
672.89973491952878
 30
0.0
 11
-3821.4515173875038
 21
772.89973491952878
 31
0.0
  0
LINE
  5
8623
  8
1
 10
-3786.4515173875038
 20
757.39973491952787
 30
0.0
 11
-3786.4515173875038
 21
752.89973491952878
 31
0.0
  0
CIRCLE
  5
8624
  8
1
 10
-3746.4515173875038
 20
712.89973491952867
 30
0.0
 40
7.5
  0
LINE
  5
8625
  8
1
 10
-3756.4515173875038
 20
712.89973491952867
 30
0.0
 11
-3736.4515173875038
 21
712.89973491952867
 31
0.0
  0
LINE
  5
8626
  8
1
 10
-3746.4515173875038
 20
702.89973491952878
 30
0.0
 11
-3746.4515173875038
 21
722.89973491952878
 31
0.0
  0
LINE
  5
8627
  8
1
 10
-3636.9458686468561
 20
982.39973491952696
 30
0.0
 11
-3671.945868646857
 21
982.39973491952696
 31
0.0
  0
LINE
  5
8628
  8
1
 10
-3636.9458686468561
 20
1168.3997349195299
 30
0.0
 11
-3671.945868646857
 21
1168.3997349195299
 31
0.0
  0
LINE
  5
862E
  8
1
 10
-3181.9515173875038
 20
948.8163631991174
 30
0.0
 11
-3181.9515173875038
 21
757.39973491952878
 31
0.0
  0
LINE
  5
8630
  8
1
 10
-3295.9571661281502
 20
982.39973491952685
 30
0.0
 11
-3295.9571661281502
 21
782.89973491952878
 31
0.0
  0
LINE
  5
8631
  8
1
 10
-3111.4515173875038
 20
774.53870065358524
 30
0.0
 11
-3312.9571661281489
 21
782.89973491952878
 31
0.0
  0
LINE
  5
8632
  8
1
 10
-3111.4515173875038
 20
757.39973491952685
 30
0.0
 11
-3111.4515173875038
 21
822.89973491952867
 31
0.0
  0
LINE
  5
8633
  8
1
 10
-3186.4515173875038
 20
702.89973491952878
 30
0.0
 11
-3186.4515173875038
 21
722.89973491952878
 31
0.0
  0
LINE
  5
8634
  8
1
 10
-3176.4515173875038
 20
712.89973491952867
 30
0.0
 11
-3196.4515173875038
 21
712.89973491952867
 31
0.0
  0
CIRCLE
  5
8635
  8
1
 10
-3186.4515173875038
 20
712.89973491952867
 30
0.0
 40
7.5
  0
LINE
  5
8636
  8
1
 10
-3146.4515173875038
 20
757.39973491952787
 30
0.0
 11
-3146.4515173875038
 21
752.89973491952878
 31
0.0
  0
LINE
  5
8637
  8
1
 10
-3111.4515173875038
 20
672.89973491952878
 30
0.0
 11
-3111.4515173875038
 21
772.89973491952878
 31
0.0
  0
LINE
  5
8638
  8
1
 10
-3106.9515173875038
 20
672.89973491952878
 30
0.0
 11
-3106.9515173875038
 21
772.89973491952878
 31
0.0
  0
LINE
  5
8639
  8
1
 10
-3295.9571661281502
 20
982.39973491952696
 30
0.0
 11
-3260.9571661281511
 21
982.39973491952696
 31
0.0
  0
LINE
  5
863A
  8
1
 10
-3295.9571661281502
 20
1168.3997349195299
 30
0.0
 11
-3260.9571661281511
 21
1168.3997349195299
 31
0.0
  0
LINE
  5
864F
  8
1
 10
-3886.4515173875052
 20
1272.8997349195281
 30
0.0
 11
-3046.4515173875038
 21
1272.899734919527
 31
0.0
  0
LINE
  5
8650
  8
1
 10
-3773.4181873629118
 20
1672.8997349195281
 30
0.0
 11
-3159.4848474120931
 21
1672.8997349195281
 31
0.0
  0
LINE
  5
8651
  8
1
 10
-4026.4515173875052
 20
1352.8997349195281
 30
0.0
 11
-4026.4515173875052
 21
1372.899734919527
 31
0.0
  0
LINE
  5
8652
  8
1
 10
-3728.4515173875038
 20
1698.8997349195281
 30
0.0
 11
-3808.4515173875038
 21
1698.8997349195281
 31
0.0
  0
LINE
  5
8653
  8
1
 10
-3753.4515173875038
 20
1672.8997349195281
 30
0.0
 11
-3783.4515173875038
 21
1672.8997349195281
 31
0.0
  0
LINE
  5
8654
  8
1
 10
-3780.9515173875038
 20
1672.8997349195281
 30
0.0
 11
-3780.2531061456898
 21
1676.8606218978421
 31
0.0
  0
LINE
  5
8655
  8
1
 10
-3768.4515173875038
 20
1738.899734919527
 30
0.0
 11
-3768.4515173875038
 21
1656.775147211059
 31
0.0
  0
LINE
  5
8656
  8
1
 10
-3755.9515173875038
 20
1672.8997349195281
 30
0.0
 11
-3756.649928629316
 21
1676.8606218978421
 31
0.0
  0
LINE
  5
8657
  8
1
 10
-3181.9515173875038
 20
1352.899734919527
 30
0.0
 11
-3181.9515173875038
 21
1273.8035774258881
 31
0.0
  0
LINE
  5
8658
  8
1
 10
-2906.4515173875038
 20
1352.899734919527
 30
0.0
 11
-2906.4515173875038
 21
1372.8997349195299
 31
0.0
  0
LINE
  5
8659
  8
1
 10
-3786.4515173875038
 20
1418.3997349195281
 30
0.0
 11
-3786.4515173875038
 21
1422.8997349195281
 31
0.0
  0
LINE
  5
865A
  8
1
 10
-3146.4515173875038
 20
1418.3997349195281
 30
0.0
 11
-3146.4515173875038
 21
1422.8997349195281
 31
0.0
  0
LINE
  5
865B
  8
1
 10
-3786.4515173875038
 20
1422.8997349195281
 30
0.0
 11
-3146.4515173875038
 21
1422.8997349195281
 31
0.0
  0
LINE
  5
865C
  8
1
 10
-3786.4515173875038
 20
1418.3997349195281
 30
0.0
 11
-3146.4515173875038
 21
1418.399734919529
 31
0.0
  0
CIRCLE
  5
865D
  8
1
 10
-3768.4515173875038
 20
1698.8997349195281
 30
0.0
 40
15.0
  0
CIRCLE
  5
865E
  8
1
 10
-3768.4515173875038
 20
1698.8997349195281
 30
0.0
 40
25.0
  0
LINE
  5
865F
  8
1
 10
-3204.4515173875038
 20
1698.8997349195281
 30
0.0
 11
-3124.4515173875038
 21
1698.8997349195281
 31
0.0
  0
CIRCLE
  5
8660
  8
1
 10
-3164.4515173875038
 20
1698.8997349195281
 30
0.0
 40
25.0
  0
CIRCLE
  5
8661
  8
1
 10
-3164.4515173875038
 20
1698.8997349195281
 30
0.0
 40
15.0
  0
LINE
  5
8662
  8
1
 10
-3179.4515173875038
 20
1672.8997349195281
 30
0.0
 11
-3149.4515173875038
 21
1672.8997349195281
 31
0.0
  0
LINE
  5
8663
  8
1
 10
-3164.4515173875038
 20
1738.899734919527
 30
0.0
 11
-3164.4515173875038
 21
1656.775147211059
 31
0.0
  0
LINE
  5
8664
  8
1
 10
-3151.9515173875038
 20
1672.8997349195281
 30
0.0
 11
-3152.6499286293179
 21
1676.8606218978421
 31
0.0
  0
LINE
  5
8665
  8
1
 10
-3176.9515173875038
 20
1672.8997349195281
 30
0.0
 11
-3176.2531061456898
 21
1676.8606218978421
 31
0.0
  0
LINE
  5
8666
  8
1
 10
-5547.0723238119208
 20
1694.899734919527
 30
0.0
 11
-5529.8307109630869
 21
1694.899734919527
 31
0.0
  0
LINE
  5
8667
  8
1
 10
-4934.4515173875043
 20
1741.4435392166711
 30
0.0
 11
-4934.4515173875043
 21
1656.775147211059
 31
0.0
  0
LINE
  5
8668
  8
1
 10
-4925.8307109630869
 20
1694.899734919527
 30
0.0
 11
-4943.0723238119172
 21
1694.899734919527
 31
0.0
  0
ARC
  5
8669
  8
1
 10
-4934.4515173875043
 20
1717.6497349195281
 30
0.0
 40
6.25
 50
359.9999380528439
 51
180.00006194715601
  0
LINE
  5
866A
  8
1
 10
-4946.0402599760228
 20
1698.8997349195281
 30
0.0
 11
-4922.0901923785104
 21
1698.8997349195281
 31
0.0
  0
LINE
  5
866B
  8
1
 10
-4949.4515173875052
 20
1672.8997349195281
 30
0.0
 11
-4919.4515173875043
 21
1672.8997349195281
 31
0.0
  0
LINE
  5
866C
  8
1
 10
-4921.9515173875052
 20
1672.8997349195281
 30
0.0
 11
-4925.8307109630869
 21
1694.8997349195281
 31
0.0
  0
LINE
  5
866D
  8
1
 10
-4928.2015400741129
 20
1717.6665748156031
 30
0.0
 11
-4928.2015646892069
 21
1694.899734919527
 31
0.0
  0
LINE
  5
866E
  8
1
 10
-4946.9515173875043
 20
1672.8997349195281
 30
0.0
 11
-4943.0723238119172
 21
1694.8997349195281
 31
0.0
  0
LINE
  5
866F
  8
1
 10
-4940.7014947008938
 20
1717.666574815376
 30
0.0
 11
-4940.7014700857999
 21
1694.899734919527
 31
0.0
  0
LINE
  5
8670
  8
1
 10
-4026.4515173875052
 20
1352.899734919527
 30
0.0
 11
-3886.4515173875038
 21
1272.899734919527
 31
0.0
  0
LINE
  5
8671
  8
1
 10
-3990.7514982779462
 20
1506.1340200675711
 30
0.0
 11
-4026.4515173875052
 21
1372.899734919527
 31
0.0
  0
ARC
  5
8672
  8
1
 10
-3773.4181873629132
 20
1447.899734919527
 30
0.0
 40
225.0
 50
90.0
 51
165.00000000000551
  0
ARC
  5
8673
  8
1
 10
-3159.4848474120931
 20
1447.899734919527
 30
0.0
 40
225.0
 50
14.999999999994451
 51
90.0
  0
LINE
  5
8674
  8
1
 10
-2942.1515364970578
 20
1506.1340200675711
 30
0.0
 11
-2906.451517387502
 21
1372.899734919527
 31
0.0
  0
LINE
  5
8675
  8
1
 10
-2906.4515173875038
 20
1352.899734919527
 30
0.0
 11
-3046.4515173875038
 21
1272.899734919527
 31
0.0
  0
LINE
  5
8676
  8
1
 10
-2906.451517387502
 20
1352.8997349195281
 30
0.0
 11
-2906.4515173875038
 21
1372.899734919527
 31
0.0
  0
LINE
  5
8825
  8
1
 10
-5591.4515173875016
 20
822.89973491952867
 30
0.0
 11
-5441.9458686468579
 21
982.39973491952696
 31
0.0
  0
LINE
  5
8826
  8
1
 10
-5030.9571661281516
 20
982.39973491952696
 30
0.0
 11
-4881.4515173875043
 21
822.89973491952867
 31
0.0
  0
LINE
  5
8827
  8
1
 10
-3821.4515173875029
 20
822.89973491952867
 30
0.0
 11
-3671.945868646857
 21
982.39973491952696
 31
0.0
  0
LINE
  5
8828
  8
1
 10
-3260.9571661281511
 20
982.39973491952696
 30
0.0
 11
-3111.4515173875038
 21
822.89973491952867
 31
0.0
  0
DIMENSION
  5
88D4
  8
3
  2
*D1
 10
-5993.1708793778671
 20
1272.8997349195281
 30
0.0
 11
-5993.1708793778671
 21
1479.1789072571351
 31
0.0
 70
   128
 13
-5796.4515173875043
 23
1672.8997349195281
 33
0.0
 14
-5794.851517387503
 24
1272.8997349195281
 34
0.0
 50
90.0
1001
ACAD
1000
DSTYLE
1002
{
1070
   287
1070
     3
1070
   287
1070
     3
1070
   287
1070
     3
1070
    40
1040
20.0
1070
   143
1040
0.039
1070
   172
1070
     1
1070
   271
1070
     0
1070
   279
1070
     0
1070
   288
1070
     1
1002
}
  0
DIMENSION
  5
88E1
  8
3
  2
*D2
 10
-5990.2357603320188
 20
772.8997349195289
 30
0.0
 11
-5990.2357603320188
 21
1033.467821468349
 31
0.0
 70
   128
 13
-5796.4515173875043
 23
1272.8997349195281
 33
0.0
 14
-5595.9515173875043
 24
772.89973491952878
 34
0.0
 50
90.0
1001
ACAD
1000
DSTYLE
1002
{
1070
   287
1070
     3
1070
   287
1070
     3
1070
   287
1070
     3
1070
    40
1040
20.0
1070
   143
1040
0.039
1070
   172
1070
     1
1070
   271
1070
     0
1070
   279
1070
     0
1070
   288
1070
     1
1002
}
  0
DIMENSION
  5
88EE
  8
3
  2
*D3
 10
-5990.2357603320188
 20
672.8997349195289
 30
0.0
 11
-5990.2357603320188
 21
501.47116349095643
 31
0.0
 70
   128
 13
-5595.9515173875043
 23
772.89973491952878
 33
0.0
 14
-5595.9515173875043
 24
672.89973491952878
 34
0.0
 50
90.0
1001
ACAD
1000
DSTYLE
1002
{
1070
   287
1070
     3
1070
   287
1070
     3
1070
   287
1070
     3
1070
    40
1040
20.0
1070
   143
1040
0.039
1070
   172
1070
     1
1070
   271
1070
     0
1070
   279
1070
     0
1070
   288
1070
     1
1002
}
  0
DIMENSION
  5
88FD
  8
3
  2
*D4
 10
-6219.1733984542798
 20
672.8997349195289
 30
0.0
 11
-6219.1733984542798
 21
1159.557146456443
 31
0.0
 70
   128
 13
-5796.4515173875043
 23
1672.8997349195281
 33
0.0
 14
-5605.9515173875043
 24
672.89973491952878
 34
0.0
 50
90.0
1001
ACAD
1000
DSTYLE
1002
{
1070
   287
1070
     3
1070
   287
1070
     3
1070
   287
1070
     3
1070
    40
1040
20.0
1070
   143
1040
0.039
1070
   172
1070
     1
1070
   271
1070
     0
1070
   279
1070
     0
1070
   288
1070
     1
1002
}
  0
DIMENSION
  5
890A
  8
3
  2
*D5
 10
-5805.3246247413408
 20
672.89973491952878
 30
0.0
 11
-5805.3246247413408
 21
524.32830634809932
 31
0.0
 70
   128
 13
-5526.4515173875052
 23
712.89973491952867
 33
0.0
 14
-5595.9515173875043
 24
672.89973491952878
 34
0.0
 50
90.0
1001
ACAD
1000
DSTYLE
1002
{
1070
   287
1070
     3
1070
   287
1070
     3
1070
   287
1070
     3
1070
    40
1040
20.0
1070
   143
1040
0.039
1070
   172
1070
     1
1070
   271
1070
     0
1070
   279
1070
     0
1070
   288
1070
     1
1002
}
  0
DIMENSION
  5
8919
  8
3
  2
*D6
 10
-4956.4515173875043
 20
453.30394898835038
 30
0.0
 11
-5228.5651731954886
 21
453.30394898835038
 31
0.0
 70
   128
 13
-5516.4515173875052
 23
702.89973491952878
 33
0.0
 14
-4956.4515173875043
 24
702.89973491952878
 34
0.0
1001
ACAD
1000
DSTYLE
1002
{
1070
   287
1070
     3
1070
   287
1070
     3
1070
   287
1070
     3
1070
    40
1040
20.0
1070
   143
1040
0.039
1070
   172
1070
     1
1070
   271
1070
     0
1070
   279
1070
     0
1070
   288
1070
     1
1002
}
  0
DIMENSION
  5
8926
  8
3
  2
*D7
 10
-4881.4515173875043
 20
263.74923782196493
 30
0.0
 11
-5233.0826715681942
 21
263.74923782196493
 31
0.0
 70
   128
 13
-5591.4515173875043
 23
672.89973491952878
 33
0.0
 14
-4881.4515173875043
 24
672.89973491952878
 34
0.0
1001
ACAD
1000
DSTYLE
1002
{
1070
   287
1070
     3
1070
   287
1070
     3
1070
   287
1070
     3
1070
    40
1040
20.0
1070
   143
1040
0.039
1070
   172
1070
     1
1070
   271
1070
     0
1070
   279
1070
     0
1070
   288
1070
     1
1002
}
  0
DIMENSION
  5
8933
  8
3
  2
*D8
 10
-4676.4515173875034
 20
1904.1215939234951
 30
0.0
 11
-5251.7141636316373
 21
1904.1215939234951
 31
0.0
 70
   128
 13
-5796.4515173875043
 23
1672.8997349195281
 33
0.0
 14
-4676.4515173875034
 24
1672.8997349195281
 34
0.0
1001
ACAD
1000
DSTYLE
1002
{
1070
   287
1070
     3
1070
   287
1070
     3
1070
   287
1070
     3
1070
    40
1040
20.0
1070
   143
1040
0.039
1070
   172
1070
     1
1070
   271
1070
     0
1070
   279
1070
     0
1070
   288
1070
     1
1002
}
  0
DIMENSION
  5
894D
  8
3
  2
*D9
 10
-2906.4515173875038
 20
1883.684675331745
 30
0.0
 11
-3478.7364591654359
 21
1883.684675331745
 31
0.0
 70
   128
 13
-4026.4515173875052
 23
1372.899734919527
 33
0.0
 14
-2906.4515173875038
 24
1372.899734919534
 34
0.0
1001
ACAD
1000
DSTYLE
1002
{
1070
   287
1070
     3
1070
   287
1070
     3
1070
   287
1070
     3
1070
    40
1040
20.0
1070
   143
1040
0.039
1070
   172
1070
     1
1070
   271
1070
     0
1070
   279
1070
     0
1070
   288
1070
     1
1002
}
  0
DIMENSION
  5
895A
  8
3
  2
*D10
 10
-3186.4515173875038
 20
426.31467484277158
 30
0.0
 11
-3454.224380941429
 21
426.31467484277158
 31
0.0
 70
   128
 13
-3746.4515173875038
 23
702.89973491952878
 33
0.0
 14
-3186.4515173875038
 24
702.89973491952878
 34
0.0
1001
ACAD
1000
DSTYLE
1002
{
1070
   287
1070
     3
1070
   287
1070
     3
1070
   287
1070
     3
1070
    40
1040
20.0
1070
   143
1040
0.039
1070
   172
1070
     1
1070
   271
1070
     0
1070
   279
1070
     0
1070
   288
1070
     1
1002
}
  0
DIMENSION
  5
8967
  8
3
  2
*D11
 10
-3111.4515173875038
 20
246.57441586438651
 30
0.0
 11
-3451.947007805265
 21
246.57441586438651
 31
0.0
 70
   128
 13
-3821.4515173875038
 23
672.89973491952878
 33
0.0
 14
-3111.4515173875038
 24
672.89973491952878
 34
0.0
1001
ACAD
1000
DSTYLE
1002
{
1070
   287
1070
     3
1070
   287
1070
     3
1070
   287
1070
     3
1070
    40
1040
20.0
1070
   143
1040
0.039
1070
   172
1070
     1
1070
   271
1070
     0
1070
   279
1070
     0
1070
   288
1070
     1
1002
}
  0
ENDSEC
  0
EOF
