  0
SECTION
  2
HEADER
  9
$ACADVER
  1
AC1009
  9
$INSBASE
 10
0.0
 20
0.0
 30
0.0
  9
$EXTMIN
 10
375.0
 20
450.0
 30
0.0
  9
$EXTMAX
 10
2775.0
 20
4179.978392
 30
0.0
  9
$LIMMIN
 10
0.0
 20
0.0
  9
$LIMMAX
 10
297.0
 20
210.0
  9
$ORTHOMODE
 70
     0
  9
$REGENMODE
 70
     1
  9
$FILLMODE
 70
     0
  9
$QTEXTMODE
 70
     0
  9
$MIRRTEXT
 70
     1
  9
$DRAGMODE
 70
     2
  9
$LTSCALE
 40
100.0
  9
$OSMODE
 70
    37
  9
$ATTMODE
 70
     1
  9
$TEXTSIZE
 40
180.0
  9
$TRACEWID
 40
0.05
  9
$TEXTSTYLE
  7
STANDARD
  9
$CLAYER
  8
3
  9
$CELTYPE
  6
BYLAYER
  9
$CECOLOR
 62
   256
  9
$DIMSCALE
 40
15.0
  9
$DIMASZ
 40
2.0
  9
$DIMEXO
 40
0.5
  9
$DIMDLI
 40
10.0
  9
$DIMRND
 40
0.0
  9
$DIMDLE
 40
0.0
  9
$DIMEXE
 40
1.0
  9
$DIMTP
 40
1.0
  9
$DIMTM
 40
1.0
  9
$DIMTXT
 40
3.0
  9
$DIMCEN
 40
0.0
  9
$DIMTSZ
 40
0.0
  9
$DIMTOL
 70
     0
  9
$DIMLIM
 70
     0
  9
$DIMTIH
 70
     0
  9
$DIMTOH
 70
     0
  9
$DIMSE1
 70
     0
  9
$DIMSE2
 70
     0
  9
$DIMTAD
 70
     1
  9
$DIMZIN
 70
     8
  9
$DIMBLK
  1

  9
$DIMASO
 70
     1
  9
$DIMSHO
 70
     1
  9
$DIMPOST
  1

  9
$DIMAPOST
  1

  9
$DIMALT
 70
     0
  9
$DIMALTD
 70
     2
  9
$DIMALTF
 40
0.039
  9
$DIMLFAC
 40
1.0
  9
$DIMTOFL
 70
     1
  9
$DIMTVP
 40
0.0
  9
$DIMTIX
 70
     0
  9
$DIMSOXD
 70
     0
  9
$DIMSAH
 70
     1
  9
$DIMBLK1
  1
OPEN
  9
$DIMBLK2
  1
OPEN
  9
$DIMSTYLE
  2
IGA
  9
$DIMCLRD
 70
     0
  9
$DIMCLRE
 70
     0
  9
$DIMCLRT
 70
     0
  9
$DIMTFAC
 40
10.0
  9
$DIMGAP
 40
1.0
  9
$LUNITS
 70
     2
  9
$LUPREC
 70
     3
  9
$SKETCHINC
 40
0.1
  9
$FILLETRAD
 40
50.0
  9
$AUNITS
 70
     0
  9
$AUPREC
 70
     0
  9
$MENU
  1
acad
  9
$ELEVATION
 40
0.0
  9
$PELEVATION
 40
0.0
  9
$THICKNESS
 40
0.0
  9
$LIMCHECK
 70
     0
  9
$BLIPMODE
 70
     0
  9
$CHAMFERA
 40
0.5
  9
$CHAMFERB
 40
0.5
  9
$SKPOLY
 70
     0
  9
$TDCREATE
 40
2450725.5947762728
  9
$TDUPDATE
 40
2454953.6349030668
  9
$TDINDWG
 40
0.0020150694
  9
$TDUSRTIMER
 40
0.0020150694
  9
$USRTIMER
 70
     1
  9
$ANGBASE
 50
0.0
  9
$ANGDIR
 70
     0
  9
$PDMODE
 70
     0
  9
$PDSIZE
 40
0.0
  9
$PLINEWID
 40
0.0
  9
$COORDS
 70
     1
  9
$SPLFRAME
 70
     0
  9
$SPLINETYPE
 70
     6
  9
$SPLINESEGS
 70
     8
  9
$ATTDIA
 70
     0
  9
$ATTREQ
 70
     1
  9
$HANDLING
 70
 10241
  9
$HANDSEED
  5
7AF2
  9
$SURFTAB1
 70
     6
  9
$SURFTAB2
 70
     6
  9
$SURFTYPE
 70
     6
  9
$SURFU
 70
     6
  9
$SURFV
 70
     6
  9
$UCSNAME
  2

  9
$UCSORG
 10
0.0
 20
0.0
 30
0.0
  9
$UCSXDIR
 10
1.0
 20
0.0
 30
0.0
  9
$UCSYDIR
 10
0.0
 20
1.0
 30
0.0
  9
$PUCSNAME
  2

  9
$PUCSORG
 10
0.0
 20
0.0
 30
0.0
  9
$PUCSXDIR
 10
1.0
 20
0.0
 30
0.0
  9
$PUCSYDIR
 10
0.0
 20
1.0
 30
0.0
  9
$USERI1
 70
     0
  9
$USERI2
 70
     0
  9
$USERI3
 70
     0
  9
$USERI4
 70
     0
  9
$USERI5
 70
     0
  9
$USERR1
 40
0.0
  9
$USERR2
 40
0.0
  9
$USERR3
 40
0.0
  9
$USERR4
 40
0.0
  9
$USERR5
 40
0.0
  9
$WORLDVIEW
 70
     1
  9
$SHADEDGE
 70
     3
  9
$SHADEDIF
 70
    70
  9
$TILEMODE
 70
     1
  9
$MAXACTVP
 70
    16
  9
$PLIMCHECK
 70
     0
  9
$PEXTMIN
 10
1.0000000000000000E+020
 20
1.0000000000000000E+020
 30
1.0000000000000000E+020
  9
$PEXTMAX
 10
-1.0000000000000000E+020
 20
-1.0000000000000000E+020
 30
-1.0000000000000000E+020
  9
$PLIMMIN
 10
0.0
 20
0.0
  9
$PLIMMAX
 10
12.0
 20
9.0
  9
$UNITMODE
 70
     0
  9
$VISRETAIN
 70
     0
  9
$PLINEGEN
 70
     0
  9
$PSLTSCALE
 70
     1
  0
ENDSEC
  0
SECTION
  2
TABLES
  0
TABLE
  2
VPORT
 70
     2
  0
VPORT
  2
*ACTIVE
 70
     0
 10
0.0
 20
0.0
 11
1.0
 21
1.0
 12
3125.3232854861071
 22
496.1135029445586
 13
0.0
 23
0.0
 14
10.0
 24
10.0
 15
10.0
 25
10.0
 16
0.0
 26
0.0
 36
1.0
 17
0.0
 27
0.0
 37
0.0
 40
1395.9781173396259
 41
3.1666666666666661
 42
50.0
 43
0.0
 44
0.0
 50
0.0
 51
0.0
 71
     0
 72
   100
 73
     1
 74
     0
 75
     0
 76
     0
 77
     0
 78
     0
  0
ENDTAB
  0
TABLE
  2
LTYPE
 70
     2
  0
LTYPE
  2
CONTINUOUS
 70
     0
  3
Solid line
 72
    65
 73
     0
 40
0.0
  0
LTYPE
  2
CENTER
 70
     0
  3
____ _ ____ _ ____ _ ____ _ ____ _ ____ _ ____ 
 72
    65
 73
     4
 40
2.0
 49
1.25
 49
-0.25
 49
0.25
 49
-0.25
  0
ENDTAB
  0
TABLE
  2
LAYER
 70
     6
  0
LAYER
  2
0
 70
     0
 62
     7
  6
CONTINUOUS
  0
LAYER
  2
3
 70
     0
 62
     2
  6
CONTINUOUS
  0
LAYER
  2
2
 70
     0
 62
     3
  6
CENTER
  0
LAYER
  2
1
 70
     0
 62
     4
  6
CONTINUOUS
  0
LAYER
  2
4
 70
     0
 62
     7
  6
CONTINUOUS
  0
LAYER
  2
DEFPOINTS
 70
     0
 62
     7
  6
CONTINUOUS
  0
ENDTAB
  0
TABLE
  2
STYLE
 70
     1
  0
STYLE
  2
STANDARD
 70
     0
 40
0.0
 41
1.0
 50
0.0
 71
     0
 42
180.0
  3
simplex.shx
  4
extfont.shx
  0
ENDTAB
  0
TABLE
  2
VIEW
 70
     0
  0
ENDTAB
  0
TABLE
  2
UCS
 70
     0
  0
ENDTAB
  0
TABLE
  2
APPID
 70
     1
  0
APPID
  2
ACAD
 70
     0
  0
ENDTAB
  0
TABLE
  2
DIMSTYLE
 70
     1
  0
DIMSTYLE
  2
IGA
 70
     0
  3

  4

  5

  6
OPEN
  7
OPEN
 40
2.0
 41
2.0
 42
0.5
 43
10.0
 44
1.0
 45
0.0
 46
0.0
 47
1.0
 48
1.0
140
3.0
141
0.0
142
0.0
143
0.03937
144
1.0
145
0.0
146
10.0
147
1.0
 71
     0
 72
     0
 73
     0
 74
     0
 75
     0
 76
     0
 77
     1
 78
     8
170
     0
171
     2
172
     0
173
     1
174
     0
175
     0
176
     0
177
     0
178
     0
  0
ENDTAB
  0
ENDSEC
  0
SECTION
  2
BLOCKS
  0
BLOCK
  8
0
  2
$MODEL_SPACE
 70
     0
 10
0.0
 20
0.0
 30
0.0
  3
$MODEL_SPACE
  1

  0
ENDBLK
  5
1B
  8
0
  0
BLOCK
 67
     1
  8
0
  2
$PAPER_SPACE
 70
     0
 10
0.0
 20
0.0
 30
0.0
  3
$PAPER_SPACE
  1

  0
ENDBLK
  5
18
 67
     1
  8
0
  0
BLOCK
  8
0
  2
_OPEN
 70
     0
 10
0.0
 20
0.0
 30
0.0
  3
_OPEN
  1

  0
LINE
  5
7A63
  8
0
  6
BYBLOCK
 62
     0
 10
-1.0
 20
0.166667
 30
0.0
 11
0.0
 21
0.0
 31
0.0
  0
LINE
  5
7A64
  8
0
  6
BYBLOCK
 62
     0
 10
0.0
 20
0.0
 30
0.0
 11
-1.0
 21
-0.166667
 31
0.0
  0
LINE
  5
7A65
  8
0
  6
BYBLOCK
 62
     0
 10
0.0
 20
0.0
 30
0.0
 11
-1.0
 21
0.0
 31
0.0
  0
ENDBLK
  5
7A66
  8
0
  0
BLOCK
  8
0
  2
*D1
 70
     1
 10
0.0
 20
0.0
 30
0.0
  3
*D1
  1

  0
LINE
  5
7ACA
  8
3
  6
CONTINUOUS
 62
     0
 10
707.36603000000002
 20
2384.1820590000002
 30
0.0
 11
707.36603000000002
 21
2482.1462289999999
 31
0.0
  0
LINE
  5
7ACB
  8
3
  6
CONTINUOUS
 62
     0
 10
1377.3660299999999
 20
2384.1820590000002
 30
0.0
 11
1377.3660299999999
 21
2482.1462289999999
 31
0.0
  0
LINE
  5
7ACC
  8
3
  6
CONTINUOUS
 62
     0
 10
737.36603000000002
 20
2467.1462289999999
 30
0.0
 11
1347.3660299999999
 21
2467.1462289999999
 31
0.0
  0
INSERT
  5
7ACD
  8
3
  6
CONTINUOUS
 62
     0
  2
_OPEN
 10
707.36603000000002
 20
2467.1462289999999
 30
0.0
 41
30.0
 42
30.0
 43
30.0
 50
180.0
  0
INSERT
  5
7ACE
  8
3
  6
CONTINUOUS
 62
     0
  2
_OPEN
 10
1377.3660299999999
 20
2467.1462289999999
 30
0.0
 41
30.0
 42
30.0
 43
30.0
  0
TEXT
  8
3
  40
45
  5
7AEE
  62
0
  72
0
  71
0
 10
945.602
 20
2425.00
 30
0.000000
  1
670
  0
POINT
  5
7AD0
  8
DEFPOINTS
  6
CONTINUOUS
 62
     0
 10
707.36603000000002
 20
2376.6820590000002
 30
0.0
  0
POINT
  5
7AD1
  8
DEFPOINTS
  6
CONTINUOUS
 62
     0
 10
1377.3660299999999
 20
2376.6820590000002
 30
0.0
  0
POINT
  5
7AD2
  8
DEFPOINTS
  6
CONTINUOUS
 62
     0
 10
1377.3660299999999
 20
2467.1462289999999
 30
0.0
  0
ENDBLK
  5
7A73
  8
0
  0
BLOCK
  8
0
  2
*D2
 70
     1
 10
0.0
 20
0.0
 30
0.0
  3
*D2
  1

  0
LINE
  5
7AD3
  8
3
  6
CONTINUOUS
 62
     0
 10
1384.8660299999999
 20
2346.6820590000002
 30
0.0
 11
1582.8969159999999
 21
2346.6820590000002
 31
0.0
  0
LINE
  5
7AD4
  8
3
  6
CONTINUOUS
 62
     0
 10
1384.8660299999999
 20
1786.682059
 30
0.0
 11
1582.8969159999999
 21
1786.682059
 31
0.0
  0
LINE
  5
7AD5
  8
3
  6
CONTINUOUS
 62
     0
 10
1567.8969159999999
 20
2316.6820590000002
 30
0.0
 11
1567.8969159999999
 21
1816.6820589999991
 31
0.0
  0
INSERT
  5
7AD6
  8
3
  6
CONTINUOUS
 62
     0
  2
_OPEN
 10
1567.8969159999999
 20
2346.6820590000002
 30
0.0
 41
30.0
 42
30.0
 43
30.0
 50
90.0
  0
INSERT
  5
7AD7
  8
3
  6
CONTINUOUS
 62
     0
  2
_OPEN
 10
1567.8969159999999
 20
1786.682059
 30
0.0
 41
30.0
 42
30.0
 43
30.0
 50
270.0
  0
TEXT
  8
3
  40
45
  5
7AEF
  62
0
  72
0
  71
0
 10
1440.40
 20
1993.17
 30
0.000000
  1
560
  0
POINT
  5
7AD9
  8
DEFPOINTS
  6
CONTINUOUS
 62
     0
 10
1377.3660299999999
 20
2346.6820590000002
 30
0.0
  0
POINT
  5
7ADA
  8
DEFPOINTS
  6
CONTINUOUS
 62
     0
 10
1377.3660299999999
 20
1786.682059
 30
0.0
  0
POINT
  5
7ADB
  8
DEFPOINTS
  6
CONTINUOUS
 62
     0
 10
1567.8969159999999
 20
1786.682059
 30
0.0
  0
ENDBLK
  5
7A80
  8
0
  0
BLOCK
  8
0
  2
*D3
 70
     1
 10
0.0
 20
0.0
 30
0.0
  3
*D3
  1

  0
LINE
  5
7ADC
  8
3
  6
CONTINUOUS
 62
     0
 10
1384.8660299999999
 20
2376.6820590000002
 30
0.0
 11
1678.233371
 21
2376.6820590000002
 31
0.0
  0
LINE
  5
7ADD
  8
3
  6
CONTINUOUS
 62
     0
 10
1384.8660299999999
 20
1756.682059
 30
0.0
 11
1678.233371
 21
1756.682059
 31
0.0
  0
LINE
  5
7ADE
  8
3
  6
CONTINUOUS
 62
     0
 10
1663.233371
 20
2346.6820590000002
 30
0.0
 11
1663.233371
 21
1786.682059
 31
0.0
  0
INSERT
  5
7ADF
  8
3
  6
CONTINUOUS
 62
     0
  2
_OPEN
 10
1663.233371
 20
2376.6820590000002
 30
0.0
 41
30.0
 42
30.0
 43
30.0
 50
90.0
  0
INSERT
  5
7AE0
  8
3
  6
CONTINUOUS
 62
     0
  2
_OPEN
 10
1663.233371
 20
1756.682059
 30
0.0
 41
30.0
 42
30.0
 43
30.0
 50
270.0
  0
TEXT
  8
3
  40
45
  5
7AF0
  62
0
  72
0
  71
0
 10
1535.73
 20
1995.82
 30
0.000000
  1
620
  0
POINT
  5
7AE2
  8
DEFPOINTS
  6
CONTINUOUS
 62
     0
 10
1377.3660299999999
 20
2376.6820590000002
 30
0.0
  0
POINT
  5
7AE3
  8
DEFPOINTS
  6
CONTINUOUS
 62
     0
 10
1377.3660299999999
 20
1756.682059
 30
0.0
  0
POINT
  5
7AE4
  8
DEFPOINTS
  6
CONTINUOUS
 62
     0
 10
1663.233371
 20
1756.682059
 30
0.0
  0
ENDBLK
  5
7A8D
  8
0
  0
BLOCK
  8
0
  2
*D4
 70
     1
 10
0.0
 20
0.0
 30
0.0
  3
*D4
  1

  0
LINE
  5
7AE5
  8
3
  6
CONTINUOUS
 62
     0
 10
1854.230014999999
 20
2089.1820590000002
 30
0.0
 11
1854.230014999999
 21
2484.7927289999998
 31
0.0
  0
LINE
  5
7AE6
  8
3
  6
CONTINUOUS
 62
     0
 10
2554.2300149999992
 20
2089.1820590000002
 30
0.0
 11
2554.2300149999992
 21
2484.7927289999998
 31
0.0
  0
LINE
  5
7AE7
  8
3
  6
CONTINUOUS
 62
     0
 10
1884.230014999999
 20
2469.7927289999989
 30
0.0
 11
2524.2300150000001
 21
2469.7927289999989
 31
0.0
  0
INSERT
  5
7AE8
  8
3
  6
CONTINUOUS
 62
     0
  2
_OPEN
 10
1854.230014999999
 20
2469.7927289999989
 30
0.0
 41
30.0
 42
30.0
 43
30.0
 50
180.0
  0
INSERT
  5
7AE9
  8
3
  6
CONTINUOUS
 62
     0
  2
_OPEN
 10
2554.2300149999992
 20
2469.7927289999989
 30
0.0
 41
30.0
 42
30.0
 43
30.0
  0
TEXT
  8
3
  40
45
  5
7AF1
  62
0
  72
0
  71
0
 10
2110.83
 20
2427.64
 30
0.000000
  1
700
  0
POINT
  5
7AEB
  8
DEFPOINTS
  6
CONTINUOUS
 62
     0
 10
1854.230014999999
 20
2081.6820590000002
 30
0.0
  0
POINT
  5
7AEC
  8
DEFPOINTS
  6
CONTINUOUS
 62
     0
 10
2554.2300149999992
 20
2081.6820590000002
 30
0.0
  0
POINT
  5
7AED
  8
DEFPOINTS
  6
CONTINUOUS
 62
     0
 10
2554.2300149999992
 20
2469.7927289999989
 30
0.0
  0
ENDBLK
  5
7A9A
  8
0
  0
ENDSEC
  0
SECTION
  2
ENTITIES
  0
LINE
  5
7A25
  8
4
  6
CONTINUOUS
 10
2775.0
 20
750.0
 30
0.0
 11
2775.0
 21
450.0
 31
0.0
  0
LINE
  5
7A26
  8
4
  6
CONTINUOUS
 10
1725.0
 20
750.0
 30
0.0
 11
1725.0
 21
450.0
 31
0.0
  0
LINE
  5
7A27
  8
4
  6
CONTINUOUS
 10
975.0
 20
750.0
 30
0.0
 11
975.0
 21
450.0
 31
0.0
  0
LINE
  5
7A2A
  8
4
  6
CONTINUOUS
 10
975.0
 20
450.0
 30
0.0
 11
2775.0
 21
450.0
 31
0.0
  0
LINE
  5
7A2B
  8
4
  6
CONTINUOUS
 10
975.0
 20
600.0
 30
0.0
 11
2775.0
 21
600.0
 31
0.0
  0
TEXT
  5
7A2C
  8
4
  6
CONTINUOUS
 10
1032.753121
 20
647.31453899999985
 30
0.0
 40
75.0
  1
機器名称
  0
TEXT
  5
7A2D
  8
4
  6
CONTINUOUS
 10
1029.387158999999
 20
482.46773499999989
 30
0.0
 40
75.0
  1
機器型番
  0
TEXT
  5
7A2E
  8
4
  6
CONTINUOUS
 10
1766.518118
 20
633.85765300000003
 30
0.0
 40
75.0
  1
ミツヤ軸流排煙ファン
  0
TEXT
  5
7A2F
  8
4
  6
CONTINUOUS
 10
1779.9817430000001
 20
475.73937599999999
 30
0.0
 40
75.0
  1
APE#560-1M
  0
TEXT
  5
7A31
  8
4
  6
CONTINUOUS
 10
1357.1786480000001
 20
3575.1432619999991
 30
0.0
 40
81.0
  1
天井吊形
  0
TEXT
  5
7A32
  8
4
  6
CONTINUOUS
 10
474.25139000000001
 20
3800.8214640000001
 30
0.0
 40
108.0
  1
電動機直動横形軸流式排煙ファン
  0
LINE
  5
7A33
  8
4
  6
CONTINUOUS
 10
375.0
 20
3704.1131310000001
 30
0.0
 11
2775.0
 21
3704.1131310000001
 31
0.0
  0
LINE
  5
7A34
  8
4
  6
CONTINUOUS
 10
375.0
 20
4004.1131310000001
 30
0.0
 11
2775.0
 21
4004.1131310000001
 31
0.0
  0
LINE
  5
7A35
  8
4
  6
CONTINUOUS
 10
975.0
 20
750.0
 30
0.0
 11
2775.0
 21
750.0
 31
0.0
  0
LINE
  5
7A36
  8
4
  6
CONTINUOUS
 10
375.0
 20
4004.1131310000001
 30
0.0
 11
375.0
 21
3704.1131310000001
 31
0.0
  0
TEXT
  5
7A37
  8
4
  6
CONTINUOUS
 10
553.00848599999995
 20
3573.4792159999988
 30
0.0
 40
81.0
  1
左回転前方吐出
  0
TEXT
  5
7A38
  8
4
  6
CONTINUOUS
 10
2203.454338999999
 20
4059.091621999999
 30
0.0
 40
84.0
  1
No.
  0
TEXT
  5
7A39
  8
4
  6
CONTINUOUS
 10
1966.944094
 20
3575.1432619999991
 30
0.0
 40
81.0
  1
縮尺：1/15
  0
LINE
  5
7A3A
  8
4
  6
CONTINUOUS
 10
2775.0
 20
4004.1131310000001
 30
0.0
 11
2775.0
 21
3704.1131310000001
 31
0.0
  0
LINE
  5
7A3C
  8
4
  6
CONTINUOUS
 10
2160.9261339999989
 20
4021.8953750000001
 30
0.0
 11
2160.9261339999989
 21
4179.978392
 31
0.0
  0
LINE
  5
7A3D
  8
4
  6
CONTINUOUS
 10
2160.9261339999989
 20
4179.978392
 30
0.0
 11
2775.0
 21
4179.978392
 31
0.0
  0
LINE
  5
7A3E
  8
4
  6
CONTINUOUS
 10
2775.0
 20
4179.978392
 30
0.0
 11
2775.0
 21
4021.8953750000001
 31
0.0
  0
LINE
  5
7A3F
  8
4
  6
CONTINUOUS
 10
2775.0
 20
4021.8953750000001
 30
0.0
 11
2160.9261339999989
 21
4021.8953750000001
 31
0.0
  0
LINE
  5
7A44
  8
2
  6
CENTER
 10
612.36603000000002
 20
2066.6820590000002
 30
0.0
 11
1472.3660299999999
 21
2066.6820590000002
 31
0.0
  0
LINE
  5
7A45
  8
1
  6
CONTINUOUS
 10
1377.3660299999999
 20
2346.6820590000002
 30
0.0
 11
707.36603000000002
 21
2346.6820590000002
 31
0.0
  0
LINE
  5
7A46
  8
1
  6
CONTINUOUS
 10
1377.3660299999999
 20
1786.682059
 30
0.0
 11
707.36603000000002
 21
1786.682059
 31
0.0
  0
LINE
  5
7A47
  8
1
  6
CONTINUOUS
 10
757.36603000000002
 20
2258.5820589999989
 30
0.0
 11
757.36603000000002
 21
1874.7820589999999
 31
0.0
  0
LINE
  5
7A48
  8
1
  6
CONTINUOUS
 10
839.86602999999991
 20
2258.5820589999989
 30
0.0
 11
839.86602999999991
 21
1874.7820589999999
 31
0.0
  0
LINE
  5
7A49
  8
1
  6
CONTINUOUS
 10
707.36603000000002
 20
1756.682059
 30
0.0
 11
707.36603000000002
 21
2376.6820590000002
 31
0.0
  0
LINE
  5
7A4A
  8
1
  6
CONTINUOUS
 10
757.36603000000002
 20
1874.7820589999999
 30
0.0
 11
839.86602999999991
 21
1874.7820589999999
 31
0.0
  0
LINE
  5
7A4B
  8
1
  6
CONTINUOUS
 10
757.36603000000002
 20
1874.7820589999999
 30
0.0
 11
771.11603000000002
 21
1796.682059
 31
0.0
  0
LINE
  5
7A4C
  8
1
  6
CONTINUOUS
 10
771.11603000000002
 20
1796.682059
 30
0.0
 11
826.11603000000002
 21
1796.682059
 31
0.0
  0
LINE
  5
7A4D
  8
1
  6
CONTINUOUS
 10
826.11603000000002
 20
1796.682059
 30
0.0
 11
839.86602999999991
 21
1874.7820589999999
 31
0.0
  0
LINE
  5
7A4E
  8
1
  6
CONTINUOUS
 10
757.36603000000002
 20
2258.5820589999989
 30
0.0
 11
839.86602999999991
 21
2258.5820589999989
 31
0.0
  0
LINE
  5
7A4F
  8
1
  6
CONTINUOUS
 10
771.11603000000002
 20
2336.6820590000002
 30
0.0
 11
826.11603000000002
 21
2336.6820590000002
 31
0.0
  0
LINE
  5
7A50
  8
1
  6
CONTINUOUS
 10
757.36603000000002
 20
2258.5820589999989
 30
0.0
 11
771.11603000000002
 21
2336.6820590000002
 31
0.0
  0
LINE
  5
7A51
  8
1
  6
CONTINUOUS
 10
826.11603000000002
 20
2336.6820590000002
 30
0.0
 11
839.86602999999991
 21
2258.5820589999989
 31
0.0
  0
LINE
  5
7A52
  8
1
  6
CONTINUOUS
 10
1377.3660299999999
 20
1756.682059
 30
0.0
 11
1377.3660299999999
 21
2376.6820590000002
 31
0.0
  0
LINE
  5
7A53
  8
4
  6
CONTINUOUS
 10
900.47142300000007
 20
2648.5197640000001
 30
0.0
 11
1165.345988
 21
2648.5197640000001
 31
0.0
  0
LINE
  5
7A54
  8
4
  6
CONTINUOUS
 10
900.47142300000007
 20
2648.5197640000001
 30
0.0
 11
960.47142299999996
 21
2678.5197640000001
 31
0.0
  0
LINE
  5
7A55
  8
4
  6
CONTINUOUS
 10
900.47142300000007
 20
2648.5197640000001
 30
0.0
 11
960.47142299999996
 21
2618.5197640000001
 31
0.0
  0
LINE
  5
7A56
  8
1
  6
CONTINUOUS
 10
2513.8668989999992
 20
2051.6820590000002
 30
0.0
 11
2554.2300149999992
 21
2051.6820590000002
 31
0.0
  0
LINE
  5
7A57
  8
1
  6
CONTINUOUS
 10
2513.8668989999992
 20
2081.6820590000002
 30
0.0
 11
2554.2300149999992
 21
2081.6820590000002
 31
0.0
  0
CIRCLE
  5
7A58
  8
1
  6
CONTINUOUS
 10
2204.2300149999992
 20
2066.6820590000002
 30
0.0
 40
280.0
  0
CIRCLE
  5
7A59
  8
1
  6
CONTINUOUS
 10
2204.2300149999992
 20
2066.6820590000002
 30
0.0
 40
310.0
  0
LINE
  5
7A5A
  8
2
  6
CENTER
 10
2204.2300149999992
 20
1751.682059
 30
0.0
 11
2204.2300149999992
 21
2381.6820590000002
 31
0.0
  0
CIRCLE
  5
7A5B
  8
1
  6
CONTINUOUS
 10
2204.2300149999992
 20
2066.6820590000002
 30
0.0
 40
180.0
  0
LINE
  5
7A5C
  8
2
  6
CENTER
 10
1889.2300150000001
 20
2066.6820590000002
 30
0.0
 11
2519.2300149999992
 21
2066.6820590000002
 31
0.0
  0
LINE
  5
7A5D
  8
1
  6
CONTINUOUS
 10
1854.230014999999
 20
2051.6820590000002
 30
0.0
 11
1894.5931309999989
 21
2051.6820590000002
 31
0.0
  0
LINE
  5
7A5E
  8
1
  6
CONTINUOUS
 10
1854.230014999999
 20
2081.6820590000002
 30
0.0
 11
1894.5931309999989
 21
2081.6820590000002
 31
0.0
  0
LINE
  5
7A5F
  8
1
  6
CONTINUOUS
 10
1854.230014999999
 20
2051.6820590000002
 30
0.0
 11
1854.230014999999
 21
2081.6820590000002
 31
0.0
  0
LINE
  5
7A60
  8
1
  6
CONTINUOUS
 10
2554.2300149999992
 20
2051.6820590000002
 30
0.0
 11
2554.2300149999992
 21
2081.6820590000002
 31
0.0
  0
DIMENSION
  5
7A74
  8
3
  6
CONTINUOUS
  2
*D1
 10
1377.3660299999999
 20
2467.1462289999999
 30
0.0
 11
1035.601694
 21
2467.1462289999999
 31
0.0
 70
   128
 13
707.36603000000002
 23
2376.6820590000002
 33
0.0
 14
1377.3660299999999
 24
2376.6820590000002
 34
0.0
1001
ACAD
1000
DSTYLE
1002
{
1070
   287
1070
     3
1070
    40
1040
15.0
1070
   143
1040
0.039
1070
   172
1070
     1
1070
   271
1070
     0
1070
   279
1070
     0
1070
   288
1070
     1
1002
}
  0
DIMENSION
  5
7A81
  8
3
  6
CONTINUOUS
  2
*D2
 10
1567.8969159999999
 20
1786.682059
 30
0.0
 11
1567.8969159999999
 21
2072.8187109999999
 31
0.0
 70
   128
 13
1377.3660299999999
 23
2346.6820590000002
 33
0.0
 14
1377.3660299999999
 24
1786.682059
 34
0.0
 50
90.0
1001
ACAD
1000
DSTYLE
1002
{
1070
   287
1070
     3
1070
    40
1040
15.0
1070
   143
1040
0.039
1070
   172
1070
     1
1070
   271
1070
     0
1070
   279
1070
     0
1070
   288
1070
     1
1002
}
  0
DIMENSION
  5
7A8E
  8
3
  6
CONTINUOUS
  2
*D3
 10
1663.233371
 20
1756.682059
 30
0.0
 11
1663.233371
 21
2075.465201
 31
0.0
 70
   128
 13
1377.3660299999999
 23
2376.6820590000002
 33
0.0
 14
1377.3660299999999
 24
1756.682059
 34
0.0
 50
90.0
1001
ACAD
1000
DSTYLE
1002
{
1070
   287
1070
     3
1070
    40
1040
15.0
1070
   143
1040
0.039
1070
   172
1070
     1
1070
   271
1070
     0
1070
   279
1070
     0
1070
   288
1070
     1
1002
}
  0
DIMENSION
  5
7A9B
  8
3
  6
CONTINUOUS
  2
*D4
 10
2554.2300149999992
 20
2469.7927289999989
 30
0.0
 11
2200.8250539999999
 21
2469.7927289999989
 31
0.0
 70
   128
 13
1854.230014999999
 23
2081.6820590000002
 33
0.0
 14
2554.2300149999992
 24
2081.6820590000002
 34
0.0
1001
ACAD
1000
DSTYLE
1002
{
1070
   287
1070
     3
1070
    40
1040
15.0
1070
   143
1040
0.039
1070
   172
1070
     1
1070
   271
1070
     0
1070
   279
1070
     0
1070
   288
1070
     1
1002
}
  0
ENDSEC
  0
EOF
