  0
SECTION
  2
HEADER
  9
$ACADVER
  1
AC1009
  9
$INSBASE
 10
0.0
 20
0.0
 30
0.0
  9
$EXTMIN
 10
375.0
 20
450.0
 30
0.0
  9
$EXTMAX
 10
2775.0
 20
4179.978392
 30
0.0
  9
$LIMMIN
 10
0.0
 20
0.0
  9
$LIMMAX
 10
297.0
 20
210.0
  9
$ORTHOMODE
 70
     0
  9
$REGENMODE
 70
     1
  9
$FILLMODE
 70
     0
  9
$QTEXTMODE
 70
     0
  9
$MIRRTEXT
 70
     1
  9
$DRAGMODE
 70
     2
  9
$LTSCALE
 40
100.0
  9
$OSMODE
 70
    37
  9
$ATTMODE
 70
     1
  9
$TEXTSIZE
 40
180.0
  9
$TRACEWID
 40
0.05
  9
$TEXTSTYLE
  7
STANDARD
  9
$CLAYER
  8
3
  9
$CELTYPE
  6
BYLAYER
  9
$CECOLOR
 62
   256
  9
$DIMSCALE
 40
10.0
  9
$DIMASZ
 40
2.0
  9
$DIMEXO
 40
0.5
  9
$DIMDLI
 40
10.0
  9
$DIMRND
 40
0.0
  9
$DIMDLE
 40
0.0
  9
$DIMEXE
 40
1.0
  9
$DIMTP
 40
1.0
  9
$DIMTM
 40
1.0
  9
$DIMTXT
 40
3.0
  9
$DIMCEN
 40
0.0
  9
$DIMTSZ
 40
0.0
  9
$DIMTOL
 70
     0
  9
$DIMLIM
 70
     0
  9
$DIMTIH
 70
     0
  9
$DIMTOH
 70
     0
  9
$DIMSE1
 70
     0
  9
$DIMSE2
 70
     0
  9
$DIMTAD
 70
     1
  9
$DIMZIN
 70
     8
  9
$DIMBLK
  1

  9
$DIMASO
 70
     1
  9
$DIMSHO
 70
     1
  9
$DIMPOST
  1

  9
$DIMAPOST
  1

  9
$DIMALT
 70
     0
  9
$DIMALTD
 70
     2
  9
$DIMALTF
 40
0.039
  9
$DIMLFAC
 40
1.0
  9
$DIMTOFL
 70
     1
  9
$DIMTVP
 40
0.0
  9
$DIMTIX
 70
     0
  9
$DIMSOXD
 70
     0
  9
$DIMSAH
 70
     1
  9
$DIMBLK1
  1
OPEN
  9
$DIMBLK2
  1
OPEN
  9
$DIMSTYLE
  2
IGA
  9
$DIMCLRD
 70
     0
  9
$DIMCLRE
 70
     0
  9
$DIMCLRT
 70
     0
  9
$DIMTFAC
 40
10.0
  9
$DIMGAP
 40
1.0
  9
$LUNITS
 70
     2
  9
$LUPREC
 70
     3
  9
$SKETCHINC
 40
0.1
  9
$FILLETRAD
 40
50.0
  9
$AUNITS
 70
     0
  9
$AUPREC
 70
     0
  9
$MENU
  1
acad
  9
$ELEVATION
 40
0.0
  9
$PELEVATION
 40
0.0
  9
$THICKNESS
 40
0.0
  9
$LIMCHECK
 70
     0
  9
$BLIPMODE
 70
     0
  9
$CHAMFERA
 40
0.5
  9
$CHAMFERB
 40
0.5
  9
$SKPOLY
 70
     0
  9
$TDCREATE
 40
2450725.570736805
  9
$TDUPDATE
 40
2454953.6348540508
  9
$TDINDWG
 40
0.0021315162
  9
$TDUSRTIMER
 40
0.0021315162
  9
$USRTIMER
 70
     1
  9
$ANGBASE
 50
0.0
  9
$ANGDIR
 70
     0
  9
$PDMODE
 70
     0
  9
$PDSIZE
 40
0.0
  9
$PLINEWID
 40
0.0
  9
$COORDS
 70
     1
  9
$SPLFRAME
 70
     0
  9
$SPLINETYPE
 70
     6
  9
$SPLINESEGS
 70
     8
  9
$ATTDIA
 70
     0
  9
$ATTREQ
 70
     1
  9
$HANDLING
 70
 10241
  9
$HANDSEED
  5
7B40
  9
$SURFTAB1
 70
     6
  9
$SURFTAB2
 70
     6
  9
$SURFTYPE
 70
     6
  9
$SURFU
 70
     6
  9
$SURFV
 70
     6
  9
$UCSNAME
  2

  9
$UCSORG
 10
0.0
 20
0.0
 30
0.0
  9
$UCSXDIR
 10
1.0
 20
0.0
 30
0.0
  9
$UCSYDIR
 10
0.0
 20
1.0
 30
0.0
  9
$PUCSNAME
  2

  9
$PUCSORG
 10
0.0
 20
0.0
 30
0.0
  9
$PUCSXDIR
 10
1.0
 20
0.0
 30
0.0
  9
$PUCSYDIR
 10
0.0
 20
1.0
 30
0.0
  9
$USERI1
 70
     0
  9
$USERI2
 70
     0
  9
$USERI3
 70
     0
  9
$USERI4
 70
     0
  9
$USERI5
 70
     0
  9
$USERR1
 40
0.0
  9
$USERR2
 40
0.0
  9
$USERR3
 40
0.0
  9
$USERR4
 40
0.0
  9
$USERR5
 40
0.0
  9
$WORLDVIEW
 70
     1
  9
$SHADEDGE
 70
     3
  9
$SHADEDIF
 70
    70
  9
$TILEMODE
 70
     1
  9
$MAXACTVP
 70
    16
  9
$PLIMCHECK
 70
     0
  9
$PEXTMIN
 10
1.0000000000000000E+020
 20
1.0000000000000000E+020
 30
1.0000000000000000E+020
  9
$PEXTMAX
 10
-1.0000000000000000E+020
 20
-1.0000000000000000E+020
 30
-1.0000000000000000E+020
  9
$PLIMMIN
 10
0.0
 20
0.0
  9
$PLIMMAX
 10
12.0
 20
9.0
  9
$UNITMODE
 70
     0
  9
$VISRETAIN
 70
     0
  9
$PLINEGEN
 70
     0
  9
$PSLTSCALE
 70
     1
  0
ENDSEC
  0
SECTION
  2
TABLES
  0
TABLE
  2
VPORT
 70
     2
  0
VPORT
  2
*ACTIVE
 70
     0
 10
0.0
 20
0.0
 11
1.0
 21
1.0
 12
3002.561853367356
 22
539.98748987225554
 13
0.0
 23
0.0
 14
10.0
 24
10.0
 15
10.0
 25
10.0
 16
0.0
 26
0.0
 36
1.0
 17
0.0
 27
0.0
 37
0.0
 40
1373.8898478362471
 41
3.1666666666666661
 42
50.0
 43
0.0
 44
0.0
 50
0.0
 51
0.0
 71
     0
 72
   100
 73
     1
 74
     0
 75
     0
 76
     0
 77
     0
 78
     0
  0
ENDTAB
  0
TABLE
  2
LTYPE
 70
     2
  0
LTYPE
  2
CONTINUOUS
 70
     0
  3
Solid line
 72
    65
 73
     0
 40
0.0
  0
LTYPE
  2
CENTER
 70
     0
  3
____ _ ____ _ ____ _ ____ _ ____ _ ____ _ ____ 
 72
    65
 73
     4
 40
2.0
 49
1.25
 49
-0.25
 49
0.25
 49
-0.25
  0
ENDTAB
  0
TABLE
  2
LAYER
 70
     6
  0
LAYER
  2
0
 70
     0
 62
     7
  6
CONTINUOUS
  0
LAYER
  2
3
 70
     0
 62
     2
  6
CONTINUOUS
  0
LAYER
  2
2
 70
     0
 62
     3
  6
CENTER
  0
LAYER
  2
1
 70
     0
 62
     4
  6
CONTINUOUS
  0
LAYER
  2
4
 70
     0
 62
     7
  6
CONTINUOUS
  0
LAYER
  2
DEFPOINTS
 70
     0
 62
     7
  6
CONTINUOUS
  0
ENDTAB
  0
TABLE
  2
STYLE
 70
     1
  0
STYLE
  2
STANDARD
 70
     0
 40
0.0
 41
1.0
 50
0.0
 71
     0
 42
180.0
  3
simplex.shx
  4
extfont.shx
  0
ENDTAB
  0
TABLE
  2
VIEW
 70
     0
  0
ENDTAB
  0
TABLE
  2
UCS
 70
     0
  0
ENDTAB
  0
TABLE
  2
APPID
 70
     1
  0
APPID
  2
ACAD
 70
     0
  0
ENDTAB
  0
TABLE
  2
DIMSTYLE
 70
     1
  0
DIMSTYLE
  2
IGA
 70
     0
  3

  4

  5

  6
OPEN
  7
OPEN
 40
2.0
 41
2.0
 42
0.5
 43
10.0
 44
1.0
 45
0.0
 46
0.0
 47
1.0
 48
1.0
140
3.0
141
0.0
142
0.0
143
0.03937
144
1.0
145
0.0
146
10.0
147
1.0
 71
     0
 72
     0
 73
     0
 74
     0
 75
     0
 76
     0
 77
     1
 78
     8
170
     0
171
     2
172
     0
173
     1
174
     0
175
     0
176
     0
177
     0
178
     0
  0
ENDTAB
  0
ENDSEC
  0
SECTION
  2
BLOCKS
  0
BLOCK
  8
0
  2
$MODEL_SPACE
 70
     0
 10
0.0
 20
0.0
 30
0.0
  3
$MODEL_SPACE
  1

  0
ENDBLK
  5
1B
  8
0
  0
BLOCK
 67
     1
  8
0
  2
$PAPER_SPACE
 70
     0
 10
0.0
 20
0.0
 30
0.0
  3
$PAPER_SPACE
  1

  0
ENDBLK
  5
18
 67
     1
  8
0
  0
BLOCK
  8
0
  2
_OPEN
 70
     0
 10
0.0
 20
0.0
 30
0.0
  3
_OPEN
  1

  0
LINE
  5
7A44
  8
0
  6
BYBLOCK
 62
     0
 10
-1.0
 20
0.166667
 30
0.0
 11
0.0
 21
0.0
 31
0.0
  0
LINE
  5
7A45
  8
0
  6
BYBLOCK
 62
     0
 10
0.0
 20
0.0
 30
0.0
 11
-1.0
 21
-0.166667
 31
0.0
  0
LINE
  5
7A46
  8
0
  6
BYBLOCK
 62
     0
 10
0.0
 20
0.0
 30
0.0
 11
-1.0
 21
0.0
 31
0.0
  0
ENDBLK
  5
7A47
  8
0
  0
BLOCK
  8
0
  2
*D1
 70
     1
 10
0.0
 20
0.0
 30
0.0
  3
*D1
  1

  0
LINE
  5
7B04
  8
3
  6
CONTINUOUS
 62
     0
 10
720.56504600000005
 20
2247.6062569999999
 30
0.0
 11
720.56504600000005
 21
2351.910378
 31
0.0
  0
LINE
  5
7B05
  8
3
  6
CONTINUOUS
 62
     0
 10
1330.5650459999999
 20
2247.6062569999999
 30
0.0
 11
1330.5650459999999
 21
2351.910378
 31
0.0
  0
LINE
  5
7B06
  8
3
  6
CONTINUOUS
 62
     0
 10
740.56504600000005
 20
2341.910378
 30
0.0
 11
1310.5650459999999
 21
2341.910378
 31
0.0
  0
INSERT
  5
7B07
  8
3
  6
CONTINUOUS
 62
     0
  2
_OPEN
 10
720.56504600000005
 20
2341.910378
 30
0.0
 41
20.0
 42
20.0
 43
20.0
 50
180.0
  0
INSERT
  5
7B08
  8
3
  6
CONTINUOUS
 62
     0
  2
_OPEN
 10
1330.5650459999999
 20
2341.910378
 30
0.0
 41
20.0
 42
20.0
 43
20.0
  0
TEXT
  8
3
  40
30
  5
7B3A
  62
0
  72
0
  71
0
 10
955.078
 20
2313.81
 30
0.000000
  1
610
  0
POINT
  5
7B0A
  8
DEFPOINTS
  6
CONTINUOUS
 62
     0
 10
720.56504600000005
 20
2242.606256999999
 30
0.0
  0
POINT
  5
7B0B
  8
DEFPOINTS
  6
CONTINUOUS
 62
     0
 10
1330.5650459999999
 20
2242.606256999999
 30
0.0
  0
POINT
  5
7B0C
  8
DEFPOINTS
  6
CONTINUOUS
 62
     0
 10
1330.5650459999999
 20
2341.910378
 30
0.0
  0
ENDBLK
  5
7A60
  8
0
  0
BLOCK
  8
0
  2
*D2
 70
     1
 10
0.0
 20
0.0
 30
0.0
  3
*D2
  1

  0
LINE
  5
7B0D
  8
3
  6
CONTINUOUS
 62
     0
 10
1815.528973
 20
1967.6062569999999
 30
0.0
 11
1815.528973
 21
2351.910378
 31
0.0
  0
LINE
  5
7B0E
  8
3
  6
CONTINUOUS
 62
     0
 10
2375.528973
 20
1967.6062569999999
 30
0.0
 11
2375.528973
 21
2351.910378
 31
0.0
  0
LINE
  5
7B0F
  8
3
  6
CONTINUOUS
 62
     0
 10
1835.528972999999
 20
2341.910378
 30
0.0
 11
2355.528972999999
 21
2341.910378
 31
0.0
  0
INSERT
  5
7B10
  8
3
  6
CONTINUOUS
 62
     0
  2
_OPEN
 10
1815.528973
 20
2341.910378
 30
0.0
 41
20.0
 42
20.0
 43
20.0
 50
180.0
  0
INSERT
  5
7B11
  8
3
  6
CONTINUOUS
 62
     0
  2
_OPEN
 10
2375.528973
 20
2341.910378
 30
0.0
 41
20.0
 42
20.0
 43
20.0
  0
TEXT
  8
3
  40
30
  5
7B3B
  62
0
  72
0
  71
0
 10
2024.46
 20
2313.81
 30
0.000000
  1
560
  0
POINT
  5
7B13
  8
DEFPOINTS
  6
CONTINUOUS
 62
     0
 10
1815.528973
 20
1962.6062569999999
 30
0.0
  0
POINT
  5
7B14
  8
DEFPOINTS
  6
CONTINUOUS
 62
     0
 10
2375.528973
 20
1962.6062569999999
 30
0.0
  0
POINT
  5
7B15
  8
DEFPOINTS
  6
CONTINUOUS
 62
     0
 10
2375.528973
 20
2341.910378
 30
0.0
  0
ENDBLK
  5
7A6C
  8
0
  0
BLOCK
  8
0
  2
*D3
 70
     1
 10
0.0
 20
0.0
 30
0.0
  3
*D3
  1

  0
LINE
  5
7B16
  8
3
  6
CONTINUOUS
 62
     0
 10
1335.5650459999999
 20
2247.6062569999999
 30
0.0
 11
1584.8327650000001
 21
2247.6062569999999
 31
0.0
  0
LINE
  5
7B17
  8
3
  6
CONTINUOUS
 62
     0
 10
1332.5650459999999
 20
1632.6062569999999
 30
0.0
 11
1584.8327650000001
 21
1632.606256999999
 31
0.0
  0
LINE
  5
7B18
  8
3
  6
CONTINUOUS
 62
     0
 10
1574.8327650000001
 20
2227.6062569999999
 30
0.0
 11
1574.8327650000001
 21
1652.6062569999999
 31
0.0
  0
INSERT
  5
7B19
  8
3
  6
CONTINUOUS
 62
     0
  2
_OPEN
 10
1574.8327650000001
 20
2247.6062569999999
 30
0.0
 41
20.0
 42
20.0
 43
20.0
 50
90.0
  0
INSERT
  5
7B1A
  8
3
  6
CONTINUOUS
 62
     0
  2
_OPEN
 10
1574.8327650000001
 20
1632.606256999999
 30
0.0
 41
20.0
 42
20.0
 43
20.0
 50
270.0
  0
TEXT
  8
3
  40
30
  5
7B3C
  62
0
  72
0
  71
0
 10
1489.83
 20
1896.40
 30
0.000000
  1
615
  0
POINT
  5
7B1C
  8
DEFPOINTS
  6
CONTINUOUS
 62
     0
 10
1330.5650459999999
 20
2247.6062569999999
 30
0.0
  0
POINT
  5
7B1D
  8
DEFPOINTS
  6
CONTINUOUS
 62
     0
 10
1327.5650459999999
 20
1632.6062569999999
 30
0.0
  0
POINT
  5
7B1E
  8
DEFPOINTS
  6
CONTINUOUS
 62
     0
 10
1574.8327650000001
 20
1632.606256999999
 30
0.0
  0
ENDBLK
  5
7A79
  8
0
  0
BLOCK
  8
0
  2
*D4
 70
     1
 10
0.0
 20
0.0
 30
0.0
  3
*D4
  1

  0
LINE
  5
7B1F
  8
3
  6
CONTINUOUS
 62
     0
 10
1418.7922980000001
 20
1962.6062569999999
 30
0.0
 11
1484.5781609999999
 21
1962.6062569999999
 31
0.0
  0
LINE
  5
7B20
  8
3
  6
CONTINUOUS
 62
     0
 10
1332.5650459999999
 20
1632.6062569999999
 30
0.0
 11
1484.5781609999999
 21
1632.6062569999999
 31
0.0
  0
LINE
  5
7B21
  8
3
  6
CONTINUOUS
 62
     0
 10
1474.5781609999999
 20
1942.6062569999999
 30
0.0
 11
1474.5781609999999
 21
1652.6062569999999
 31
0.0
  0
INSERT
  5
7B22
  8
3
  6
CONTINUOUS
 62
     0
  2
_OPEN
 10
1474.5781609999999
 20
1962.6062569999999
 30
0.0
 41
20.0
 42
20.0
 43
20.0
 50
90.0
  0
INSERT
  5
7B23
  8
3
  6
CONTINUOUS
 62
     0
  2
_OPEN
 10
1474.5781609999999
 20
1632.6062569999999
 30
0.0
 41
20.0
 42
20.0
 43
20.0
 50
270.0
  0
TEXT
  8
3
  40
30
  5
7B3D
  62
0
  72
0
  71
0
 10
1389.58
 20
1762.82
 30
0.000000
  1
330
  0
POINT
  5
7B25
  8
DEFPOINTS
  6
CONTINUOUS
 62
     0
 10
1413.7922980000001
 20
1962.6062569999999
 30
0.0
  0
POINT
  5
7B26
  8
DEFPOINTS
  6
CONTINUOUS
 62
     0
 10
1327.5650459999999
 20
1632.6062569999999
 30
0.0
  0
POINT
  5
7B27
  8
DEFPOINTS
  6
CONTINUOUS
 62
     0
 10
1474.5781609999999
 20
1632.6062569999999
 30
0.0
  0
ENDBLK
  5
7A86
  8
0
  0
BLOCK
  8
0
  2
*D5
 70
     1
 10
0.0
 20
0.0
 30
0.0
  3
*D5
  1

  0
LINE
  5
7B28
  8
3
  6
CONTINUOUS
 62
     0
 10
1870.528973
 20
1627.6062569999999
 30
0.0
 11
1870.528973
 21
1505.3537699999999
 31
0.0
  0
LINE
  5
7B29
  8
3
  6
CONTINUOUS
 62
     0
 10
2320.528973
 20
1627.6062569999999
 30
0.0
 11
2320.528973
 21
1505.3537699999999
 31
0.0
  0
LINE
  5
7B2A
  8
3
  6
CONTINUOUS
 62
     0
 10
1890.528973
 20
1515.353769999999
 30
0.0
 11
2300.528973
 21
1515.353769999999
 31
0.0
  0
INSERT
  5
7B2B
  8
3
  6
CONTINUOUS
 62
     0
  2
_OPEN
 10
1870.528973
 20
1515.353769999999
 30
0.0
 41
20.0
 42
20.0
 43
20.0
 50
180.0
  0
INSERT
  5
7B2C
  8
3
  6
CONTINUOUS
 62
     0
  2
_OPEN
 10
2320.528973
 20
1515.353769999999
 30
0.0
 41
20.0
 42
20.0
 43
20.0
  0
TEXT
  8
3
  40
30
  5
7B3E
  62
0
  72
0
  71
0
 10
2024.46
 20
1487.25
 30
0.000000
  1
450
  0
POINT
  5
7B2E
  8
DEFPOINTS
  6
CONTINUOUS
 62
     0
 10
1870.528973
 20
1632.6062569999999
 30
0.0
  0
POINT
  5
7B2F
  8
DEFPOINTS
  6
CONTINUOUS
 62
     0
 10
2320.528973
 20
1632.6062569999999
 30
0.0
  0
POINT
  5
7B30
  8
DEFPOINTS
  6
CONTINUOUS
 62
     0
 10
2320.528973
 20
1515.353769999999
 30
0.0
  0
ENDBLK
  5
7A93
  8
0
  0
BLOCK
  8
0
  2
*D6
 70
     1
 10
0.0
 20
0.0
 30
0.0
  3
*D6
  1

  0
LINE
  5
7B31
  8
3
  6
CONTINUOUS
 62
     0
 10
715.56504600000005
 20
2212.6062569999999
 30
0.0
 11
565.6324010000003
 21
2212.6062569999999
 31
0.0
  0
LINE
  5
7B32
  8
3
  6
CONTINUOUS
 62
     0
 10
715.56504600000005
 20
1712.6062569999999
 30
0.0
 11
565.63240100000019
 21
1712.6062569999999
 31
0.0
  0
LINE
  5
7B33
  8
3
  6
CONTINUOUS
 62
     0
 10
575.63240100000019
 20
2192.6062569999999
 30
0.0
 11
575.63240100000007
 21
1732.6062569999999
 31
0.0
  0
INSERT
  5
7B34
  8
3
  6
CONTINUOUS
 62
     0
  2
_OPEN
 10
575.63240100000019
 20
2212.6062569999999
 30
0.0
 41
20.0
 42
20.0
 43
20.0
 50
90.0
  0
INSERT
  5
7B35
  8
3
  6
CONTINUOUS
 62
     0
  2
_OPEN
 10
575.63240100000007
 20
1712.6062569999999
 30
0.0
 41
20.0
 42
20.0
 43
20.0
 50
270.0
  0
TEXT
  8
3
  40
30
  5
7B3F
  62
0
  72
0
  71
0
 10
490.632
 20
1900.72
 30
0.000000
  1
500
  0
POINT
  5
7B37
  8
DEFPOINTS
  6
CONTINUOUS
 62
     0
 10
720.56504600000005
 20
2212.6062569999999
 30
0.0
  0
POINT
  5
7B38
  8
DEFPOINTS
  6
CONTINUOUS
 62
     0
 10
720.56504600000005
 20
1712.6062569999999
 30
0.0
  0
POINT
  5
7B39
  8
DEFPOINTS
  6
CONTINUOUS
 62
     0
 10
575.63240100000007
 20
1712.6062569999999
 30
0.0
  0
ENDBLK
  5
7AD6
  8
0
  0
ENDSEC
  0
SECTION
  2
ENTITIES
  0
LINE
  5
7A25
  8
1
  6
CONTINUOUS
 10
1327.5650459999999
 20
1632.6062569999999
 30
0.0
 11
1327.5650459999999
 21
1853.6337829999991
 31
0.0
  0
LINE
  5
7A26
  8
1
  6
CONTINUOUS
 10
723.56504600000005
 20
1632.6062569999999
 30
0.0
 11
723.56504600000005
 21
1853.6337829999991
 31
0.0
  0
LINE
  5
7A27
  8
1
  6
CONTINUOUS
 10
1330.5650459999999
 20
1682.6062569999999
 30
0.0
 11
1330.5650459999999
 21
2242.606256999999
 31
0.0
  0
LINE
  5
7A28
  8
1
  6
CONTINUOUS
 10
720.56504600000005
 20
1682.6062569999999
 30
0.0
 11
720.56504600000005
 21
2242.606256999999
 31
0.0
  0
LINE
  5
7A29
  8
1
  6
CONTINUOUS
 10
839.31504600000005
 20
1722.6062569999999
 30
0.0
 11
853.06504600000005
 21
1800.7062570000001
 31
0.0
  0
LINE
  5
7A2A
  8
1
  6
CONTINUOUS
 10
770.56504600000005
 20
1800.7062570000001
 30
0.0
 11
784.31504600000005
 21
1722.6062569999999
 31
0.0
  0
LINE
  5
7A2B
  8
1
  6
CONTINUOUS
 10
1327.5650459999999
 20
1632.6062569999999
 30
0.0
 11
723.56504600000005
 21
1632.6062569999999
 31
0.0
  0
LINE
  5
7A2C
  8
1
  6
CONTINUOUS
 10
1330.5650459999999
 20
1712.6062569999999
 30
0.0
 11
720.56504600000005
 21
1712.6062569999999
 31
0.0
  0
LINE
  5
7A2D
  8
1
  6
CONTINUOUS
 10
784.31504600000005
 20
1722.6062569999999
 30
0.0
 11
839.31504600000005
 21
1722.6062569999999
 31
0.0
  0
LINE
  5
7A2E
  8
2
  6
CENTER
 10
595.56504600000005
 20
1962.6062569999999
 30
0.0
 11
1413.7922980000001
 21
1962.6062569999999
 31
0.0
  0
LINE
  5
7A2F
  8
1
  6
CONTINUOUS
 10
1330.5650459999999
 20
2212.6062569999999
 30
0.0
 11
720.56504600000005
 21
2212.6062569999999
 31
0.0
  0
LINE
  5
7A30
  8
1
  6
CONTINUOUS
 10
839.31504600000005
 20
2202.6062569999999
 30
0.0
 11
853.06504600000005
 21
2124.506257
 31
0.0
  0
LINE
  5
7A31
  8
1
  6
CONTINUOUS
 10
770.56504600000005
 20
2124.506257
 30
0.0
 11
784.31504600000005
 21
2202.6062569999999
 31
0.0
  0
LINE
  5
7A32
  8
1
  6
CONTINUOUS
 10
784.31504600000005
 20
2202.6062569999999
 30
0.0
 11
839.31504600000005
 21
2202.6062569999999
 31
0.0
  0
LINE
  5
7A33
  8
1
  6
CONTINUOUS
 10
770.56504600000005
 20
1800.7062570000001
 30
0.0
 11
853.06504600000005
 21
1800.7062570000001
 31
0.0
  0
LINE
  5
7A34
  8
1
  6
CONTINUOUS
 10
770.56504600000005
 20
2124.506257
 30
0.0
 11
853.06504600000005
 21
2124.506257
 31
0.0
  0
LINE
  5
7A35
  8
1
  6
CONTINUOUS
 10
853.06504600000005
 20
2124.506257
 30
0.0
 11
853.06504600000005
 21
1800.7062570000001
 31
0.0
  0
LINE
  5
7A36
  8
1
  6
CONTINUOUS
 10
770.56504600000005
 20
2124.506257
 30
0.0
 11
770.56504600000005
 21
1800.7062570000001
 31
0.0
  0
LINE
  5
7A37
  8
4
  6
CONTINUOUS
 10
879.684394
 20
2504.0707910000001
 30
0.0
 11
1144.558959
 21
2504.0707910000001
 31
0.0
  0
LINE
  5
7A38
  8
4
  6
CONTINUOUS
 10
879.684394
 20
2504.0707910000001
 30
0.0
 11
939.684394
 21
2474.0707910000001
 31
0.0
  0
LINE
  5
7A39
  8
4
  6
CONTINUOUS
 10
879.684394
 20
2504.0707910000001
 30
0.0
 11
939.684394
 21
2534.0707910000001
 31
0.0
  0
LINE
  5
7A3A
  8
1
  6
CONTINUOUS
 10
2320.528973
 20
1632.6062569999999
 30
0.0
 11
2320.528973
 21
1795.9479240000001
 31
0.0
  0
LINE
  5
7A3B
  8
1
  6
CONTINUOUS
 10
1870.528973
 20
1632.6062569999999
 30
0.0
 11
1870.528973
 21
1795.9479240000001
 31
0.0
  0
LINE
  5
7A3C
  8
2
  6
CENTER
 10
2095.528972999999
 20
1677.6062569999999
 30
0.0
 11
2095.528972999999
 21
2247.6062569999999
 31
0.0
  0
CIRCLE
  5
7A3D
  8
1
  6
CONTINUOUS
 10
2095.528972999999
 20
1962.6062569999999
 30
0.0
 40
280.0
  0
CIRCLE
  5
7A3E
  8
1
  6
CONTINUOUS
 10
2095.528972999999
 20
1962.6062569999999
 30
0.0
 40
250.0
  0
LINE
  5
7A3F
  8
1
  6
CONTINUOUS
 10
1870.528973
 20
1632.6062569999999
 30
0.0
 11
2320.528973
 21
1632.6062569999999
 31
0.0
  0
CIRCLE
  5
7A40
  8
1
  6
CONTINUOUS
 10
2095.528972999999
 20
1962.6062569999999
 30
0.0
 40
150.0
  0
LINE
  5
7A41
  8
2
  6
CENTER
 10
1810.528973
 20
1962.6062569999999
 30
0.0
 11
2380.528973
 21
1962.6062569999999
 31
0.0
  0
DIMENSION
  5
7A55
  8
3
  6
CONTINUOUS
  2
*D1
 10
1330.5650459999999
 20
2341.910378
 30
0.0
 11
1015.077874
 21
2341.910378
 31
0.0
 70
   128
 13
720.56504600000005
 23
2242.606256999999
 33
0.0
 14
1330.5650459999999
 24
2242.606256999999
 34
0.0
1001
ACAD
1000
DSTYLE
1002
{
1070
   287
1070
     3
1070
    40
1040
10.0
1070
   143
1040
0.039
1070
   172
1070
     1
1070
   271
1070
     0
1070
   279
1070
     0
1070
   288
1070
     1
1002
}
  0
DIMENSION
  5
7A6D
  8
3
  6
CONTINUOUS
  2
*D2
 10
2375.528973
 20
2341.910378
 30
0.0
 11
2084.460345
 21
2341.910378
 31
0.0
 70
   128
 13
1815.528973
 23
1962.6062569999999
 33
0.0
 14
2375.528973
 24
1962.6062569999999
 34
0.0
1001
ACAD
1000
DSTYLE
1002
{
1070
   287
1070
     3
1070
    40
1040
10.0
1070
   143
1040
0.039
1070
   172
1070
     1
1070
   271
1070
     0
1070
   279
1070
     0
1070
   288
1070
     1
1002
}
  0
DIMENSION
  5
7A7A
  8
3
  6
CONTINUOUS
  2
*D3
 10
1574.8327650000001
 20
1632.606256999999
 30
0.0
 11
1574.8327650000001
 21
1949.504715999999
 31
0.0
 70
   128
 13
1330.5650459999999
 23
2247.6062569999999
 33
0.0
 14
1327.5650459999999
 24
1632.6062569999999
 34
0.0
 50
90.0
1001
ACAD
1000
DSTYLE
1002
{
1070
   287
1070
     3
1070
    40
1040
10.0
1070
   143
1040
0.039
1070
   172
1070
     1
1070
   271
1070
     0
1070
   279
1070
     0
1070
   288
1070
     1
1002
}
  0
DIMENSION
  5
7A87
  8
3
  6
CONTINUOUS
  2
*D4
 10
1474.5781609999999
 20
1632.6062569999999
 30
0.0
 11
1474.5781609999999
 21
1815.9198100000001
 31
0.0
 70
   128
 13
1413.7922980000001
 23
1962.6062569999999
 33
0.0
 14
1327.5650459999999
 24
1632.6062569999999
 34
0.0
 50
90.0
1001
ACAD
1000
DSTYLE
1002
{
1070
   287
1070
     3
1070
    40
1040
10.0
1070
   143
1040
0.039
1070
   172
1070
     1
1070
   271
1070
     0
1070
   279
1070
     0
1070
   288
1070
     1
1002
}
  0
DIMENSION
  5
7A94
  8
3
  6
CONTINUOUS
  2
*D5
 10
2320.528973
 20
1515.353769999999
 30
0.0
 11
2084.460345
 21
1515.353769999999
 31
0.0
 70
   128
 13
1870.528973
 23
1632.6062569999999
 33
0.0
 14
2320.528973
 24
1632.6062569999999
 34
0.0
1001
ACAD
1000
DSTYLE
1002
{
1070
   287
1070
     3
1070
    40
1040
10.0
1070
   143
1040
0.039
1070
   172
1070
     1
1070
   271
1070
     0
1070
   279
1070
     0
1070
   288
1070
     1
1002
}
  0
LINE
  5
7A95
  8
4
  6
CONTINUOUS
 10
2775.0
 20
750.0
 30
0.0
 11
2775.0
 21
450.0
 31
0.0
  0
LINE
  5
7A96
  8
4
  6
CONTINUOUS
 10
1725.0
 20
750.0
 30
0.0
 11
1725.0
 21
450.0
 31
0.0
  0
LINE
  5
7A97
  8
4
  6
CONTINUOUS
 10
975.0
 20
750.0
 30
0.0
 11
975.0
 21
450.0
 31
0.0
  0
LINE
  5
7A9A
  8
4
  6
CONTINUOUS
 10
975.0
 20
450.0
 30
0.0
 11
2775.0
 21
450.0
 31
0.0
  0
LINE
  5
7A9B
  8
4
  6
CONTINUOUS
 10
975.0
 20
600.0
 30
0.0
 11
2775.0
 21
600.0
 31
0.0
  0
TEXT
  5
7A9C
  8
4
  6
CONTINUOUS
 10
1032.753121
 20
647.31453899999985
 30
0.0
 40
75.0
  1
機器名称
  0
TEXT
  5
7A9D
  8
4
  6
CONTINUOUS
 10
1029.387158999999
 20
482.46773499999989
 30
0.0
 40
75.0
  1
機器型番
  0
TEXT
  5
7A9E
  8
4
  6
CONTINUOUS
 10
1766.518118
 20
633.85765300000003
 30
0.0
 40
75.0
  1
ミツヤ軸流排煙ファン
  0
TEXT
  5
7A9F
  8
4
  6
CONTINUOUS
 10
1779.9817430000001
 20
475.73937599999999
 30
0.0
 40
75.0
  1
APE#500-1M
  0
TEXT
  5
7AA1
  8
4
  6
CONTINUOUS
 10
1357.1786480000001
 20
3575.1432619999991
 30
0.0
 40
81.0
  1
床置ベット
  0
TEXT
  5
7AA2
  8
4
  6
CONTINUOUS
 10
474.25139000000001
 20
3800.8214640000001
 30
0.0
 40
108.0
  1
電動機直動横形軸流式ファン
  0
LINE
  5
7AA3
  8
4
  6
CONTINUOUS
 10
375.0
 20
3704.1131310000001
 30
0.0
 11
2775.0
 21
3704.1131310000001
 31
0.0
  0
LINE
  5
7AA4
  8
4
  6
CONTINUOUS
 10
375.0
 20
4004.1131310000001
 30
0.0
 11
2775.0
 21
4004.1131310000001
 31
0.0
  0
LINE
  5
7AA5
  8
4
  6
CONTINUOUS
 10
975.0
 20
750.0
 30
0.0
 11
2775.0
 21
750.0
 31
0.0
  0
LINE
  5
7AA6
  8
4
  6
CONTINUOUS
 10
375.0
 20
4004.1131310000001
 30
0.0
 11
375.0
 21
3704.1131310000001
 31
0.0
  0
TEXT
  5
7AA7
  8
4
  6
CONTINUOUS
 10
529.82702500000005
 20
3573.4792159999988
 30
0.0
 40
81.0
  1
左回転前方吐出
  0
TEXT
  5
7AA8
  8
4
  6
CONTINUOUS
 10
2203.454338999999
 20
4059.091621999999
 30
0.0
 40
84.0
  1
No.
  0
TEXT
  5
7AA9
  8
4
  6
CONTINUOUS
 10
1966.944094
 20
3575.1432619999991
 30
0.0
 40
81.0
  1
縮尺：1/15
  0
LINE
  5
7AAA
  8
4
  6
CONTINUOUS
 10
2775.0
 20
4004.1131310000001
 30
0.0
 11
2775.0
 21
3704.1131310000001
 31
0.0
  0
LINE
  5
7AAC
  8
4
  6
CONTINUOUS
 10
2160.9261339999989
 20
4021.8953750000001
 30
0.0
 11
2160.9261339999989
 21
4179.978392
 31
0.0
  0
LINE
  5
7AAD
  8
4
  6
CONTINUOUS
 10
2160.9261339999989
 20
4179.978392
 30
0.0
 11
2775.0
 21
4179.978392
 31
0.0
  0
LINE
  5
7AAE
  8
4
  6
CONTINUOUS
 10
2775.0
 20
4179.978392
 30
0.0
 11
2775.0
 21
4021.8953750000001
 31
0.0
  0
LINE
  5
7AAF
  8
4
  6
CONTINUOUS
 10
2775.0
 20
4021.8953750000001
 30
0.0
 11
2160.9261339999989
 21
4021.8953750000001
 31
0.0
  0
DIMENSION
  5
7AD7
  8
3
  6
CONTINUOUS
  2
*D6
 10
575.63240100000007
 20
1712.6062569999999
 30
0.0
 11
575.63240099999985
 21
1953.816028
 31
0.0
 70
   128
 13
720.56504600000005
 23
2212.6062569999999
 33
0.0
 14
720.56504600000005
 24
1712.6062569999999
 34
0.0
 50
90.0
1001
ACAD
1000
DSTYLE
1002
{
1070
   287
1070
     3
1070
    40
1040
10.0
1070
   143
1040
0.039
1070
   172
1070
     1
1070
   271
1070
     0
1070
   279
1070
     0
1070
   288
1070
     1
1002
}
  0
ENDSEC
  0
EOF
