  0
SECTION
  2
HEADER
  9
$ACADVER
  1
AC1009
  9
$INSBASE
 10
0.0
 20
0.0
 30
0.0
  9
$EXTMIN
 10
375.0
 20
450.0
 30
0.0
  9
$EXTMAX
 10
2775.0
 20
4179.978392
 30
0.0
  9
$LIMMIN
 10
0.0
 20
0.0
  9
$LIMMAX
 10
297.0
 20
210.0
  9
$ORTHOMODE
 70
     0
  9
$REGENMODE
 70
     1
  9
$FILLMODE
 70
     0
  9
$QTEXTMODE
 70
     0
  9
$MIRRTEXT
 70
     1
  9
$DRAGMODE
 70
     2
  9
$LTSCALE
 40
100.0
  9
$OSMODE
 70
    37
  9
$ATTMODE
 70
     1
  9
$TEXTSIZE
 40
180.0
  9
$TRACEWID
 40
0.05
  9
$TEXTSTYLE
  7
STANDARD
  9
$CLAYER
  8
3
  9
$CELTYPE
  6
BYLAYER
  9
$CECOLOR
 62
   256
  9
$DIMSCALE
 40
15.0
  9
$DIMASZ
 40
2.0
  9
$DIMEXO
 40
0.5
  9
$DIMDLI
 40
10.0
  9
$DIMRND
 40
0.0
  9
$DIMDLE
 40
0.0
  9
$DIMEXE
 40
1.0
  9
$DIMTP
 40
1.0
  9
$DIMTM
 40
1.0
  9
$DIMTXT
 40
3.0
  9
$DIMCEN
 40
0.0
  9
$DIMTSZ
 40
0.0
  9
$DIMTOL
 70
     0
  9
$DIMLIM
 70
     0
  9
$DIMTIH
 70
     0
  9
$DIMTOH
 70
     0
  9
$DIMSE1
 70
     0
  9
$DIMSE2
 70
     0
  9
$DIMTAD
 70
     1
  9
$DIMZIN
 70
     8
  9
$DIMBLK
  1

  9
$DIMASO
 70
     1
  9
$DIMSHO
 70
     1
  9
$DIMPOST
  1

  9
$DIMAPOST
  1

  9
$DIMALT
 70
     0
  9
$DIMALTD
 70
     2
  9
$DIMALTF
 40
0.039
  9
$DIMLFAC
 40
1.0
  9
$DIMTOFL
 70
     1
  9
$DIMTVP
 40
0.0
  9
$DIMTIX
 70
     0
  9
$DIMSOXD
 70
     0
  9
$DIMSAH
 70
     1
  9
$DIMBLK1
  1
OPEN
  9
$DIMBLK2
  1
OPEN
  9
$DIMSTYLE
  2
IGA
  9
$DIMCLRD
 70
     0
  9
$DIMCLRE
 70
     0
  9
$DIMCLRT
 70
     0
  9
$DIMTFAC
 40
10.0
  9
$DIMGAP
 40
1.0
  9
$LUNITS
 70
     2
  9
$LUPREC
 70
     3
  9
$SKETCHINC
 40
0.1
  9
$FILLETRAD
 40
50.0
  9
$AUNITS
 70
     0
  9
$AUPREC
 70
     0
  9
$MENU
  1
acad
  9
$ELEVATION
 40
0.0
  9
$PELEVATION
 40
0.0
  9
$THICKNESS
 40
0.0
  9
$LIMCHECK
 70
     0
  9
$BLIPMODE
 70
     0
  9
$CHAMFERA
 40
0.5
  9
$CHAMFERB
 40
0.5
  9
$SKPOLY
 70
     0
  9
$TDCREATE
 40
2450725.580164467
  9
$TDUPDATE
 40
2454953.6347902198
  9
$TDINDWG
 40
0.0054427546
  9
$TDUSRTIMER
 40
0.0054427546
  9
$USRTIMER
 70
     1
  9
$ANGBASE
 50
0.0
  9
$ANGDIR
 70
     0
  9
$PDMODE
 70
     0
  9
$PDSIZE
 40
0.0
  9
$PLINEWID
 40
0.0
  9
$COORDS
 70
     1
  9
$SPLFRAME
 70
     0
  9
$SPLINETYPE
 70
     6
  9
$SPLINESEGS
 70
     8
  9
$ATTDIA
 70
     0
  9
$ATTREQ
 70
     1
  9
$HANDLING
 70
 10241
  9
$HANDSEED
  5
7AFB
  9
$SURFTAB1
 70
     6
  9
$SURFTAB2
 70
     6
  9
$SURFTYPE
 70
     6
  9
$SURFU
 70
     6
  9
$SURFV
 70
     6
  9
$UCSNAME
  2

  9
$UCSORG
 10
0.0
 20
0.0
 30
0.0
  9
$UCSXDIR
 10
1.0
 20
0.0
 30
0.0
  9
$UCSYDIR
 10
0.0
 20
1.0
 30
0.0
  9
$PUCSNAME
  2

  9
$PUCSORG
 10
0.0
 20
0.0
 30
0.0
  9
$PUCSXDIR
 10
1.0
 20
0.0
 30
0.0
  9
$PUCSYDIR
 10
0.0
 20
1.0
 30
0.0
  9
$USERI1
 70
     0
  9
$USERI2
 70
     0
  9
$USERI3
 70
     0
  9
$USERI4
 70
     0
  9
$USERI5
 70
     0
  9
$USERR1
 40
0.0
  9
$USERR2
 40
0.0
  9
$USERR3
 40
0.0
  9
$USERR4
 40
0.0
  9
$USERR5
 40
0.0
  9
$WORLDVIEW
 70
     1
  9
$SHADEDGE
 70
     3
  9
$SHADEDIF
 70
    70
  9
$TILEMODE
 70
     1
  9
$MAXACTVP
 70
    16
  9
$PLIMCHECK
 70
     0
  9
$PEXTMIN
 10
1.0000000000000000E+020
 20
1.0000000000000000E+020
 30
1.0000000000000000E+020
  9
$PEXTMAX
 10
-1.0000000000000000E+020
 20
-1.0000000000000000E+020
 30
-1.0000000000000000E+020
  9
$PLIMMIN
 10
0.0
 20
0.0
  9
$PLIMMAX
 10
12.0
 20
9.0
  9
$UNITMODE
 70
     0
  9
$VISRETAIN
 70
     0
  9
$PLINEGEN
 70
     0
  9
$PSLTSCALE
 70
     1
  0
ENDSEC
  0
SECTION
  2
TABLES
  0
TABLE
  2
VPORT
 70
     2
  0
VPORT
  2
*ACTIVE
 70
     0
 10
0.0
 20
0.0
 11
1.0
 21
1.0
 12
2909.9401757495139
 22
523.11288269727538
 13
0.0
 23
0.0
 14
10.0
 24
10.0
 15
10.0
 25
10.0
 16
0.0
 26
0.0
 36
1.0
 17
0.0
 27
0.0
 37
0.0
 40
1285.536805277359
 41
3.1666666666666661
 42
50.0
 43
0.0
 44
0.0
 50
0.0
 51
0.0
 71
     0
 72
   100
 73
     1
 74
     0
 75
     0
 76
     0
 77
     0
 78
     0
  0
ENDTAB
  0
TABLE
  2
LTYPE
 70
     2
  0
LTYPE
  2
CONTINUOUS
 70
     0
  3
Solid line
 72
    65
 73
     0
 40
0.0
  0
LTYPE
  2
CENTER
 70
     0
  3
____ _ ____ _ ____ _ ____ _ ____ _ ____ _ ____ 
 72
    65
 73
     4
 40
2.0
 49
1.25
 49
-0.25
 49
0.25
 49
-0.25
  0
ENDTAB
  0
TABLE
  2
LAYER
 70
     6
  0
LAYER
  2
0
 70
     0
 62
     7
  6
CONTINUOUS
  0
LAYER
  2
3
 70
     0
 62
     2
  6
CONTINUOUS
  0
LAYER
  2
2
 70
     0
 62
     3
  6
CENTER
  0
LAYER
  2
1
 70
     0
 62
     4
  6
CONTINUOUS
  0
LAYER
  2
4
 70
     0
 62
     7
  6
CONTINUOUS
  0
LAYER
  2
DEFPOINTS
 70
     0
 62
     7
  6
CONTINUOUS
  0
ENDTAB
  0
TABLE
  2
STYLE
 70
     1
  0
STYLE
  2
STANDARD
 70
     0
 40
0.0
 41
1.0
 50
0.0
 71
     0
 42
180.0
  3
simplex.shx
  4
extfont.shx
  0
ENDTAB
  0
TABLE
  2
VIEW
 70
     0
  0
ENDTAB
  0
TABLE
  2
UCS
 70
     0
  0
ENDTAB
  0
TABLE
  2
APPID
 70
     1
  0
APPID
  2
ACAD
 70
     0
  0
ENDTAB
  0
TABLE
  2
DIMSTYLE
 70
     1
  0
DIMSTYLE
  2
IGA
 70
     0
  3

  4

  5

  6
OPEN
  7
OPEN
 40
2.0
 41
2.0
 42
0.5
 43
10.0
 44
1.0
 45
0.0
 46
0.0
 47
1.0
 48
1.0
140
3.0
141
0.0
142
0.0
143
0.03937
144
1.0
145
0.0
146
10.0
147
1.0
 71
     0
 72
     0
 73
     0
 74
     0
 75
     0
 76
     0
 77
     1
 78
     8
170
     0
171
     2
172
     0
173
     1
174
     0
175
     0
176
     0
177
     0
178
     0
  0
ENDTAB
  0
ENDSEC
  0
SECTION
  2
BLOCKS
  0
BLOCK
  8
0
  2
$MODEL_SPACE
 70
     0
 10
0.0
 20
0.0
 30
0.0
  3
$MODEL_SPACE
  1

  0
ENDBLK
  5
1B
  8
0
  0
BLOCK
 67
     1
  8
0
  2
$PAPER_SPACE
 70
     0
 10
0.0
 20
0.0
 30
0.0
  3
$PAPER_SPACE
  1

  0
ENDBLK
  5
18
 67
     1
  8
0
  0
BLOCK
  8
0
  2
_OPEN
 70
     0
 10
0.0
 20
0.0
 30
0.0
  3
_OPEN
  1

  0
LINE
  5
7A44
  8
0
  6
BYBLOCK
 62
     0
 10
-1.0
 20
0.166667
 30
0.0
 11
0.0
 21
0.0
 31
0.0
  0
LINE
  5
7A45
  8
0
  6
BYBLOCK
 62
     0
 10
0.0
 20
0.0
 30
0.0
 11
-1.0
 21
-0.166667
 31
0.0
  0
LINE
  5
7A46
  8
0
  6
BYBLOCK
 62
     0
 10
0.0
 20
0.0
 30
0.0
 11
-1.0
 21
0.0
 31
0.0
  0
ENDBLK
  5
7A47
  8
0
  0
BLOCK
  8
0
  2
*D1
 70
     1
 10
0.0
 20
0.0
 30
0.0
  3
*D1
  1

  0
LINE
  5
7AD3
  8
3
  6
CONTINUOUS
 62
     0
 10
628.94179699999995
 20
2316.1435149999988
 30
0.0
 11
628.94179699999995
 21
2415.3537710000001
 31
0.0
  0
LINE
  5
7AD4
  8
3
  6
CONTINUOUS
 62
     0
 10
1238.941797
 20
2316.1435149999988
 30
0.0
 11
1238.941797
 21
2415.3537710000001
 31
0.0
  0
LINE
  5
7AD5
  8
3
  6
CONTINUOUS
 62
     0
 10
658.94179699999995
 20
2400.3537710000001
 30
0.0
 11
1208.941797
 21
2400.3537710000001
 31
0.0
  0
INSERT
  5
7AD6
  8
3
  6
CONTINUOUS
 62
     0
  2
_OPEN
 10
628.94179699999995
 20
2400.3537710000001
 30
0.0
 41
30.0
 42
30.0
 43
30.0
 50
180.0
  0
INSERT
  5
7AD7
  8
3
  6
CONTINUOUS
 62
     0
  2
_OPEN
 10
1238.941797
 20
2400.3537710000001
 30
0.0
 41
30.0
 42
30.0
 43
30.0
  0
TEXT
  8
3
  40
45
  5
7AF7
  62
0
  72
0
  71
0
 10
841.532
 20
2358.20
 30
0.000000
  1
610
  0
POINT
  5
7AD9
  8
DEFPOINTS
  6
CONTINUOUS
 62
     0
 10
628.94179699999995
 20
2308.6435149999988
 30
0.0
  0
POINT
  5
7ADA
  8
DEFPOINTS
  6
CONTINUOUS
 62
     0
 10
1238.941797
 20
2308.6435149999988
 30
0.0
  0
POINT
  5
7ADB
  8
DEFPOINTS
  6
CONTINUOUS
 62
     0
 10
1238.941797
 20
2400.3537710000001
 30
0.0
  0
ENDBLK
  5
7A54
  8
0
  0
BLOCK
  8
0
  2
*D2
 70
     1
 10
0.0
 20
0.0
 30
0.0
  3
*D2
  1

  0
LINE
  5
7ADC
  8
3
  6
CONTINUOUS
 62
     0
 10
1246.441797
 20
2278.6435150000002
 30
0.0
 11
1464.514506
 21
2278.6435150000002
 31
0.0
  0
LINE
  5
7ADD
  8
3
  6
CONTINUOUS
 62
     0
 10
1246.441797
 20
1778.6435149999991
 30
0.0
 11
1464.514506
 21
1778.6435149999991
 31
0.0
  0
LINE
  5
7ADE
  8
3
  6
CONTINUOUS
 62
     0
 10
1449.514506
 20
2248.6435149999988
 30
0.0
 11
1449.514506
 21
1808.6435149999991
 31
0.0
  0
INSERT
  5
7ADF
  8
3
  6
CONTINUOUS
 62
     0
  2
_OPEN
 10
1449.514506
 20
2278.6435150000002
 30
0.0
 41
30.0
 42
30.0
 43
30.0
 50
90.0
  0
INSERT
  5
7AE0
  8
3
  6
CONTINUOUS
 62
     0
  2
_OPEN
 10
1449.514506
 20
1778.6435149999991
 30
0.0
 41
30.0
 42
30.0
 43
30.0
 50
270.0
  0
TEXT
  8
3
  40
45
  5
7AF8
  62
0
  72
0
  71
0
 10
1322.01
 20
1928.30
 30
0.000000
  1
500
  0
POINT
  5
7AE2
  8
DEFPOINTS
  6
CONTINUOUS
 62
     0
 10
1238.941797
 20
2278.6435150000002
 30
0.0
  0
POINT
  5
7AE3
  8
DEFPOINTS
  6
CONTINUOUS
 62
     0
 10
1238.941797
 20
1778.6435149999991
 30
0.0
  0
POINT
  5
7AE4
  8
DEFPOINTS
  6
CONTINUOUS
 62
     0
 10
1449.514506
 20
1778.6435149999991
 30
0.0
  0
ENDBLK
  5
7A61
  8
0
  0
BLOCK
  8
0
  2
*D3
 70
     1
 10
0.0
 20
0.0
 30
0.0
  3
*D3
  1

  0
LINE
  5
7AE5
  8
3
  6
CONTINUOUS
 62
     0
 10
1246.441797
 20
2308.6435149999988
 30
0.0
 11
1581.478202
 21
2308.6435149999988
 31
0.0
  0
LINE
  5
7AE6
  8
3
  6
CONTINUOUS
 62
     0
 10
1246.441797
 20
1748.6435149999991
 30
0.0
 11
1581.478202
 21
1748.6435149999991
 31
0.0
  0
LINE
  5
7AE7
  8
3
  6
CONTINUOUS
 62
     0
 10
1566.478202
 20
2278.6435150000002
 30
0.0
 11
1566.478202
 21
1778.6435149999991
 31
0.0
  0
INSERT
  5
7AE8
  8
3
  6
CONTINUOUS
 62
     0
  2
_OPEN
 10
1566.478202
 20
2308.6435149999988
 30
0.0
 41
30.0
 42
30.0
 43
30.0
 50
90.0
  0
INSERT
  5
7AE9
  8
3
  6
CONTINUOUS
 62
     0
  2
_OPEN
 10
1566.478202
 20
1748.6435149999991
 30
0.0
 41
30.0
 42
30.0
 43
30.0
 50
270.0
  0
TEXT
  8
3
  40
45
  5
7AF9
  62
0
  72
0
  71
0
 10
1438.98
 20
1936.65
 30
0.000000
  1
560
  0
POINT
  5
7AEB
  8
DEFPOINTS
  6
CONTINUOUS
 62
     0
 10
1238.941797
 20
2308.6435149999988
 30
0.0
  0
POINT
  5
7AEC
  8
DEFPOINTS
  6
CONTINUOUS
 62
     0
 10
1238.941797
 20
1748.6435149999991
 30
0.0
  0
POINT
  5
7AED
  8
DEFPOINTS
  6
CONTINUOUS
 62
     0
 10
1566.478202
 20
1748.6435149999991
 30
0.0
  0
ENDBLK
  5
7A6E
  8
0
  0
BLOCK
  8
0
  2
*D4
 70
     1
 10
0.0
 20
0.0
 30
0.0
  3
*D4
  1

  0
LINE
  5
7AEE
  8
3
  6
CONTINUOUS
 62
     0
 10
1800.8694370000001
 20
2051.1435149999988
 30
0.0
 11
1800.8694370000001
 21
2415.3537710000001
 31
0.0
  0
LINE
  5
7AEF
  8
3
  6
CONTINUOUS
 62
     0
 10
2440.8694369999998
 20
2051.1435149999988
 30
0.0
 11
2440.8694369999998
 21
2415.3537710000001
 31
0.0
  0
LINE
  5
7AF0
  8
3
  6
CONTINUOUS
 62
     0
 10
1830.8694370000001
 20
2400.3537710000001
 30
0.0
 11
2410.8694369999998
 21
2400.3537710000001
 31
0.0
  0
INSERT
  5
7AF1
  8
3
  6
CONTINUOUS
 62
     0
  2
_OPEN
 10
1800.8694370000001
 20
2400.3537710000001
 30
0.0
 41
30.0
 42
30.0
 43
30.0
 50
180.0
  0
INSERT
  5
7AF2
  8
3
  6
CONTINUOUS
 62
     0
  2
_OPEN
 10
2440.8694369999998
 20
2400.3537710000001
 30
0.0
 41
30.0
 42
30.0
 43
30.0
  0
TEXT
  8
3
  40
45
  5
7AFA
  62
0
  72
0
  71
0
 10
2002.81
 20
2358.20
 30
0.000000
  1
640
  0
POINT
  5
7AF4
  8
DEFPOINTS
  6
CONTINUOUS
 62
     0
 10
1800.8694370000001
 20
2043.6435149999991
 30
0.0
  0
POINT
  5
7AF5
  8
DEFPOINTS
  6
CONTINUOUS
 62
     0
 10
2440.8694369999998
 20
2043.6435149999991
 30
0.0
  0
POINT
  5
7AF6
  8
DEFPOINTS
  6
CONTINUOUS
 62
     0
 10
2440.8694369999998
 20
2400.3537710000001
 30
0.0
  0
ENDBLK
  5
7A7B
  8
0
  0
ENDSEC
  0
SECTION
  2
ENTITIES
  0
LINE
  5
7A25
  8
2
  6
CENTER
 10
503.94179699999989
 20
2028.643515
 30
0.0
 11
1363.941797
 21
2028.643515
 31
0.0
  0
LINE
  5
7A26
  8
1
  6
CONTINUOUS
 10
1238.941797
 20
2278.6435150000002
 30
0.0
 11
628.94179699999995
 21
2278.6435150000002
 31
0.0
  0
LINE
  5
7A27
  8
1
  6
CONTINUOUS
 10
1238.941797
 20
1778.6435149999991
 30
0.0
 11
628.94179699999995
 21
1778.6435149999991
 31
0.0
  0
LINE
  5
7A28
  8
1
  6
CONTINUOUS
 10
678.94179699999995
 20
1866.743514999999
 30
0.0
 11
692.69179699999995
 21
1788.6435149999991
 31
0.0
  0
LINE
  5
7A29
  8
1
  6
CONTINUOUS
 10
747.69179699999995
 20
1788.6435149999991
 30
0.0
 11
761.44179699999995
 21
1866.743514999999
 31
0.0
  0
LINE
  5
7A2A
  8
1
  6
CONTINUOUS
 10
628.94179699999995
 20
1748.6435149999991
 30
0.0
 11
628.94179699999995
 21
2308.6435149999988
 31
0.0
  0
LINE
  5
7A2B
  8
1
  6
CONTINUOUS
 10
692.69179699999995
 20
1788.6435149999991
 30
0.0
 11
747.69179699999995
 21
1788.6435149999991
 31
0.0
  0
LINE
  5
7A2C
  8
1
  6
CONTINUOUS
 10
678.94179699999995
 20
2190.5435149999989
 30
0.0
 11
678.94179699999995
 21
1866.743514999999
 31
0.0
  0
LINE
  5
7A2D
  8
1
  6
CONTINUOUS
 10
761.44179699999995
 20
2190.5435149999989
 30
0.0
 11
761.44179699999995
 21
1866.743514999999
 31
0.0
  0
LINE
  5
7A2E
  8
1
  6
CONTINUOUS
 10
678.94179699999995
 20
2190.5435149999989
 30
0.0
 11
761.44179699999995
 21
2190.5435149999989
 31
0.0
  0
LINE
  5
7A2F
  8
1
  6
CONTINUOUS
 10
678.94179699999995
 20
1866.743514999999
 30
0.0
 11
761.44179699999995
 21
1866.743514999999
 31
0.0
  0
LINE
  5
7A30
  8
1
  6
CONTINUOUS
 10
692.69179699999995
 20
2268.6435149999988
 30
0.0
 11
747.69179699999995
 21
2268.6435149999988
 31
0.0
  0
LINE
  5
7A31
  8
1
  6
CONTINUOUS
 10
678.94179699999995
 20
2190.5435149999989
 30
0.0
 11
692.69179699999995
 21
2268.6435149999988
 31
0.0
  0
LINE
  5
7A32
  8
1
  6
CONTINUOUS
 10
747.69179699999995
 20
2268.6435149999988
 30
0.0
 11
761.44179699999995
 21
2190.5435149999989
 31
0.0
  0
LINE
  5
7A33
  8
1
  6
CONTINUOUS
 10
1238.941797
 20
1748.6435149999991
 30
0.0
 11
1238.941797
 21
2308.6435149999988
 31
0.0
  0
LINE
  5
7A34
  8
4
  6
CONTINUOUS
 10
844.76136199999996
 20
2702.3252170000001
 30
0.0
 11
1109.6359279999999
 21
2702.3252170000001
 31
0.0
  0
LINE
  5
7A35
  8
4
  6
CONTINUOUS
 10
844.76136199999996
 20
2702.3252170000001
 30
0.0
 11
904.76136199999985
 21
2732.3252170000001
 31
0.0
  0
LINE
  5
7A36
  8
4
  6
CONTINUOUS
 10
844.76136199999996
 20
2702.3252170000001
 30
0.0
 11
904.76136199999985
 21
2672.3252170000001
 31
0.0
  0
LINE
  5
7A37
  8
1
  6
CONTINUOUS
 10
2400.4673630000002
 20
2013.6435149999991
 30
0.0
 11
2440.8694369999998
 21
2013.6435149999991
 31
0.0
  0
LINE
  5
7A38
  8
1
  6
CONTINUOUS
 10
2400.4673630000002
 20
2043.6435149999991
 30
0.0
 11
2440.8694369999998
 21
2043.6435149999991
 31
0.0
  0
CIRCLE
  5
7A39
  8
1
  6
CONTINUOUS
 10
2120.8694369999998
 20
2028.643515
 30
0.0
 40
250.0
  0
CIRCLE
  5
7A3A
  8
1
  6
CONTINUOUS
 10
2120.8694369999998
 20
2028.643515
 30
0.0
 40
280.0
  0
LINE
  5
7A3B
  8
2
  6
CENTER
 10
2120.8694369999998
 20
1743.6435149999991
 30
0.0
 11
2120.8694369999998
 21
2313.6435149999988
 31
0.0
  0
CIRCLE
  5
7A3C
  8
1
  6
CONTINUOUS
 10
2120.8694369999998
 20
2028.643515
 30
0.0
 40
150.0
  0
LINE
  5
7A3D
  8
2
  6
CENTER
 10
1835.8694370000001
 20
2028.643515
 30
0.0
 11
2405.8694369999998
 21
2028.643515
 31
0.0
  0
LINE
  5
7A3E
  8
1
  6
CONTINUOUS
 10
1800.8694370000001
 20
2013.6435149999991
 30
0.0
 11
1841.2715109999999
 21
2013.6435149999991
 31
0.0
  0
LINE
  5
7A3F
  8
1
  6
CONTINUOUS
 10
1800.8694370000001
 20
2043.6435149999991
 30
0.0
 11
1841.2715109999999
 21
2043.6435149999991
 31
0.0
  0
LINE
  5
7A40
  8
1
  6
CONTINUOUS
 10
1800.8694370000001
 20
2013.6435149999991
 30
0.0
 11
1800.8694370000001
 21
2043.6435149999991
 31
0.0
  0
LINE
  5
7A41
  8
1
  6
CONTINUOUS
 10
2440.8694369999998
 20
2013.6435149999991
 30
0.0
 11
2440.8694369999998
 21
2043.6435149999991
 31
0.0
  0
DIMENSION
  5
7A55
  8
3
  6
CONTINUOUS
  2
*D1
 10
1238.941797
 20
2400.3537710000001
 30
0.0
 11
931.53237899999976
 21
2400.3537710000001
 31
0.0
 70
   128
 13
628.94179699999995
 23
2308.6435149999988
 33
0.0
 14
1238.941797
 24
2308.6435149999988
 34
0.0
1001
ACAD
1000
DSTYLE
1002
{
1070
   287
1070
     3
1070
    40
1040
15.0
1070
   143
1040
0.039
1070
   172
1070
     1
1070
   271
1070
     0
1070
   279
1070
     0
1070
   288
1070
     1
1002
}
  0
DIMENSION
  5
7A62
  8
3
  6
CONTINUOUS
  2
*D2
 10
1449.514506
 20
1778.6435149999991
 30
0.0
 11
1449.514506
 21
2007.948108999999
 31
0.0
 70
   128
 13
1238.941797
 23
2278.6435150000002
 33
0.0
 14
1238.941797
 24
1778.6435149999991
 34
0.0
 50
90.0
1001
ACAD
1000
DSTYLE
1002
{
1070
   287
1070
     3
1070
    40
1040
15.0
1070
   143
1040
0.039
1070
   172
1070
     1
1070
   271
1070
     0
1070
   279
1070
     0
1070
   288
1070
     1
1002
}
  0
DIMENSION
  5
7A6F
  8
3
  6
CONTINUOUS
  2
*D3
 10
1566.478202
 20
1748.6435149999991
 30
0.0
 11
1566.478202
 21
2016.2971739999989
 31
0.0
 70
   128
 13
1238.941797
 23
2308.6435149999988
 33
0.0
 14
1238.941797
 24
1748.6435149999991
 34
0.0
 50
90.0
1001
ACAD
1000
DSTYLE
1002
{
1070
   287
1070
     3
1070
    40
1040
15.0
1070
   143
1040
0.039
1070
   172
1070
     1
1070
   271
1070
     0
1070
   279
1070
     0
1070
   288
1070
     1
1002
}
  0
DIMENSION
  5
7A7C
  8
3
  6
CONTINUOUS
  2
*D4
 10
2440.8694369999998
 20
2400.3537710000001
 30
0.0
 11
2092.8148919999999
 21
2400.3537710000001
 31
0.0
 70
   128
 13
1800.8694370000001
 23
2043.6435149999991
 33
0.0
 14
2440.8694369999998
 24
2043.6435149999991
 34
0.0
1001
ACAD
1000
DSTYLE
1002
{
1070
   287
1070
     3
1070
    40
1040
15.0
1070
   143
1040
0.039
1070
   172
1070
     1
1070
   271
1070
     0
1070
   279
1070
     0
1070
   288
1070
     1
1002
}
  0
LINE
  5
7A7D
  8
4
  6
CONTINUOUS
 10
2775.0
 20
750.0
 30
0.0
 11
2775.0
 21
450.0
 31
0.0
  0
LINE
  5
7A7E
  8
4
  6
CONTINUOUS
 10
1725.0
 20
750.0
 30
0.0
 11
1725.0
 21
450.0
 31
0.0
  0
LINE
  5
7A7F
  8
4
  6
CONTINUOUS
 10
975.0
 20
750.0
 30
0.0
 11
975.0
 21
450.0
 31
0.0
  0
LINE
  5
7A82
  8
4
  6
CONTINUOUS
 10
975.0
 20
450.0
 30
0.0
 11
2775.0
 21
450.0
 31
0.0
  0
LINE
  5
7A83
  8
4
  6
CONTINUOUS
 10
975.0
 20
600.0
 30
0.0
 11
2775.0
 21
600.0
 31
0.0
  0
TEXT
  5
7A84
  8
4
  6
CONTINUOUS
 10
1032.753121
 20
647.31453899999985
 30
0.0
 40
75.0
  1
機器名称
  0
TEXT
  5
7A85
  8
4
  6
CONTINUOUS
 10
1029.387158999999
 20
482.46773499999989
 30
0.0
 40
75.0
  1
機器型番
  0
TEXT
  5
7A86
  8
4
  6
CONTINUOUS
 10
1766.518118
 20
633.85765300000003
 30
0.0
 40
75.0
  1
ミツヤ軸流排煙ファン
  0
TEXT
  5
7A87
  8
4
  6
CONTINUOUS
 10
1779.9817430000001
 20
475.73937599999999
 30
0.0
 40
75.0
  1
APE#500-1M
  0
TEXT
  5
7A89
  8
4
  6
CONTINUOUS
 10
1295.361418
 20
3575.1432619999991
 30
0.0
 40
81.0
  1
天井吊形
  0
TEXT
  5
7A8A
  8
4
  6
CONTINUOUS
 10
474.25139000000001
 20
3800.8214640000001
 30
0.0
 40
108.0
  1
電動機直動横形軸流式排煙ファン
  0
LINE
  5
7A8B
  8
4
  6
CONTINUOUS
 10
375.0
 20
3704.1131310000001
 30
0.0
 11
2775.0
 21
3704.1131310000001
 31
0.0
  0
LINE
  5
7A8C
  8
4
  6
CONTINUOUS
 10
375.0
 20
4004.1131310000001
 30
0.0
 11
2775.0
 21
4004.1131310000001
 31
0.0
  0
LINE
  5
7A8D
  8
4
  6
CONTINUOUS
 10
975.0
 20
750.0
 30
0.0
 11
2775.0
 21
750.0
 31
0.0
  0
LINE
  5
7A8E
  8
4
  6
CONTINUOUS
 10
375.0
 20
4004.1131310000001
 30
0.0
 11
375.0
 21
3704.1131310000001
 31
0.0
  0
TEXT
  5
7A8F
  8
4
  6
CONTINUOUS
 10
469.46297499999991
 20
3573.4792159999988
 30
0.0
 40
81.0
  1
左回転前方吐出
  0
TEXT
  5
7A90
  8
4
  6
CONTINUOUS
 10
2203.454338999999
 20
4059.091621999999
 30
0.0
 40
84.0
  1
No.
  0
TEXT
  5
7A91
  8
4
  6
CONTINUOUS
 10
1966.944094
 20
3575.1432619999991
 30
0.0
 40
81.0
  1
縮尺：1/15
  0
LINE
  5
7A92
  8
4
  6
CONTINUOUS
 10
2775.0
 20
4004.1131310000001
 30
0.0
 11
2775.0
 21
3704.1131310000001
 31
0.0
  0
LINE
  5
7A94
  8
4
  6
CONTINUOUS
 10
2160.9261339999989
 20
4021.8953750000001
 30
0.0
 11
2160.9261339999989
 21
4179.978392
 31
0.0
  0
LINE
  5
7A95
  8
4
  6
CONTINUOUS
 10
2160.9261339999989
 20
4179.978392
 30
0.0
 11
2775.0
 21
4179.978392
 31
0.0
  0
LINE
  5
7A96
  8
4
  6
CONTINUOUS
 10
2775.0
 20
4179.978392
 30
0.0
 11
2775.0
 21
4021.8953750000001
 31
0.0
  0
LINE
  5
7A97
  8
4
  6
CONTINUOUS
 10
2775.0
 20
4021.8953750000001
 30
0.0
 11
2160.9261339999989
 21
4021.8953750000001
 31
0.0
  0
ENDSEC
  0
EOF
