  0
SECTION
  2
HEADER
  9
$ACADVER
  1
AC1009
  9
$INSBASE
 10
0.0
 20
0.0
 30
0.0
  9
$EXTMIN
 10
-6746.4204398848642
 20
-1817.2033734408101
 30
0.0
  9
$EXTMAX
 10
-2546.4204398848628
 20
4082.796626559189
 30
0.0
  9
$LIMMIN
 10
0.0
 20
0.0
  9
$LIMMAX
 10
297.0
 20
210.0
  9
$ORTHOMODE
 70
     0
  9
$REGENMODE
 70
     1
  9
$FILLMODE
 70
     0
  9
$QTEXTMODE
 70
     0
  9
$MIRRTEXT
 70
     1
  9
$DRAGMODE
 70
     2
  9
$LTSCALE
 40
100.0
  9
$OSMODE
 70
    37
  9
$ATTMODE
 70
     1
  9
$TEXTSIZE
 40
180.0
  9
$TRACEWID
 40
0.05
  9
$TEXTSTYLE
  7
STANDARD
  9
$CLAYER
  8
3
  9
$CELTYPE
  6
BYLAYER
  9
$CECOLOR
 62
   256
  9
$DIMSCALE
 40
20.0
  9
$DIMASZ
 40
2.0
  9
$DIMEXO
 40
0.5
  9
$DIMDLI
 40
10.0
  9
$DIMRND
 40
0.0
  9
$DIMDLE
 40
0.0
  9
$DIMEXE
 40
1.0
  9
$DIMTP
 40
1.0
  9
$DIMTM
 40
1.0
  9
$DIMTXT
 40
3.0
  9
$DIMCEN
 40
0.0
  9
$DIMTSZ
 40
0.0
  9
$DIMTOL
 70
     0
  9
$DIMLIM
 70
     0
  9
$DIMTIH
 70
     0
  9
$DIMTOH
 70
     0
  9
$DIMSE1
 70
     0
  9
$DIMSE2
 70
     0
  9
$DIMTAD
 70
     1
  9
$DIMZIN
 70
     8
  9
$DIMBLK
  1

  9
$DIMASO
 70
     1
  9
$DIMSHO
 70
     1
  9
$DIMPOST
  1

  9
$DIMAPOST
  1

  9
$DIMALT
 70
     0
  9
$DIMALTD
 70
     2
  9
$DIMALTF
 40
0.039
  9
$DIMLFAC
 40
1.0
  9
$DIMTOFL
 70
     1
  9
$DIMTVP
 40
0.0
  9
$DIMTIX
 70
     0
  9
$DIMSOXD
 70
     0
  9
$DIMSAH
 70
     1
  9
$DIMBLK1
  1
OPEN
  9
$DIMBLK2
  1
OPEN
  9
$DIMSTYLE
  2
IGA
  9
$DIMCLRD
 70
     0
  9
$DIMCLRE
 70
     0
  9
$DIMCLRT
 70
     0
  9
$DIMTFAC
 40
10.0
  9
$DIMGAP
 40
1.0
  9
$LUNITS
 70
     2
  9
$LUPREC
 70
     3
  9
$SKETCHINC
 40
0.1
  9
$FILLETRAD
 40
50.0
  9
$AUNITS
 70
     0
  9
$AUPREC
 70
     0
  9
$MENU
  1
acad
  9
$ELEVATION
 40
0.0
  9
$PELEVATION
 40
0.0
  9
$THICKNESS
 40
0.0
  9
$LIMCHECK
 70
     0
  9
$BLIPMODE
 70
     0
  9
$CHAMFERA
 40
0.5
  9
$CHAMFERB
 40
0.5
  9
$SKPOLY
 70
     0
  9
$TDCREATE
 40
2453249.427640046
  9
$TDUPDATE
 40
2454953.6362055088
  9
$TDINDWG
 40
0.0846256481
  9
$TDUSRTIMER
 40
0.0846256481
  9
$USRTIMER
 70
     1
  9
$ANGBASE
 50
0.0
  9
$ANGDIR
 70
     0
  9
$PDMODE
 70
     0
  9
$PDSIZE
 40
0.0
  9
$PLINEWID
 40
0.0
  9
$COORDS
 70
     1
  9
$SPLFRAME
 70
     0
  9
$SPLINETYPE
 70
     6
  9
$SPLINESEGS
 70
     8
  9
$ATTDIA
 70
     0
  9
$ATTREQ
 70
     1
  9
$HANDLING
 70
 10241
  9
$HANDSEED
  5
8EC5
  9
$SURFTAB1
 70
     6
  9
$SURFTAB2
 70
     6
  9
$SURFTYPE
 70
     6
  9
$SURFU
 70
     6
  9
$SURFV
 70
     6
  9
$UCSNAME
  2

  9
$UCSORG
 10
0.0
 20
0.0
 30
0.0
  9
$UCSXDIR
 10
1.0
 20
0.0
 30
0.0
  9
$UCSYDIR
 10
0.0
 20
1.0
 30
0.0
  9
$PUCSNAME
  2

  9
$PUCSORG
 10
0.0
 20
0.0
 30
0.0
  9
$PUCSXDIR
 10
1.0
 20
0.0
 30
0.0
  9
$PUCSYDIR
 10
0.0
 20
1.0
 30
0.0
  9
$USERI1
 70
     0
  9
$USERI2
 70
     0
  9
$USERI3
 70
     0
  9
$USERI4
 70
     0
  9
$USERI5
 70
     0
  9
$USERR1
 40
0.0
  9
$USERR2
 40
0.0
  9
$USERR3
 40
0.0
  9
$USERR4
 40
0.0
  9
$USERR5
 40
0.0
  9
$WORLDVIEW
 70
     1
  9
$SHADEDGE
 70
     3
  9
$SHADEDIF
 70
    70
  9
$TILEMODE
 70
     1
  9
$MAXACTVP
 70
    16
  9
$PLIMCHECK
 70
     0
  9
$PEXTMIN
 10
1.0000000000000000E+020
 20
1.0000000000000000E+020
 30
1.0000000000000000E+020
  9
$PEXTMAX
 10
-1.0000000000000000E+020
 20
-1.0000000000000000E+020
 30
-1.0000000000000000E+020
  9
$PLIMMIN
 10
0.0
 20
0.0
  9
$PLIMMAX
 10
12.0
 20
9.0
  9
$UNITMODE
 70
     0
  9
$VISRETAIN
 70
     0
  9
$PLINEGEN
 70
     0
  9
$PSLTSCALE
 70
     1
  0
ENDSEC
  0
SECTION
  2
TABLES
  0
TABLE
  2
VPORT
 70
     2
  0
VPORT
  2
*ACTIVE
 70
     0
 10
0.0
 20
0.0
 11
1.0
 21
1.0
 12
-2796.7364534319181
 22
-1115.8392913771049
 13
0.0
 23
0.0
 14
10.0
 24
10.0
 15
10.0
 25
10.0
 16
0.0
 26
0.0
 36
1.0
 17
0.0
 27
0.0
 37
0.0
 40
1751.1819524513
 41
3.1666666666666661
 42
50.0
 43
0.0
 44
0.0
 50
0.0
 51
0.0
 71
     0
 72
   100
 73
     1
 74
     0
 75
     0
 76
     0
 77
     0
 78
     0
  0
ENDTAB
  0
TABLE
  2
LTYPE
 70
     2
  0
LTYPE
  2
CONTINUOUS
 70
     0
  3
Solid line
 72
    65
 73
     0
 40
0.0
  0
LTYPE
  2
CENTER
 70
     0
  3
____ _ ____ _ ____ _ ____ _ ____ _ ____ _ ____ 
 72
    65
 73
     4
 40
2.0
 49
1.25
 49
-0.25
 49
0.25
 49
-0.25
  0
ENDTAB
  0
TABLE
  2
LAYER
 70
     6
  0
LAYER
  2
0
 70
     0
 62
     7
  6
CONTINUOUS
  0
LAYER
  2
3
 70
     0
 62
     2
  6
CONTINUOUS
  0
LAYER
  2
2
 70
     0
 62
     3
  6
CENTER
  0
LAYER
  2
1
 70
     0
 62
     4
  6
CONTINUOUS
  0
LAYER
  2
4
 70
     0
 62
     7
  6
CONTINUOUS
  0
LAYER
  2
DEFPOINTS
 70
     0
 62
     7
  6
CONTINUOUS
  0
ENDTAB
  0
TABLE
  2
STYLE
 70
     1
  0
STYLE
  2
STANDARD
 70
     0
 40
0.0
 41
1.0
 50
0.0
 71
     0
 42
180.0
  3
simplex.shx
  4
extfont.shx
  0
ENDTAB
  0
TABLE
  2
VIEW
 70
     0
  0
ENDTAB
  0
TABLE
  2
UCS
 70
     0
  0
ENDTAB
  0
TABLE
  2
APPID
 70
     1
  0
APPID
  2
ACAD
 70
     0
  0
ENDTAB
  0
TABLE
  2
DIMSTYLE
 70
     1
  0
DIMSTYLE
  2
IGA
 70
     0
  3

  4

  5

  6
OPEN
  7
OPEN
 40
2.0
 41
2.0
 42
0.5
 43
10.0
 44
1.0
 45
0.0
 46
0.0
 47
1.0
 48
1.0
140
3.0
141
0.0
142
0.0
143
0.03937
144
1.0
145
0.0
146
10.0
147
1.0
 71
     0
 72
     0
 73
     0
 74
     0
 75
     0
 76
     0
 77
     1
 78
     8
170
     0
171
     2
172
     0
173
     1
174
     0
175
     0
176
     0
177
     0
178
     0
  0
ENDTAB
  0
ENDSEC
  0
SECTION
  2
BLOCKS
  0
BLOCK
  8
0
  2
$MODEL_SPACE
 70
     0
 10
0.0
 20
0.0
 30
0.0
  3
$MODEL_SPACE
  1

  0
ENDBLK
  5
1B
  8
0
  0
BLOCK
 67
     1
  8
0
  2
$PAPER_SPACE
 70
     0
 10
0.0
 20
0.0
 30
0.0
  3
$PAPER_SPACE
  1

  0
ENDBLK
  5
18
 67
     1
  8
0
  0
BLOCK
  8
0
  2
_OPEN
 70
     0
 10
0.0
 20
0.0
 30
0.0
  3
_OPEN
  1

  0
LINE
  5
79FD
  8
0
  6
BYBLOCK
 62
     0
 10
-1.0
 20
0.1666666666666666
 30
0.0
 11
0.0
 21
0.0
 31
0.0
  0
LINE
  5
79FE
  8
0
  6
BYBLOCK
 62
     0
 10
0.0
 20
0.0
 30
0.0
 11
-1.0
 21
-0.1666666666666666
 31
0.0
  0
LINE
  5
79FF
  8
0
  6
BYBLOCK
 62
     0
 10
0.0
 20
0.0
 30
0.0
 11
-1.0
 21
0.0
 31
0.0
  0
ENDBLK
  5
7A01
  8
0
  0
BLOCK
  8
0
  2
*D1
 70
     1
 10
0.0
 20
0.0
 30
0.0
  3
*D1
  1

  0
LINE
  5
8E53
  8
3
 62
     0
 10
-5696.4515173875043
 20
1612.8997349195281
 30
0.0
 11
-5890.8411060413737
 21
1612.8997349195281
 31
0.0
  0
LINE
  5
8E54
  8
3
 62
     0
 10
-5696.4515173875043
 20
1212.8997349195281
 30
0.0
 11
-5890.8411060413737
 21
1212.8997349195281
 31
0.0
  0
LINE
  5
8E55
  8
3
 62
     0
 10
-5870.8411060413746
 20
1572.899734919527
 30
0.0
 11
-5870.8411060413746
 21
1252.8997349195281
 31
0.0
  0
INSERT
  5
8E56
  8
3
 62
     0
  2
_OPEN
 10
-5870.8411060413746
 20
1612.8997349195281
 30
0.0
 41
40.0
 42
40.0
 43
40.0
 50
90.0
  0
INSERT
  5
8E57
  8
3
 62
     0
  2
_OPEN
 10
-5870.8411060413746
 20
1212.8997349195281
 30
0.0
 41
40.0
 42
40.0
 43
40.0
 50
270.0
  0
TEXT
  8
3
  40
60
  5
8EBA
  62
0
  72
0
  71
0
 10
-6040.84
 20
1303.05
 30
0.000000
  1
400
  0
POINT
  5
8E59
  8
DEFPOINTS
 62
     0
 10
-5686.4515173875043
 20
1612.8997349195281
 30
0.0
  0
POINT
  5
8E5A
  8
DEFPOINTS
 62
     0
 10
-5686.4515173875043
 20
1212.8997349195281
 30
0.0
  0
POINT
  5
8E5B
  8
DEFPOINTS
 62
     0
 10
-5870.8411060413746
 20
1212.8997349195281
 30
0.0
  0
ENDBLK
  5
8C72
  8
0
  0
BLOCK
  8
0
  2
*D2
 70
     1
 10
0.0
 20
0.0
 30
0.0
  3
*D2
  1

  0
LINE
  5
8E5C
  8
3
 62
     0
 10
-5696.4515173875043
 20
1212.8997349195281
 30
0.0
 11
-5890.8411060413737
 21
1212.8997349195281
 31
0.0
  0
LINE
  5
8E5D
  8
3
 62
     0
 10
-5530.9515173875043
 20
772.89973491952901
 30
0.0
 11
-5890.8411060413737
 21
772.89973491952912
 31
0.0
  0
LINE
  5
8E5E
  8
3
 62
     0
 10
-5870.8411060413746
 20
1172.8997349195281
 30
0.0
 11
-5870.8411060413746
 21
812.8997349195289
 31
0.0
  0
INSERT
  5
8E5F
  8
3
 62
     0
  2
_OPEN
 10
-5870.8411060413746
 20
1212.8997349195281
 30
0.0
 41
40.0
 42
40.0
 43
40.0
 50
90.0
  0
INSERT
  5
8E60
  8
3
 62
     0
  2
_OPEN
 10
-5870.8411060413746
 20
772.89973491952901
 30
0.0
 41
40.0
 42
40.0
 43
40.0
 50
270.0
  0
TEXT
  8
3
  40
60
  5
8EBB
  62
0
  72
0
  71
0
 10
-6040.84
 20
908.947
 30
0.000000
  1
440
  0
POINT
  5
8E62
  8
DEFPOINTS
 62
     0
 10
-5686.4515173875043
 20
1212.8997349195281
 30
0.0
  0
POINT
  5
8E63
  8
DEFPOINTS
 62
     0
 10
-5520.9515173875052
 20
772.89973491952901
 30
0.0
  0
POINT
  5
8E64
  8
DEFPOINTS
 62
     0
 10
-5870.8411060413746
 20
772.89973491952901
 30
0.0
  0
ENDBLK
  5
8C7F
  8
0
  0
BLOCK
  8
0
  2
*D3
 70
     1
 10
0.0
 20
0.0
 30
0.0
  3
*D3
  1

  0
LINE
  5
8E65
  8
3
 62
     0
 10
-5530.9515173875043
 20
772.89973491952901
 30
0.0
 11
-5890.8411060413737
 21
772.89973491952912
 31
0.0
  0
LINE
  5
8E66
  8
3
 62
     0
 10
-5530.9515173875043
 20
672.89973491952878
 30
0.0
 11
-5890.8411060413737
 21
672.8997349195289
 31
0.0
  0
LINE
  5
8E67
  8
3
 62
     0
 10
-5870.8411060413746
 20
812.8997349195289
 30
0.0
 11
-5870.8411060413746
 21
852.8997349195289
 31
0.0
  0
LINE
  5
8E68
  8
3
 62
     0
 10
-5870.8411060413746
 20
632.89973491952878
 30
0.0
 11
-5870.8411060413746
 21
410.04259206238601
 31
0.0
  0
LINE
  5
8E69
  8
3
 62
     0
 10
-5870.8411060413746
 20
772.89973491952901
 30
0.0
 11
-5870.8411060413746
 21
672.89973491952878
 31
0.0
  0
INSERT
  5
8E6A
  8
3
 62
     0
  2
_OPEN
 10
-5870.8411060413746
 20
772.89973491952901
 30
0.0
 41
40.0
 42
40.0
 43
40.0
 50
270.0
  0
INSERT
  5
8E6B
  8
3
 62
     0
  2
_OPEN
 10
-5870.8411060413746
 20
672.89973491952878
 30
0.0
 41
40.0
 42
40.0
 43
40.0
 50
90.0
  0
TEXT
  8
3
  40
60
  5
8EBC
  62
0
  72
0
  71
0
 10
-6040.84
 20
395.271
 30
0.000000
  1
100
  0
POINT
  5
8E6D
  8
DEFPOINTS
 62
     0
 10
-5520.9515173875052
 20
772.89973491952901
 30
0.0
  0
POINT
  5
8E6E
  8
DEFPOINTS
 62
     0
 10
-5520.9515173875052
 20
672.89973491952878
 30
0.0
  0
POINT
  5
8E6F
  8
DEFPOINTS
 62
     0
 10
-5870.8411060413746
 20
672.89973491952878
 30
0.0
  0
ENDBLK
  5
8C8E
  8
0
  0
BLOCK
  8
0
  2
*D4
 70
     1
 10
0.0
 20
0.0
 30
0.0
  3
*D4
  1

  0
LINE
  5
8E70
  8
3
 62
     0
 10
-5696.4515173875043
 20
1612.899734919529
 30
0.0
 11
-6057.452582791906
 21
1612.899734919529
 31
0.0
  0
LINE
  5
8E71
  8
3
 62
     0
 10
-5530.9515173875043
 20
672.89973491952878
 30
0.0
 11
-6057.452582791906
 21
672.8997349195289
 31
0.0
  0
LINE
  5
8E72
  8
3
 62
     0
 10
-6037.452582791906
 20
1572.899734919529
 30
0.0
 11
-6037.452582791906
 21
712.89973491952878
 31
0.0
  0
INSERT
  5
8E73
  8
3
 62
     0
  2
_OPEN
 10
-6037.452582791906
 20
1612.899734919529
 30
0.0
 41
40.0
 42
40.0
 43
40.0
 50
90.0
  0
INSERT
  5
8E74
  8
3
 62
     0
  2
_OPEN
 10
-6037.452582791906
 20
672.8997349195289
 30
0.0
 41
40.0
 42
40.0
 43
40.0
 50
270.0
  0
TEXT
  8
3
  40
60
  5
8EBD
  62
0
  72
0
  71
0
 10
-6207.45
 20
1065.61
 30
0.000000
  1
940
  0
POINT
  5
8E76
  8
DEFPOINTS
 62
     0
 10
-5686.4515173875043
 20
1612.899734919529
 30
0.0
  0
POINT
  5
8E77
  8
DEFPOINTS
 62
     0
 10
-5520.9515173875052
 20
672.89973491952878
 30
0.0
  0
POINT
  5
8E78
  8
DEFPOINTS
 62
     0
 10
-6037.452582791906
 20
672.8997349195289
 30
0.0
  0
ENDBLK
  5
8C9B
  8
0
  0
BLOCK
  8
0
  2
*D5
 70
     1
 10
0.0
 20
0.0
 30
0.0
  3
*D5
  1

  0
LINE
  5
8E79
  8
3
 62
     0
 10
-5481.4515173875052
 20
712.89973491952867
 30
0.0
 11
-5726.6798306219707
 21
712.89973491952867
 31
0.0
  0
LINE
  5
8E7A
  8
3
 62
     0
 10
-5530.9515173875043
 20
672.89973491952878
 30
0.0
 11
-5726.6798306219707
 21
672.89973491952878
 31
0.0
  0
LINE
  5
8E7B
  8
3
 62
     0
 10
-5706.6798306219716
 20
752.89973491952878
 30
0.0
 11
-5706.6798306219716
 21
792.89973491952867
 31
0.0
  0
LINE
  5
8E7C
  8
3
 62
     0
 10
-5706.6798306219716
 20
632.89973491952878
 30
0.0
 11
-5706.6798306219716
 21
455.75687777667162
 31
0.0
  0
LINE
  5
8E7D
  8
3
 62
     0
 10
-5706.6798306219716
 20
712.89973491952867
 30
0.0
 11
-5706.6798306219716
 21
672.89973491952878
 31
0.0
  0
INSERT
  5
8E7E
  8
3
 62
     0
  2
_OPEN
 10
-5706.6798306219716
 20
712.89973491952867
 30
0.0
 41
40.0
 42
40.0
 43
40.0
 50
270.0
  0
INSERT
  5
8E7F
  8
3
 62
     0
  2
_OPEN
 10
-5706.6798306219716
 20
672.89973491952878
 30
0.0
 41
40.0
 42
40.0
 43
40.0
 50
90.0
  0
TEXT
  8
3
  40
60
  5
8EBE
  62
0
  72
0
  71
0
 10
-5876.68
 20
418.128
 30
0.000000
  1
40
  0
POINT
  5
8E81
  8
DEFPOINTS
 62
     0
 10
-5471.4515173875043
 20
712.89973491952867
 30
0.0
  0
POINT
  5
8E82
  8
DEFPOINTS
 62
     0
 10
-5520.9515173875052
 20
672.89973491952878
 30
0.0
  0
POINT
  5
8E83
  8
DEFPOINTS
 62
     0
 10
-5706.6798306219716
 20
672.89973491952878
 30
0.0
  0
ENDBLK
  5
8CAA
  8
0
  0
BLOCK
  8
0
  2
*D6
 70
     1
 10
0.0
 20
0.0
 30
0.0
  3
*D6
  1

  0
LINE
  5
8E84
  8
3
 62
     0
 10
-5461.4515173875043
 20
692.89973491952867
 30
0.0
 11
-5461.4515173875043
 21
433.56873010114759
 31
0.0
  0
LINE
  5
8E85
  8
3
 62
     0
 10
-5011.4515173875043
 20
692.89973491952867
 30
0.0
 11
-5011.4515173875043
 21
433.56873010114759
 31
0.0
  0
LINE
  5
8E86
  8
3
 62
     0
 10
-5421.4515173875043
 20
453.56873010114759
 30
0.0
 11
-5051.4515173875052
 21
453.56873010114759
 31
0.0
  0
INSERT
  5
8E87
  8
3
 62
     0
  2
_OPEN
 10
-5461.4515173875043
 20
453.56873010114759
 30
0.0
 41
40.0
 42
40.0
 43
40.0
 50
180.0
  0
INSERT
  5
8E88
  8
3
 62
     0
  2
_OPEN
 10
-5011.4515173875043
 20
453.56873010114759
 30
0.0
 41
40.0
 42
40.0
 43
40.0
  0
TEXT
  8
3
  40
60
  5
8EBF
  62
0
  72
0
  71
0
 10
-5351.35
 20
397.369
 30
0.000000
  1
450
  0
POINT
  5
8E8A
  8
DEFPOINTS
 62
     0
 10
-5461.4515173875043
 20
702.89973491952878
 30
0.0
  0
POINT
  5
8E8B
  8
DEFPOINTS
 62
     0
 10
-5011.4515173875043
 20
702.89973491952878
 30
0.0
  0
POINT
  5
8E8C
  8
DEFPOINTS
 62
     0
 10
-5011.4515173875043
 20
453.56873010114759
 30
0.0
  0
ENDBLK
  5
8CB7
  8
0
  0
BLOCK
  8
0
  2
*D7
 70
     1
 10
0.0
 20
0.0
 30
0.0
  3
*D7
  1

  0
LINE
  5
8E8D
  8
3
 62
     0
 10
-5516.4515173875052
 20
662.89973491952867
 30
0.0
 11
-5516.4515173875052
 21
261.95022392623832
 31
0.0
  0
LINE
  5
8E8E
  8
3
 62
     0
 10
-4956.4515173875043
 20
662.89973491952867
 30
0.0
 11
-4956.4515173875043
 21
261.95022392623832
 31
0.0
  0
LINE
  5
8E8F
  8
3
 62
     0
 10
-5476.4515173875052
 20
281.95022392623832
 30
0.0
 11
-4996.4515173875043
 21
281.95022392623832
 31
0.0
  0
INSERT
  5
8E90
  8
3
 62
     0
  2
_OPEN
 10
-5516.4515173875052
 20
281.95022392623832
 30
0.0
 41
40.0
 42
40.0
 43
40.0
 50
180.0
  0
INSERT
  5
8E91
  8
3
 62
     0
  2
_OPEN
 10
-4956.4515173875043
 20
281.95022392623832
 30
0.0
 41
40.0
 42
40.0
 43
40.0
  0
TEXT
  8
3
  40
60
  5
8EC0
  62
0
  72
0
  71
0
 10
-5342.58
 20
225.750
 30
0.000000
  1
560
  0
POINT
  5
8E93
  8
DEFPOINTS
 62
     0
 10
-5516.4515173875052
 20
672.89973491952878
 30
0.0
  0
POINT
  5
8E94
  8
DEFPOINTS
 62
     0
 10
-4956.4515173875043
 20
672.89973491952878
 30
0.0
  0
POINT
  5
8E95
  8
DEFPOINTS
 62
     0
 10
-4956.4515173875043
 20
281.95022392623832
 30
0.0
  0
ENDBLK
  5
8CC4
  8
0
  0
BLOCK
  8
0
  2
*D8
 70
     1
 10
0.0
 20
0.0
 30
0.0
  3
*D8
  1

  0
LINE
  5
8E96
  8
3
 62
     0
 10
-5686.4515173875043
 20
1622.8997349195281
 30
0.0
 11
-5686.4515173875043
 21
1842.8073684215969
 31
0.0
  0
LINE
  5
8E97
  8
3
 62
     0
 10
-4786.4515173875034
 20
1622.8997349195281
 30
0.0
 11
-4786.4515173875034
 21
1842.8073684215969
 31
0.0
  0
LINE
  5
8E98
  8
3
 62
     0
 10
-5646.4515173875043
 20
1822.8073684215981
 30
0.0
 11
-4826.4515173875043
 21
1822.8073684215981
 31
0.0
  0
INSERT
  5
8E99
  8
3
 62
     0
  2
_OPEN
 10
-5686.4515173875043
 20
1822.8073684215981
 30
0.0
 41
40.0
 42
40.0
 43
40.0
 50
180.0
  0
INSERT
  5
8E9A
  8
3
 62
     0
  2
_OPEN
 10
-4786.4515173875034
 20
1822.8073684215981
 30
0.0
 41
40.0
 42
40.0
 43
40.0
  0
TEXT
  8
3
  40
60
  5
8EC1
  62
0
  72
0
  71
0
 10
-5353.59
 20
1766.61
 30
0.000000
  1
900
  0
POINT
  5
8E9C
  8
DEFPOINTS
 62
     0
 10
-5686.4515173875043
 20
1612.8997349195281
 30
0.0
  0
POINT
  5
8E9D
  8
DEFPOINTS
 62
     0
 10
-4786.4515173875034
 20
1612.8997349195281
 30
0.0
  0
POINT
  5
8E9E
  8
DEFPOINTS
 62
     0
 10
-4786.4515173875034
 20
1822.8073684215981
 30
0.0
  0
ENDBLK
  5
8CD1
  8
0
  0
BLOCK
  8
0
  2
*D9
 70
     1
 10
0.0
 20
0.0
 30
0.0
  3
*D9
  1

  0
LINE
  5
8E9F
  8
3
 62
     0
 10
-3916.4515173875038
 20
1322.899734919527
 30
0.0
 11
-3916.4515173875038
 21
1851.0305888966391
 31
0.0
  0
LINE
  5
8EA0
  8
3
 62
     0
 10
-3016.4515173875038
 20
1322.899734919534
 30
0.0
 11
-3016.4515173875038
 21
1851.0305888966391
 31
0.0
  0
LINE
  5
8EA1
  8
3
 62
     0
 10
-3876.4515173875038
 20
1831.0305888966391
 30
0.0
 11
-3056.4515173875038
 21
1831.0305888966391
 31
0.0
  0
INSERT
  5
8EA2
  8
3
 62
     0
  2
_OPEN
 10
-3916.4515173875038
 20
1831.0305888966391
 30
0.0
 41
40.0
 42
40.0
 43
40.0
 50
180.0
  0
INSERT
  5
8EA3
  8
3
 62
     0
  2
_OPEN
 10
-3016.4515173875038
 20
1831.0305888966391
 30
0.0
 41
40.0
 42
40.0
 43
40.0
  0
TEXT
  8
3
  40
60
  5
8EC2
  62
0
  72
0
  71
0
 10
-3586.79
 20
1774.83
 30
0.000000
  1
900
  0
POINT
  5
8EA5
  8
DEFPOINTS
 62
     0
 10
-3916.4515173875038
 20
1312.899734919527
 30
0.0
  0
POINT
  5
8EA6
  8
DEFPOINTS
 62
     0
 10
-3016.4515173875038
 20
1312.899734919534
 30
0.0
  0
POINT
  5
8EA7
  8
DEFPOINTS
 62
     0
 10
-3016.4515173875038
 20
1831.0305888966391
 30
0.0
  0
ENDBLK
  5
8CDE
  8
0
  0
BLOCK
  8
0
  2
*D10
 70
     1
 10
0.0
 20
0.0
 30
0.0
  3
*D10
  1

  0
LINE
  5
8EA8
  8
3
 62
     0
 10
-3691.4515173875038
 20
692.89973491952867
 30
0.0
 11
-3691.4515173875038
 21
417.0997593226748
 31
0.0
  0
LINE
  5
8EA9
  8
3
 62
     0
 10
-3241.4515173875038
 20
692.89973491952867
 30
0.0
 11
-3241.4515173875038
 21
417.0997593226748
 31
0.0
  0
LINE
  5
8EAA
  8
3
 62
     0
 10
-3651.4515173875052
 20
437.09975932267469
 30
0.0
 11
-3281.4515173875038
 21
437.09975932267469
 31
0.0
  0
INSERT
  5
8EAB
  8
3
 62
     0
  2
_OPEN
 10
-3691.4515173875038
 20
437.09975932267469
 30
0.0
 41
40.0
 42
40.0
 43
40.0
 50
180.0
  0
INSERT
  5
8EAC
  8
3
 62
     0
  2
_OPEN
 10
-3241.4515173875038
 20
437.09975932267469
 30
0.0
 41
40.0
 42
40.0
 43
40.0
  0
TEXT
  8
3
  40
60
  5
8EC3
  62
0
  72
0
  71
0
 10
-3574.77
 20
380.900
 30
0.000000
  1
450
  0
POINT
  5
8EAE
  8
DEFPOINTS
 62
     0
 10
-3691.4515173875038
 20
702.89973491952878
 30
0.0
  0
POINT
  5
8EAF
  8
DEFPOINTS
 62
     0
 10
-3241.4515173875038
 20
702.89973491952878
 30
0.0
  0
POINT
  5
8EB0
  8
DEFPOINTS
 62
     0
 10
-3241.4515173875038
 20
437.09975932267469
 30
0.0
  0
ENDBLK
  5
8CEB
  8
0
  0
BLOCK
  8
0
  2
*D11
 70
     1
 10
0.0
 20
0.0
 30
0.0
  3
*D11
  1

  0
LINE
  5
8EB1
  8
3
 62
     0
 10
-3746.4515173875038
 20
662.89973491952867
 30
0.0
 11
-3746.4515173875038
 21
262.47778350042239
 31
0.0
  0
LINE
  5
8EB2
  8
3
 62
     0
 10
-3186.4515173875038
 20
662.89973491952867
 30
0.0
 11
-3186.4515173875038
 21
262.47778350042239
 31
0.0
  0
LINE
  5
8EB3
  8
3
 62
     0
 10
-3706.4515173875038
 20
282.47778350042239
 30
0.0
 11
-3226.4515173875038
 21
282.47778350042239
 31
0.0
  0
INSERT
  5
8EB4
  8
3
 62
     0
  2
_OPEN
 10
-3746.4515173875038
 20
282.47778350042239
 30
0.0
 41
40.0
 42
40.0
 43
40.0
 50
180.0
  0
INSERT
  5
8EB5
  8
3
 62
     0
  2
_OPEN
 10
-3186.4515173875038
 20
282.47778350042239
 30
0.0
 41
40.0
 42
40.0
 43
40.0
  0
TEXT
  8
3
  40
60
  5
8EC4
  62
0
  72
0
  71
0
 10
-3571.20
 20
226.278
 30
0.000000
  1
560
  0
POINT
  5
8EB7
  8
DEFPOINTS
 62
     0
 10
-3746.4515173875038
 20
672.89973491952878
 30
0.0
  0
POINT
  5
8EB8
  8
DEFPOINTS
 62
     0
 10
-3186.4515173875038
 20
672.89973491952878
 30
0.0
  0
POINT
  5
8EB9
  8
DEFPOINTS
 62
     0
 10
-3186.4515173875038
 20
282.47778350042239
 30
0.0
  0
ENDBLK
  5
8D08
  8
0
  0
ENDSEC
  0
SECTION
  2
ENTITIES
  0
LINE
  5
8006
  8
4
 10
-3046.4204398848628
 20
-817.20337344081042
 30
0.0
 11
-3046.4204398848628
 21
-1217.2033734408101
 31
0.0
  0
LINE
  5
8007
  8
4
 10
-4446.4204398848633
 20
-817.20337344081042
 30
0.0
 11
-4446.4204398848642
 21
-1217.2033734408101
 31
0.0
  0
LINE
  5
8008
  8
4
 10
-5446.4204398848642
 20
-817.20337344081042
 30
0.0
 11
-5446.4204398848642
 21
-1217.2033734408101
 31
0.0
  0
LINE
  5
800B
  8
4
 10
-5446.4204398848642
 20
-1217.2033734408101
 30
0.0
 11
-3046.4204398848628
 21
-1217.2033734408101
 31
0.0
  0
LINE
  5
800C
  8
4
 10
-5446.4204398848642
 20
-1017.20337344081
 30
0.0
 11
-3046.4204398848628
 21
-1017.20337344081
 31
0.0
  0
TEXT
  5
800D
  8
4
 10
-5369.41627819106
 20
-954.11732170758467
 30
0.0
 40
100.0
  1
機器名称
  0
TEXT
  5
800E
  8
4
 10
-5373.9042278352681
 20
-1173.913059976788
 30
0.0
 40
100.0
  1
機器型番
  0
TEXT
  5
800F
  8
4
 10
-4391.0629489095327
 20
-972.05983552567341
 30
0.0
 40
100.0
  1
ミツヤ軸流排煙ファン
  0
TEXT
  5
8010
  8
4
 10
-4373.1114487139021
 20
-1182.8842048809231
 30
0.0
 40
100.0
  1
APE＃450-3R
  0
TEXT
  5
8012
  8
4
 10
-5064.0605725408959
 20
2949.6543092242209
 30
0.0
 40
107.9999999999999
  1
床置ベット
  0
TEXT
  5
8013
  8
4
 10
-6114.0852532259714
 20
3250.5585789577849
 30
0.0
 40
144.0
  1
電動機直動立型軸流式排煙ファン
  0
LINE
  5
8014
  8
4
 10
-6246.4204398848642
 20
3121.6141350887988
 30
0.0
 11
-3046.4204398848628
 21
3121.6141350887988
 31
0.0
  0
LINE
  5
8015
  8
4
 10
-6246.4204398848642
 20
3521.6141350887988
 30
0.0
 11
-3046.4204398848628
 21
3521.6141350887988
 31
0.0
  0
LINE
  5
8016
  8
4
 10
-5446.4204398848642
 20
-817.20337344081042
 30
0.0
 11
-3046.4204398848628
 21
-817.20337344081042
 31
0.0
  0
LINE
  5
8017
  8
4
 10
-6246.4204398848642
 20
3521.6141350887988
 30
0.0
 11
-6246.4204398848642
 21
3121.6141350887988
 31
0.0
  0
TEXT
  5
8018
  8
4
 10
-6105.4642621031298
 20
2947.4355816518769
 30
0.0
 40
107.9999999999999
  1
左回転前方吐出
  0
TEXT
  5
8019
  8
4
 10
-3808.4813213862831
 20
3594.9187895498071
 30
0.0
 40
112.0
  1
No.
  0
TEXT
  5
801A
  8
4
 10
-4123.8283146848371
 20
2949.6543092242209
 30
0.0
 40
107.9999999999999
  1
縮尺：1/20
  0
LINE
  5
801B
  8
4
 10
-3046.4204398848628
 20
3521.6141350887988
 30
0.0
 11
-3046.4204398848628
 21
3121.6141350887988
 31
0.0
  0
LINE
  5
801C
  8
4
 10
-2546.4204398848628
 20
4082.796626559189
 30
0.0
 11
-2546.4204398848628
 21
4082.796626559189
 31
0.0
  0
LINE
  5
801D
  8
4
 10
-3865.1855951651341
 20
3545.3237928099911
 30
0.0
 11
-3865.1855951651341
 21
3756.1011496586939
 31
0.0
  0
LINE
  5
801E
  8
4
 10
-3865.1855951651341
 20
3756.1011496586939
 30
0.0
 11
-3046.4204398848628
 21
3756.1011496586939
 31
0.0
  0
LINE
  5
801F
  8
4
 10
-3046.4204398848628
 20
3756.1011496586939
 30
0.0
 11
-3046.4204398848628
 21
3545.3237928099911
 31
0.0
  0
LINE
  5
8020
  8
4
 10
-3046.4204398848628
 20
3545.3237928099911
 30
0.0
 11
-3865.1855951651341
 21
3545.3237928099911
 31
0.0
  0
LINE
  5
8021
  8
4
 10
-6746.4204398848642
 20
-1817.2033734408101
 30
0.0
 11
-6746.4204398848642
 21
4082.796626559189
 31
0.0
  0
LINE
  5
8022
  8
4
 10
-6746.4204398848642
 20
4082.796626559189
 30
0.0
 11
-2546.4204398848628
 21
4082.796626559189
 31
0.0
  0
LINE
  5
8023
  8
4
 10
-2546.4204398848628
 20
4082.796626559189
 30
0.0
 11
-2546.4204398848628
 21
-1817.2033734408101
 31
0.0
  0
LINE
  5
8024
  8
4
 10
-2546.4204398848628
 20
-1817.2033734408101
 30
0.0
 11
-6746.4204398848642
 21
-1817.2033734408101
 31
0.0
  0
LINE
  5
85AB
  8
1
 10
-5461.4515173875016
 20
1292.8997349195281
 30
0.0
 11
-5461.4515173875043
 21
752.89973491952878
 31
0.0
  0
LINE
  5
85AC
  8
1
 10
-5465.9515173875034
 20
1292.8997349195281
 30
0.0
 11
-5465.9515173875043
 21
948.8163631991174
 31
0.0
  0
LINE
  5
85AD
  8
2
 10
-5236.4515173875043
 20
572.89973491952878
 30
0.0
 11
-5236.4515173875043
 21
1772.899734919527
 31
0.0
  0
LINE
  5
85AE
  8
1
 10
-5011.4515173875043
 20
1292.8997349195281
 30
0.0
 11
-5011.4515173875043
 21
752.89973491952878
 31
0.0
  0
LINE
  5
85AF
  8
1
 10
-4949.3868242089902
 20
1186.8997349195281
 30
0.0
 11
-4949.3868242089902
 21
1076.8997349195281
 31
0.0
  0
LINE
  5
85B0
  8
1
 10
-4949.3868242089902
 20
1081.8997349195281
 30
0.0
 11
-4949.3868242089902
 21
1181.8997349195281
 31
0.0
  0
LINE
  5
85B1
  8
1
 10
-4948.3868242089911
 20
1081.2437349195279
 30
0.0
 11
-4948.3868242089911
 21
1181.847734919528
 31
0.0
  0
LINE
  5
85B2
  8
1
 10
-4948.3868242089911
 20
1076.8997349195281
 30
0.0
 11
-4948.3868242089911
 21
1185.8997349195281
 31
0.0
  0
LINE
  5
85B3
  8
1
 10
-5006.9515173875052
 20
1292.8997349195281
 30
0.0
 11
-5006.9515173875052
 21
948.8163631991174
 31
0.0
  0
LINE
  5
85B4
  8
1
 10
-4944.2811242089901
 20
1197.4807349195289
 30
0.0
 11
-4887.8297242089902
 21
1056.3527349195281
 31
0.0
  0
LINE
  5
85B5
  8
1
 10
-4940.0101242089886
 20
1197.5737349195281
 30
0.0
 11
-4884.6729242089896
 21
1059.230734919528
 31
0.0
  0
LINE
  5
85B6
  8
1
 10
-4888.7681242089902
 20
1173.280734919528
 30
0.0
 11
-4883.4916242089894
 21
1065.6517349195281
 31
0.0
  0
LINE
  5
85B8
  8
1
 10
-5520.9515173875052
 20
772.89973491952901
 30
0.0
 11
-4951.9515173875034
 21
772.8997349195289
 31
0.0
  0
LINE
  5
85B9
  8
1
 10
-5520.9515173875052
 20
672.89973491952878
 30
0.0
 11
-4951.9515173875034
 21
672.89973491952878
 31
0.0
  0
LINE
  5
85BA
  8
1
 10
-5516.4515173875052
 20
757.39973491952753
 30
0.0
 11
-4956.4515173875043
 21
757.3997349195273
 31
0.0
  0
LINE
  5
85BB
  8
1
 10
-5516.4515173875052
 20
752.89973491952878
 30
0.0
 11
-4956.4515173875043
 21
752.89973491952878
 31
0.0
  0
LINE
  5
85BC
  8
1
 10
-5351.9458686468561
 20
782.89973491952878
 30
0.0
 11
-5120.9571661281498
 21
782.89973491952856
 31
0.0
  0
LINE
  5
85BD
  8
1
 10
-5520.9515173875052
 20
672.89973491952878
 30
0.0
 11
-5520.9515173875052
 21
772.89973491952878
 31
0.0
  0
LINE
  5
85BE
  8
1
 10
-5516.4515173875052
 20
672.89973491952878
 30
0.0
 11
-5516.4515173875052
 21
772.89973491952878
 31
0.0
  0
LINE
  5
85BF
  8
1
 10
-5516.4515173875052
 20
775.36855672146191
 30
0.0
 11
-5334.945868646857
 21
782.89973491952878
 31
0.0
  0
LINE
  5
85C0
  8
1
 10
-5516.4515173875052
 20
757.39973491952685
 30
0.0
 11
-5516.4515173875016
 21
812.89973491952867
 31
0.0
  0
LINE
  5
85C1
  8
1
 10
-5465.9515173875043
 20
948.8163631991174
 30
0.0
 11
-5465.9515173875043
 21
757.39973491952878
 31
0.0
  0
LINE
  5
85C2
  8
1
 10
-5351.9458686468579
 20
952.39973491952685
 30
0.0
 11
-5351.945868646857
 21
782.89973491952878
 31
0.0
  0
CIRCLE
  5
85C3
  8
1
 10
-5461.4515173875043
 20
712.89973491952867
 30
0.0
 40
7.5
  0
LINE
  5
85C4
  8
1
 10
-5471.4515173875043
 20
712.89973491952867
 30
0.0
 11
-5451.4515173875043
 21
712.89973491952867
 31
0.0
  0
LINE
  5
85C5
  8
1
 10
-5461.4515173875043
 20
702.89973491952878
 30
0.0
 11
-5461.4515173875043
 21
722.89973491952878
 31
0.0
  0
LINE
  5
85C6
  8
1
 10
-5491.4515173875043
 20
757.39973491952787
 30
0.0
 11
-5491.4515173875043
 21
752.89973491952878
 31
0.0
  0
LINE
  5
85C7
  8
1
 10
-5351.945868646857
 20
952.39973491952685
 30
0.0
 11
-5386.945868646857
 21
952.39973491952685
 31
0.0
  0
LINE
  5
85CD
  8
1
 10
-5128.5993102598131
 20
1131.8997349195281
 30
0.0
 11
-4901.4515173875052
 21
1131.8997349195281
 31
0.0
  0
LINE
  5
85CE
  8
1
 10
-5006.9515173875052
 20
1076.8997349195281
 30
0.0
 11
-4949.3868242089902
 21
1076.8997349195281
 31
0.0
  0
LINE
  5
85CF
  8
1
 10
-4892.0487242089903
 20
1066.8997349195281
 30
0.0
 11
-4938.3868242089902
 21
1066.8997349195281
 31
0.0
  0
ARC
  5
85D0
  8
1
 10
-4938.3868242089902
 20
1076.8997349195281
 30
0.0
 40
10.0
 50
180.0
 51
270.0
  0
LINE
  5
85D1
  8
1
 10
-4949.3868242089902
 20
1081.8997349195281
 30
0.0
 11
-4948.3868242089911
 21
1081.8997349195281
 31
0.0
  0
LINE
  5
85D2
  8
1
 10
-4885.897024208989
 20
1062.510734919528
 30
0.0
 11
-4885.3738242089903
 21
1062.719734919528
 31
0.0
  0
LINE
  5
85D3
  8
1
 10
-4887.8297242089902
 20
1056.3527349195281
 30
0.0
 11
-4885.5085242089899
 21
1057.280734919528
 31
0.0
  0
LINE
  5
85D4
  8
1
 10
-4913.3868242089902
 20
1069.394734919528
 30
0.0
 11
-4913.3868242089902
 21
1062.895734919528
 31
0.0
  0
ARC
  5
85D5
  8
1
 10
-4886.0656242089899
 20
1058.673734919528
 30
0.0
 40
1.5
 50
291.80099999998419
 51
21.803100000012421
  0
ARC
  5
85D6
  8
1
 10
-4886.4880242089903
 20
1065.5047349195279
 30
0.0
 40
3.0
 50
291.80210000000989
 51
2.8058000000065131
  0
LINE
  5
85D7
  8
1
 10
-5686.4515173875043
 20
1292.8997349195281
 30
0.0
 11
-4786.4515173875034
 21
1292.8997349195281
 31
0.0
  0
LINE
  5
85D8
  8
1
 10
-5686.4515173875043
 20
1612.899734919529
 30
0.0
 11
-4786.4515173875034
 21
1612.8997349195281
 31
0.0
  0
LINE
  5
85DB
  8
1
 10
-5686.4515173875043
 20
1212.8997349195281
 30
0.0
 11
-5686.4515173875043
 21
1612.8997349195281
 31
0.0
  0
LINE
  5
85DC
  8
1
 10
-5684.8515173875039
 20
1212.8997349195281
 30
0.0
 11
-5684.8515173875039
 21
1292.8997349195281
 31
0.0
  0
LINE
  5
85DD
  8
1
 10
-5686.4515173875043
 20
1212.8997349195281
 30
0.0
 11
-5684.8515173875039
 21
1212.8997349195281
 31
0.0
  0
LINE
  5
85DE
  8
1
 10
-5416.8627747989822
 20
1638.8997349195281
 30
0.0
 11
-5440.8128423964954
 21
1638.8997349195281
 31
0.0
  0
LINE
  5
85DF
  8
1
 10
-5413.4515173875043
 20
1612.8997349195281
 30
0.0
 11
-5443.4515173875043
 21
1612.8997349195281
 31
0.0
  0
LINE
  5
85E0
  8
1
 10
-5440.9515173875043
 20
1612.8997349195281
 30
0.0
 11
-5437.072323811919
 21
1634.8997349195281
 31
0.0
  0
ARC
  5
85E1
  8
1
 10
-5428.4515173875043
 20
1657.6497349195281
 30
0.0
 40
6.25
 50
359.9999380528439
 51
180.00006194715601
  0
LINE
  5
85E2
  8
1
 10
-5422.2015400741111
 20
1657.666574815376
 30
0.0
 11
-5422.201564689206
 21
1634.899734919527
 31
0.0
  0
LINE
  5
85E3
  8
1
 10
-5434.7014947008938
 20
1657.6665748156031
 30
0.0
 11
-5434.7014700857999
 21
1634.899734919527
 31
0.0
  0
LINE
  5
85E4
  8
1
 10
-5415.9515173875052
 20
1612.8997349195281
 30
0.0
 11
-5419.8307109630878
 21
1634.8997349195281
 31
0.0
  0
LINE
  5
85E5
  8
1
 10
-5428.4515173875043
 20
1681.4435392166711
 30
0.0
 11
-5428.4515173875043
 21
1596.775147211059
 31
0.0
  0
LINE
  5
85E8
  8
1
 10
-5006.9515173875052
 20
1186.8997349195281
 30
0.0
 11
-4949.3868242089902
 21
1186.8997349195281
 31
0.0
  0
LINE
  5
85E9
  8
1
 10
-5006.9515173875061
 20
1292.8997349195281
 30
0.0
 11
-5006.9515173875052
 21
1273.8035774258881
 31
0.0
  0
LINE
  5
85EA
  8
1
 10
-4786.4515173875034
 20
1212.8997349195281
 30
0.0
 11
-4786.4515173875034
 21
1612.8997349195281
 31
0.0
  0
LINE
  5
85EB
  8
1
 10
-4937.548524208989
 20
1191.796734919528
 30
0.0
 11
-4901.9270242089897
 21
1187.4357349195291
 31
0.0
  0
ARC
  5
85EC
  8
1
 10
-4942.3868242089902
 20
1185.8997349195281
 30
0.0
 40
6.0
 50
90.0
 51
180.0
  0
LINE
  5
85ED
  8
1
 10
-4949.3868242089902
 20
1181.8997349195281
 30
0.0
 11
-4948.3868242089911
 21
1181.8997349195281
 31
0.0
  0
ARC
  5
85EE
  8
1
 10
-4941.40292420899
 20
1197.016734919529
 30
0.0
 40
1.5000999999999991
 50
21.8023000000012
 51
111.8009999999841
  0
LINE
  5
85EF
  8
1
 10
-4944.2811242089901
 20
1197.4807349195289
 30
0.0
 11
-4941.9599242089898
 21
1198.4087349195279
 31
0.0
  0
LINE
  5
85F0
  8
1
 10
-4941.9847242089891
 20
1191.8997349195281
 30
0.0
 11
-4942.3868242089902
 21
1191.8997349195281
 31
0.0
  0
ARC
  5
85F1
  8
1
 10
-4903.7501242089902
 20
1172.546734919528
 30
0.0
 40
15.0
 50
2.8067000000018392
 51
83.018899999984399
  0
LINE
  5
85F2
  8
1
 10
-4788.0515173875028
 20
1212.8997349195281
 30
0.0
 11
-4788.0515173875028
 21
1292.8997349195281
 31
0.0
  0
LINE
  5
85F3
  8
1
 10
-4788.0515173875028
 20
1212.8997349195281
 30
0.0
 11
-4786.4515173875034
 21
1212.8997349195281
 31
0.0
  0
LINE
  5
85FC
  8
1
 10
-4951.9515173875043
 20
672.89973491952878
 30
0.0
 11
-4951.9515173875043
 21
772.89973491952878
 31
0.0
  0
LINE
  5
85FD
  8
1
 10
-5120.9571661281479
 20
952.39973491952674
 30
0.0
 11
-5120.9571661281498
 21
782.89973491952878
 31
0.0
  0
LINE
  5
85FF
  8
1
 10
-5006.9515173875052
 20
948.8163631991174
 30
0.0
 11
-5006.9515173875052
 21
757.39973491952878
 31
0.0
  0
LINE
  5
8600
  8
1
 10
-4956.4515173875043
 20
775.36855672146214
 30
0.0
 11
-5137.9571661281489
 21
782.89973491952878
 31
0.0
  0
LINE
  5
8601
  8
1
 10
-4956.4515173875043
 20
757.39973491952685
 30
0.0
 11
-4956.4515173875043
 21
812.89973491952867
 31
0.0
  0
LINE
  5
8602
  8
1
 10
-4956.4515173875043
 20
672.89973491952878
 30
0.0
 11
-4956.4515173875043
 21
772.89973491952878
 31
0.0
  0
LINE
  5
8603
  8
1
 10
-4971.4515173875043
 20
757.39973491952787
 30
0.0
 11
-4971.4515173875043
 21
752.89973491952878
 31
0.0
  0
CIRCLE
  5
8604
  8
1
 10
-5011.4515173875043
 20
712.89973491952867
 30
0.0
 40
7.5
  0
LINE
  5
8605
  8
1
 10
-5001.4515173875043
 20
712.89973491952867
 30
0.0
 11
-5021.4515173875043
 21
712.89973491952867
 31
0.0
  0
LINE
  5
8606
  8
1
 10
-5011.4515173875043
 20
702.89973491952878
 30
0.0
 11
-5011.4515173875043
 21
722.89973491952878
 31
0.0
  0
LINE
  5
8607
  8
1
 10
-5120.9571661281498
 20
952.39973491952685
 30
0.0
 11
-5085.9571661281507
 21
952.39973491952685
 31
0.0
  0
LINE
  5
860F
  8
1
 10
-3241.4515173875038
 20
1358.3997349195299
 30
0.0
 11
-3241.4515173875038
 21
752.89973491952878
 31
0.0
  0
LINE
  5
8610
  8
1
 10
-3236.9515173875038
 20
1358.3997349195299
 30
0.0
 11
-3236.9515173875038
 21
948.8163631991174
 31
0.0
  0
LINE
  5
8613
  8
1
 10
-3691.4515173875029
 20
1358.3997349195299
 30
0.0
 11
-3691.4515173875038
 21
752.89973491952878
 31
0.0
  0
LINE
  5
8614
  8
1
 10
-3695.951517387502
 20
1358.3997349195299
 30
0.0
 11
-3695.9515173875038
 21
948.8163631991174
 31
0.0
  0
LINE
  5
8616
  8
2
 10
-3466.4515173875038
 20
572.89973491952878
 30
0.0
 11
-3466.4515173875038
 21
1772.899734919527
 31
0.0
  0
LINE
  5
864F
  8
1
 10
-3776.4515173875052
 20
1212.8997349195281
 30
0.0
 11
-3156.4515173875038
 21
1212.8997349195281
 31
0.0
  0
LINE
  5
8650
  8
1
 10
-3663.4181873629118
 20
1612.8997349195281
 30
0.0
 11
-3269.484847412094
 21
1612.8997349195281
 31
0.0
  0
LINE
  5
8651
  8
1
 10
-3916.4515173875038
 20
1292.899734919529
 30
0.0
 11
-3916.4515173875038
 21
1312.899734919527
 31
0.0
  0
LINE
  5
8652
  8
1
 10
-3618.4515173875038
 20
1638.8997349195281
 30
0.0
 11
-3698.4515173875038
 21
1638.8997349195281
 31
0.0
  0
LINE
  5
8653
  8
1
 10
-3643.4515173875038
 20
1612.8997349195281
 30
0.0
 11
-3673.4515173875038
 21
1612.8997349195281
 31
0.0
  0
LINE
  5
8654
  8
1
 10
-3670.9515173875038
 20
1612.8997349195281
 30
0.0
 11
-3670.2531061456898
 21
1616.8606218978421
 31
0.0
  0
LINE
  5
8655
  8
1
 10
-3658.4515173875038
 20
1678.899734919527
 30
0.0
 11
-3658.4515173875038
 21
1596.775147211059
 31
0.0
  0
LINE
  5
8656
  8
1
 10
-3645.9515173875038
 20
1612.8997349195281
 30
0.0
 11
-3646.649928629316
 21
1616.8606218978421
 31
0.0
  0
LINE
  5
8657
  8
1
 10
-3236.9515173875038
 20
1292.8997349195281
 30
0.0
 11
-3236.9515173875038
 21
1213.8035774258869
 31
0.0
  0
LINE
  5
8658
  8
1
 10
-3016.4515173875038
 20
1292.8997349195281
 30
0.0
 11
-3016.4515173875038
 21
1312.8997349195299
 31
0.0
  0
CIRCLE
  5
865D
  8
1
 10
-3658.4515173875038
 20
1638.8997349195281
 30
0.0
 40
15.0
  0
CIRCLE
  5
865E
  8
1
 10
-3658.4515173875038
 20
1638.8997349195281
 30
0.0
 40
25.0
  0
LINE
  5
865F
  8
1
 10
-3314.4515173875038
 20
1638.8997349195281
 30
0.0
 11
-3234.4515173875038
 21
1638.8997349195281
 31
0.0
  0
CIRCLE
  5
8660
  8
1
 10
-3274.4515173875038
 20
1638.8997349195281
 30
0.0
 40
25.0
  0
CIRCLE
  5
8661
  8
1
 10
-3274.4515173875038
 20
1638.8997349195281
 30
0.0
 40
15.0
  0
LINE
  5
8662
  8
1
 10
-3289.4515173875038
 20
1612.8997349195281
 30
0.0
 11
-3259.4515173875038
 21
1612.8997349195281
 31
0.0
  0
LINE
  5
8663
  8
1
 10
-3274.4515173875038
 20
1678.899734919527
 30
0.0
 11
-3274.4515173875038
 21
1596.775147211059
 31
0.0
  0
LINE
  5
8664
  8
1
 10
-3261.9515173875038
 20
1612.8997349195281
 30
0.0
 11
-3262.6499286293179
 21
1616.8606218978421
 31
0.0
  0
LINE
  5
8665
  8
1
 10
-3286.9515173875038
 20
1612.8997349195281
 30
0.0
 11
-3286.2531061456898
 21
1616.8606218978421
 31
0.0
  0
LINE
  5
8666
  8
1
 10
-5437.0723238119208
 20
1634.899734919527
 30
0.0
 11
-5419.8307109630878
 21
1634.899734919527
 31
0.0
  0
LINE
  5
8667
  8
1
 10
-5044.4515173875043
 20
1681.4435392166711
 30
0.0
 11
-5044.4515173875043
 21
1596.775147211059
 31
0.0
  0
LINE
  5
8668
  8
1
 10
-5035.8307109630878
 20
1634.899734919527
 30
0.0
 11
-5053.0723238119172
 21
1634.899734919527
 31
0.0
  0
ARC
  5
8669
  8
1
 10
-5044.4515173875043
 20
1657.6497349195281
 30
0.0
 40
6.25
 50
359.9999380528439
 51
180.00006194715601
  0
LINE
  5
866A
  8
1
 10
-5056.0402599760237
 20
1638.8997349195281
 30
0.0
 11
-5032.0901923785086
 21
1638.8997349195281
 31
0.0
  0
LINE
  5
866B
  8
1
 10
-5059.4515173875043
 20
1612.8997349195281
 30
0.0
 11
-5029.4515173875043
 21
1612.8997349195281
 31
0.0
  0
LINE
  5
866C
  8
1
 10
-5031.9515173875043
 20
1612.8997349195281
 30
0.0
 11
-5035.8307109630878
 21
1634.8997349195281
 31
0.0
  0
LINE
  5
866D
  8
1
 10
-5038.2015400741129
 20
1657.6665748156031
 30
0.0
 11
-5038.2015646892069
 21
1634.899734919527
 31
0.0
  0
LINE
  5
866E
  8
1
 10
-5056.9515173875052
 20
1612.8997349195281
 30
0.0
 11
-5053.0723238119172
 21
1634.8997349195281
 31
0.0
  0
LINE
  5
866F
  8
1
 10
-5050.7014947008938
 20
1657.666574815376
 30
0.0
 11
-5050.7014700857999
 21
1634.899734919527
 31
0.0
  0
LINE
  5
8670
  8
1
 10
-3916.4515173875038
 20
1292.8997349195281
 30
0.0
 11
-3776.4515173875052
 21
1212.8997349195281
 31
0.0
  0
LINE
  5
8671
  8
1
 10
-3880.7514982779462
 20
1446.1340200675711
 30
0.0
 11
-3916.4515173875038
 21
1312.899734919527
 31
0.0
  0
ARC
  5
8672
  8
1
 10
-3663.4181873629132
 20
1387.899734919527
 30
0.0
 40
225.0
 50
90.0
 51
165.00000000000551
  0
ARC
  5
8673
  8
1
 10
-3269.484847412094
 20
1387.899734919527
 30
0.0
 40
225.0
 50
14.999999999994451
 51
90.0
  0
LINE
  5
8674
  8
1
 10
-3052.1515364970578
 20
1446.1340200675711
 30
0.0
 11
-3016.451517387502
 21
1312.899734919527
 31
0.0
  0
LINE
  5
8675
  8
1
 10
-3016.4515173875038
 20
1292.8997349195281
 30
0.0
 11
-3156.4515173875038
 21
1212.8997349195281
 31
0.0
  0
LINE
  5
8676
  8
1
 10
-3016.451517387502
 20
1292.899734919529
 30
0.0
 11
-3016.4515173875038
 21
1312.899734919527
 31
0.0
  0
LINE
  5
8985
  8
1
 10
-5516.4511124598566
 20
1292.8997349195281
 30
0.0
 11
-5386.945868646857
 21
1163.3997349195299
 31
0.0
  0
LINE
  5
8986
  8
1
 10
-5351.9458686468579
 20
1163.3997349195299
 30
0.0
 11
-5351.945868646857
 21
1292.8997349195281
 31
0.0
  0
LINE
  5
8987
  8
1
 10
-5351.945868646857
 20
1163.3997349195299
 30
0.0
 11
-5386.945868646857
 21
1163.3997349195299
 31
0.0
  0
LINE
  5
8989
  8
1
 10
-5085.9571661281507
 20
1163.3997349195299
 30
0.0
 11
-4956.4519223151492
 21
1292.8997349195281
 31
0.0
  0
LINE
  5
898A
  8
1
 10
-5120.9571661281479
 20
1163.3997349195299
 30
0.0
 11
-5120.9571661281498
 21
1292.8997349195281
 31
0.0
  0
LINE
  5
898B
  8
1
 10
-5120.9571661281498
 20
1163.3997349195299
 30
0.0
 11
-5085.9571661281507
 21
1163.3997349195299
 31
0.0
  0
LINE
  5
8A6F
  8
1
 10
-3746.4515173875029
 20
775.3685567214618
 30
0.0
 11
-3564.945868646857
 21
782.89973491952878
 31
0.0
  0
LINE
  5
8A70
  8
1
 10
-3746.4515173875029
 20
752.8997349195289
 30
0.0
 11
-3186.4515173875038
 21
752.89973491952878
 31
0.0
  0
LINE
  5
8A71
  8
1
 10
-3746.4515173875029
 20
757.39973491952765
 30
0.0
 11
-3186.4515173875038
 21
757.3997349195273
 31
0.0
  0
LINE
  5
8A72
  8
1
 10
-3750.9515173875038
 20
672.89973491952878
 30
0.0
 11
-3181.9515173875038
 21
672.89973491952878
 31
0.0
  0
LINE
  5
8A73
  8
1
 10
-3750.9515173875038
 20
772.89973491952878
 30
0.0
 11
-3181.9515173875038
 21
772.8997349195289
 31
0.0
  0
LINE
  5
8A74
  8
1
 10
-3695.9515173875038
 20
948.8163631991174
 30
0.0
 11
-3695.9515173875038
 21
757.39973491952878
 31
0.0
  0
LINE
  5
8A75
  8
1
 10
-3746.4515173875038
 20
757.39973491952685
 30
0.0
 11
-3746.4515173875029
 21
812.89973491952867
 31
0.0
  0
LINE
  5
8A76
  8
1
 10
-3701.4515173875038
 20
712.89973491952867
 30
0.0
 11
-3681.4515173875038
 21
712.89973491952867
 31
0.0
  0
LINE
  5
8A77
  8
1
 10
-3731.4515173875038
 20
757.39973491952787
 30
0.0
 11
-3731.4515173875038
 21
752.89973491952878
 31
0.0
  0
LINE
  5
8A78
  8
1
 10
-3746.4515173875038
 20
672.89973491952878
 30
0.0
 11
-3746.4515173875038
 21
772.89973491952878
 31
0.0
  0
LINE
  5
8A79
  8
1
 10
-3750.9515173875038
 20
672.89973491952878
 30
0.0
 11
-3750.9515173875038
 21
772.89973491952878
 31
0.0
  0
LINE
  5
8A7A
  8
1
 10
-3691.4515173875038
 20
702.89973491952878
 30
0.0
 11
-3691.4515173875038
 21
722.89973491952878
 31
0.0
  0
CIRCLE
  5
8A7B
  8
1
 10
-3691.4515173875038
 20
712.89973491952867
 30
0.0
 40
7.5
  0
LINE
  5
8A7C
  8
1
 10
-3606.9458686468579
 20
782.89973491952878
 30
0.0
 11
-3325.9571661281502
 21
782.89973491952856
 31
0.0
  0
LINE
  5
8A7D
  8
1
 10
-3581.9458686468579
 20
952.39973491952685
 30
0.0
 11
-3581.945868646857
 21
782.89973491952878
 31
0.0
  0
LINE
  5
8A7E
  8
1
 10
-3581.945868646857
 20
952.39973491952685
 30
0.0
 11
-3616.945868646857
 21
952.39973491952685
 31
0.0
  0
LINE
  5
8A80
  8
1
 10
-3236.9515173875038
 20
948.8163631991174
 30
0.0
 11
-3236.9515173875038
 21
757.39973491952878
 31
0.0
  0
LINE
  5
8A81
  8
1
 10
-3350.957166128147
 20
952.39973491952674
 30
0.0
 11
-3350.9571661281502
 21
782.89973491952878
 31
0.0
  0
LINE
  5
8A82
  8
1
 10
-3186.4515173875038
 20
775.36855672146214
 30
0.0
 11
-3367.9571661281489
 21
782.89973491952878
 31
0.0
  0
LINE
  5
8A83
  8
1
 10
-3186.4515173875038
 20
757.39973491952685
 30
0.0
 11
-3186.4515173875038
 21
812.89973491952867
 31
0.0
  0
LINE
  5
8A84
  8
1
 10
-3241.4515173875038
 20
702.89973491952878
 30
0.0
 11
-3241.4515173875038
 21
722.89973491952878
 31
0.0
  0
LINE
  5
8A85
  8
1
 10
-3231.4515173875038
 20
712.89973491952867
 30
0.0
 11
-3251.4515173875038
 21
712.89973491952867
 31
0.0
  0
CIRCLE
  5
8A86
  8
1
 10
-3241.4515173875038
 20
712.89973491952867
 30
0.0
 40
7.5
  0
LINE
  5
8A87
  8
1
 10
-3201.4515173875029
 20
757.39973491952787
 30
0.0
 11
-3201.4515173875029
 21
752.89973491952878
 31
0.0
  0
LINE
  5
8A88
  8
1
 10
-3186.4515173875038
 20
672.89973491952878
 30
0.0
 11
-3186.4515173875038
 21
772.89973491952878
 31
0.0
  0
LINE
  5
8A89
  8
1
 10
-3181.9515173875038
 20
672.89973491952878
 30
0.0
 11
-3181.9515173875038
 21
772.89973491952878
 31
0.0
  0
LINE
  5
8A8A
  8
1
 10
-3350.9571661281502
 20
952.39973491952685
 30
0.0
 11
-3315.957166128152
 21
952.39973491952685
 31
0.0
  0
LINE
  5
8A8C
  8
1
 10
-3731.4515173875038
 20
1358.399734919529
 30
0.0
 11
-3731.4515173875038
 21
1362.8997349195281
 31
0.0
  0
LINE
  5
8A8D
  8
1
 10
-3201.4515173875029
 20
1358.399734919529
 30
0.0
 11
-3201.4515173875029
 21
1362.8997349195281
 31
0.0
  0
LINE
  5
8A8E
  8
1
 10
-3731.4515173875038
 20
1358.3997349195299
 30
0.0
 11
-3201.4515173875029
 21
1358.3997349195299
 31
0.0
  0
LINE
  5
8A8F
  8
1
 10
-3731.4515173875038
 20
1362.8997349195281
 30
0.0
 11
-3201.4515173875029
 21
1362.8997349195281
 31
0.0
  0
LINE
  5
8A90
  8
1
 10
-3350.957166128147
 20
1163.3997349195299
 30
0.0
 11
-3350.9571661281489
 21
1212.8997349195281
 31
0.0
  0
LINE
  5
8A91
  8
1
 10
-3350.9571661281502
 20
1163.3997349195299
 30
0.0
 11
-3315.957166128152
 21
1163.3997349195299
 31
0.0
  0
LINE
  5
8A92
  8
1
 10
-3315.957166128152
 20
1163.3997349195299
 30
0.0
 11
-3266.4551617363099
 21
1212.899734919527
 31
0.0
  0
LINE
  5
8A94
  8
1
 10
-3581.945868646857
 20
1163.3997349195299
 30
0.0
 11
-3616.945868646857
 21
1163.3997349195299
 31
0.0
  0
LINE
  5
8A95
  8
1
 10
-3666.4478730386968
 20
1212.899734919527
 30
0.0
 11
-3616.945868646857
 21
1163.3997349195299
 31
0.0
  0
LINE
  5
8A96
  8
1
 10
-3581.9458686468579
 20
1163.3997349195299
 30
0.0
 11
-3581.9458686468579
 21
1212.899734919527
 31
0.0
  0
LINE
  5
8C63
  8
1
 10
-5085.9571661281507
 20
952.39973491952685
 30
0.0
 11
-4956.4515173875043
 21
812.89973491952867
 31
0.0
  0
LINE
  5
8C65
  8
1
 10
-5516.4515173875016
 20
812.89973491952867
 30
0.0
 11
-5386.945868646857
 21
952.39973491952685
 31
0.0
  0
DIMENSION
  5
8C66
  8
3
  2
*D1
 10
-5870.8411060413746
 20
1212.8997349195281
 30
0.0
 11
-5870.8411060413746
 21
1409.2496994062051
 31
0.0
 70
   128
 13
-5686.4515173875043
 23
1612.8997349195281
 33
0.0
 14
-5686.4515173875043
 24
1212.8997349195281
 34
0.0
 50
90.0
1001
ACAD
1000
DSTYLE
1002
{
1070
   287
1070
     3
1070
   287
1070
     3
1070
   287
1070
     3
1070
    40
1040
20.0
1070
   143
1040
0.039
1070
   172
1070
     1
1070
   271
1070
     0
1070
   279
1070
     0
1070
   288
1070
     1
1002
}
  0
DIMENSION
  5
8C73
  8
3
  2
*D2
 10
-5870.8411060413746
 20
772.89973491952901
 30
0.0
 11
-5870.8411060413746
 21
1015.147260385987
 31
0.0
 70
   128
 13
-5686.4515173875043
 23
1212.8997349195281
 33
0.0
 14
-5520.9515173875052
 24
772.89973491952901
 34
0.0
 50
90.0
1001
ACAD
1000
DSTYLE
1002
{
1070
   287
1070
     3
1070
   287
1070
     3
1070
   287
1070
     3
1070
    40
1040
20.0
1070
   143
1040
0.039
1070
   172
1070
     1
1070
   271
1070
     0
1070
   279
1070
     0
1070
   288
1070
     1
1002
}
  0
DIMENSION
  5
8C80
  8
3
  2
*D3
 10
-5870.8411060413746
 20
672.89973491952878
 30
0.0
 11
-5870.8411060413746
 21
501.47116349095643
 31
0.0
 70
   128
 13
-5520.9515173875052
 23
772.89973491952901
 33
0.0
 14
-5520.9515173875052
 24
672.89973491952878
 34
0.0
 50
90.0
1001
ACAD
1000
DSTYLE
1002
{
1070
   287
1070
     3
1070
   287
1070
     3
1070
   287
1070
     3
1070
    40
1040
20.0
1070
   143
1040
0.039
1070
   172
1070
     1
1070
   271
1070
     0
1070
   279
1070
     0
1070
   288
1070
     1
1002
}
  0
DIMENSION
  5
8C8F
  8
3
  2
*D4
 10
-6037.452582791906
 20
672.8997349195289
 30
0.0
 11
-6037.452582791906
 21
1171.809103559511
 31
0.0
 70
   128
 13
-5686.4515173875043
 23
1612.899734919529
 33
0.0
 14
-5520.9515173875052
 24
672.89973491952878
 34
0.0
 50
90.0
1001
ACAD
1000
DSTYLE
1002
{
1070
   287
1070
     3
1070
   287
1070
     3
1070
   287
1070
     3
1070
    40
1040
20.0
1070
   143
1040
0.039
1070
   172
1070
     1
1070
   271
1070
     0
1070
   279
1070
     0
1070
   288
1070
     1
1002
}
  0
DIMENSION
  5
8C9C
  8
3
  2
*D5
 10
-5706.6798306219716
 20
672.89973491952878
 30
0.0
 11
-5706.6798306219716
 21
524.32830634809932
 31
0.0
 70
   128
 13
-5471.4515173875043
 23
712.89973491952867
 33
0.0
 14
-5520.9515173875052
 24
672.89973491952878
 34
0.0
 50
90.0
1001
ACAD
1000
DSTYLE
1002
{
1070
   287
1070
     3
1070
   287
1070
     3
1070
   287
1070
     3
1070
    40
1040
20.0
1070
   143
1040
0.039
1070
   172
1070
     1
1070
   271
1070
     0
1070
   279
1070
     0
1070
   288
1070
     1
1002
}
  0
DIMENSION
  5
8CAB
  8
3
  2
*D6
 10
-5011.4515173875043
 20
453.56873010114759
 30
0.0
 11
-5231.3490611353809
 21
453.56873010114759
 31
0.0
 70
   128
 13
-5461.4515173875043
 23
702.89973491952878
 33
0.0
 14
-5011.4515173875043
 24
702.89973491952878
 34
0.0
1001
ACAD
1000
DSTYLE
1002
{
1070
   287
1070
     3
1070
   287
1070
     3
1070
   287
1070
     3
1070
    40
1040
20.0
1070
   143
1040
0.039
1070
   172
1070
     1
1070
   271
1070
     0
1070
   279
1070
     0
1070
   288
1070
     1
1002
}
  0
DIMENSION
  5
8CB8
  8
3
  2
*D7
 10
-4956.4515173875043
 20
281.95022392623832
 30
0.0
 11
-5222.5846844098742
 21
281.95022392623832
 31
0.0
 70
   128
 13
-5516.4515173875052
 23
672.89973491952878
 33
0.0
 14
-4956.4515173875043
 24
672.89973491952878
 34
0.0
1001
ACAD
1000
DSTYLE
1002
{
1070
   287
1070
     3
1070
   287
1070
     3
1070
   287
1070
     3
1070
    40
1040
20.0
1070
   143
1040
0.039
1070
   172
1070
     1
1070
   271
1070
     0
1070
   279
1070
     0
1070
   288
1070
     1
1002
}
  0
DIMENSION
  5
8CC5
  8
3
  2
*D8
 10
-4786.4515173875034
 20
1822.8073684215981
 30
0.0
 11
-5233.5930990745728
 21
1822.8073684215981
 31
0.0
 70
   128
 13
-5686.4515173875043
 23
1612.8997349195281
 33
0.0
 14
-4786.4515173875034
 24
1612.8997349195281
 34
0.0
1001
ACAD
1000
DSTYLE
1002
{
1070
   287
1070
     3
1070
   287
1070
     3
1070
   287
1070
     3
1070
    40
1040
20.0
1070
   143
1040
0.039
1070
   172
1070
     1
1070
   271
1070
     0
1070
   279
1070
     0
1070
   288
1070
     1
1002
}
  0
DIMENSION
  5
8CD2
  8
3
  2
*D9
 10
-3016.4515173875038
 20
1831.0305888966391
 30
0.0
 11
-3466.7919046487691
 21
1831.0305888966391
 31
0.0
 70
   128
 13
-3916.4515173875038
 23
1312.899734919527
 33
0.0
 14
-3016.4515173875038
 24
1312.899734919534
 34
0.0
1001
ACAD
1000
DSTYLE
1002
{
1070
   287
1070
     3
1070
   287
1070
     3
1070
   287
1070
     3
1070
    40
1040
20.0
1070
   143
1040
0.039
1070
   172
1070
     1
1070
   271
1070
     0
1070
   279
1070
     0
1070
   288
1070
     1
1002
}
  0
DIMENSION
  5
8CDF
  8
3
  2
*D10
 10
-3241.4515173875038
 20
437.09975932267469
 30
0.0
 11
-3454.7707692741969
 21
437.09975932267469
 31
0.0
 70
   128
 13
-3691.4515173875038
 23
702.89973491952878
 33
0.0
 14
-3241.4515173875038
 24
702.89973491952878
 34
0.0
1001
ACAD
1000
DSTYLE
1002
{
1070
   287
1070
     3
1070
   287
1070
     3
1070
   287
1070
     3
1070
    40
1040
20.0
1070
   143
1040
0.039
1070
   172
1070
     1
1070
   271
1070
     0
1070
   279
1070
     0
1070
   288
1070
     1
1002
}
  0
LINE
  5
8CED
  8
1
 10
-3746.4515173875029
 20
812.89973491952867
 30
0.0
 11
-3616.945868646857
 21
952.39973491952685
 31
0.0
  0
LINE
  5
8CEE
  8
1
 10
-3315.957166128152
 20
952.39973491952685
 30
0.0
 11
-3186.4515173875038
 21
812.89973491952867
 31
0.0
  0
DIMENSION
  5
8CFC
  8
3
  2
*D11
 10
-3186.4515173875038
 20
282.47778350042239
 30
0.0
 11
-3451.197622280743
 21
282.47778350042239
 31
0.0
 70
   128
 13
-3746.4515173875038
 23
672.89973491952878
 33
0.0
 14
-3186.4515173875038
 24
672.89973491952878
 34
0.0
1001
ACAD
1000
DSTYLE
1002
{
1070
   287
1070
     3
1070
   287
1070
     3
1070
   287
1070
     3
1070
    40
1040
20.0
1070
   143
1040
0.039
1070
   172
1070
     1
1070
   271
1070
     0
1070
   279
1070
     0
1070
   288
1070
     1
1002
}
  0
ENDSEC
  0
EOF
