  0
SECTION
  2
HEADER
  9
$ACADVER
  1
AC1009
  9
$INSBASE
 10
0.0
 20
0.0
 30
0.0
  9
$EXTMIN
 10
141.01525599999999
 20
300.0
 30
0.0
  9
$EXTMAX
 10
1850.0
 20
2786.6522620000001
 30
0.0
  9
$LIMMIN
 10
0.0
 20
0.0
  9
$LIMMAX
 10
297.0
 20
210.0
  9
$ORTHOMODE
 70
     0
  9
$REGENMODE
 70
     1
  9
$FILLMODE
 70
     0
  9
$QTEXTMODE
 70
     0
  9
$MIRRTEXT
 70
     1
  9
$DRAGMODE
 70
     2
  9
$LTSCALE
 40
100.0
  9
$OSMODE
 70
    37
  9
$ATTMODE
 70
     1
  9
$TEXTSIZE
 40
180.0
  9
$TRACEWID
 40
0.05
  9
$TEXTSTYLE
  7
STANDARD
  9
$CLAYER
  8
3
  9
$CELTYPE
  6
BYLAYER
  9
$CECOLOR
 62
   256
  9
$DIMSCALE
 40
10.0
  9
$DIMASZ
 40
2.0
  9
$DIMEXO
 40
0.5
  9
$DIMDLI
 40
10.0
  9
$DIMRND
 40
0.0
  9
$DIMDLE
 40
0.0
  9
$DIMEXE
 40
1.0
  9
$DIMTP
 40
1.0
  9
$DIMTM
 40
1.0
  9
$DIMTXT
 40
3.0
  9
$DIMCEN
 40
0.0
  9
$DIMTSZ
 40
0.0
  9
$DIMTOL
 70
     0
  9
$DIMLIM
 70
     0
  9
$DIMTIH
 70
     0
  9
$DIMTOH
 70
     0
  9
$DIMSE1
 70
     0
  9
$DIMSE2
 70
     0
  9
$DIMTAD
 70
     1
  9
$DIMZIN
 70
     8
  9
$DIMBLK
  1

  9
$DIMASO
 70
     1
  9
$DIMSHO
 70
     1
  9
$DIMPOST
  1

  9
$DIMAPOST
  1

  9
$DIMALT
 70
     0
  9
$DIMALTD
 70
     2
  9
$DIMALTF
 40
0.039
  9
$DIMLFAC
 40
1.0
  9
$DIMTOFL
 70
     1
  9
$DIMTVP
 40
0.0
  9
$DIMTIX
 70
     0
  9
$DIMSOXD
 70
     0
  9
$DIMSAH
 70
     1
  9
$DIMBLK1
  1
OPEN
  9
$DIMBLK2
  1
OPEN
  9
$DIMSTYLE
  2
IGA
  9
$DIMCLRD
 70
     0
  9
$DIMCLRE
 70
     0
  9
$DIMCLRT
 70
     0
  9
$DIMTFAC
 40
10.0
  9
$DIMGAP
 40
1.0
  9
$LUNITS
 70
     2
  9
$LUPREC
 70
     3
  9
$SKETCHINC
 40
0.1
  9
$FILLETRAD
 40
50.0
  9
$AUNITS
 70
     0
  9
$AUPREC
 70
     0
  9
$MENU
  1
acad
  9
$ELEVATION
 40
0.0
  9
$PELEVATION
 40
0.0
  9
$THICKNESS
 40
0.0
  9
$LIMCHECK
 70
     0
  9
$BLIPMODE
 70
     0
  9
$CHAMFERA
 40
0.5
  9
$CHAMFERB
 40
0.5
  9
$SKPOLY
 70
     0
  9
$TDCREATE
 40
2450725.5487195598
  9
$TDUPDATE
 40
2454953.6347421058
  9
$TDINDWG
 40
0.0212892477
  9
$TDUSRTIMER
 40
0.0212892477
  9
$USRTIMER
 70
     1
  9
$ANGBASE
 50
0.0
  9
$ANGDIR
 70
     0
  9
$PDMODE
 70
     0
  9
$PDSIZE
 40
0.0
  9
$PLINEWID
 40
0.0
  9
$COORDS
 70
     1
  9
$SPLFRAME
 70
     0
  9
$SPLINETYPE
 70
     6
  9
$SPLINESEGS
 70
     8
  9
$ATTDIA
 70
     0
  9
$ATTREQ
 70
     1
  9
$HANDLING
 70
 10241
  9
$HANDSEED
  5
7B4B
  9
$SURFTAB1
 70
     6
  9
$SURFTAB2
 70
     6
  9
$SURFTYPE
 70
     6
  9
$SURFU
 70
     6
  9
$SURFV
 70
     6
  9
$UCSNAME
  2

  9
$UCSORG
 10
0.0
 20
0.0
 30
0.0
  9
$UCSXDIR
 10
1.0
 20
0.0
 30
0.0
  9
$UCSYDIR
 10
0.0
 20
1.0
 30
0.0
  9
$PUCSNAME
  2

  9
$PUCSORG
 10
0.0
 20
0.0
 30
0.0
  9
$PUCSXDIR
 10
1.0
 20
0.0
 30
0.0
  9
$PUCSYDIR
 10
0.0
 20
1.0
 30
0.0
  9
$USERI1
 70
     0
  9
$USERI2
 70
     0
  9
$USERI3
 70
     0
  9
$USERI4
 70
     0
  9
$USERI5
 70
     0
  9
$USERR1
 40
0.0
  9
$USERR2
 40
0.0
  9
$USERR3
 40
0.0
  9
$USERR4
 40
0.0
  9
$USERR5
 40
0.0
  9
$WORLDVIEW
 70
     1
  9
$SHADEDGE
 70
     3
  9
$SHADEDIF
 70
    70
  9
$TILEMODE
 70
     1
  9
$MAXACTVP
 70
    16
  9
$PLIMCHECK
 70
     0
  9
$PEXTMIN
 10
1.0000000000000000E+020
 20
1.0000000000000000E+020
 30
1.0000000000000000E+020
  9
$PEXTMAX
 10
-1.0000000000000000E+020
 20
-1.0000000000000000E+020
 30
-1.0000000000000000E+020
  9
$PLIMMIN
 10
0.0
 20
0.0
  9
$PLIMMAX
 10
12.0
 20
9.0
  9
$UNITMODE
 70
     0
  9
$VISRETAIN
 70
     0
  9
$PLINEGEN
 70
     0
  9
$PSLTSCALE
 70
     1
  0
ENDSEC
  0
SECTION
  2
TABLES
  0
TABLE
  2
VPORT
 70
     2
  0
VPORT
  2
*ACTIVE
 70
     0
 10
0.0
 20
0.0
 11
1.0
 21
1.0
 12
2045.2386297418091
 22
350.99186871760372
 13
0.0
 23
0.0
 14
10.0
 24
10.0
 15
10.0
 25
10.0
 16
0.0
 26
0.0
 36
1.0
 17
0.0
 27
0.0
 37
0.0
 40
954.21288507645227
 41
3.1666666666666661
 42
50.0
 43
0.0
 44
0.0
 50
0.0
 51
0.0
 71
     0
 72
   100
 73
     1
 74
     0
 75
     0
 76
     0
 77
     0
 78
     0
  0
ENDTAB
  0
TABLE
  2
LTYPE
 70
     2
  0
LTYPE
  2
CONTINUOUS
 70
     0
  3
Solid line
 72
    65
 73
     0
 40
0.0
  0
LTYPE
  2
CENTER
 70
     0
  3
____ _ ____ _ ____ _ ____ _ ____ _ ____ _ ____ 
 72
    65
 73
     4
 40
2.0
 49
1.25
 49
-0.25
 49
0.25
 49
-0.25
  0
ENDTAB
  0
TABLE
  2
LAYER
 70
     6
  0
LAYER
  2
0
 70
     0
 62
     7
  6
CONTINUOUS
  0
LAYER
  2
3
 70
     0
 62
     2
  6
CONTINUOUS
  0
LAYER
  2
2
 70
     0
 62
     3
  6
CENTER
  0
LAYER
  2
1
 70
     0
 62
     4
  6
CONTINUOUS
  0
LAYER
  2
4
 70
     0
 62
     7
  6
CONTINUOUS
  0
LAYER
  2
DEFPOINTS
 70
     0
 62
     7
  6
CONTINUOUS
  0
ENDTAB
  0
TABLE
  2
STYLE
 70
     1
  0
STYLE
  2
STANDARD
 70
     0
 40
0.0
 41
1.0
 50
0.0
 71
     0
 42
180.0
  3
simplex.shx
  4
extfont.shx
  0
ENDTAB
  0
TABLE
  2
VIEW
 70
     0
  0
ENDTAB
  0
TABLE
  2
UCS
 70
     0
  0
ENDTAB
  0
TABLE
  2
APPID
 70
     1
  0
APPID
  2
ACAD
 70
     0
  0
ENDTAB
  0
TABLE
  2
DIMSTYLE
 70
     1
  0
DIMSTYLE
  2
IGA
 70
     0
  3

  4

  5

  6
OPEN
  7
OPEN
 40
2.0
 41
2.0
 42
0.5
 43
10.0
 44
1.0
 45
0.0
 46
0.0
 47
1.0
 48
1.0
140
3.0
141
0.0
142
0.0
143
0.03937
144
1.0
145
0.0
146
10.0
147
1.0
 71
     0
 72
     0
 73
     0
 74
     0
 75
     0
 76
     0
 77
     1
 78
     8
170
     0
171
     2
172
     0
173
     1
174
     0
175
     0
176
     0
177
     0
178
     0
  0
ENDTAB
  0
ENDSEC
  0
SECTION
  2
BLOCKS
  0
BLOCK
  8
0
  2
$MODEL_SPACE
 70
     0
 10
0.0
 20
0.0
 30
0.0
  3
$MODEL_SPACE
  1

  0
ENDBLK
  5
1B
  8
0
  0
BLOCK
 67
     1
  8
0
  2
$PAPER_SPACE
 70
     0
 10
0.0
 20
0.0
 30
0.0
  3
$PAPER_SPACE
  1

  0
ENDBLK
  5
18
 67
     1
  8
0
  0
BLOCK
  8
0
  2
_OPEN
 70
     0
 10
0.0
 20
0.0
 30
0.0
  3
_OPEN
  1

  0
LINE
  5
7A44
  8
0
  6
BYBLOCK
 62
     0
 10
-1.0
 20
0.166667
 30
0.0
 11
0.0
 21
0.0
 31
0.0
  0
LINE
  5
7A45
  8
0
  6
BYBLOCK
 62
     0
 10
0.0
 20
0.0
 30
0.0
 11
-1.0
 21
-0.166667
 31
0.0
  0
LINE
  5
7A46
  8
0
  6
BYBLOCK
 62
     0
 10
0.0
 20
0.0
 30
0.0
 11
-1.0
 21
0.0
 31
0.0
  0
ENDBLK
  5
7A47
  8
0
  0
BLOCK
  8
0
  2
*D1
 70
     1
 10
0.0
 20
0.0
 30
0.0
  3
*D1
  1

  0
LINE
  5
7B0F
  8
3
  6
CONTINUOUS
 62
     0
 10
332.48581799999999
 20
1499.826182
 30
0.0
 11
332.48581799999999
 21
1621.367927
 31
0.0
  0
LINE
  5
7B10
  8
3
  6
CONTINUOUS
 62
     0
 10
942.48581799999988
 20
1499.826182
 30
0.0
 11
942.48581799999988
 21
1621.367927
 31
0.0
  0
LINE
  5
7B11
  8
3
  6
CONTINUOUS
 62
     0
 10
352.48581799999988
 20
1611.3679269999991
 30
0.0
 11
922.48581799999999
 21
1611.3679269999991
 31
0.0
  0
INSERT
  5
7B12
  8
3
  6
CONTINUOUS
 62
     0
  2
_OPEN
 10
332.48581799999999
 20
1611.3679269999991
 30
0.0
 41
20.0
 42
20.0
 43
20.0
 50
180.0
  0
INSERT
  5
7B13
  8
3
  6
CONTINUOUS
 62
     0
  2
_OPEN
 10
942.48581799999988
 20
1611.3679269999991
 30
0.0
 41
20.0
 42
20.0
 43
20.0
  0
TEXT
  8
3
  40
30
  5
7B45
  62
0
  72
0
  71
0
 10
561.022
 20
1583.27
 30
0.000000
  1
610
  0
POINT
  5
7B15
  8
DEFPOINTS
  6
CONTINUOUS
 62
     0
 10
332.48581799999999
 20
1494.826182
 30
0.0
  0
POINT
  5
7B16
  8
DEFPOINTS
  6
CONTINUOUS
 62
     0
 10
942.48581799999988
 20
1494.826182
 30
0.0
  0
POINT
  5
7B17
  8
DEFPOINTS
  6
CONTINUOUS
 62
     0
 10
942.48581799999988
 20
1611.3679269999991
 30
0.0
  0
ENDBLK
  5
7AC9
  8
0
  0
BLOCK
  8
0
  2
*D2
 70
     1
 10
0.0
 20
0.0
 30
0.0
  3
*D2
  1

  0
LINE
  5
7B18
  8
3
  6
CONTINUOUS
 62
     0
 10
327.48581799999988
 20
1469.826182
 30
0.0
 11
171.01525600000019
 21
1469.826182
 31
0.0
  0
LINE
  5
7B19
  8
3
  6
CONTINUOUS
 62
     0
 10
330.48581799999999
 20
1019.826182
 30
0.0
 11
171.01525600000011
 21
1019.826182
 31
0.0
  0
LINE
  5
7B1A
  8
3
  6
CONTINUOUS
 62
     0
 10
181.01525600000019
 20
1449.8261819999991
 30
0.0
 11
181.01525600000011
 21
1039.826182
 31
0.0
  0
INSERT
  5
7B1B
  8
3
  6
CONTINUOUS
 62
     0
  2
_OPEN
 10
181.01525600000019
 20
1469.826182
 30
0.0
 41
20.0
 42
20.0
 43
20.0
 50
90.0
  0
INSERT
  5
7B1C
  8
3
  6
CONTINUOUS
 62
     0
  2
_OPEN
 10
181.01525600000011
 20
1019.826182
 30
0.0
 41
20.0
 42
20.0
 43
20.0
 50
270.0
  0
TEXT
  8
3
  40
30
  5
7B46
  62
0
  72
0
  71
0
 10
96.0153
 20
1179.78
 30
0.000000
  1
450
  0
POINT
  5
7B1E
  8
DEFPOINTS
  6
CONTINUOUS
 62
     0
 10
332.48581799999999
 20
1469.826182
 30
0.0
  0
POINT
  5
7B1F
  8
DEFPOINTS
  6
CONTINUOUS
 62
     0
 10
335.48581799999988
 20
1019.826182
 30
0.0
  0
POINT
  5
7B20
  8
DEFPOINTS
  6
CONTINUOUS
 62
     0
 10
181.01525600000011
 20
1019.826182
 30
0.0
  0
ENDBLK
  5
7A8B
  8
0
  0
BLOCK
  8
0
  2
*D3
 70
     1
 10
0.0
 20
0.0
 30
0.0
  3
*D3
  1

  0
LINE
  5
7B21
  8
3
  6
CONTINUOUS
 62
     0
 10
1305.1401579999999
 20
939.82618200000002
 30
0.0
 11
1305.1401579999999
 21
849.95282799999995
 31
0.0
  0
LINE
  5
7B22
  8
3
  6
CONTINUOUS
 62
     0
 10
1705.1401579999999
 20
939.82618200000002
 30
0.0
 11
1705.1401579999999
 21
849.95282799999995
 31
0.0
  0
LINE
  5
7B23
  8
3
  6
CONTINUOUS
 62
     0
 10
1325.140157999999
 20
859.95282799999995
 30
0.0
 11
1685.1401579999999
 21
859.95282799999995
 31
0.0
  0
INSERT
  5
7B24
  8
3
  6
CONTINUOUS
 62
     0
  2
_OPEN
 10
1305.1401579999999
 20
859.95282799999995
 30
0.0
 41
20.0
 42
20.0
 43
20.0
 50
180.0
  0
INSERT
  5
7B25
  8
3
  6
CONTINUOUS
 62
     0
  2
_OPEN
 10
1705.1401579999999
 20
859.95282799999995
 30
0.0
 41
20.0
 42
20.0
 43
20.0
  0
TEXT
  8
3
  40
30
  5
7B47
  62
0
  72
0
  71
0
 10
1441.03
 20
831.853
 30
0.000000
  1
400
  0
POINT
  5
7B27
  8
DEFPOINTS
  6
CONTINUOUS
 62
     0
 10
1305.1401579999999
 20
944.82618200000002
 30
0.0
  0
POINT
  5
7B28
  8
DEFPOINTS
  6
CONTINUOUS
 62
     0
 10
1705.1401579999999
 20
944.82618200000002
 30
0.0
  0
POINT
  5
7B29
  8
DEFPOINTS
  6
CONTINUOUS
 62
     0
 10
1705.1401579999999
 20
859.95282799999995
 30
0.0
  0
ENDBLK
  5
7A98
  8
0
  0
BLOCK
  8
0
  2
*D4
 70
     1
 10
0.0
 20
0.0
 30
0.0
  3
*D4
  1

  0
LINE
  5
7B2A
  8
3
  6
CONTINUOUS
 62
     0
 10
947.48581799999999
 20
1499.826182
 30
0.0
 11
1149.0037130000001
 21
1499.826182
 31
0.0
  0
LINE
  5
7B2B
  8
3
  6
CONTINUOUS
 62
     0
 10
944.48581799999999
 20
944.82618200000002
 30
0.0
 11
1149.0037130000001
 21
944.82618200000002
 31
0.0
  0
LINE
  5
7B2C
  8
3
  6
CONTINUOUS
 62
     0
 10
1139.0037130000001
 20
1479.826182
 30
0.0
 11
1139.0037130000001
 21
964.82618200000002
 31
0.0
  0
INSERT
  5
7B2D
  8
3
  6
CONTINUOUS
 62
     0
  2
_OPEN
 10
1139.0037130000001
 20
1499.826182
 30
0.0
 41
20.0
 42
20.0
 43
20.0
 50
90.0
  0
INSERT
  5
7B2E
  8
3
  6
CONTINUOUS
 62
     0
  2
_OPEN
 10
1139.0037130000001
 20
944.82618200000002
 30
0.0
 41
20.0
 42
20.0
 43
20.0
 50
270.0
  0
TEXT
  8
3
  40
30
  5
7B48
  62
0
  72
0
  71
0
 10
1054.00
 20
1174.21
 30
0.000000
  1
555
  0
POINT
  5
7B30
  8
DEFPOINTS
  6
CONTINUOUS
 62
     0
 10
942.48581799999988
 20
1499.826182
 30
0.0
  0
POINT
  5
7B31
  8
DEFPOINTS
  6
CONTINUOUS
 62
     0
 10
939.48581799999988
 20
944.82618200000002
 30
0.0
  0
POINT
  5
7B32
  8
DEFPOINTS
  6
CONTINUOUS
 62
     0
 10
1139.0037130000001
 20
944.82618200000002
 30
0.0
  0
ENDBLK
  5
7AA5
  8
0
  0
BLOCK
  8
0
  2
*D5
 70
     1
 10
0.0
 20
0.0
 30
0.0
  3
*D5
  1

  0
LINE
  5
7B33
  8
3
  6
CONTINUOUS
 62
     0
 10
1255.1401579999999
 20
1249.826182
 30
0.0
 11
1255.1401579999999
 21
1610.235848
 31
0.0
  0
LINE
  5
7B34
  8
3
  6
CONTINUOUS
 62
     0
 10
1755.1401579999999
 20
1249.826182
 30
0.0
 11
1755.1401579999999
 21
1610.235848
 31
0.0
  0
LINE
  5
7B35
  8
3
  6
CONTINUOUS
 62
     0
 10
1275.1401579999999
 20
1600.235848
 30
0.0
 11
1735.1401579999999
 21
1600.235848
 31
0.0
  0
INSERT
  5
7B36
  8
3
  6
CONTINUOUS
 62
     0
  2
_OPEN
 10
1255.1401579999999
 20
1600.235848
 30
0.0
 41
20.0
 42
20.0
 43
20.0
 50
180.0
  0
INSERT
  5
7B37
  8
3
  6
CONTINUOUS
 62
     0
  2
_OPEN
 10
1755.1401579999999
 20
1600.235848
 30
0.0
 41
20.0
 42
20.0
 43
20.0
  0
TEXT
  8
3
  40
30
  5
7B49
  62
0
  72
0
  71
0
 10
1429.89
 20
1572.14
 30
0.000000
  1
500
  0
POINT
  5
7B39
  8
DEFPOINTS
  6
CONTINUOUS
 62
     0
 10
1255.1401579999999
 20
1244.826182
 30
0.0
  0
POINT
  5
7B3A
  8
DEFPOINTS
  6
CONTINUOUS
 62
     0
 10
1755.1401579999999
 20
1244.826182
 30
0.0
  0
POINT
  5
7B3B
  8
DEFPOINTS
  6
CONTINUOUS
 62
     0
 10
1755.1401579999999
 20
1600.235848
 30
0.0
  0
ENDBLK
  5
7AB2
  8
0
  0
BLOCK
  8
0
  2
*D6
 70
     1
 10
0.0
 20
0.0
 30
0.0
  3
*D6
  1

  0
LINE
  5
7B3C
  8
3
  6
CONTINUOUS
 62
     0
 10
944.48581799999999
 20
944.82618200000002
 30
0.0
 11
1057.4241770000001
 21
944.82618200000002
 31
0.0
  0
LINE
  5
7B3D
  8
3
  6
CONTINUOUS
 62
     0
 10
1012.532724
 20
1244.826182
 30
0.0
 11
1057.4241770000001
 21
1244.826182
 31
0.0
  0
LINE
  5
7B3E
  8
3
  6
CONTINUOUS
 62
     0
 10
1047.4241770000001
 20
964.82618200000002
 30
0.0
 11
1047.4241770000001
 21
1224.826182
 31
0.0
  0
INSERT
  5
7B3F
  8
3
  6
CONTINUOUS
 62
     0
  2
_OPEN
 10
1047.4241770000001
 20
944.82618200000002
 30
0.0
 41
20.0
 42
20.0
 43
20.0
 50
270.0
  0
INSERT
  5
7B40
  8
3
  6
CONTINUOUS
 62
     0
  2
_OPEN
 10
1047.4241770000001
 20
1244.826182
 30
0.0
 41
20.0
 42
20.0
 43
20.0
 50
90.0
  0
TEXT
  8
3
  40
30
  5
7B4A
  62
0
  72
0
  71
0
 10
962.424
 20
1045.62
 30
0.000000
  1
300
  0
POINT
  5
7B42
  8
DEFPOINTS
  6
CONTINUOUS
 62
     0
 10
939.48581799999988
 20
944.82618200000002
 30
0.0
  0
POINT
  5
7B43
  8
DEFPOINTS
  6
CONTINUOUS
 62
     0
 10
1007.532724
 20
1244.826182
 30
0.0
  0
POINT
  5
7B44
  8
DEFPOINTS
  6
CONTINUOUS
 62
     0
 10
1047.4241770000001
 20
1244.826182
 30
0.0
  0
ENDBLK
  5
7AD5
  8
0
  0
ENDSEC
  0
SECTION
  2
ENTITIES
  0
LINE
  5
7A25
  8
1
  6
CONTINUOUS
 10
335.48581799999988
 20
1141.748540999999
 30
0.0
 11
335.48581799999988
 21
944.82618200000002
 31
0.0
  0
LINE
  5
7A26
  8
1
  6
CONTINUOUS
 10
939.48581799999988
 20
1141.748540999999
 30
0.0
 11
939.48581799999988
 21
944.82618200000002
 31
0.0
  0
LINE
  5
7A27
  8
1
  6
CONTINUOUS
 10
332.48581799999999
 20
1494.826182
 30
0.0
 11
332.48581799999999
 21
994.82618200000002
 31
0.0
  0
LINE
  5
7A28
  8
1
  6
CONTINUOUS
 10
942.48581799999988
 20
1494.826182
 30
0.0
 11
942.48581799999988
 21
994.82618200000002
 31
0.0
  0
LINE
  5
7A29
  8
1
  6
CONTINUOUS
 10
444.98581799999988
 20
1029.826182
 30
0.0
 11
457.48581799999988
 21
1100.826182
 31
0.0
  0
LINE
  5
7A2A
  8
1
  6
CONTINUOUS
 10
382.48581799999999
 20
1100.826182
 30
0.0
 11
394.98581799999999
 21
1029.826182
 31
0.0
  0
LINE
  5
7A2B
  8
1
  6
CONTINUOUS
 10
939.48581799999988
 20
944.82618200000002
 30
0.0
 11
335.48581799999988
 21
944.82618200000002
 31
0.0
  0
LINE
  5
7A2C
  8
1
  6
CONTINUOUS
 10
942.48581799999988
 20
1019.826182
 30
0.0
 11
332.48581799999999
 21
1019.826182
 31
0.0
  0
LINE
  5
7A2D
  8
1
  6
CONTINUOUS
 10
394.98581799999999
 20
1029.826182
 30
0.0
 11
444.98581799999988
 21
1029.826182
 31
0.0
  0
LINE
  5
7A2E
  8
2
  6
CENTER
 10
207.48581799999999
 20
1244.826182
 30
0.0
 11
1007.532724
 21
1244.826182
 31
0.0
  0
LINE
  5
7A2F
  8
1
  6
CONTINUOUS
 10
942.48581799999988
 20
1469.826182
 30
0.0
 11
332.48581799999999
 21
1469.826182
 31
0.0
  0
LINE
  5
7A30
  8
1
  6
CONTINUOUS
 10
444.98581799999988
 20
1459.826182
 30
0.0
 11
457.48581799999988
 21
1388.826182
 31
0.0
  0
LINE
  5
7A31
  8
1
  6
CONTINUOUS
 10
382.48581799999999
 20
1388.826182
 30
0.0
 11
394.98581799999999
 21
1459.826182
 31
0.0
  0
LINE
  5
7A32
  8
1
  6
CONTINUOUS
 10
394.98581799999999
 20
1459.826182
 30
0.0
 11
444.98581799999988
 21
1459.826182
 31
0.0
  0
LINE
  5
7A33
  8
1
  6
CONTINUOUS
 10
382.48581799999999
 20
1100.826182
 30
0.0
 11
457.48581799999988
 21
1100.826182
 31
0.0
  0
LINE
  5
7A34
  8
1
  6
CONTINUOUS
 10
382.48581799999999
 20
1388.826182
 30
0.0
 11
457.48581799999988
 21
1388.826182
 31
0.0
  0
LINE
  5
7A35
  8
1
  6
CONTINUOUS
 10
457.48581799999988
 20
1388.826182
 30
0.0
 11
457.48581799999988
 21
1100.826182
 31
0.0
  0
LINE
  5
7A36
  8
1
  6
CONTINUOUS
 10
382.48581799999999
 20
1388.826182
 30
0.0
 11
382.48581799999999
 21
1100.826182
 31
0.0
  0
LINE
  5
7A37
  8
4
  6
CONTINUOUS
 10
433.20640800000001
 20
1833.590338
 30
0.0
 11
653.93521199999998
 21
1833.590338
 31
0.0
  0
LINE
  5
7A38
  8
4
  6
CONTINUOUS
 10
433.20640800000001
 20
1833.590338
 30
0.0
 11
483.20640800000001
 21
1808.590338
 31
0.0
  0
LINE
  5
7A39
  8
4
  6
CONTINUOUS
 10
433.20640800000001
 20
1833.590338
 30
0.0
 11
483.20640800000001
 21
1858.590338
 31
0.0
  0
LINE
  5
7A3A
  8
1
  6
CONTINUOUS
 10
1705.1401579999999
 20
944.82618200000002
 30
0.0
 11
1705.1401579999999
 21
1094.826182
 31
0.0
  0
LINE
  5
7A3B
  8
1
  6
CONTINUOUS
 10
1305.1401579999999
 20
944.82618200000002
 30
0.0
 11
1305.1401579999999
 21
1094.826182
 31
0.0
  0
LINE
  5
7A3C
  8
2
  6
CENTER
 10
1505.1401579999999
 20
989.82618200000002
 30
0.0
 11
1505.1401579999999
 21
1499.826182
 31
0.0
  0
CIRCLE
  5
7A3D
  8
1
  6
CONTINUOUS
 10
1505.1401579999999
 20
1244.826182
 30
0.0
 40
250.0
  0
CIRCLE
  5
7A3E
  8
1
  6
CONTINUOUS
 10
1505.1401579999999
 20
1244.826182
 30
0.0
 40
225.0
  0
LINE
  5
7A3F
  8
1
  6
CONTINUOUS
 10
1305.1401579999999
 20
944.82618200000002
 30
0.0
 11
1705.1401579999999
 21
944.82618200000002
 31
0.0
  0
CIRCLE
  5
7A40
  8
1
  6
CONTINUOUS
 10
1505.1401579999999
 20
1244.826182
 30
0.0
 40
125.0
  0
LINE
  5
7A41
  8
2
  6
CENTER
 10
1250.1401579999999
 20
1244.826182
 30
0.0
 11
1760.1401579999999
 21
1244.826182
 31
0.0
  0
DIMENSION
  5
7A55
  8
3
  6
CONTINUOUS
  2
*D1
 10
942.48581799999988
 20
1611.3679269999991
 30
0.0
 11
621.02158599999996
 21
1611.3679269999991
 31
0.0
 70
   128
 13
332.48581799999999
 23
1494.826182
 33
0.0
 14
942.48581799999988
 24
1494.826182
 34
0.0
1001
ACAD
1000
DSTYLE
1002
{
1070
   287
1070
     3
1070
    40
1040
10.0
1070
   143
1040
0.039
1070
   172
1070
     1
1070
   271
1070
     0
1070
   279
1070
     0
1070
   288
1070
     1
1002
}
  0
LINE
  5
7A61
  8
4
  6
CONTINUOUS
 10
1850.0
 20
500.0
 30
0.0
 11
1850.0
 21
300.0
 31
0.0
  0
LINE
  5
7A62
  8
4
  6
CONTINUOUS
 10
1150.0
 20
500.0
 30
0.0
 11
1150.0
 21
300.0
 31
0.0
  0
LINE
  5
7A63
  8
4
  6
CONTINUOUS
 10
650.0
 20
500.0
 30
0.0
 11
650.0
 21
300.0
 31
0.0
  0
LINE
  5
7A66
  8
4
  6
CONTINUOUS
 10
650.0
 20
300.0
 30
0.0
 11
1850.0
 21
300.0
 31
0.0
  0
LINE
  5
7A67
  8
4
  6
CONTINUOUS
 10
650.0
 20
400.0
 30
0.0
 11
1850.0
 21
400.0
 31
0.0
  0
TEXT
  5
7A68
  8
4
  6
CONTINUOUS
 10
688.50208099999998
 20
431.543026
 30
0.0
 40
50.0
  1
機器名称
  0
TEXT
  5
7A69
  8
4
  6
CONTINUOUS
 10
686.258106
 20
321.64515699999993
 30
0.0
 40
50.0
  1
機器型番
  0
TEXT
  5
7A6A
  8
4
  6
CONTINUOUS
 10
1177.678744999999
 20
422.57176900000002
 30
0.0
 40
50.0
  1
ミツヤ軸流排煙ファン
  0
TEXT
  5
7A6B
  8
4
  6
CONTINUOUS
 10
1186.6544960000001
 20
317.159584
 30
0.0
 40
50.0
  1
APE#450-1M
  0
TEXT
  5
7A6D
  8
4
  6
CONTINUOUS
 10
904.78576499999997
 20
2383.4288409999999
 30
0.0
 40
54.0
  1
床置ベット
  0
TEXT
  5
7A6E
  8
4
  6
CONTINUOUS
 10
316.16759300000001
 20
2533.8809759999999
 30
0.0
 40
72.0
  1
電動機直動横形軸流式排煙ファン
  0
LINE
  5
7A6F
  8
4
  6
CONTINUOUS
 10
250.0
 20
2469.408754
 30
0.0
 11
1850.0
 21
2469.408754
 31
0.0
  0
LINE
  5
7A70
  8
4
  6
CONTINUOUS
 10
250.0
 20
2669.408754
 30
0.0
 11
1850.0
 21
2669.408754
 31
0.0
  0
LINE
  5
7A71
  8
4
  6
CONTINUOUS
 10
650.0
 20
500.0
 30
0.0
 11
1850.0
 21
500.0
 31
0.0
  0
LINE
  5
7A72
  8
4
  6
CONTINUOUS
 10
250.0
 20
2669.408754
 30
0.0
 11
250.0
 21
2469.408754
 31
0.0
  0
TEXT
  5
7A73
  8
4
  6
CONTINUOUS
 10
374.24203199999988
 20
2382.3194779999999
 30
0.0
 40
54.0
  1
左回転前方吐出
  0
TEXT
  5
7A74
  8
4
  6
CONTINUOUS
 10
1468.9695589999999
 20
2706.0610809999998
 30
0.0
 40
56.0
  1
No.
  0
TEXT
  5
7A75
  8
4
  6
CONTINUOUS
 10
1311.296063
 20
2383.4288409999999
 30
0.0
 40
54.0
  1
縮尺：1/10
  0
LINE
  5
7A76
  8
4
  6
CONTINUOUS
 10
1850.0
 20
2669.408754
 30
0.0
 11
1850.0
 21
2469.408754
 31
0.0
  0
LINE
  5
7A78
  8
4
  6
CONTINUOUS
 10
1440.617422
 20
2681.2635829999999
 30
0.0
 11
1440.617422
 21
2786.6522620000001
 31
0.0
  0
LINE
  5
7A79
  8
4
  6
CONTINUOUS
 10
1440.617422
 20
2786.6522620000001
 30
0.0
 11
1850.0
 21
2786.6522620000001
 31
0.0
  0
LINE
  5
7A7A
  8
4
  6
CONTINUOUS
 10
1850.0
 20
2786.6522620000001
 30
0.0
 11
1850.0
 21
2681.2635829999999
 31
0.0
  0
LINE
  5
7A7B
  8
4
  6
CONTINUOUS
 10
1850.0
 20
2681.2635829999999
 30
0.0
 11
1440.617422
 21
2681.2635829999999
 31
0.0
  0
DIMENSION
  5
7A8C
  8
3
  6
CONTINUOUS
  2
*D2
 10
181.01525600000011
 20
1019.826182
 30
0.0
 11
181.01525599999991
 21
1232.8773590000001
 31
0.0
 70
   128
 13
332.48581799999999
 23
1469.826182
 33
0.0
 14
335.48581799999988
 24
1019.826182
 34
0.0
 50
90.0
1001
ACAD
1000
DSTYLE
1002
{
1070
   287
1070
     3
1070
    40
1040
10.0
1070
   143
1040
0.039
1070
   172
1070
     1
1070
   271
1070
     0
1070
   279
1070
     0
1070
   288
1070
     1
1002
}
  0
DIMENSION
  5
7A99
  8
3
  6
CONTINUOUS
  2
*D3
 10
1705.1401579999999
 20
859.95282799999995
 30
0.0
 11
1501.034234
 21
859.95282799999995
 31
0.0
 70
   128
 13
1305.1401579999999
 23
944.82618200000002
 33
0.0
 14
1705.1401579999999
 24
944.82618200000002
 34
0.0
1001
ACAD
1000
DSTYLE
1002
{
1070
   287
1070
     3
1070
    40
1040
10.0
1070
   143
1040
0.039
1070
   172
1070
     1
1070
   271
1070
     0
1070
   279
1070
     0
1070
   288
1070
     1
1002
}
  0
DIMENSION
  5
7AA6
  8
3
  6
CONTINUOUS
  2
*D4
 10
1139.0037130000001
 20
944.82618200000002
 30
0.0
 11
1139.0037130000001
 21
1227.3113229999999
 31
0.0
 70
   128
 13
942.48581799999988
 23
1499.826182
 33
0.0
 14
939.48581799999988
 24
944.82618200000002
 34
0.0
 50
90.0
1001
ACAD
1000
DSTYLE
1002
{
1070
   287
1070
     3
1070
    40
1040
10.0
1070
   143
1040
0.039
1070
   172
1070
     1
1070
   271
1070
     0
1070
   279
1070
     0
1070
   288
1070
     1
1002
}
  0
DIMENSION
  5
7AB3
  8
3
  6
CONTINUOUS
  2
*D5
 10
1755.1401579999999
 20
1600.235848
 30
0.0
 11
1489.8948289999989
 21
1600.235848
 31
0.0
 70
   128
 13
1255.1401579999999
 23
1244.826182
 33
0.0
 14
1755.1401579999999
 24
1244.826182
 34
0.0
1001
ACAD
1000
DSTYLE
1002
{
1070
   287
1070
     3
1070
    40
1040
10.0
1070
   143
1040
0.039
1070
   172
1070
     1
1070
   271
1070
     0
1070
   279
1070
     0
1070
   288
1070
     1
1002
}
  0
DIMENSION
  5
7AD6
  8
3
  6
CONTINUOUS
  2
*D6
 10
1047.4241770000001
 20
1244.826182
 30
0.0
 11
1047.424176999999
 21
1098.720098
 31
0.0
 70
   128
 13
939.48581799999988
 23
944.82618200000002
 33
0.0
 14
1007.532724
 24
1244.826182
 34
0.0
 50
90.0
1001
ACAD
1000
DSTYLE
1002
{
1070
   287
1070
     3
1070
    40
1040
10.0
1070
   143
1040
0.039
1070
   172
1070
     1
1070
   271
1070
     0
1070
   279
1070
     0
1070
   288
1070
     1
1002
}
  0
ENDSEC
  0
EOF
