  0
SECTION
  2
HEADER
  9
$ACADVER
  1
AC1009
  9
$INSBASE
 10
0.0
 20
0.0
 30
0.0
  9
$EXTMIN
 10
216.8228739999999
 20
300.0
 30
0.0
  9
$EXTMAX
 10
1850.0
 20
2786.6522620000001
 30
0.0
  9
$LIMMIN
 10
0.0
 20
0.0
  9
$LIMMAX
 10
297.0
 20
210.0
  9
$ORTHOMODE
 70
     0
  9
$REGENMODE
 70
     1
  9
$FILLMODE
 70
     0
  9
$QTEXTMODE
 70
     0
  9
$MIRRTEXT
 70
     1
  9
$DRAGMODE
 70
     2
  9
$LTSCALE
 40
100.0
  9
$OSMODE
 70
    37
  9
$ATTMODE
 70
     1
  9
$TEXTSIZE
 40
180.0
  9
$TRACEWID
 40
0.05
  9
$TEXTSTYLE
  7
STANDARD
  9
$CLAYER
  8
3
  9
$CELTYPE
  6
BYLAYER
  9
$CECOLOR
 62
   256
  9
$DIMSCALE
 40
10.0
  9
$DIMASZ
 40
2.0
  9
$DIMEXO
 40
0.5
  9
$DIMDLI
 40
10.0
  9
$DIMRND
 40
0.0
  9
$DIMDLE
 40
0.0
  9
$DIMEXE
 40
1.0
  9
$DIMTP
 40
1.0
  9
$DIMTM
 40
1.0
  9
$DIMTXT
 40
3.0
  9
$DIMCEN
 40
0.0
  9
$DIMTSZ
 40
0.0
  9
$DIMTOL
 70
     0
  9
$DIMLIM
 70
     0
  9
$DIMTIH
 70
     0
  9
$DIMTOH
 70
     0
  9
$DIMSE1
 70
     0
  9
$DIMSE2
 70
     0
  9
$DIMTAD
 70
     1
  9
$DIMZIN
 70
     8
  9
$DIMBLK
  1

  9
$DIMASO
 70
     1
  9
$DIMSHO
 70
     1
  9
$DIMPOST
  1

  9
$DIMAPOST
  1

  9
$DIMALT
 70
     0
  9
$DIMALTD
 70
     2
  9
$DIMALTF
 40
0.039
  9
$DIMLFAC
 40
1.0
  9
$DIMTOFL
 70
     1
  9
$DIMTVP
 40
0.0
  9
$DIMTIX
 70
     0
  9
$DIMSOXD
 70
     0
  9
$DIMSAH
 70
     1
  9
$DIMBLK1
  1
OPEN
  9
$DIMBLK2
  1
OPEN
  9
$DIMSTYLE
  2
IGA
  9
$DIMCLRD
 70
     0
  9
$DIMCLRE
 70
     0
  9
$DIMCLRT
 70
     0
  9
$DIMTFAC
 40
10.0
  9
$DIMGAP
 40
1.0
  9
$LUNITS
 70
     2
  9
$LUPREC
 70
     3
  9
$SKETCHINC
 40
0.1
  9
$FILLETRAD
 40
50.0
  9
$AUNITS
 70
     0
  9
$AUPREC
 70
     0
  9
$MENU
  1
acad
  9
$ELEVATION
 40
0.0
  9
$PELEVATION
 40
0.0
  9
$THICKNESS
 40
0.0
  9
$LIMCHECK
 70
     0
  9
$BLIPMODE
 70
     0
  9
$CHAMFERA
 40
0.5
  9
$CHAMFERB
 40
0.5
  9
$SKPOLY
 70
     0
  9
$TDCREATE
 40
2450778.577717592
  9
$TDUPDATE
 40
2454953.6346932859
  9
$TDINDWG
 40
0.0022498148
  9
$TDUSRTIMER
 40
0.0022498148
  9
$USRTIMER
 70
     1
  9
$ANGBASE
 50
0.0
  9
$ANGDIR
 70
     0
  9
$PDMODE
 70
     0
  9
$PDSIZE
 40
0.0
  9
$PLINEWID
 40
0.0
  9
$COORDS
 70
     1
  9
$SPLFRAME
 70
     0
  9
$SPLINETYPE
 70
     6
  9
$SPLINESEGS
 70
     8
  9
$ATTDIA
 70
     0
  9
$ATTREQ
 70
     1
  9
$HANDLING
 70
 10241
  9
$HANDSEED
  5
7B98
  9
$SURFTAB1
 70
     6
  9
$SURFTAB2
 70
     6
  9
$SURFTYPE
 70
     6
  9
$SURFU
 70
     6
  9
$SURFV
 70
     6
  9
$UCSNAME
  2

  9
$UCSORG
 10
0.0
 20
0.0
 30
0.0
  9
$UCSXDIR
 10
1.0
 20
0.0
 30
0.0
  9
$UCSYDIR
 10
0.0
 20
1.0
 30
0.0
  9
$PUCSNAME
  2

  9
$PUCSORG
 10
0.0
 20
0.0
 30
0.0
  9
$PUCSXDIR
 10
1.0
 20
0.0
 30
0.0
  9
$PUCSYDIR
 10
0.0
 20
1.0
 30
0.0
  9
$USERI1
 70
     0
  9
$USERI2
 70
     0
  9
$USERI3
 70
     0
  9
$USERI4
 70
     0
  9
$USERI5
 70
     0
  9
$USERR1
 40
0.0
  9
$USERR2
 40
0.0
  9
$USERR3
 40
0.0
  9
$USERR4
 40
0.0
  9
$USERR5
 40
0.0
  9
$WORLDVIEW
 70
     1
  9
$SHADEDGE
 70
     3
  9
$SHADEDIF
 70
    70
  9
$TILEMODE
 70
     1
  9
$MAXACTVP
 70
    16
  9
$PLIMCHECK
 70
     0
  9
$PEXTMIN
 10
1.0000000000000000E+020
 20
1.0000000000000000E+020
 30
1.0000000000000000E+020
  9
$PEXTMAX
 10
-1.0000000000000000E+020
 20
-1.0000000000000000E+020
 30
-1.0000000000000000E+020
  9
$PLIMMIN
 10
0.0
 20
0.0
  9
$PLIMMAX
 10
12.0
 20
9.0
  9
$UNITMODE
 70
     0
  9
$VISRETAIN
 70
     0
  9
$PLINEGEN
 70
     0
  9
$PSLTSCALE
 70
     1
  0
ENDSEC
  0
SECTION
  2
TABLES
  0
TABLE
  2
VPORT
 70
     2
  0
VPORT
  2
*ACTIVE
 70
     0
 10
0.0
 20
0.0
 11
1.0
 21
1.0
 12
1939.1545608270951
 22
346.49197110622288
 13
0.0
 23
0.0
 14
10.0
 24
10.0
 15
10.0
 25
10.0
 16
0.0
 26
0.0
 36
1.0
 17
0.0
 27
0.0
 37
0.0
 40
842.29902405082805
 41
3.1666666666666661
 42
50.0
 43
0.0
 44
0.0
 50
0.0
 51
0.0
 71
     0
 72
   100
 73
     1
 74
     0
 75
     0
 76
     0
 77
     0
 78
     0
  0
ENDTAB
  0
TABLE
  2
LTYPE
 70
     2
  0
LTYPE
  2
CONTINUOUS
 70
     0
  3
Solid line
 72
    65
 73
     0
 40
0.0
  0
LTYPE
  2
CENTER
 70
     0
  3
____ _ ____ _ ____ _ ____ _ ____ _ ____ _ ____ 
 72
    65
 73
     4
 40
2.0
 49
1.25
 49
-0.25
 49
0.25
 49
-0.25
  0
ENDTAB
  0
TABLE
  2
LAYER
 70
     6
  0
LAYER
  2
0
 70
     0
 62
     7
  6
CONTINUOUS
  0
LAYER
  2
3
 70
     0
 62
     2
  6
CONTINUOUS
  0
LAYER
  2
2
 70
     0
 62
     3
  6
CENTER
  0
LAYER
  2
1
 70
     0
 62
     4
  6
CONTINUOUS
  0
LAYER
  2
4
 70
     0
 62
     7
  6
CONTINUOUS
  0
LAYER
  2
DEFPOINTS
 70
     0
 62
     7
  6
CONTINUOUS
  0
ENDTAB
  0
TABLE
  2
STYLE
 70
     1
  0
STYLE
  2
STANDARD
 70
     0
 40
0.0
 41
1.0
 50
0.0
 71
     0
 42
180.0
  3
simplex.shx
  4
extfont.shx
  0
ENDTAB
  0
TABLE
  2
VIEW
 70
     0
  0
ENDTAB
  0
TABLE
  2
UCS
 70
     0
  0
ENDTAB
  0
TABLE
  2
APPID
 70
     1
  0
APPID
  2
ACAD
 70
     0
  0
ENDTAB
  0
TABLE
  2
DIMSTYLE
 70
     1
  0
DIMSTYLE
  2
IGA
 70
     0
  3

  4

  5

  6
OPEN
  7
OPEN
 40
2.0
 41
2.0
 42
0.5
 43
10.0
 44
1.0
 45
0.0
 46
0.0
 47
1.0
 48
1.0
140
3.0
141
0.0
142
0.0
143
0.03937
144
1.0
145
0.0
146
10.0
147
1.0
 71
     0
 72
     0
 73
     0
 74
     0
 75
     0
 76
     0
 77
     1
 78
     8
170
     0
171
     2
172
     0
173
     1
174
     0
175
     0
176
     0
177
     0
178
     0
  0
ENDTAB
  0
ENDSEC
  0
SECTION
  2
BLOCKS
  0
BLOCK
  8
0
  2
$MODEL_SPACE
 70
     0
 10
0.0
 20
0.0
 30
0.0
  3
$MODEL_SPACE
  1

  0
ENDBLK
  5
1B
  8
0
  0
BLOCK
 67
     1
  8
0
  2
$PAPER_SPACE
 70
     0
 10
0.0
 20
0.0
 30
0.0
  3
$PAPER_SPACE
  1

  0
ENDBLK
  5
18
 67
     1
  8
0
  0
BLOCK
  8
0
  2
_OPEN
 70
     0
 10
0.0
 20
0.0
 30
0.0
  3
_OPEN
  1

  0
LINE
  5
7A44
  8
0
  6
BYBLOCK
 62
     0
 10
-1.0
 20
0.166667
 30
0.0
 11
0.0
 21
0.0
 31
0.0
  0
LINE
  5
7A45
  8
0
  6
BYBLOCK
 62
     0
 10
0.0
 20
0.0
 30
0.0
 11
-1.0
 21
-0.166667
 31
0.0
  0
LINE
  5
7A46
  8
0
  6
BYBLOCK
 62
     0
 10
0.0
 20
0.0
 30
0.0
 11
-1.0
 21
0.0
 31
0.0
  0
ENDBLK
  5
7A47
  8
0
  0
BLOCK
  8
0
  2
*D1
 70
     1
 10
0.0
 20
0.0
 30
0.0
  3
*D1
  1

  0
LINE
  5
7B70
  8
3
  6
CONTINUOUS
 62
     0
 10
341.8228739999999
 20
1554.703964
 30
0.0
 11
341.8228739999999
 21
1701.230364999999
 31
0.0
  0
LINE
  5
7B71
  8
3
  6
CONTINUOUS
 62
     0
 10
951.82287400000007
 20
1554.703964
 30
0.0
 11
951.82287400000007
 21
1701.230364999999
 31
0.0
  0
LINE
  5
7B72
  8
3
  6
CONTINUOUS
 62
     0
 10
361.82287400000001
 20
1691.2303649999999
 30
0.0
 11
931.82287399999996
 21
1691.2303649999999
 31
0.0
  0
INSERT
  5
7B73
  8
3
  6
CONTINUOUS
 62
     0
  2
_OPEN
 10
341.8228739999999
 20
1691.2303649999999
 30
0.0
 41
20.0
 42
20.0
 43
20.0
 50
180.0
  0
INSERT
  5
7B74
  8
3
  6
CONTINUOUS
 62
     0
  2
_OPEN
 10
951.82287400000007
 20
1691.2303649999999
 30
0.0
 41
20.0
 42
20.0
 43
20.0
  0
TEXT
  8
3
  40
30
  5
7B94
  62
0
  72
0
  71
0
 10
550.445
 20
1663.13
 30
0.000000
  1
610
  0
POINT
  5
7B76
  8
DEFPOINTS
  6
CONTINUOUS
 62
     0
 10
341.8228739999999
 20
1549.703964
 30
0.0
  0
POINT
  5
7B77
  8
DEFPOINTS
  6
CONTINUOUS
 62
     0
 10
951.82287400000007
 20
1549.703964
 30
0.0
  0
POINT
  5
7B78
  8
DEFPOINTS
  6
CONTINUOUS
 62
     0
 10
951.82287400000007
 20
1691.2303649999999
 30
0.0
  0
ENDBLK
  5
7B0D
  8
0
  0
BLOCK
  8
0
  2
*D2
 70
     1
 10
0.0
 20
0.0
 30
0.0
  3
*D2
  1

  0
LINE
  5
7B79
  8
3
  6
CONTINUOUS
 62
     0
 10
956.82287399999996
 20
1554.703964
 30
0.0
 11
1176.8000380000001
 21
1554.703964
 31
0.0
  0
LINE
  5
7B7A
  8
3
  6
CONTINUOUS
 62
     0
 10
956.82287399999996
 20
1049.703964
 30
0.0
 11
1176.8000380000001
 21
1049.703964
 31
0.0
  0
LINE
  5
7B7B
  8
3
  6
CONTINUOUS
 62
     0
 10
1166.8000380000001
 20
1534.703964
 30
0.0
 11
1166.8000380000001
 21
1069.703964
 31
0.0
  0
INSERT
  5
7B7C
  8
3
  6
CONTINUOUS
 62
     0
  2
_OPEN
 10
1166.8000380000001
 20
1554.703964
 30
0.0
 41
20.0
 42
20.0
 43
20.0
 50
90.0
  0
INSERT
  5
7B7D
  8
3
  6
CONTINUOUS
 62
     0
  2
_OPEN
 10
1166.8000380000001
 20
1049.703964
 30
0.0
 41
20.0
 42
20.0
 43
20.0
 50
270.0
  0
TEXT
  8
3
  40
30
  5
7B95
  62
0
  72
0
  71
0
 10
1081.80
 20
1241.71
 30
0.000000
  1
505
  0
POINT
  5
7B7F
  8
DEFPOINTS
  6
CONTINUOUS
 62
     0
 10
951.82287400000007
 20
1554.703964
 30
0.0
  0
POINT
  5
7B80
  8
DEFPOINTS
  6
CONTINUOUS
 62
     0
 10
951.82287400000007
 20
1049.703964
 30
0.0
  0
POINT
  5
7B81
  8
DEFPOINTS
  6
CONTINUOUS
 62
     0
 10
1166.8000380000001
 20
1049.703964
 30
0.0
  0
ENDBLK
  5
7B27
  8
0
  0
BLOCK
  8
0
  2
*D3
 70
     1
 10
0.0
 20
0.0
 30
0.0
  3
*D3
  1

  0
LINE
  5
7B82
  8
3
  6
CONTINUOUS
 62
     0
 10
956.82287399999996
 20
1524.703964
 30
0.0
 11
1073.7713309999999
 21
1524.703964
 31
0.0
  0
LINE
  5
7B83
  8
3
  6
CONTINUOUS
 62
     0
 10
956.82287399999996
 20
1074.703964
 30
0.0
 11
1073.7713309999999
 21
1074.703964
 31
0.0
  0
LINE
  5
7B84
  8
3
  6
CONTINUOUS
 62
     0
 10
1063.7713309999999
 20
1504.703964
 30
0.0
 11
1063.7713309999999
 21
1094.703964
 31
0.0
  0
INSERT
  5
7B85
  8
3
  6
CONTINUOUS
 62
     0
  2
_OPEN
 10
1063.7713309999999
 20
1524.703964
 30
0.0
 41
20.0
 42
20.0
 43
20.0
 50
90.0
  0
INSERT
  5
7B86
  8
3
  6
CONTINUOUS
 62
     0
  2
_OPEN
 10
1063.7713309999999
 20
1074.703964
 30
0.0
 41
20.0
 42
20.0
 43
20.0
 50
270.0
  0
TEXT
  8
3
  40
30
  5
7B96
  62
0
  72
0
  71
0
 10
978.771
 20
1241.71
 30
0.000000
  1
450
  0
POINT
  5
7B88
  8
DEFPOINTS
  6
CONTINUOUS
 62
     0
 10
951.82287400000007
 20
1524.703964
 30
0.0
  0
POINT
  5
7B89
  8
DEFPOINTS
  6
CONTINUOUS
 62
     0
 10
951.82287400000007
 20
1074.703964
 30
0.0
  0
POINT
  5
7B8A
  8
DEFPOINTS
  6
CONTINUOUS
 62
     0
 10
1063.7713309999999
 20
1074.703964
 30
0.0
  0
ENDBLK
  5
7B34
  8
0
  0
BLOCK
  8
0
  2
*D4
 70
     1
 10
0.0
 20
0.0
 30
0.0
  3
*D4
  1

  0
LINE
  5
7B8B
  8
3
  6
CONTINUOUS
 62
     0
 10
1224.809735
 20
1317.203964
 30
0.0
 11
1224.809735
 21
1685.7853389999991
 31
0.0
  0
LINE
  5
7B8C
  8
3
  6
CONTINUOUS
 62
     0
 10
1814.809735
 20
1317.203964
 30
0.0
 11
1814.809735
 21
1685.7853389999991
 31
0.0
  0
LINE
  5
7B8D
  8
3
  6
CONTINUOUS
 62
     0
 10
1244.809735
 20
1675.785339
 30
0.0
 11
1794.809735
 21
1675.785339
 31
0.0
  0
INSERT
  5
7B8E
  8
3
  6
CONTINUOUS
 62
     0
  2
_OPEN
 10
1224.809735
 20
1675.785339
 30
0.0
 41
20.0
 42
20.0
 43
20.0
 50
180.0
  0
INSERT
  5
7B8F
  8
3
  6
CONTINUOUS
 62
     0
  2
_OPEN
 10
1814.809735
 20
1675.785339
 30
0.0
 41
20.0
 42
20.0
 43
20.0
  0
TEXT
  8
3
  40
30
  5
7B97
  62
0
  72
0
  71
0
 10
1457.10
 20
1647.69
 30
0.000000
  1
590
  0
POINT
  5
7B91
  8
DEFPOINTS
  6
CONTINUOUS
 62
     0
 10
1224.809735
 20
1312.203964
 30
0.0
  0
POINT
  5
7B92
  8
DEFPOINTS
  6
CONTINUOUS
 62
     0
 10
1814.809735
 20
1312.203964
 30
0.0
  0
POINT
  5
7B93
  8
DEFPOINTS
  6
CONTINUOUS
 62
     0
 10
1814.809735
 20
1675.785339
 30
0.0
  0
ENDBLK
  5
7B41
  8
0
  0
ENDSEC
  0
SECTION
  2
ENTITIES
  0
LINE
  5
7A48
  8
4
  6
CONTINUOUS
 10
1850.0
 20
500.0
 30
0.0
 11
1850.0
 21
300.0
 31
0.0
  0
LINE
  5
7A49
  8
4
  6
CONTINUOUS
 10
1150.0
 20
500.0
 30
0.0
 11
1150.0
 21
300.0
 31
0.0
  0
LINE
  5
7A4A
  8
4
  6
CONTINUOUS
 10
650.0
 20
500.0
 30
0.0
 11
650.0
 21
300.0
 31
0.0
  0
LINE
  5
7A4D
  8
4
  6
CONTINUOUS
 10
650.0
 20
300.0
 30
0.0
 11
1850.0
 21
300.0
 31
0.0
  0
LINE
  5
7A4E
  8
4
  6
CONTINUOUS
 10
650.0
 20
400.0
 30
0.0
 11
1850.0
 21
400.0
 31
0.0
  0
TEXT
  5
7A4F
  8
4
  6
CONTINUOUS
 10
688.50208099999998
 20
431.543026
 30
0.0
 40
50.0
  1
機器名称
  0
TEXT
  5
7A50
  8
4
  6
CONTINUOUS
 10
686.258106
 20
321.64515699999993
 30
0.0
 40
50.0
  1
機器型番
  0
TEXT
  5
7A51
  8
4
  6
CONTINUOUS
 10
1177.678744999999
 20
422.57176900000002
 30
0.0
 40
50.0
  1
ミツヤ軸流排煙ファン
  0
TEXT
  5
7A52
  8
4
  6
CONTINUOUS
 10
1186.6544960000001
 20
317.159584
 30
0.0
 40
50.0
  1
APE#450-1M
  0
TEXT
  5
7A54
  8
4
  6
CONTINUOUS
 10
904.78576499999997
 20
2383.4288409999999
 30
0.0
 40
54.0
  1
天井吊形
  0
TEXT
  5
7A55
  8
4
  6
CONTINUOUS
 10
316.16759300000001
 20
2533.8809759999999
 30
0.0
 40
72.0
  1
電動機直動横形軸流式排煙ファン
  0
LINE
  5
7A56
  8
4
  6
CONTINUOUS
 10
250.0
 20
2469.408754
 30
0.0
 11
1850.0
 21
2469.408754
 31
0.0
  0
LINE
  5
7A57
  8
4
  6
CONTINUOUS
 10
250.0
 20
2669.408754
 30
0.0
 11
1850.0
 21
2669.408754
 31
0.0
  0
LINE
  5
7A58
  8
4
  6
CONTINUOUS
 10
650.0
 20
500.0
 30
0.0
 11
1850.0
 21
500.0
 31
0.0
  0
LINE
  5
7A59
  8
4
  6
CONTINUOUS
 10
250.0
 20
2669.408754
 30
0.0
 11
250.0
 21
2469.408754
 31
0.0
  0
TEXT
  5
7A5A
  8
4
  6
CONTINUOUS
 10
355.59536600000001
 20
2382.3194779999999
 30
0.0
 40
54.0
  1
左回転前方吐出
  0
TEXT
  5
7A5B
  8
4
  6
CONTINUOUS
 10
1468.9695589999999
 20
2706.0610809999998
 30
0.0
 40
56.0
  1
No.
  0
TEXT
  5
7A5C
  8
4
  6
CONTINUOUS
 10
1311.296063
 20
2383.4288409999999
 30
0.0
 40
54.0
  1
縮尺：1/10
  0
LINE
  5
7A5D
  8
4
  6
CONTINUOUS
 10
1850.0
 20
2669.408754
 30
0.0
 11
1850.0
 21
2469.408754
 31
0.0
  0
LINE
  5
7A5F
  8
4
  6
CONTINUOUS
 10
1440.617422
 20
2681.2635829999999
 30
0.0
 11
1440.617422
 21
2786.6522620000001
 31
0.0
  0
LINE
  5
7A60
  8
4
  6
CONTINUOUS
 10
1440.617422
 20
2786.6522620000001
 30
0.0
 11
1850.0
 21
2786.6522620000001
 31
0.0
  0
LINE
  5
7A61
  8
4
  6
CONTINUOUS
 10
1850.0
 20
2786.6522620000001
 30
0.0
 11
1850.0
 21
2681.2635829999999
 31
0.0
  0
LINE
  5
7A62
  8
4
  6
CONTINUOUS
 10
1850.0
 20
2681.2635829999999
 30
0.0
 11
1440.617422
 21
2681.2635829999999
 31
0.0
  0
LINE
  5
7AE5
  8
2
  6
CENTER
 10
216.8228739999999
 20
1299.703964
 30
0.0
 11
981.34837899999991
 21
1299.703964
 31
0.0
  0
LINE
  5
7AE6
  8
1
  6
CONTINUOUS
 10
951.82287400000007
 20
1524.703964
 30
0.0
 11
341.8228739999999
 21
1524.703964
 31
0.0
  0
LINE
  5
7AE7
  8
1
  6
CONTINUOUS
 10
951.82287400000007
 20
1074.703964
 30
0.0
 11
341.8228739999999
 21
1074.703964
 31
0.0
  0
LINE
  5
7AE8
  8
1
  6
CONTINUOUS
 10
391.82287400000001
 20
1155.703964
 30
0.0
 11
404.3228739999999
 21
1084.703964
 31
0.0
  0
LINE
  5
7AE9
  8
1
  6
CONTINUOUS
 10
454.3228739999999
 20
1084.703964
 30
0.0
 11
466.8228739999999
 21
1155.703964
 31
0.0
  0
LINE
  5
7AEA
  8
1
  6
CONTINUOUS
 10
341.8228739999999
 20
1549.703964
 30
0.0
 11
341.8228739999999
 21
1049.703964
 31
0.0
  0
LINE
  5
7AEB
  8
1
  6
CONTINUOUS
 10
404.3228739999999
 20
1084.703964
 30
0.0
 11
454.3228739999999
 21
1084.703964
 31
0.0
  0
LINE
  5
7AEC
  8
1
  6
CONTINUOUS
 10
391.82287400000001
 20
1443.703964
 30
0.0
 11
391.82287400000001
 21
1155.703964
 31
0.0
  0
LINE
  5
7AED
  8
1
  6
CONTINUOUS
 10
466.8228739999999
 20
1443.703964
 30
0.0
 11
466.8228739999999
 21
1155.703964
 31
0.0
  0
LINE
  5
7AEE
  8
1
  6
CONTINUOUS
 10
391.82287400000001
 20
1443.703964
 30
0.0
 11
466.8228739999999
 21
1443.703964
 31
0.0
  0
LINE
  5
7AEF
  8
1
  6
CONTINUOUS
 10
391.82287400000001
 20
1155.703964
 30
0.0
 11
466.8228739999999
 21
1155.703964
 31
0.0
  0
LINE
  5
7AF0
  8
1
  6
CONTINUOUS
 10
404.3228739999999
 20
1514.703964
 30
0.0
 11
454.3228739999999
 21
1514.703964
 31
0.0
  0
LINE
  5
7AF1
  8
1
  6
CONTINUOUS
 10
391.82287400000001
 20
1443.703964
 30
0.0
 11
404.3228739999999
 21
1514.703964
 31
0.0
  0
LINE
  5
7AF2
  8
1
  6
CONTINUOUS
 10
454.3228739999999
 20
1514.703964
 30
0.0
 11
466.8228739999999
 21
1443.703964
 31
0.0
  0
LINE
  5
7AF3
  8
1
  6
CONTINUOUS
 10
951.82287400000007
 20
1549.703964
 30
0.0
 11
951.82287400000007
 21
1049.703964
 31
0.0
  0
LINE
  5
7AF4
  8
0
  6
CONTINUOUS
 10
444.09809799999999
 20
1882.4829879999991
 30
0.0
 11
885.55570699999987
 21
1882.4829879999991
 31
0.0
  0
LINE
  5
7AF5
  8
0
  6
CONTINUOUS
 10
444.09809799999999
 20
1882.4829879999991
 30
0.0
 11
544.09809800000005
 21
1932.482988
 31
0.0
  0
LINE
  5
7AF6
  8
0
  6
CONTINUOUS
 10
444.09809799999999
 20
1882.4829879999991
 30
0.0
 11
544.09809800000005
 21
1832.4829879999991
 31
0.0
  0
CIRCLE
  5
7AF7
  8
1
  6
CONTINUOUS
 10
1519.809735
 20
1299.703964
 30
0.0
 40
225.0
  0
CIRCLE
  5
7AF8
  8
1
  6
CONTINUOUS
 10
1519.809735
 20
1299.703964
 30
0.0
 40
250.0
  0
LINE
  5
7AF9
  8
2
  6
CENTER
 10
1519.809735
 20
1044.7039639999989
 30
0.0
 11
1519.809735
 21
1554.703964
 31
0.0
  0
CIRCLE
  5
7AFA
  8
1
  6
CONTINUOUS
 10
1519.809735
 20
1299.703964
 30
0.0
 40
125.0
  0
LINE
  5
7AFB
  8
2
  6
CENTER
 10
1264.809735
 20
1299.703964
 30
0.0
 11
1774.809735
 21
1299.703964
 31
0.0
  0
LINE
  5
7AFC
  8
1
  6
CONTINUOUS
 10
1224.809735
 20
1287.203964
 30
0.0
 11
1224.809735
 21
1312.203964
 31
0.0
  0
LINE
  5
7AFD
  8
1
  6
CONTINUOUS
 10
1224.809735
 20
1287.203964
 30
0.0
 11
1270.122431
 21
1287.203964
 31
0.0
  0
LINE
  5
7AFE
  8
1
  6
CONTINUOUS
 10
1224.809735
 20
1312.203964
 30
0.0
 11
1270.122431
 21
1312.203964
 31
0.0
  0
LINE
  5
7AFF
  8
1
  6
CONTINUOUS
 10
1769.4970390000001
 20
1287.203964
 30
0.0
 11
1814.809735
 21
1287.203964
 31
0.0
  0
LINE
  5
7B00
  8
1
  6
CONTINUOUS
 10
1769.4970390000001
 20
1312.203964
 30
0.0
 11
1814.809735
 21
1312.203964
 31
0.0
  0
LINE
  5
7B01
  8
1
  6
CONTINUOUS
 10
1814.809735
 20
1287.203964
 30
0.0
 11
1814.809735
 21
1312.203964
 31
0.0
  0
DIMENSION
  5
7B0E
  8
3
  6
CONTINUOUS
  2
*D1
 10
951.82287400000007
 20
1691.2303649999999
 30
0.0
 11
610.44505199999992
 21
1691.2303649999999
 31
0.0
 70
   128
 13
341.8228739999999
 23
1549.703964
 33
0.0
 14
951.82287400000007
 24
1549.703964
 34
0.0
1001
ACAD
1000
DSTYLE
1002
{
1070
   287
1070
     3
1070
    40
1040
10.0
1070
   143
1040
0.039
1070
   172
1070
     1
1070
   271
1070
     0
1070
   279
1070
     0
1070
   288
1070
     1
1002
}
  0
DIMENSION
  5
7B28
  8
3
  6
CONTINUOUS
  2
*D2
 10
1166.8000380000001
 20
1049.703964
 30
0.0
 11
1166.8000380000001
 21
1294.8080289999989
 31
0.0
 70
   128
 13
951.82287400000007
 23
1554.703964
 33
0.0
 14
951.82287400000007
 24
1049.703964
 34
0.0
 50
90.0
1001
ACAD
1000
DSTYLE
1002
{
1070
   287
1070
     3
1070
    40
1040
10.0
1070
   143
1040
0.039
1070
   172
1070
     1
1070
   271
1070
     0
1070
   279
1070
     0
1070
   288
1070
     1
1002
}
  0
DIMENSION
  5
7B35
  8
3
  6
CONTINUOUS
  2
*D3
 10
1063.7713309999999
 20
1074.703964
 30
0.0
 11
1063.7713309999999
 21
1294.8080289999989
 31
0.0
 70
   128
 13
951.82287400000007
 23
1524.703964
 33
0.0
 14
951.82287400000007
 24
1074.703964
 34
0.0
 50
90.0
1001
ACAD
1000
DSTYLE
1002
{
1070
   287
1070
     3
1070
    40
1040
10.0
1070
   143
1040
0.039
1070
   172
1070
     1
1070
   271
1070
     0
1070
   279
1070
     0
1070
   288
1070
     1
1002
}
  0
DIMENSION
  5
7B42
  8
3
  6
CONTINUOUS
  2
*D4
 10
1814.809735
 20
1675.785339
 30
0.0
 11
1517.0976209999999
 21
1675.785339
 31
0.0
 70
   128
 13
1224.809735
 23
1312.203964
 33
0.0
 14
1814.809735
 24
1312.203964
 34
0.0
1001
ACAD
1000
DSTYLE
1002
{
1070
   287
1070
     3
1070
    40
1040
10.0
1070
   143
1040
0.039
1070
   172
1070
     1
1070
   271
1070
     0
1070
   279
1070
     0
1070
   288
1070
     1
1002
}
  0
ENDSEC
  0
EOF
